osu file format v14

[General]
AudioFilename: Renard - FULL TECHNO JACKASS - 32 Layers of Shit.mp3
AudioLeadIn: 0
PreviewTime: 20352
Countdown: 0
SampleSet: Soft
StackLeniency: 0.8
Mode: 0
LetterboxInBreaks: 0
WidescreenStoryboard: 1

[Editor]
DistanceSpacing: 1.5
BeatDivisor: 6
GridSize: 4
TimelineZoom: 1.4

[Metadata]
Title:Layers of Shit
TitleUnicode:Layers of Shit
Artist:Renard
ArtistUnicode:Renard
Creator:CptSqBany
Version:Insane
Source:
Tags:lapfox trax full techno Blue Dragon Nogard pishifat Sharkie jackass hardcore
BeatmapID:849092
BeatmapSetID:388852

[Difficulty]
HPDrainRate:6
CircleSize:3.8
OverallDifficulty:7.4
ApproachRate:9
SliderMultiplier:2
SliderTickRate:1

[Events]
//Background and Video events
0,0,"poop-on-a-rainbow.jpg",0,0
//Break Periods
//Storyboard Layer 0 (Background)
//Storyboard Layer 1 (Fail)
//Storyboard Layer 2 (Pass)
//Storyboard Layer 3 (Foreground)
//Storyboard Sound Samples

[TimingPoints]
490,413.793103448276,4,2,1,60,1,0
12490,-133.333333333333,4,2,1,60,0,0
12903,-100,4,2,1,60,0,0
19110,-133.333333333333,4,2,1,60,0,0
19524,-100,4,2,1,60,0,0
20352,-76.9230769230769,4,2,1,60,0,1
23662,-66.6666666666667,4,2,1,60,0,1
26558,-100,4,2,1,60,0,0
26972,-76.9230769230769,4,2,1,60,0,1
30283,-66.6666666666667,4,2,1,60,0,1
33179,-66.6666666666667,4,2,1,60,0,0

[Colours]
Combo1 : 112,56,16
Combo2 : 255,0,0
Combo3 : 255,128,0
Combo4 : 255,255,0
Combo5 : 0,255,0
Combo6 : 0,255,255
Combo7 : 0,128,255
Combo8 : 128,0,255

[HitObjects]
152,232,490,101,4,0:3:0:0:
368,80,903,1,0,1:3:0:0:
152,232,1317,1,4,0:3:0:0:
336,152,1593,1,4,0:3:0:0:
368,80,1731,1,0,1:3:0:0:
152,232,2145,5,4,0:3:0:0:
367,79,2558,1,0,1:3:0:0:
152,232,2972,2,0,L|184:152,1,66.6666666666667,4|4,0:3|0:3,0:0:0:0:
367,79,3248,2,0,L|342:140,1,66.6666666666667,4|0,0:3|1:3,0:0:0:0:
152,232,3800,101,4,0:3:0:0:
367,79,4214,1,0,1:3:0:0:
152,232,4627,1,4,0:3:0:0:
296,56,4903,1,4,0:3:0:0:
367,79,5041,1,0,1:3:0:0:
152,232,5455,5,4,0:3:0:0:
366,78,5869,1,0,1:3:0:0:
152,232,6283,1,4,0:3:0:0:
256,176,6421,2,0,L|248:80,1,66.6666666666667,4|4,0:3|0:3,0:0:0:0:
366,78,6696,1,0,1:3:0:0:
152,232,7110,54,0,P|120:216|80:176,1,66.6666666666667,4|0,0:2|0:0,0:0:0:0:
88,112,7386,1,0,0:3:0:0:
128,32,7524,2,0,P|160:48|200:88,1,66.6666666666667,0|0,1:3|0:3,0:0:0:0:
216,152,7800,1,0,0:3:0:0:
256,224,7938,2,0,L|328:248,1,66.6666666666667,4|0,0:3|0:3,0:0:0:0:
400,208,8214,1,4,0:3:0:0:
456,144,8352,2,0,L|392:122,1,66.6666666666667,0|0,1:3|0:3,0:0:0:0:
304,128,8627,1,0,0:3:0:0:
256,224,8765,5,4,0:3:0:0:
184,272,8903,1,0,0:3:0:0:
104,304,9041,1,0,0:3:0:0:
16,304,9179,2,0,P|56:232|124:216,1,133.333333333333,0|0,1:3|0:3,0:0:0:0:
256,224,9593,101,4,0:3:0:0:
328,272,9731,1,4,0:3:0:0:
408,296,9869,1,4,0:3:0:0:
496,304,10007,2,0,P|484:256|460:228,2,66.6666666666667,0|0|0,1:3|0:3|0:3,0:0:0:0:
360,296,10421,6,0,L|312:216,2,66.6666666666667,4|0|0,0:3|0:3|0:3,0:0:0:0:
152,296,10834,2,0,L|200:216,2,66.6666666666667,0|0|0,1:3|0:3|0:3,0:0:0:0:
344,88,11248,2,0,P|392:96|432:120,2,66.6666666666667,4|0|0,0:3|0:0|0:3,0:0:0:0:
168,88,11662,2,0,P|120:96|80:120,2,66.6666666666667,0|0|0,1:3|0:0|0:3,0:0:0:0:
256,128,12076,101,4,0:3:0:0:
317,189,12214,1,0,0:3:0:0:
255,250,12352,1,0,0:3:0:0:
192,192,12490,2,0,L|72:192,1,100.000003814697,0|0,1:3|1:3,0:0:0:0:
256,96,12903,5,4,0:3:0:0:
352,192,13041,1,4,0:3:0:0:
254,289,13179,1,4,0:3:0:0:
160,192,13317,2,0,L|93:192,2,66.6666666666667,0|0|0,1:3|0:3|0:3,0:0:0:0:
176,104,13731,102,0,P|240:88|304:104,1,133.333333333333,4|0,0:3|0:3,0:0:0:0:
376,152,14145,2,0,P|344:208|344:304,1,133.333333333333,0|0,1:3|0:3,0:0:0:0:
336,360,14558,2,0,B|272:336|272:336|208:360,1,133.333333333333,6|4,0:3|0:3,0:0:0:0:
128,384,14972,2,0,P|96:296|112:232,1,133.333333333333,0|0,1:3|0:3,0:0:0:0:
136,176,15386,5,4,0:3:0:0:
208,72,15524,1,0,0:3:0:0:
312,144,15662,1,0,0:3:0:0:
240,248,15800,2,0,P|240:296|291:379,1,133.333333333333,0|0,1:3|0:3,0:0:0:0:
392,368,16214,6,0,P|433:327|441:295,1,66.6666666666667,4|4,0:3|0:3,0:0:0:0:
456,208,16490,1,4,0:3:0:0:
360,272,16627,6,0,P|319:231|311:199,1,66.6666666666667,0|0,1:3|0:3,0:0:0:0:
296,112,16903,1,0,0:3:0:0:
216,32,17041,6,0,L|149:32,1,66.6666666666667,4|0,0:3|0:0,0:0:0:0:
48,88,17317,1,0,0:3:0:0:
152,136,17455,2,0,L|218:136,1,66.6666666666667,0|0,1:3|0:3,0:0:0:0:
304,208,17731,1,0,0:3:0:0:
232,296,17869,2,0,L|208:360,2,66.6666666666667,4|0|0,0:3|0:3|0:3,0:0:0:0:
120,280,18283,2,0,L|112:352,2,66.6666666666667,0|0|0,1:3|0:3|0:3,0:0:0:0:
64,184,18696,101,4,0:3:0:0:
112,80,18834,1,0,0:0:0:0:
168,176,18972,1,0,0:3:0:0:
224,72,19110,6,0,B|272:56|272:56|320:72,1,100.000003814697,0|0,1:3|0:3,0:0:0:0:
424,112,19524,5,4,0:3:0:0:
343,192,19662,1,4,0:3:0:0:
343,305,19800,1,4,0:3:0:0:
248,368,19938,2,0,P|233:336|200:304,1,66.6666666666667,0|0,1:3|0:3,0:0:0:0:
128,240,20214,1,0,0:0:0:0:
87,127,20352,6,0,B|135:87|135:87|255:87,1,173.333325398763,4|0,0:1|0:3,0:0:0:0:
400,136,20765,2,0,B|352:176|352:176|232:176,1,173.333325398763,0|0,1:3|0:3,0:0:0:0:
220,8,21179,2,0,P|284:16|244:88,1,173.333325398763,4|4,0:3|0:3,0:0:0:0:
267,255,21593,2,0,P|203:247|243:175,1,173.333325398763,0|0,1:3|0:3,0:0:0:0:
123,47,22007,22,0,B|163:119|163:119|195:87|251:87,1,173.333325398763,4|0,0:3|0:3,0:0:0:0:
363,215,22421,2,0,B|323:143|323:143|291:175|235:175,1,173.333325398763,0|0,1:3|0:3,0:0:0:0:
104,176,22834,1,4,0:3:0:0:
48,48,22972,1,4,0:3:0:0:
184,64,23110,1,4,0:3:0:0:
104,176,23248,2,0,P|96:224|128:272,1,86.6666626993817,4|0,0:3|0:0,0:0:0:0:
224,345,23524,1,0,0:3:0:0:
368,352,23662,6,0,P|432:296|464:176,1,200.000007629395,4|0,0:3|0:3,0:0:0:0:
448,104,24076,5,2,1:3:0:0:
376,64,24214,1,0,0:3:0:0:
296,80,24352,1,0,0:3:0:0:
344,144,24490,101,4,0:3:0:0:
230,126,24628,1,0,0:3:0:0:
133,184,24766,1,4,0:3:0:0:
64,272,24903,2,0,P|96:320|232:368,1,200.000007629395,0|0,1:3|0:3,0:0:0:0:
305,368,25317,6,0,P|400:345|465:271,1,200.000007629395,4|0,0:3|0:3,0:0:0:0:
480,160,25731,1,0,1:3:0:0:
392,112,25869,1,0,0:3:0:0:
296,120,26007,1,0,0:3:0:0:
336,208,26145,101,4,0:3:0:0:
224,168,26283,1,4,0:3:0:0:
112,216,26421,1,4,0:3:0:0:
224,288,26558,6,0,B|296:296|296:305|296:305|376:272,1,133.333333333333,2|0,1:3|0:3,0:0:0:0:
448,208,26972,22,0,B|472:192|472:192|432:120|344:112,1,173.333325398763,4|0,0:1|0:3,0:0:0:0:
109,177,27386,2,0,B|85:193|85:193|125:265|213:273,1,173.333325398763,0|0,1:3|0:3,0:0:0:0:
356,113,27800,2,0,B|242:79|242:79|211:123,1,173.333325398763,4|4,0:3|0:3,0:0:0:0:
199,270,28214,2,0,B|314:305|314:305|345:261,1,173.333325398763,0|0,1:3|0:3,0:0:0:0:
314,176,28627,70,0,B|362:176|378:192|378:192|394:160|386:120|386:120|386:112|346:112,1,173.333325398763,4|0,0:3|0:3,0:0:0:0:
157,207,29041,2,0,B|127:206|127:214|127:214|119:254|135:286|135:286|151:270|199:270,1,173.333325398763,0|0,1:3|0:3,0:0:0:0:
314,176,29455,1,4,0:3:0:0:
456,184,29593,1,4,0:3:0:0:
392,56,29731,1,4,0:3:0:0:
314,176,29869,2,0,B|296:136|296:136|256:112|136:128,1,173.333325398763,4|0,0:3|0:3,0:0:0:0:
56,40,30283,6,0,P|32:120|96:240,1,200.000007629395,4|0,0:3|0:3,0:0:0:0:
120,248,30696,5,2,1:3:0:0:
224,208,30834,1,0,0:3:0:0:
328,240,30972,1,0,0:3:0:0:
280,144,31110,101,4,0:3:0:0:
392,184,31248,1,0,0:3:0:0:
440,296,31386,1,4,0:3:0:0:
326,328,31524,2,0,P|278:248|286:128,1,200.000007629395,0|0,1:3|0:3,0:0:0:0:
256,24,31938,6,0,P|192:8|64:64,1,200.000007629395,4|0,0:3|0:3,0:0:0:0:
24,168,32352,1,0,1:3:0:0:
144,120,32490,1,0,0:3:0:0:
264,160,32628,1,0,0:3:0:0:
144,200,32765,101,4,0:3:0:0:
288,232,32903,1,4,0:3:0:0:
384,344,33041,1,4,0:3:0:0:
232,336,33179,6,0,B|144:296|184:224|280:256|224:352|104:296,1,200.000007629395,2|0,1:3|0:3,0:0:0:0:
40,296,33593,1,4,0:2:0:0:
