osu file format v14

[General]
AudioFilename: Renard - FULL TECHNO JACKASS - 32 Layers of Shit.mp3
AudioLeadIn: 0
PreviewTime: 20352
Countdown: 0
SampleSet: Soft
StackLeniency: 0.8
Mode: 0
LetterboxInBreaks: 0
WidescreenStoryboard: 1

[Editor]
DistanceSpacing: 1
BeatDivisor: 6
GridSize: 4
TimelineZoom: 1.4

[Metadata]
Title:Layers of Shit
TitleUnicode:Layers of Shit
Artist:Renard
ArtistUnicode:Renard
Creator:CptSqBany
Version:Hard
Source:
Tags:lapfox trax full techno Blue Dragon Nogard pishifat Sharkie jackass hardcore
BeatmapID:849763
BeatmapSetID:388852

[Difficulty]
HPDrainRate:5.4
CircleSize:3.6
OverallDifficulty:6.8
ApproachRate:8.5
SliderMultiplier:2
SliderTickRate:1

[Events]
//Background and Video events
0,0,"poop-on-a-rainbow.jpg",0,0
//Break Periods
//Storyboard Layer 0 (Background)
//Storyboard Layer 1 (Fail)
//Storyboard Layer 2 (Pass)
//Storyboard Layer 3 (Foreground)
//Storyboard Sound Samples

[TimingPoints]
490,413.793103448276,4,2,1,60,1,0
490,-133.333333333333,4,2,1,60,0,0
7110,-100,4,2,1,60,0,0
20352,-83.3333333333333,4,2,1,60,0,1
23662,-100,4,2,1,60,0,1
26558,-100,4,2,1,60,0,0
26972,-100,4,2,1,60,0,1
33179,-100,4,2,1,60,0,0

[Colours]
Combo1 : 112,56,16
Combo2 : 255,0,0
Combo3 : 255,128,0
Combo4 : 255,255,0
Combo5 : 0,255,0
Combo6 : 0,255,255
Combo7 : 0,128,255
Combo8 : 128,0,255

[HitObjects]
104,80,490,102,0,P|160:56|264:64,1,150.000005722046,4|0,0:3|1:3,0:0:0:0:
272,192,1317,2,0,P|346:196|384:176,1,100.000003814697,4|4,0:3|0:3,0:0:0:0:
400,160,1731,1,0,1:3:0:0:
104,80,2145,6,0,P|160:56|264:64,1,150.000005722046,4|0,0:3|1:3,0:0:0:0:
272,192,2972,2,0,P|247:189|222:183,2,50.0000019073487,4|4|4,0:3|0:3|0:3,0:0:0:0:
320,192,3386,1,0,1:3:0:0:
104,80,3800,102,0,P|160:56|264:64,1,150.000005722046,4|0,0:3|1:3,0:0:0:0:
268,194,4627,2,0,B|380:186,1,100.000003814697,4|4,0:3|0:3,0:0:0:0:
400,160,5041,1,0,1:3:0:0:
104,80,5455,6,0,P|160:56|264:64,1,150.000005722046,4|0,0:3|1:3,0:0:0:0:
268,194,6283,2,0,P|300:202|332:194,1,50.0000019073487,4|4,0:3|0:3,0:0:0:0:
351,154,6558,2,0,P|375:152|399:159,1,50.0000019073487,4|0,0:3|1:3,0:0:0:0:
440,336,7110,54,0,P|400:344|352:344,1,66.6666666666667,4|0,0:2|0:0,0:0:0:0:
312,344,7386,1,0,0:3:0:0:
256,336,7524,2,0,P|224:296|232:192,1,133.333333333333,0|0,1:3|0:3,0:0:0:0:
168,160,7938,2,0,P|240:144|296:200,1,133.333333333333,4|4,0:3|0:3,0:0:0:0:
360,160,8352,2,0,P|328:240|272:252,1,133.333333333333,0|0,1:3|0:3,0:0:0:0:
228,252,8765,5,4,0:3:0:0:
168,236,8903,1,0,0:3:0:0:
116,204,9041,1,0,0:3:0:0:
80,156,9179,2,0,P|72:124|128:36,1,133.333333333333,0|0,1:3|0:3,0:0:0:0:
172,16,9593,102,0,P|196:64|196:88,1,66.6666666666667,4|4,0:3|0:3,0:0:0:0:
192,136,9869,1,4,0:3:0:0:
196,196,10007,1,0,1:3:0:0:
240,236,10145,1,0,0:3:0:0:
296,220,10283,1,0,0:3:0:0:
312,160,10421,6,0,P|328:120|320:80,2,66.6666666666667,4|0|0,0:3|0:3|0:3,0:0:0:0:
200,160,10834,2,0,P|184:120|192:80,2,66.6666666666667,0|0|0,1:3|0:3|0:3,0:0:0:0:
200,256,11248,2,0,L|152:312,2,66.6666666666667,4|0|0,0:3|0:0|0:3,0:0:0:0:
312,256,11662,2,0,L|360:312,2,66.6666666666667,0|0|0,1:3|0:0|0:3,0:0:0:0:
256,192,12076,101,4,0:3:0:0:
212,152,12214,1,0,0:3:0:0:
156,132,12352,1,0,0:3:0:0:
96,136,12490,2,0,P|48:160|24:248,1,133.333333333333,0|0,1:3|1:3,0:0:0:0:
28,292,12903,5,4,0:3:0:0:
80,264,13041,1,4,0:3:0:0:
136,248,13179,1,4,0:3:0:0:
196,248,13317,2,0,P|236:256|268:280,2,66.6666666666667,0|0|0,1:3|0:3|0:3,0:0:0:0:
136,248,13731,102,0,P|72:224|56:152,1,133.333333333333,4|0,0:3|0:3,0:0:0:0:
72,108,14145,2,0,B|120:96|120:96|152:128|120:184,1,133.333333333333,0|0,1:3|0:3,0:0:0:0:
100,228,14558,2,0,P|132:300|196:308,1,133.333333333333,6|4,0:3|0:3,0:0:0:0:
236,292,14972,2,0,B|276:268|296:272|296:272|316:276|364:244,1,133.333333333333,0|0,1:3|0:3,0:0:0:0:
388,204,15386,5,4,0:3:0:0:
388,144,15524,1,0,0:3:0:0:
356,92,15662,1,0,0:3:0:0:
300,72,15800,2,0,P|252:80|180:136,1,133.333333333333,0|0,1:3|0:3,0:0:0:0:
156,180,16214,101,4,0:3:0:0:
144,240,16352,1,4,0:3:0:0:
168,296,16490,1,4,0:3:0:0:
220,324,16627,2,0,P|268:324|292:316,2,66.6666666666667,0|0|0,1:3|0:3|0:3,0:0:0:0:
308,235,17041,5,4,0:3:0:0:
308,235,17179,2,0,L|379:229,1,66.6666666666667,0|0,0:0|0:3,0:0:0:0:
299,139,17455,1,0,1:3:0:0:
299,139,17593,2,0,L|292:60,1,66.6666666666667,0|0,0:3|0:3,0:0:0:0:
203,148,17869,101,4,0:3:0:0:
203,148,18007,2,0,L|124:155,1,66.6666666666667,0|0,0:3|0:3,0:0:0:0:
212,244,18283,1,0,1:3:0:0:
212,244,18421,2,0,L|219:323,1,66.6666666666667,0|0,0:3|0:3,0:0:0:0:
160,344,18696,6,0,P|120:336|88:304,1,66.6666666666667,4|0,0:3|0:0,0:0:0:0:
64,272,18972,1,0,0:3:0:0:
48,212,19110,2,0,P|56:156|112:92,1,133.333333333333,0|0,1:3|0:3,0:0:0:0:
160,76,19524,101,4,0:3:0:0:
204,116,19662,1,4,0:3:0:0:
260,132,19800,1,4,0:3:0:0:
320,128,19938,2,0,P|304:88|312:48,2,66.6666666666667,0|0|0,1:3|0:3|0:0,0:0:0:0:
380,80,20352,22,0,P|396:136|304:204,1,159.999995117188,4|0,0:1|0:3,0:0:0:0:
260,208,20765,2,0,P|148:232|88:268,1,159.999995117188,0|0,1:3|0:3,0:0:0:0:
72,320,21179,2,0,P|40:284|88:180,1,159.999995117188,4|4,0:3|0:3,0:0:0:0:
136,156,21593,2,0,B|200:132|272:136|320:116,1,159.999995117188,0|0,1:3|0:3,0:0:0:0:
348,76,22007,22,0,B|300:36|272:52|240:76|200:64|156:60,2,159.999995117188,4|0|0,0:3|0:3|0:3,0:0:0:0:
144,116,22834,2,0,B|184:160|204:116|256:160|292:132|292:100|300:132|304:156,2,159.999995117188,4|4|0,0:3|0:3|0:0,0:0:0:0:
100,56,23662,6,0,P|56:116|52:184,1,133.333333333333,4|0,0:3|0:3,0:0:0:0:
60,232,24076,5,2,1:3:0:0:
88,284,24214,1,0,0:3:0:0:
144,304,24352,1,0,0:3:0:0:
204,288,24490,1,4,0:3:0:0:
256,256,24627,1,0,0:3:0:0:
316,244,24765,1,4,0:3:0:0:
376,252,24903,102,0,P|384:192|344:132,1,133.333333333333,0|0,1:3|0:3,0:0:0:0:
284,128,25317,2,0,B|244:120|204:144|172:168|132:136,1,133.333333333333,4|0,0:3|0:3,0:0:0:0:
100,120,25731,5,0,1:3:0:0:
80,64,25869,1,0,0:3:0:0:
112,12,26007,1,0,0:3:0:0:
172,12,26145,1,4,0:3:0:0:
228,32,26283,1,4,0:3:0:0:
288,40,26421,1,4,0:3:0:0:
348,32,26558,86,0,P|380:24|436:104,1,133.333333333333,2|0,1:3|0:3,0:0:0:0:
428,152,26972,38,0,P|412:216|420:296,1,133.333333333333,4|0,0:1|0:3,0:0:0:0:
424,344,27386,2,0,B|368:336|368:352|320:368|304:352|264:336,1,133.333333333333,0|0,1:3|0:3,0:0:0:0:
236,328,27800,1,4,0:3:0:0:
136,260,28076,1,4,0:3:0:0:
188,228,28214,2,0,B|198:231|214:247|262:231|262:215|318:223,1,133.333333333333,0|0,1:3|0:3,0:0:0:0:
376,236,28627,70,0,P|408:204|384:100,1,133.333333333333,4|0,0:3|0:3,0:0:0:0:
372,68,29041,2,0,B|316:60|316:76|268:92|252:76|242:73,1,133.333333333333,0|0,1:3|0:3,0:0:0:0:
204,120,29455,1,4,0:3:0:0:
204,120,29593,1,4,0:3:0:0:
204,120,29731,2,0,P|192:183|232:235,1,133.333333333333,4|0,0:3|0:0,0:0:0:0:
328,156,30283,6,0,B|328:289,1,133.333333333333,4|0,0:3|0:3,0:0:0:0:
328,348,30696,5,2,1:3:0:0:
272,372,30834,1,0,0:3:0:0:
216,348,30972,1,0,0:3:0:0:
176,304,31110,1,4,0:3:0:0:
120,280,31248,1,0,0:3:0:0:
60,292,31386,1,4,0:3:0:0:
4,316,31524,102,0,P|-8:260|48:192,1,133.333333333333,0|0,1:3|0:3,0:0:0:0:
88,168,31938,2,0,B|152:136|168:144|216:128|216:96,1,133.333333333333,4|0,0:3|0:3,0:0:0:0:
244,68,32352,5,0,1:3:0:0:
284,24,32490,1,0,0:3:0:0:
344,24,32627,1,0,0:3:0:0:
400,48,32765,1,4,0:3:0:0:
420,104,32903,1,4,0:3:0:0:
400,160,33041,1,4,0:3:0:0:
352,196,33179,86,0,B|312:268|392:336,1,133.333333333333,2|0,1:3|0:3,0:0:0:0:
412,364,33593,1,4,0:2:0:0:
