osu file format v14

[General]
AudioFilename: Renard - FULL TECHNO JACKASS - 32 Layers of Shit.mp3
AudioLeadIn: 0
PreviewTime: 20352
Countdown: 0
SampleSet: Soft
StackLeniency: 0.8
Mode: 0
LetterboxInBreaks: 0
WidescreenStoryboard: 1

[Editor]
DistanceSpacing: 0.8
BeatDivisor: 6
GridSize: 4
TimelineZoom: 1

[Metadata]
Title:Layers of Shit
TitleUnicode:Layers of Shit
Artist:Renard
ArtistUnicode:Renard
Creator:CptSqBany
Version:Easy
Source:
Tags:lapfox trax full techno Blue Dragon Nogard pishifat Sharkie jackass hardcore
BeatmapID:849568
BeatmapSetID:388852

[Difficulty]
HPDrainRate:2.5
CircleSize:3
OverallDifficulty:2.5
ApproachRate:3.5
SliderMultiplier:0.999999999999999
SliderTickRate:1

[Events]
//Background and Video events
0,0,"poop-on-a-rainbow.jpg",0,0
//Break Periods
//Storyboard Layer 0 (Background)
//Storyboard Layer 1 (Fail)
//Storyboard Layer 2 (Pass)
//Storyboard Layer 3 (Foreground)
//Storyboard Sound Samples

[TimingPoints]
490,413.793103448276,4,2,1,60,1,0
490,-100,4,2,1,60,0,0
20352,-100,4,2,1,60,0,1
26558,-100,4,2,1,60,0,0
26972,-100,4,2,1,60,0,1
33179,-100,4,2,1,60,0,0

[Colours]
Combo1 : 112,56,16
Combo2 : 255,0,0
Combo3 : 255,128,0
Combo4 : 255,255,0
Combo5 : 0,255,0
Combo6 : 0,255,255
Combo7 : 0,128,255
Combo8 : 128,0,255

[HitObjects]
89,136,490,102,0,P|137:120|192:136,1,100,4|0,0:3|1:3,0:0:0:0:
248,184,1317,2,0,P|295:199|351:184,1,100,4|0,0:3|1:3,0:0:0:0:
408,136,2145,1,4,0:3:0:0:
368,64,2558,1,0,1:3:0:0:
292,36,2972,2,0,P|237:44|197:83,1,100,4|0,0:3|1:3,0:0:0:0:
168,144,3800,6,0,L|168:256,1,100,4|0,0:3|1:3,0:0:0:0:
248,264,4627,2,0,L|248:160,1,100,4|0,0:3|1:3,0:0:0:0:
248,80,5455,1,4,0:3:0:0:
320,48,5869,1,0,1:3:0:0:
392,88,6283,2,0,L|432:184,1,100,4|0,0:3|1:3,0:0:0:0:
400,256,7110,54,0,L|321:319,1,100,4|0,0:2|1:3,0:0:0:0:
256,368,7938,1,4,0:3:0:0:
184,328,8352,1,0,1:3:0:0:
136,264,8765,2,0,P|120:208|128:169,1,100,4|0,0:3|1:3,0:0:0:0:
160,96,9593,2,0,P|216:80|264:103,1,100,4|0,0:3|1:3,0:0:0:0:
304,160,10421,6,0,L|352:248,1,100,4|0,0:3|1:3,0:0:0:0:
272,264,11248,2,0,L|224:176,1,100,4|0,0:3|1:3,0:0:0:0:
144,192,12076,2,0,L|192:280,1,100,4|0,0:3|1:3,0:0:0:0:
240,344,12903,2,0,P|272:376|328:368,1,100,4|0,0:3|1:3,0:0:0:0:
392,328,13731,101,4,0:3:0:0:
432,256,14145,1,0,1:3:0:0:
412,178,14558,2,0,P|348:162|309:170,1,100,6|0,0:3|1:3,0:0:0:0:
280,240,15386,2,0,P|209:248|177:232,1,100,4|0,0:3|1:3,0:0:0:0:
144,168,16214,2,0,P|97:160|34:176,1,100,4|0,0:3|1:3,0:0:0:0:
0,240,17041,6,0,L|71:319,1,100,4|0,0:3|1:3,0:0:0:0:
113,244,17869,2,0,L|41:164,1,100,4|0,0:3|1:3,0:0:0:0:
32,88,18696,2,0,P|81:70|134:80,1,100,4|0,0:3|1:3,0:0:0:0:
184,136,19524,2,0,P|271:152|288:144,1,100,4|0,0:3|1:3,0:0:0:0:
352,104,20352,5,4,0:1:0:0:
424,144,20765,1,0,1:3:0:0:
448,224,21179,1,4,0:3:0:0:
416,296,21593,1,0,1:3:0:0:
356,349,22007,2,0,P|336:288|352:248,1,100,4|0,0:3|1:3,0:0:0:0:
312,184,22834,2,0,P|269:235|260:266,1,100,4|4,0:3|0:3,0:0:0:0:
200,321,23662,37,4,0:3:0:0:
144,256,24076,1,2,1:3:0:0:
128,176,24490,1,4,0:3:0:0:
136,96,24903,1,0,1:3:0:0:
168,24,25317,6,0,L|263:56,1,100,4|0,0:3|1:3,0:0:0:0:
336,88,26145,2,0,P|399:127|417:159,2,100,4|2|4,0:3|1:3|0:1,0:0:0:0:
256,80,27386,5,0,1:3:0:0:
192,128,27800,1,4,0:3:0:0:
136,184,28214,1,0,1:3:0:0:
80,240,28627,2,0,P|96:304|128:328,1,100,4|0,0:3|1:3,0:0:0:0:
200,328,29455,2,0,P|216:264|248:240,1,100,4|4,0:3|0:3,0:0:0:0:
320,260,30283,85,4,0:3:0:0:
364,192,30696,1,2,1:3:0:0:
356,112,31110,1,4,0:3:0:0:
304,52,31524,1,0,1:3:0:0:
224,60,31938,6,0,L|144:131,1,100,4|0,0:3|1:3,0:0:0:0:
88,176,32765,2,0,P|49:216|41:264,2,100,4|2|4,0:3|1:3|0:2,0:0:0:0:
