osu file format v14

[General]
AudioFilename: Renard - FULL TECHNO JACKASS - 32 Layers of Shit.mp3
AudioLeadIn: 0
PreviewTime: 20352
Countdown: 0
SampleSet: Soft
StackLeniency: 0.8
Mode: 0
LetterboxInBreaks: 0
WidescreenStoryboard: 1

[Editor]
DistanceSpacing: 1.7
BeatDivisor: 6
GridSize: 8
TimelineZoom: 1

[Metadata]
Title:Layers of Shit
TitleUnicode:Layers of Shit
Artist:Renard
ArtistUnicode:Renard
Creator:CptSqBany
Version:Dingle
Source:
Tags:lapfox trax full techno Blue Dragon Nogard pishifat Sharkie jackass hardcore
BeatmapID:848296
BeatmapSetID:388852

[Difficulty]
HPDrainRate:6
CircleSize:4
OverallDifficulty:8
ApproachRate:9.7
SliderMultiplier:2
SliderTickRate:1

[Events]
//Background and Video events
0,0,"poop-on-a-rainbow.jpg",0,0
//Break Periods
//Storyboard Layer 0 (Background)
//Storyboard Layer 1 (Fail)
//Storyboard Layer 2 (Pass)
//Storyboard Layer 3 (Foreground)
//Storyboard Sound Samples

[TimingPoints]
490,413.793103448276,4,2,1,60,1,0
7110,-66.6666666666667,4,2,1,60,0,0
10007,-133.333333333333,4,2,1,60,0,0
10421,-66.6666666666667,4,2,1,60,0,0
12490,-133.333333333333,4,2,1,60,0,0
13731,-66.6666666666667,4,2,1,60,0,0
20352,-50,4,2,1,60,0,1
26558,-100,4,2,1,60,0,0
26972,-50,4,2,1,60,0,1
33179,-50,4,2,1,60,0,0

[Colours]
Combo1 : 112,56,16
Combo2 : 255,0,0
Combo3 : 255,128,0
Combo4 : 255,255,0
Combo5 : 0,255,0
Combo6 : 0,255,255
Combo7 : 0,128,255
Combo8 : 128,0,255

[HitObjects]
256,328,490,101,4,0:3:0:0:
256,48,903,1,0,1:3:0:0:
256,328,1317,1,4,0:3:0:0:
208,144,1593,1,4,0:3:0:0:
301,144,1731,1,0,1:3:0:0:
256,328,2145,5,4,0:3:0:0:
256,48,2558,1,0,1:3:0:0:
16,200,2972,1,4,0:3:0:0:
80,272,3110,1,4,0:3:0:0:
160,320,3248,1,4,0:3:0:0:
256,328,3386,1,0,1:3:0:0:
256,328,3800,101,4,0:3:0:0:
256,47,4214,1,0,1:3:0:0:
256,328,4627,1,4,0:3:0:0:
256,139,4903,1,4,0:3:0:0:
256,47,5041,1,0,1:3:0:0:
256,326,5455,5,4,0:3:0:0:
256,45,5869,1,0,1:3:0:0:
496,200,6283,1,4,0:3:0:0:
432,272,6421,1,4,0:3:0:0:
352,320,6559,1,4,0:3:0:0:
256,328,6697,1,0,1:3:0:0:
256,328,7110,54,0,L|128:312,1,100.000003814697,4|0,0:2|0:0,0:0:0:0:
40,240,7386,1,0,0:3:0:0:
176,216,7524,2,0,L|275:228,1,100.000003814697,0|0,1:3|0:3,0:0:0:0:
416,200,7800,1,0,0:3:0:0:
472,72,7938,2,0,P|416:56|328:104,1,100.000003814697,4|0,0:3|0:3,0:0:0:0:
256,136,8214,1,4,0:3:0:0:
40,72,8352,2,0,P|96:56|184:104,1,100.000003814697,0|0,1:3|0:3,0:0:0:0:
256,136,8627,1,0,0:3:0:0:
208,272,8765,6,0,L|320:272,2,100.000003814697,4|0|0,0:3|0:3|0:3,0:0:0:0:
88,352,9179,2,0,P|48:256|104:168,1,200.000007629395,0|0,1:3|0:3,0:0:0:0:
228,160,9593,1,4,0:3:0:0:
308,272,9731,1,4,0:3:0:0:
228,160,9869,1,4,0:3:0:0:
376,312,10007,102,0,L|420:368,1,50.0000019073487,0|0,1:3|0:3,0:0:0:0:
160,48,10421,6,0,P|104:136|96:176,1,100.000003814697,4|0,0:3|0:3,0:0:0:0:
56,280,10696,1,0,0:3:0:0:
184,184,10834,2,0,P|152:283|155:324,1,100.000003814697,0|0,1:3|0:3,0:0:0:0:
208,384,11110,1,0,0:3:0:0:
327,183,11248,2,0,P|349:229|359:277,1,100.000003814697,4|0,0:3|0:0,0:0:0:0:
304,384,11524,1,0,0:3:0:0:
351,47,11662,2,0,P|384:85|406:130,1,100.000003814697,0|0,1:3|0:0,0:0:0:0:
448,272,11938,1,0,0:3:0:0:
256,156,12076,101,4,0:3:0:0:
160,48,12214,1,0,0:3:0:0:
351,47,12352,1,0,0:3:0:0:
256,256,12490,6,0,L|256:156,1,100.000003814697,0|0,1:3|1:3,0:0:0:0:
406,130,12903,101,4,0:3:0:0:
105,130,13041,1,4,0:3:0:0:
256,256,13179,1,4,0:3:0:0:
256,56,13317,1,0,1:3:0:0:
120,288,13455,1,0,0:3:0:0:
392,336,13731,6,0,P|456:240|448:216,1,100.000003814697,4|0,0:3|0:0,0:0:0:0:
456,128,14007,1,0,0:3:0:0:
320,88,14145,2,0,L|208:88,1,100.000003814697,0|0,1:3|0:3,0:0:0:0:
88,128,14421,1,0,0:3:0:0:
88,264,14558,2,0,P|109:308|152:332,1,100.000003814697,6|0,0:3|0:3,0:0:0:0:
312,304,14834,1,4,0:3:0:0:
360,152,14972,1,0,1:3:0:0:
208,104,15110,1,0,0:0:0:0:
160,256,15248,1,0,0:3:0:0:
392,264,15386,102,0,L|416:160,2,100.000003814697,4|0|0,0:3|0:3|0:3,0:0:0:0:
167,136,15800,2,0,P|255:96|344:136,1,200.000007629395,0|0,1:3|0:3,0:0:0:0:
120,264,16214,2,0,L|96:160,2,100.000003814697,4|4|4,0:3|0:3|0:3,0:0:0:0:
256,204,16627,2,0,L|256:304,1,100.000003814697,0|0,1:3|0:3,0:0:0:0:
120,264,17041,5,4,0:3:0:0:
67,51,17179,1,0,0:0:0:0:
256,204,17317,1,0,0:3:0:0:
0,200,17455,1,0,1:3:0:0:
184,48,17593,1,0,0:3:0:0:
200,280,17731,1,0,0:3:0:0:
22,284,17869,102,0,L|134:260,1,100.000003814697,4|0,0:3|0:3,0:0:0:0:
256,152,18145,1,0,0:3:0:0:
376,16,18283,2,0,L|264:40,1,100.000003814697,0|0,1:3|0:3,0:0:0:0:
256,224,18559,1,0,0:3:0:0:
336,344,18696,5,4,0:3:0:0:
208,344,18834,1,0,0:0:0:0:
136,240,18972,1,0,0:3:0:0:
256,168,19110,2,0,P|288:112|280:72,2,100.000003814697,0|0|0,1:3|0:0|0:3,0:0:0:0:
160,24,19524,102,0,P|200:96|288:128,2,100.000003814697,4|4|4,0:3|0:3|0:3,0:0:0:0:
40,144,19938,1,0,1:3:0:0:
176,240,20076,1,0,0:3:0:0:
255,21,20214,1,0,0:0:0:0:
256,248,20352,22,0,P|144:320|160:160,1,266.666666666667,4|0,0:1|0:3,0:0:0:0:
128,24,20765,1,0,1:3:0:0:
176,232,20903,1,0,0:0:0:0:
312,64,21041,1,0,0:3:0:0:
112,144,21179,1,4,0:3:0:0:
312,232,21317,1,0,0:3:0:0:
240,32,21455,1,4,0:3:0:0:
176,232,21593,1,0,1:3:0:0:
336,24,21731,1,0,0:3:0:0:
389,232,21869,1,0,0:3:0:0:
490,120,22007,22,0,L|223:120,1,266.666666666667,4|0,0:3|0:3,0:0:0:0:
32,192,22421,2,0,L|298:192,1,266.666666666667,0|0,1:3|0:3,0:0:0:0:
498,192,22834,1,4,0:3:0:0:
312,264,22972,1,4,0:3:0:0:
496,336,23110,1,4,0:3:0:0:
296,336,23248,2,0,L|29:336,1,266.666666666667,4|0,0:3|0:3,0:0:0:0:
208,224,23662,6,0,P|264:128|256:32,1,133.333333333333,4|0,0:3|0:3,0:0:0:0:
128,32,23938,1,0,0:3:0:0:
128,32,24007,1,0,0:3:0:0:
128,32,24076,5,2,1:3:0:0:
120,248,24214,1,0,0:3:0:0:
312,128,24352,1,0,0:3:0:0:
128,104,24490,101,4,0:3:0:0:
208,376,24628,1,0,0:3:0:0:
397,170,24766,1,4,0:3:0:0:
440,360,24903,2,0,B|328:248|328:248|280:312|184:256,1,266.666666666667
288,80,25317,6,0,P|256:144|272:232,1,133.333333333333,4|0,0:3|0:3,0:0:0:0:
328,360,25593,1,0,0:3:0:0:
328,360,25662,1,0,0:3:0:0:
328,360,25731,101,0,1:3:0:0:
184,136,25869,1,0,0:3:0:0:
96,328,26007,1,0,0:3:0:0:
240,216,26145,5,4,0:3:0:0:
16,72,26283,1,4,0:3:0:0:
0,280,26421,1,4,0:3:0:0:
96,328,26558,86,0,P|112:264|80:176,1,133.333333333333
56,128,26972,38,0,P|128:64|192:56,1,133.333333333333,4|0,0:1|0:0,0:0:0:0:
344,96,27248,1,0,0:3:0:0:
496,232,27386,1,0,1:3:0:0:
344,96,27524,1,0,0:0:0:0:
376,296,27662,1,0,0:3:0:0:
238,168,27800,2,0,P|310:104|374:96,2,133.333333333333,4|0|4,0:3|0:3|0:3,0:0:0:0:
56,280,28214,1,0,1:3:0:0:
238,168,28352,1,0,0:0:0:0:
160,368,28490,1,0,0:3:0:0:
120,176,28627,70,0,P|176:72|312:0,1,266.666666666667,4|0,0:3|0:3,0:0:0:0:
196,172,29041,2,0,P|252:100|432:88,1,266.666666666667,4|0,0:3|0:3,0:0:0:0:
508,272,29455,1,0,0:0:0:0:
348,232,29593,1,0,0:0:0:0:
432,372,29731,1,0,0:0:0:0:
412,156,29869,2,0,P|332:140|268:292,1,266.666666666667,4|0,0:3|0:3,0:0:0:0:
84,376,30283,6,0,P|44:308|64:220,1,133.333333333333
128,72,30558,1,0,0:3:0:0:
128,72,30627,1,0,0:3:0:0:
128,72,30696,5,2,1:3:0:0:
304,160,30834,1,0,0:3:0:0:
256,352,30972,1,0,0:3:0:0:
200,104,31110,101,4,0:3:0:0:
376,192,31248,1,0,0:3:0:0:
128,312,31386,1,4,0:3:0:0:
128,72,31524,2,0,P|288:64|424:80,1,266.666666666667,0|0,1:3|0:3,0:0:0:0:
448,200,31938,6,0,P|320:200|272:184,1,133.333333333333,4|0,0:3|0:3,0:0:0:0:
49,114,32214,1,0,0:3:0:0:
49,114,32283,1,0,0:3:0:0:
49,114,32352,101,0,1:3:0:0:
208,328,32490,1,0,0:3:0:0:
411,165,32627,1,0,0:3:0:0:
85,148,32765,5,4,0:3:0:0:
244,363,32903,1,4,0:3:0:0:
320,104,33040,1,4,0:3:0:0:
65,217,33179,2,0,P|81:289|249:361,1,266.666666666667,2|0,1:3|0:3,0:0:0:0:
411,165,33593,85,4,0:2:0:0:
