osu file format v14

[General]
AudioFilename: audio.mp3
AudioLeadIn: 0
PreviewTime: 62020
Countdown: 0
SampleSet: None
StackLeniency: 0.7
Mode: 0
LetterboxInBreaks: 0
WidescreenStoryboard: 0

[Editor]
Bookmarks: 16844,39432,50726,62020,70491,73314,84520
DistanceSpacing: 0.9
BeatDivisor: 4
GridSize: 4
TimelineZoom: 1.8

[Metadata]
Title:Jump
TitleUnicode:Jump
Artist:Renard
ArtistUnicode:Renard
Creator:Alvieee
Version:Why?
Source:
Tags:fox
BeatmapID:1665975
BeatmapSetID:793262

[Difficulty]
HPDrainRate:4
CircleSize:4
OverallDifficulty:8
ApproachRate:9.7
SliderMultiplier:2
SliderTickRate:1

[Events]
//Background and Video events
0,0,"bg.png",0,0
//Break Periods
2,39367,49878
//Storyboard Layer 0 (Background)
//Storyboard Layer 1 (Fail)
//Storyboard Layer 2 (Pass)
//Storyboard Layer 3 (Foreground)
//Storyboard Sound Samples

[TimingPoints]
5550,352.941176470588,4,1,0,70,1,0
16844,-50,4,2,0,60,0,0
50373,-100,4,2,0,60,0,0
59902,-76.9230769230769,4,2,0,60,0,0
60255,-62.5,4,2,0,60,0,0
62020,-50,4,2,0,60,0,1
84520,-50,4,2,0,60,0,0

[Colours]
Combo1 : 128,128,128
Combo2 : 128,128,255
Combo3 : 128,128,128
Combo4 : 175,96,255

[HitObjects]
212,244,5197,6,0,B|160:240|160:240|100:260,1,100
204,332,5549,5,0,0:0:0:0:
272,108,5814,1,0,0:0:0:0:
288,140,5902,2,0,B|312:196|312:196|288:248,1,100
404,348,6344,1,0,0:0:0:0:
419,315,6432,2,0,L|468:208,1,100
348,36,6873,5,0,0:0:0:0:
363,69,6961,2,0,L|412:176,1,100
364,232,7226,1,0,0:0:0:0:
336,248,7314,2,0,B|288:272|288:272|212:256,1,100
36,152,7667,1,0,0:0:0:0:
44,188,7755,1,0,0:0:0:0:
52,224,7844,1,0,0:0:0:0:
202,182,8020,2,0,L|186:294,1,100
260,344,8285,5,0,0:0:0:0:
296,352,8373,2,0,B|352:360|352:360|420:312,1,100
464,268,8638,1,0,0:0:0:0:
456,232,8726,2,0,L|436:128,1,100
256,136,9079,1,0,0:0:0:0:
264,100,9167,1,0,0:0:0:0:
272,64,9255,1,0,0:0:0:0:
472,36,9432,1,0,0:0:0:0:
296,272,9697,5,0,0:0:0:0:
288,308,9785,2,0,B|272:364|272:364|208:380,1,100
136,336,10049,1,0,0:0:0:0:
128,300,10138,2,0,L|104:200,1,100
280,32,10491,1,0,0:0:0:0:
272,68,10579,1,0,0:0:0:0:
264,104,10667,2,0,L|292:216,1,100
32,360,11108,5,0,0:0:0:0:
24,324,11197,2,0,B|16:264|16:264|44:208,1,100
108,120,11461,1,0,0:0:0:0:
116,156,11550,1,0,0:0:0:0:
160,364,11726,1,0,0:0:0:0:
228,80,11902,1,0,0:0:0:0:
220,116,11991,1,0,0:0:0:0:
212,152,12079,1,0,0:0:0:0:
76,320,12255,1,0,0:0:0:0:
436,64,12520,5,0,0:0:0:0:
444,100,12608,1,0,0:0:0:0:
376,352,12785,1,0,0:0:0:0:
384,320,12873,1,0,0:0:0:0:
392,288,12961,1,0,0:0:0:0:
300,36,13138,1,0,0:0:0:0:
472,332,13314,1,0,0:0:0:0:
480,300,13402,1,0,0:0:0:0:
488,264,13491,1,0,0:0:0:0:
208,64,13667,6,0,B|240:160|240:160|216:216,1,150
312,276,14020,2,0,B|280:180|280:180|304:124,1,150
396,180,14373,2,0,L|240:160,1,150
132,76,14726,2,0,L|288:56,1,150
416,40,15079,2,0,P|448:92|400:68,1,150
116,264,16844,6,0,B|196:276|196:276|256:252|256:252|336:264,1,200
432,264,17108,1,0,0:0:0:0:
332,172,17197,2,0,L|232:156,1,100
292,352,17373,2,0,L|392:336,1,100
440,160,17549,5,0,0:0:0:0:
340,80,17638,1,0,0:0:0:0:
340,80,17726,2,0,L|232:88,1,100
172,304,17902,2,0,L|184:192,1,100
124,32,18079,1,0,0:0:0:0:
12,108,18167,1,0,0:0:0:0:
140,60,18255,6,0,B|268:84|268:84|212:172,1,200
260,232,18520,1,0,0:0:0:0:
260,232,18608,2,0,L|368:252,1,100
504,104,18785,2,0,L|396:124,1,100
240,252,18961,5,0,0:0:0:0:
328,272,19049,1,0,0:0:0:0:
416,292,19138,2,0,B|308:320,1,100
228,128,19314,2,0,B|325:149,1,100
208,340,19491,1,0,0:0:0:0:
60,276,19579,1,0,0:0:0:0:
60,276,19667,6,0,B|88:196|88:196|60:144|60:144|72:80,1,200
140,28,19932,1,0,0:0:0:0:
228,44,20020,2,0,B|280:56|280:56|340:48,1,100
480,120,20197,2,0,B|428:132|428:132|368:124,1,100
240,140,20373,5,0,0:0:0:0:
264,228,20461,1,0,0:0:0:0:
288,316,20549,2,0,B|396:300,1,100
168,208,20726,2,0,B|60:224,1,100
256,120,20902,1,0,0:0:0:0:
244,248,20991,1,0,0:0:0:0:
356,88,21079,6,0,B|364:156|364:156|412:204|412:204|408:284,1,200
456,344,21344,1,0,0:0:0:0:
496,264,21432,2,0,L|500:156,1,100
380,38,21608,2,0,L|384:146,1,100
308,280,21785,5,0,0:0:0:0:
240,336,21873,1,0,0:0:0:0:
152,316,21961,2,0,P|108:272|104:216,1,100
268,140,22138,2,0,P|248:204|184:224,1,100
124,88,22314,1,0,0:0:0:0:
192,32,22402,1,0,0:0:0:0:
280,48,22491,5,0,0:0:0:0:
48,192,22667,5,0,0:0:0:0:
48,192,22755,2,0,L|56:292,1,100
356,112,23020,5,0,0:0:0:0:
356,112,23108,1,0,0:0:0:0:
356,112,23197,2,0,L|348:228,1,100
248,320,23373,1,0,0:0:0:0:
448,344,23461,2,0,L|440:232,1,100
44,160,23726,5,0,0:0:0:0:
44,160,23814,2,0,L|52:260,1,100
360,80,24079,5,0,0:0:0:0:
360,80,24167,2,0,L|352:180,1,100
44,128,24432,5,0,0:0:0:0:
44,128,24520,1,0,0:0:0:0:
44,128,24608,2,0,L|52:228,1,100
148,348,24785,1,0,0:0:0:0:
220,144,24873,2,0,L|236:28,1,100
460,192,25138,5,0,0:0:0:0:
464,228,25226,1,0,0:0:0:0:
468,264,25314,2,0,B|456:354|456:354|404:328|404:328|336:340,1,200
108,156,25579,5,0,0:0:0:0:
112,116,25667,2,0,L|124:16,1,100
112,268,25844,6,0,L|124:368,1,100
244,112,26020,5,0,0:0:0:0:
280,64,26108,1,0,0:0:0:0:
252,36,26197,1,0,0:0:0:0:
240,284,26373,6,0,B|256:376|256:376|332:372|332:372|320:300,1,200
408,72,26637,5,0,0:0:0:0:
444,24,26726,2,0,L|440:140,1,100
362,293,26902,5,0,0:0:0:0:
326,341,26991,2,0,L|330:225,1,100
300,28,27255,5,0,0:0:0:0:
180,264,27432,5,0,0:0:0:0:
148,316,27520,1,0,0:0:0:0:
176,344,27609,1,0,0:0:0:0:
156,68,27785,6,0,B|64:60|64:60|40:128|40:128|96:132,1,200
84,220,28049,1,0,0:0:0:0:
36,248,28138,2,0,L|160:260,1,100
228,140,28313,5,0,0:0:0:0:
264,220,28402,2,0,L|276:344,1,100
456,36,28667,5,0,0:0:0:0:
432,112,28756,2,0,L|420:236,1,100
200,108,29020,5,0,0:0:0:0:
244,196,29109,2,0,L|256:320,1,100
480,44,29373,5,0,0:0:0:0:
440,144,29462,2,0,L|428:268,1,100
168,48,29726,5,0,0:0:0:0:
220,176,29815,2,0,L|232:300,1,100
500,32,30079,5,0,0:0:0:0:
448,180,30168,2,0,L|436:304,1,100
128,0,30432,5,0,0:0:0:0:
192,156,30520,1,0,0:0:0:0:
172,240,30608,2,0,L|152:352,1,100
352,312,30785,1,0,0:0:0:0:
352,312,30873,2,0,L|332:208,1,100
209,57,31138,6,0,L|189:169,1,100
172,240,31314,1,0,0:0:0:0:
64,0,31491,1,0,0:0:0:0:
352,36,31667,6,0,L|332:148,1,100
304,296,31844,1,0,0:0:0:0:
304,296,31932,2,0,B|360:348|444:328|451:258|451:258|420:216|376:216|376:216|412:156|412:156|344:144,1,400
276,124,32373,5,0,0:0:0:0:
204,68,32461,1,0,0:0:0:0:
116,96,32549,1,0,0:0:0:0:
40,44,32638,1,0,0:0:0:0:
32,132,32726,5,0,0:0:0:0:
104,188,32814,1,0,0:0:0:0:
188,156,32902,1,0,0:0:0:0:
264,208,32991,1,0,0:0:0:0:
340,256,33079,5,0,0:0:0:0:
352,168,33167,1,0,0:0:0:0:
436,140,33255,1,0,0:0:0:0:
500,204,33344,2,0,B|484:304|484:304|416:220,1,200
421,227,33608,2,0,L|400:340,1,100
396,360,33785,6,0,B|384:320|340:292|288:304|288:304|184:328,1,200
52,360,34049,1,0,0:0:0:0:
136,340,34138,2,0,L|152:236,1,100
240,96,34314,2,0,L|255:194,1,100
60,280,34491,5,0,0:0:0:0:
76,192,34579,1,0,0:0:0:0:
76,192,34667,2,0,L|92:88,1,100
255,194,34844,2,0,L|239:298,1,100
91,93,35020,1,0,0:0:0:0:
176,144,35108,1,0,0:0:0:0:
268,48,35197,6,0,B|372:24|372:24|324:132,1,200
348,196,35461,1,0,0:0:0:0:
348,196,35549,2,0,L|420:264,1,100
200,280,35726,2,0,L|272:348,1,100
272,132,35902,5,0,0:0:0:0:
196,180,35991,1,0,0:0:0:0:
120,228,36079,2,0,L|8:300,1,100
100,36,36255,2,0,L|212:108,1,100
360,196,36432,5,0,0:0:0:0:
360,196,36520,1,0,0:0:0:0:
360,196,36608,2,0,L|344:308,1,100
32,200,36873,5,0,0:0:0:0:
32,200,36961,2,0,L|16:88,1,100
264,228,37138,6,0,L|248:340,1,100
124,152,37314,5,0,0:0:0:0:
124,152,37402,1,0,0:0:0:0:
124,152,37490,2,0,L|108:40,1,100
168,260,37667,6,0,L|152:372,1,100
220,108,37844,5,0,0:0:0:0:
220,108,37932,1,0,0:0:0:0:
220,108,38020,2,0,L|204:-4,1,100
360,196,38197,5,0,0:0:0:0:
360,196,38285,1,0,0:0:0:0:
360,196,38373,2,0,L|344:308,1,100
124,152,38549,6,0,L|108:40,1,100
448,160,38726,5,0,0:0:0:0:
448,160,38814,1,0,0:0:0:0:
448,160,38902,2,0,L|432:272,1,100
32,200,39079,6,0,L|16:88,1,100
332,192,50373,6,0,B|376:284,1,100
416,104,50725,1,0,0:0:0:0:
240,276,50990,1,0,0:0:0:0:
224,244,51078,2,0,B|200:188|200:188|224:136,1,100
108,36,51520,1,0,0:0:0:0:
93,69,51608,2,0,L|44:176,1,100
164,348,52049,5,0,0:0:0:0:
149,315,52137,2,0,L|100:208,1,100
148,152,52402,1,0,0:0:0:0:
176,136,52490,2,0,B|224:112|224:112|300:128,1,100
476,232,52843,1,0,0:0:0:0:
468,196,52931,1,0,0:0:0:0:
460,160,53020,1,0,0:0:0:0:
310,202,53196,2,0,L|326:90,1,100
252,40,53461,5,0,0:0:0:0:
216,32,53549,2,0,B|160:24|160:24|92:72,1,100
48,116,53814,1,0,0:0:0:0:
56,152,53902,2,0,L|76:256,1,100
256,248,54255,1,0,0:0:0:0:
248,284,54343,1,0,0:0:0:0:
240,320,54431,1,0,0:0:0:0:
40,348,54608,1,0,0:0:0:0:
216,112,54873,5,0,0:0:0:0:
224,76,54961,2,0,B|240:20|240:20|304:4,1,100
376,48,55225,1,0,0:0:0:0:
384,84,55314,2,0,L|408:184,1,100
232,352,55667,1,0,0:0:0:0:
240,316,55755,1,0,0:0:0:0:
248,280,55843,2,0,L|220:168,1,100
480,24,56284,5,0,0:0:0:0:
488,60,56373,2,0,P|484:144|436:212,1,150
412,220,56726,2,0,P|388:140|416:48,1,150
416,120,57079,2,0,P|316:184|268:176,1,150
248,172,57432,2,0,P|124:160|84:180,1,150
140,192,57785,6,0,P|196:116|200:56,1,150
92,184,58138,2,0,P|164:156|200:96,1,150
48,164,58491,2,0,P|112:224|128:308,1,150
124,328,58844,2,0,P|164:368|264:380,1,150
216,356,59197,6,0,P|316:324|348:272,1,150
296,296,59549,2,0,P|340:208|324:140,1,150
312,120,59902,2,0,P|380:196|472:208,1,194.999991073609
504,192,60255,2,0,P|472:116|312:88,1,240
368,124,61844,5,0,0:0:0:0:
368,124,61932,1,0,0:0:0:0:
368,124,62020,2,0,P|264:152|188:80,1,200
160,16,62285,5,0,0:0:0:0:
160,16,62373,2,0,P|152:112|124:136,1,100
128,240,62549,2,0,P|44:180|40:160,1,100
244,196,62726,2,0,P|236:304|216:320,1,100
47,189,62902,2,0,P|96:144|160:148,1,100
144,348,63079,1,0,0:0:0:0:
344,240,63255,5,0,0:0:0:0:
344,240,63344,1,0,0:0:0:0:
396,312,63432,5,0,0:0:0:0:
436,232,63520,1,0,0:0:0:0:
380,160,63608,1,0,0:0:0:0:
324,88,63697,1,0,0:0:0:0:
416,80,63785,1,0,0:0:0:0:
288,168,63873,1,0,0:0:0:0:
40,152,64138,5,0,0:0:0:0:
88,228,64226,1,0,0:0:0:0:
68,316,64314,1,0,0:0:0:0:
156,292,64402,1,0,0:0:0:0:
48,324,64491,1,0,0:0:0:0:
240,268,64579,1,0,0:0:0:0:
359,311,64844,5,0,0:0:0:0:
356,300,64932,1,0,0:0:0:0:
332,224,65020,5,0,0:0:0:0:
340,216,65108,1,0,0:0:0:0:
392,156,65197,5,0,0:0:0:0:
386,146,65285,1,0,0:0:0:0:
352,76,65373,5,0,0:0:0:0:
361,68,65461,1,0,0:0:0:0:
408,4,65549,5,0,0:0:0:0:
448,88,65638,1,0,0:0:0:0:
392,156,65726,1,0,0:0:0:0:
420,240,65814,1,0,0:0:0:0:
480,172,65902,1,0,0:0:0:0:
359,311,65991,1,0,0:0:0:0:
84,100,66255,6,0,L|200:120,1,100
392,156,66432,1,0,0:0:0:0:
304,172,66520,1,0,0:0:0:0:
216,188,66608,1,0,0:0:0:0:
128,204,66697,1,0,0:0:0:0:
29,187,66785,6,0,L|145:207,1,100
432,252,66961,1,0,0:0:0:0:
344,268,67049,1,0,0:0:0:0:
256,284,67137,1,0,0:0:0:0:
168,300,67226,1,0,0:0:0:0:
69,283,67314,5,0,0:0:0:0:
69,283,67402,1,0,0:0:0:0:
69,283,67491,1,0,0:0:0:0:
69,283,67579,1,0,0:0:0:0:
69,283,67667,6,0,L|185:303,1,100
268,108,67844,2,0,L|152:128,1,100
352,212,68020,1,0,0:0:0:0:
352,212,68108,1,0,0:0:0:0:
352,212,68373,6,0,L|236:232,1,100
168,364,68550,2,0,L|284:384,1,100
432,312,68726,1,0,0:0:0:0:
432,312,68814,1,0,0:0:0:0:
96,44,69079,5,0,0:0:0:0:
93,55,69167,1,0,0:0:0:0:
69,131,69255,5,0,0:0:0:0:
77,139,69343,1,0,0:0:0:0:
129,199,69432,5,0,0:0:0:0:
123,209,69520,1,0,0:0:0:0:
89,279,69608,5,0,0:0:0:0:
98,287,69696,1,0,0:0:0:0:
145,353,69785,6,0,L|244:337,1,100
332,172,69961,2,0,L|233:155,1,100
336,320,70138,1,0,0:0:0:0:
336,320,70226,1,0,0:0:0:0:
128,56,70491,6,0,L|136:172,1,100
216,348,70667,1,0,0:0:0:0:
216,348,70755,1,0,0:0:0:0:
216,348,70844,1,0,0:0:0:0:
216,348,70932,1,0,0:0:0:0:
216,348,71020,6,0,L|222:248,1,100
228,40,71197,1,0,0:0:0:0:
228,40,71285,1,0,0:0:0:0:
228,40,71374,1,0,0:0:0:0:
228,40,71462,1,0,0:0:0:0:
228,40,71550,6,0,L|234:140,1,100
308,352,71726,1,0,0:0:0:0:
316,360,71814,1,0,0:0:0:0:
316,360,71902,6,0,L|322:260,1,100
56,96,72079,1,0,0:0:0:0:
56,96,72167,1,0,0:0:0:0:
56,96,72256,1,0,0:0:0:0:
56,96,72344,1,0,0:0:0:0:
56,96,72432,6,0,L|62:196,1,100
420,348,72608,1,0,0:0:0:0:
420,348,72696,1,0,0:0:0:0:
420,348,72785,1,0,0:0:0:0:
420,348,72873,1,0,0:0:0:0:
420,348,72961,6,0,L|426:248,1,100
148,56,73138,2,0,L|154:156,1,100
160,244,73314,5,0,0:0:0:0:
248,236,73402,1,0,0:0:0:0:
336,224,73491,1,0,0:0:0:0:
280,156,73579,1,0,0:0:0:0:
316,320,73667,5,0,0:0:0:0:
316,320,73755,1,0,0:0:0:0:
316,320,73844,1,0,0:0:0:0:
316,320,73932,1,0,0:0:0:0:
316,320,74020,5,0,0:0:0:0:
400,288,74108,1,0,0:0:0:0:
420,200,74197,1,0,0:0:0:0:
368,124,74285,1,0,0:0:0:0:
440,188,74373,5,0,0:0:0:0:
360,144,74461,1,0,0:0:0:0:
272,152,74549,1,0,0:0:0:0:
180,164,74638,1,0,0:0:0:0:
92,176,74726,5,0,0:0:0:0:
148,248,74814,1,0,0:0:0:0:
180,164,74902,1,0,0:0:0:0:
124,92,74991,1,0,0:0:0:0:
76,276,75079,5,0,0:0:0:0:
76,276,75167,1,0,0:0:0:0:
76,276,75255,1,0,0:0:0:0:
76,276,75344,1,0,0:0:0:0:
76,276,75432,5,0,0:0:0:0:
164,288,75520,1,0,0:0:0:0:
252,304,75608,1,0,0:0:0:0:
340,320,75697,1,0,0:0:0:0:
428,336,75785,5,0,0:0:0:0:
396,252,75873,1,0,0:0:0:0:
336,108,75961,5,0,0:0:0:0:
312,196,76049,1,0,0:0:0:0:
272,24,76138,5,0,0:0:0:0:
256,32,76226,1,0,0:0:0:0:
180,76,76314,5,0,0:0:0:0:
164,68,76402,1,0,0:0:0:0:
84,28,76491,5,0,0:0:0:0:
68,36,76579,1,0,0:0:0:0:
24,116,76667,5,0,0:0:0:0:
40,128,76755,1,0,0:0:0:0:
48,220,76844,5,0,0:0:0:0:
120,168,76932,1,0,0:0:0:0:
196,216,77020,1,0,0:0:0:0:
184,304,77108,1,0,0:0:0:0:
116,344,77197,5,0,0:0:0:0:
116,344,77285,1,0,0:0:0:0:
116,344,77373,1,0,0:0:0:0:
116,344,77461,1,0,0:0:0:0:
116,344,77549,5,0,0:0:0:0:
116,252,77638,1,0,0:0:0:0:
196,216,77726,1,0,0:0:0:0:
276,252,77814,1,0,0:0:0:0:
196,192,77902,5,0,0:0:0:0:
280,228,77991,1,0,0:0:0:0:
364,264,78079,1,0,0:0:0:0:
448,232,78167,1,0,0:0:0:0:
464,144,78255,5,0,0:0:0:0:
376,172,78344,1,0,0:0:0:0:
364,264,78432,1,0,0:0:0:0:
436,320,78520,1,0,0:0:0:0:
296,304,78608,5,0,0:0:0:0:
296,304,78697,1,0,0:0:0:0:
296,304,78785,1,0,0:0:0:0:
296,304,78873,1,0,0:0:0:0:
296,304,78961,5,0,0:0:0:0:
224,360,79049,1,0,0:0:0:0:
136,344,79138,1,0,0:0:0:0:
96,264,79226,1,0,0:0:0:0:
124,180,79314,6,0,L|120:120,1,50
208,152,79402,2,0,L|232:84,1,50
300,152,79491,2,0,L|356:108,1,50
392,176,79579,1,0,0:0:0:0:
484,240,79667,5,0,0:0:0:0:
484,240,79755,1,0,0:0:0:0:
484,240,79844,1,0,0:0:0:0:
484,240,79932,1,0,0:0:0:0:
484,240,80020,2,0,L|488:292,4,50
492,320,80285,1,0,0:0:0:0:
376,352,80373,5,0,0:0:0:0:
384,264,80461,1,0,0:0:0:0:
392,176,80549,1,0,0:0:0:0:
400,84,80638,1,0,0:0:0:0:
232,128,80726,5,0,0:0:0:0:
320,132,80814,1,0,0:0:0:0:
280,52,80902,1,0,0:0:0:0:
272,208,80991,1,0,0:0:0:0:
282,29,81079,6,0,B|168:32|168:32|208:100,1,150
168,104,81255,2,0,B|128:200|128:200|100:152,1,150
68,132,81432,2,0,B|150:274|150:274|140:312,1,200
52,332,81697,5,0,0:0:0:0:
52,332,81785,2,0,L|84:220,1,100
232,40,81961,5,0,0:0:0:0:
232,40,82049,1,0,0:0:0:0:
232,40,82138,2,0,L|264:152,1,100
148,328,82314,6,0,L|180:216,1,100
332,44,82491,5,0,0:0:0:0:
332,44,82579,1,0,0:0:0:0:
332,44,82668,2,0,L|364:156,1,100
240,324,82844,6,0,L|272:212,1,100
432,48,83020,5,0,0:0:0:0:
432,48,83108,1,0,0:0:0:0:
432,48,83197,2,0,L|464:160,1,100
336,320,83373,6,0,L|368:208,1,100
232,40,83549,2,0,L|264:152,1,100
148,328,83726,2,0,L|180:216,1,100
64,32,83902,1,0,0:0:0:0:
64,32,83991,2,0,B|90:129|90:129|60:232,1,200
204,140,84255,2,0,B|280:120|280:120|416:176,1,200
412,176,84520,5,0,0:0:0:0:
