osu file format v14

[General]
AudioFilename: audio.mp3
AudioLeadIn: 0
PreviewTime: 25411
Countdown: 0
SampleSet: Normal
StackLeniency: 0.7
Mode: 1
LetterboxInBreaks: 0
WidescreenStoryboard: 0

[Editor]
Bookmarks: 25508
DistanceSpacing: 0.9
BeatDivisor: 4
GridSize: 4
TimelineZoom: 1.9

[Metadata]
Title:Jet Jet Jade
TitleUnicode:Jet Jet Jade
Artist:Renard
ArtistUnicode:Renard
Creator:Boaz
Version:Let The Bass Kick
Source:
Tags:full techno jackass instrumental electronic english lapfox trax halley labs queenston
BeatmapID:3448438
BeatmapSetID:1687345

[Difficulty]
HPDrainRate:6
CircleSize:5
OverallDifficulty:6
ApproachRate:5
SliderMultiplier:1.4
SliderTickRate:1

[Events]
//Background and Video events
0,0,"bg.png",0,90
//Break Periods
//Storyboard Layer 0 (Background)
//Storyboard Layer 1 (Fail)
//Storyboard Layer 2 (Pass)
//Storyboard Layer 3 (Foreground)
//Storyboard Layer 4 (Overlay)
//Storyboard Sound Samples

[TimingPoints]
734,387.096774193548,4,1,0,80,1,0
734,-66.6666666666667,4,1,0,80,0,0
927,-100,4,1,0,80,0,0
3830,-66.6666666666667,4,1,0,80,0,0
4024,-100,4,1,0,80,0,0
5185,-90.9090909090909,4,1,0,80,0,0
5282,-83.3333333333333,4,1,0,80,0,0
5379,-66.6666666666667,4,1,0,80,0,0
5572,-90.9090909090909,4,1,0,80,0,0
5669,-83.3333333333333,4,1,0,80,0,0
5766,-66.6666666666667,4,1,0,80,0,0
5959,-90.9090909090909,4,1,0,80,0,0
6056,-83.3333333333333,4,1,0,80,0,0
6153,-66.6666666666667,4,1,0,80,0,0
6346,-100,4,1,0,80,0,0
6540,-95.2380952380952,4,1,0,80,0,0
6637,-90.9090909090909,4,1,0,80,0,0
6733,-86.9565217391304,4,1,0,80,0,0
6830,-83.3333333333333,4,1,0,80,0,0
6927,-66.6666666666667,4,1,0,80,0,0
7121,-100,4,1,0,80,0,0
10024,-66.6666666666667,4,1,0,80,0,0
10217,-100,4,1,0,80,0,0
13121,-66.6666666666667,4,1,0,80,0,0
13314,-100,4,1,0,80,0,0
16217,-66.6666666666667,4,1,0,80,0,0
16411,-100,4,1,0,80,0,0
17572,-90.9090909090909,4,1,0,80,0,0
17669,-83.3333333333333,4,1,0,80,0,0
17766,-66.6666666666667,4,1,0,80,0,0
17959,-90.9090909090909,4,1,0,80,0,0
18056,-83.3333333333333,4,1,0,80,0,0
18153,-66.6666666666667,4,1,0,80,0,0
18346,-90.9090909090909,4,1,0,80,0,0
18443,-83.3333333333333,4,1,0,80,0,0
18540,-66.6666666666667,4,1,0,80,0,0
18733,-100,4,1,0,80,0,0
18927,-95.2380952380952,4,1,0,80,0,0
19024,-90.9090909090909,4,1,0,80,0,0
19120,-86.9565217391304,4,1,0,80,0,0
19217,-83.3333333333333,4,1,0,80,0,0
19314,-66.6666666666667,4,1,0,80,0,0
19508,-100,4,1,0,80,0,0
22411,-66.6666666666667,4,1,0,80,0,0
22604,-100,4,1,0,80,0,0
25508,-66.6666666666667,4,1,0,70,0,0
25701,-117.647058823529,4,1,0,70,0,0
36346,-117.647058823529,4,1,0,70,0,0
36443,-116.286506695196,4,1,0,70,0,0
36540,-114.957063536769,4,1,0,70,0,0
36637,-113.65780363114,4,1,0,70,0,0
36733,-112.387458009236,4,1,0,70,0,0
36830,-111.145195637773,4,1,0,70,0,0
36927,-109.930095452302,4,1,0,70,0,0
37024,-108.741394477895,4,1,0,70,0,0
37121,-107.578010194092,4,1,0,70,0,0
37217,-106.439255648997,4,1,0,70,0,0
37314,-105.324356889477,4,1,0,70,0,0
37411,-104.232680697775,4,1,0,70,0,0
37508,-103.163296149843,4,1,0,70,0,0
37604,-102.115631656663,4,1,0,70,0,0
37701,-101.08903214328,4,1,0,70,0,0
37798,-100.08296878112,4,1,0,70,0,0
37895,-66.6666666666667,4,1,0,70,0,0
38088,-117.647058823529,4,1,0,70,0,0
48733,-117.647058823529,4,1,0,70,0,0
48830,-116.286506695196,4,1,0,70,0,0
48927,-114.957063536769,4,1,0,70,0,0
49024,-113.65780363114,4,1,0,70,0,0
49120,-112.387458009236,4,1,0,70,0,0
49217,-111.145195637773,4,1,0,70,0,0
49314,-109.930095452302,4,1,0,70,0,0
49411,-108.741394477895,4,1,0,70,0,0
49508,-107.578010194092,4,1,0,70,0,0
49604,-106.439255648997,4,1,0,70,0,0
49701,-105.324356889477,4,1,0,70,0,0
49798,-104.232680697775,4,1,0,70,0,0
49895,-103.163296149843,4,1,0,70,0,0
49991,-102.115631656663,4,1,0,70,0,0
50088,-101.08903214328,4,1,0,70,0,0
50185,-100.08296878112,4,1,0,70,0,0
50282,-66.6666666666667,4,1,0,70,0,0
50475,-100,4,1,0,80,0,0
53378,-66.6666666666667,4,1,0,80,0,0
53572,-100,4,1,0,80,0,0
54733,-90.9090909090909,4,1,0,80,0,0
54830,-83.3333333333333,4,1,0,80,0,0
54927,-66.6666666666667,4,1,0,80,0,0
55120,-90.9090909090909,4,1,0,80,0,0
55217,-83.3333333333333,4,1,0,80,0,0
55314,-66.6666666666667,4,1,0,80,0,0
55507,-90.9090909090909,4,1,0,80,0,0
55604,-83.3333333333333,4,1,0,80,0,0
55701,-66.6666666666667,4,1,0,80,0,0
55894,-100,4,1,0,80,0,0
56088,-95.2380952380952,4,1,0,80,0,0
56185,-90.9090909090909,4,1,0,80,0,0
56281,-86.9565217391304,4,1,0,80,0,0
56378,-83.3333333333333,4,1,0,80,0,0
56475,-66.6666666666667,4,1,0,80,0,0
56669,-100,4,1,0,80,0,0
59572,-66.6666666666667,4,1,0,80,0,0
59765,-100,4,1,0,80,0,0
62669,-66.6666666666667,4,1,0,80,0,0
62862,-100,4,1,0,80,0,0
65765,-66.6666666666667,4,1,0,80,0,0
65959,-100,4,1,0,80,0,0
67120,-90.9090909090909,4,1,0,80,0,0
67217,-83.3333333333333,4,1,0,80,0,0
67314,-66.6666666666667,4,1,0,80,0,0
67507,-90.9090909090909,4,1,0,80,0,0
67604,-83.3333333333333,4,1,0,80,0,0
67701,-66.6666666666667,4,1,0,80,0,0
67894,-90.9090909090909,4,1,0,80,0,0
67991,-83.3333333333333,4,1,0,80,0,0
68088,-66.6666666666667,4,1,0,80,0,0
68281,-100,4,1,0,80,0,0
68475,-95.2380952380952,4,1,0,80,0,0
68572,-90.9090909090909,4,1,0,80,0,0
68668,-86.9565217391304,4,1,0,80,0,0
68765,-83.3333333333333,4,1,0,80,0,0
68862,-66.6666666666667,4,1,0,80,0,0
69056,-100,4,1,0,80,0,0
71959,-66.6666666666667,4,1,0,80,0,0
72152,-100,4,1,0,80,0,0
75056,-66.6666666666667,4,1,0,70,0,0
75250,-100,4,1,0,50,0,0

[HitObjects]
314,207,734,5,12,0:0:0:0:
171,190,927,1,0,0:0:0:0:
171,190,1024,1,0,0:0:0:0:
171,190,1121,1,8,0:0:0:0:
171,190,1314,1,0,0:0:0:0:
171,190,1508,1,8,0:0:0:0:
436,216,1604,1,0,0:0:0:0:
171,190,1701,1,0,0:0:0:0:
171,190,1798,1,8,0:0:0:0:
436,216,1895,1,0,0:0:0:0:
171,190,2088,1,8,0:0:0:0:
171,190,2185,1,8,0:0:0:0:
171,190,2282,1,0,0:0:0:0:
171,190,2475,1,0,0:0:0:0:
171,190,2669,1,8,0:0:0:0:
294,211,2863,1,0,0:0:0:0:
294,211,3056,1,8,0:0:0:0:
294,211,3153,1,0,0:0:0:0:
294,211,3250,1,8,0:0:0:0:
294,211,3346,1,8,0:0:0:0:
294,211,3443,1,0,0:0:0:0:
299,210,3637,1,0,0:0:0:0:
314,207,3830,1,12,0:0:0:0:
171,190,4024,1,0,0:0:0:0:
171,190,4121,1,8,0:0:0:0:
171,190,4217,1,0,0:0:0:0:
171,190,4411,1,0,0:0:0:0:
171,190,4604,1,8,0:0:0:0:
431,216,4701,1,0,0:0:0:0:
171,190,4798,1,0,0:0:0:0:
171,190,4895,1,8,0:0:0:0:
431,216,4992,1,0,0:0:0:0:
329,160,5185,1,0,0:0:0:0:
329,160,5282,1,0,0:0:0:0:
338,224,5379,1,12,0:0:0:0:
360,189,5572,1,0,0:0:0:0:
360,189,5669,1,8,0:0:0:0:
360,189,5766,1,4,0:0:0:0:
326,188,5959,1,0,0:0:0:0:
326,188,6056,1,0,0:0:0:0:
338,224,6153,1,12,0:0:0:0:
320,187,6346,1,0,0:0:0:0:
320,187,6540,1,8,0:0:0:0:
320,187,6637,1,8,0:0:0:0:
320,187,6733,1,0,0:0:0:0:
320,187,6830,1,0,0:0:0:0:
342,249,6927,1,12,0:0:0:0:
171,190,7121,1,0,0:0:0:0:
171,190,7217,1,0,0:0:0:0:
171,190,7314,1,8,0:0:0:0:
171,190,7508,1,0,0:0:0:0:
171,190,7701,1,8,0:0:0:0:
252,206,7798,1,8,0:0:0:0:
171,190,7895,1,0,0:0:0:0:
171,190,7992,1,8,0:0:0:0:
252,206,8088,1,0,0:0:0:0:
171,190,8282,1,8,0:0:0:0:
171,190,8379,1,8,0:0:0:0:
171,190,8475,1,0,0:0:0:0:
171,190,8669,1,8,0:0:0:0:
171,190,8863,1,8,0:0:0:0:
294,211,9056,1,0,0:0:0:0:
294,211,9250,1,8,0:0:0:0:
294,211,9346,1,8,0:0:0:0:
294,211,9443,1,8,0:0:0:0:
294,211,9540,1,8,0:0:0:0:
294,211,9637,1,0,0:0:0:0:
299,210,9830,1,0,0:0:0:0:
339,247,10024,1,12,0:0:0:0:
171,190,10217,1,0,0:0:0:0:
171,190,10314,1,8,0:0:0:0:
171,190,10411,1,0,0:0:0:0:
171,190,10604,1,0,0:0:0:0:
171,190,10798,1,8,0:0:0:0:
308,226,10895,1,0,0:0:0:0:
171,190,10992,1,8,0:0:0:0:
171,190,11088,1,8,0:0:0:0:
308,226,11185,1,0,0:0:0:0:
286,174,11379,1,0,0:0:0:0:
286,174,11475,1,0,0:0:0:0:
339,247,11572,1,8,0:0:0:0:
216,185,11766,1,0,0:0:0:0:
339,247,11959,1,8,0:0:0:0:
262,176,12153,1,8,0:0:0:0:
339,247,12346,1,0,0:0:0:0:
255,160,12540,1,0,0:0:0:0:
255,160,12733,1,8,0:0:0:0:
255,160,12830,1,0,0:0:0:0:
255,160,12927,1,0,0:0:0:0:
255,160,13024,1,0,0:0:0:0:
339,247,13121,1,12,0:0:0:0:
171,190,13314,1,0,0:0:0:0:
171,190,13411,1,0,0:0:0:0:
171,190,13508,1,8,0:0:0:0:
171,190,13701,1,0,0:0:0:0:
171,190,13895,1,8,0:0:0:0:
259,198,13992,1,0,0:0:0:0:
171,190,14088,1,0,0:0:0:0:
171,190,14185,1,8,0:0:0:0:
259,198,14282,1,0,0:0:0:0:
171,190,14475,1,8,0:0:0:0:
171,190,14572,1,8,0:0:0:0:
171,190,14669,1,0,0:0:0:0:
171,190,14863,1,8,0:0:0:0:
171,190,15056,1,8,0:0:0:0:
294,211,15250,1,0,0:0:0:0:
294,211,15443,1,8,0:0:0:0:
294,211,15540,1,8,0:0:0:0:
294,211,15637,1,0,0:0:0:0:
294,211,15733,1,0,0:0:0:0:
294,211,15830,1,8,0:0:0:0:
264,168,16024,1,0,0:0:0:0:
366,271,16217,1,12,0:0:0:0:
171,190,16411,1,0,0:0:0:0:
171,190,16508,1,8,0:0:0:0:
171,190,16604,1,0,0:0:0:0:
171,190,16798,1,0,0:0:0:0:
171,190,16992,1,8,0:0:0:0:
259,198,17088,1,8,0:0:0:0:
171,190,17185,1,0,0:0:0:0:
171,190,17282,1,8,0:0:0:0:
259,198,17379,1,0,0:0:0:0:
223,191,17572,1,8,0:0:0:0:
223,191,17669,1,0,0:0:0:0:
366,271,17766,1,12,0:0:0:0:
223,191,17959,1,0,0:0:0:0:
223,191,18056,1,8,0:0:0:0:
366,271,18153,1,4,0:0:0:0:
223,191,18346,1,8,0:0:0:0:
223,191,18443,1,0,0:0:0:0:
366,271,18540,1,12,0:0:0:0:
223,191,18733,1,0,0:0:0:0:
223,191,18927,1,8,0:0:0:0:
223,191,19024,1,0,0:0:0:0:
223,191,19121,1,0,0:0:0:0:
223,191,19217,1,0,0:0:0:0:
366,271,19314,1,12,0:0:0:0:
171,190,19508,1,0,0:0:0:0:
171,190,19604,1,8,0:0:0:0:
171,190,19701,1,0,0:0:0:0:
171,190,19895,1,0,0:0:0:0:
171,190,20088,1,8,0:0:0:0:
268,166,20185,1,0,0:0:0:0:
171,190,20282,1,8,0:0:0:0:
171,190,20379,1,8,0:0:0:0:
268,166,20475,1,0,0:0:0:0:
171,190,20669,1,8,0:0:0:0:
171,190,20766,1,8,0:0:0:0:
171,190,20863,1,0,0:0:0:0:
171,190,21056,1,8,0:0:0:0:
171,190,21250,1,8,0:0:0:0:
294,211,21443,1,0,0:0:0:0:
294,211,21637,1,8,0:0:0:0:
294,211,21733,1,8,0:0:0:0:
294,211,21830,1,0,0:0:0:0:
294,211,21927,1,0,0:0:0:0:
294,211,22024,1,8,0:0:0:0:
299,210,22217,1,0,0:0:0:0:
366,271,22411,1,12,0:0:0:0:
171,190,22604,1,0,0:0:0:0:
171,190,22701,1,8,0:0:0:0:
171,190,22798,1,0,0:0:0:0:
171,190,22992,1,0,0:0:0:0:
171,190,23185,1,8,0:0:0:0:
196,160,23282,1,0,0:0:0:0:
171,190,23379,1,0,0:0:0:0:
171,190,23475,1,8,0:0:0:0:
196,160,23572,1,0,0:0:0:0:
171,167,23766,1,0,0:0:0:0:
171,167,23863,1,0,0:0:0:0:
366,271,23959,1,8,0:0:0:0:
233,188,24153,1,0,0:0:0:0:
309,218,24346,1,8,0:0:0:0:
171,167,24540,1,8,0:0:0:0:
309,218,24733,1,0,0:0:0:0:
366,271,25508,1,12,0:0:0:0:
447,227,25701,1,0,0:0:0:0:
277,189,25895,1,8,0:0:0:0:
447,227,26088,1,8,0:0:0:0:
447,227,26185,1,8,0:0:0:0:
323,211,26282,1,0,0:0:0:0:
277,189,26475,1,0,0:0:0:0:
277,189,26669,1,8,0:0:0:0:
323,211,26863,1,8,0:0:0:0:
323,211,26959,1,8,0:0:0:0:
277,189,27056,1,0,0:0:0:0:
323,211,27153,1,0,0:0:0:0:
323,211,27250,1,8,0:0:0:0:
323,211,27346,1,0,0:0:0:0:
277,189,27443,1,8,0:0:0:0:
309,208,27637,1,0,0:0:0:0:
309,208,27733,1,8,0:0:0:0:
277,189,27830,1,0,0:0:0:0:
309,208,28024,1,0,0:0:0:0:
277,189,28217,1,8,0:0:0:0:
309,208,28314,1,0,0:0:0:0:
309,208,28411,1,8,0:0:0:0:
309,208,28508,1,8,0:0:0:0:
277,189,28604,1,0,0:0:0:0:
309,208,28798,1,0,0:0:0:0:
277,189,28992,1,8,0:0:0:0:
309,208,29088,1,8,0:0:0:0:
309,208,29185,1,0,0:0:0:0:
309,208,29282,1,8,0:0:0:0:
277,189,29379,1,0,0:0:0:0:
309,208,29572,1,0,0:0:0:0:
277,189,29766,1,8,0:0:0:0:
309,208,29959,1,0,0:0:0:0:
309,208,30056,1,8,0:0:0:0:
277,189,30153,1,0,0:0:0:0:
309,208,30250,1,0,0:0:0:0:
309,208,30346,1,8,0:0:0:0:
309,208,30443,1,0,0:0:0:0:
309,208,30540,1,8,0:0:0:0:
309,208,30733,1,8,0:0:0:0:
309,208,30830,1,8,0:0:0:0:
277,189,30927,1,0,0:0:0:0:
309,208,31121,1,0,0:0:0:0:
277,189,31314,1,8,0:0:0:0:
309,208,31411,1,8,0:0:0:0:
309,208,31508,1,8,0:0:0:0:
309,208,31604,1,8,0:0:0:0:
309,208,31701,1,0,0:0:0:0:
309,208,31895,1,0,0:0:0:0:
277,189,32088,1,8,0:0:0:0:
309,208,32282,1,0,0:0:0:0:
309,208,32379,1,8,0:0:0:0:
277,189,32475,1,0,0:0:0:0:
309,208,32669,1,0,0:0:0:0:
277,189,32863,1,8,0:0:0:0:
309,208,33056,1,8,0:0:0:0:
309,208,33153,1,8,0:0:0:0:
277,189,33250,1,0,0:0:0:0:
309,208,33346,1,0,0:0:0:0:
309,208,33443,1,8,0:0:0:0:
309,208,33540,1,0,0:0:0:0:
277,189,33637,1,8,0:0:0:0:
309,208,33830,1,8,0:0:0:0:
309,208,33927,1,8,0:0:0:0:
277,189,34024,1,0,0:0:0:0:
309,208,34217,1,0,0:0:0:0:
277,189,34411,1,8,0:0:0:0:
309,208,34508,1,8,0:0:0:0:
309,208,34604,1,0,0:0:0:0:
309,208,34701,1,8,0:0:0:0:
277,189,34798,1,0,0:0:0:0:
309,208,34992,1,8,0:0:0:0:
309,208,35088,1,0,0:0:0:0:
277,189,35185,1,8,0:0:0:0:
309,208,35379,1,8,0:0:0:0:
277,189,35572,1,0,0:0:0:0:
309,208,35766,1,0,0:0:0:0:
309,208,35863,1,0,0:0:0:0:
277,189,35959,1,8,0:0:0:0:
309,208,36153,1,0,0:0:0:0:
277,189,36346,5,8,0:0:0:0:
277,189,36443,1,8,0:0:0:0:
277,189,36540,1,0,0:0:0:0:
277,189,36637,1,0,0:0:0:0:
277,189,36733,1,8,0:0:0:0:
277,189,36830,1,0,0:0:0:0:
277,189,36927,1,0,0:0:0:0:
277,189,37024,1,0,0:0:0:0:
277,189,37121,1,8,0:0:0:0:
277,189,37217,1,8,0:0:0:0:
277,189,37314,1,0,0:0:0:0:
277,189,37411,1,0,0:0:0:0:
277,189,37508,1,8,0:0:0:0:
277,189,37604,1,0,0:0:0:0:
277,189,37701,1,0,0:0:0:0:
277,189,37798,1,0,0:0:0:0:
263,201,37895,5,12,0:0:0:0:
447,227,38088,1,0,0:0:0:0:
277,189,38282,1,8,0:0:0:0:
447,227,38475,1,8,0:0:0:0:
447,227,38572,1,8,0:0:0:0:
323,211,38669,1,0,0:0:0:0:
277,189,38863,1,0,0:0:0:0:
277,189,39056,1,8,0:0:0:0:
323,211,39250,1,8,0:0:0:0:
323,211,39346,1,8,0:0:0:0:
277,189,39443,1,0,0:0:0:0:
323,211,39540,1,0,0:0:0:0:
323,211,39637,1,8,0:0:0:0:
323,211,39733,1,0,0:0:0:0:
277,189,39830,1,8,0:0:0:0:
309,208,40024,1,0,0:0:0:0:
309,208,40121,1,8,0:0:0:0:
277,189,40217,1,0,0:0:0:0:
309,208,40411,1,0,0:0:0:0:
277,189,40604,1,0,0:0:0:0:
309,208,40701,1,0,0:0:0:0:
309,208,40798,1,8,0:0:0:0:
309,208,40895,1,8,0:0:0:0:
277,189,40992,1,0,0:0:0:0:
309,208,41185,1,0,0:0:0:0:
277,189,41379,1,8,0:0:0:0:
309,208,41475,1,8,0:0:0:0:
309,208,41572,1,0,0:0:0:0:
309,208,41669,1,8,0:0:0:0:
277,189,41766,1,0,0:0:0:0:
309,208,41959,1,0,0:0:0:0:
277,189,42153,1,0,0:0:0:0:
309,208,42346,1,0,0:0:0:0:
309,208,42443,1,8,0:0:0:0:
277,189,42540,1,8,0:0:0:0:
309,208,42637,1,0,0:0:0:0:
309,208,42733,1,8,0:0:0:0:
309,208,42830,1,0,0:0:0:0:
277,189,42927,1,8,0:0:0:0:
309,208,43121,1,8,0:0:0:0:
309,208,43217,1,8,0:0:0:0:
277,189,43314,1,0,0:0:0:0:
309,208,43508,1,0,0:0:0:0:
277,189,43701,1,8,0:0:0:0:
309,208,43798,1,8,0:0:0:0:
309,208,43895,1,8,0:0:0:0:
309,208,43992,1,8,0:0:0:0:
277,189,44088,1,0,0:0:0:0:
309,208,44282,1,0,0:0:0:0:
277,189,44475,1,8,0:0:0:0:
309,208,44669,1,0,0:0:0:0:
309,208,44766,1,8,0:0:0:0:
277,189,44863,1,0,0:0:0:0:
309,208,45056,1,0,0:0:0:0:
277,189,45250,1,0,0:0:0:0:
309,208,45443,1,8,0:0:0:0:
309,208,45540,1,8,0:0:0:0:
277,189,45637,1,0,0:0:0:0:
309,208,45733,1,0,0:0:0:0:
309,208,45830,1,8,0:0:0:0:
309,208,45927,1,0,0:0:0:0:
277,189,46024,1,8,0:0:0:0:
309,208,46217,1,8,0:0:0:0:
309,208,46314,1,8,0:0:0:0:
277,189,46411,1,0,0:0:0:0:
309,208,46604,1,0,0:0:0:0:
277,189,46798,1,0,0:0:0:0:
309,208,46895,1,8,0:0:0:0:
309,208,46992,1,8,0:0:0:0:
309,208,47088,1,8,0:0:0:0:
277,189,47185,1,0,0:0:0:0:
309,208,47379,1,8,0:0:0:0:
309,208,47475,1,0,0:0:0:0:
277,189,47572,1,8,0:0:0:0:
309,208,47766,1,8,0:0:0:0:
277,189,47959,1,0,0:0:0:0:
309,208,48153,1,0,0:0:0:0:
309,208,48250,1,0,0:0:0:0:
277,189,48346,1,8,0:0:0:0:
309,208,48540,1,0,0:0:0:0:
277,189,48733,1,8,0:0:0:0:
277,189,48830,1,0,0:0:0:0:
277,189,48927,1,0,0:0:0:0:
277,189,49024,1,0,0:0:0:0:
277,189,49121,1,8,0:0:0:0:
277,189,49217,1,8,0:0:0:0:
277,189,49314,1,0,0:0:0:0:
277,189,49411,1,0,0:0:0:0:
277,189,49508,1,8,0:0:0:0:
277,189,49604,1,0,0:0:0:0:
277,189,49701,1,0,0:0:0:0:
277,189,49798,1,0,0:0:0:0:
277,189,49895,1,8,0:0:0:0:
277,189,49992,1,8,0:0:0:0:
277,189,50088,1,0,0:0:0:0:
277,189,50185,1,0,0:0:0:0:
257,184,50282,5,12,0:0:0:0:
171,190,50475,1,0,0:0:0:0:
171,190,50572,1,0,0:0:0:0:
171,190,50669,1,8,0:0:0:0:
171,190,50863,1,0,0:0:0:0:
171,190,51056,1,8,0:0:0:0:
150,194,51153,1,0,0:0:0:0:
171,190,51250,1,0,0:0:0:0:
171,190,51346,1,8,0:0:0:0:
150,194,51443,1,0,0:0:0:0:
171,190,51637,1,8,0:0:0:0:
171,190,51733,1,8,0:0:0:0:
171,190,51830,1,0,0:0:0:0:
171,190,52024,1,0,0:0:0:0:
171,190,52217,1,8,0:0:0:0:
294,211,52411,1,0,0:0:0:0:
294,211,52604,1,8,0:0:0:0:
294,211,52701,1,0,0:0:0:0:
294,211,52798,1,8,0:0:0:0:
294,211,52895,1,8,0:0:0:0:
294,211,52992,1,0,0:0:0:0:
299,210,53185,1,0,0:0:0:0:
314,207,53379,1,12,0:0:0:0:
171,190,53572,1,0,0:0:0:0:
171,190,53669,1,8,0:0:0:0:
171,190,53766,1,0,0:0:0:0:
171,190,53959,1,0,0:0:0:0:
171,190,54153,1,8,0:0:0:0:
150,194,54250,1,8,0:0:0:0:
171,190,54346,1,0,0:0:0:0:
171,190,54443,1,8,0:0:0:0:
150,194,54540,1,0,0:0:0:0:
329,160,54733,1,0,0:0:0:0:
329,160,54830,1,0,0:0:0:0:
338,224,54927,1,12,0:0:0:0:
360,189,55121,1,0,0:0:0:0:
360,189,55217,1,8,0:0:0:0:
360,189,55314,1,4,0:0:0:0:
326,188,55508,1,0,0:0:0:0:
326,188,55604,1,0,0:0:0:0:
338,224,55701,1,12,0:0:0:0:
320,187,55895,1,0,0:0:0:0:
320,187,56088,1,8,0:0:0:0:
320,187,56185,1,8,0:0:0:0:
320,187,56282,1,0,0:0:0:0:
320,187,56379,1,0,0:0:0:0:
342,249,56475,1,12,0:0:0:0:
171,190,56669,1,0,0:0:0:0:
171,190,56766,1,0,0:0:0:0:
171,190,56863,1,8,0:0:0:0:
171,190,57056,1,0,0:0:0:0:
171,190,57250,1,8,0:0:0:0:
243,103,57346,1,0,0:0:0:0:
171,190,57443,1,8,0:0:0:0:
171,190,57540,1,8,0:0:0:0:
243,103,57637,1,0,0:0:0:0:
171,190,57830,1,8,0:0:0:0:
171,190,57927,1,8,0:0:0:0:
171,190,58024,1,0,0:0:0:0:
171,190,58217,1,8,0:0:0:0:
171,190,58411,1,8,0:0:0:0:
294,211,58604,1,0,0:0:0:0:
294,211,58798,1,8,0:0:0:0:
294,211,58895,1,8,0:0:0:0:
294,211,58992,1,8,0:0:0:0:
294,211,59088,1,8,0:0:0:0:
294,211,59185,1,0,0:0:0:0:
299,210,59379,1,0,0:0:0:0:
339,247,59572,1,12,0:0:0:0:
171,190,59766,1,0,0:0:0:0:
171,190,59863,1,8,0:0:0:0:
171,190,59959,1,0,0:0:0:0:
171,190,60153,1,0,0:0:0:0:
171,190,60346,1,8,0:0:0:0:
255,173,60443,1,0,0:0:0:0:
171,190,60540,1,0,0:0:0:0:
171,190,60637,1,8,0:0:0:0:
255,173,60733,1,0,0:0:0:0:
286,174,60927,1,0,0:0:0:0:
286,174,61024,1,0,0:0:0:0:
339,247,61121,1,8,0:0:0:0:
216,185,61314,1,0,0:0:0:0:
339,247,61508,1,8,0:0:0:0:
262,176,61701,1,8,0:0:0:0:
339,247,61895,1,0,0:0:0:0:
255,160,62088,1,0,0:0:0:0:
255,160,62282,1,8,0:0:0:0:
255,160,62379,1,0,0:0:0:0:
255,160,62475,1,0,0:0:0:0:
255,160,62572,1,0,0:0:0:0:
339,247,62669,1,12,0:0:0:0:
171,190,62863,1,0,0:0:0:0:
171,190,62959,1,0,0:0:0:0:
171,190,63056,1,8,0:0:0:0:
171,190,63250,1,0,0:0:0:0:
171,190,63443,1,8,0:0:0:0:
255,173,63540,1,8,0:0:0:0:
171,190,63637,1,0,0:0:0:0:
171,190,63733,1,8,0:0:0:0:
255,173,63830,1,0,0:0:0:0:
171,190,64024,1,8,0:0:0:0:
171,190,64121,1,8,0:0:0:0:
171,190,64217,1,0,0:0:0:0:
171,190,64411,1,8,0:0:0:0:
171,190,64604,1,8,0:0:0:0:
294,211,64798,1,0,0:0:0:0:
294,211,64992,1,8,0:0:0:0:
294,211,65088,1,8,0:0:0:0:
294,211,65185,1,0,0:0:0:0:
294,211,65282,1,0,0:0:0:0:
294,211,65379,1,8,0:0:0:0:
264,168,65572,1,0,0:0:0:0:
366,271,65766,1,12,0:0:0:0:
171,190,65959,1,0,0:0:0:0:
171,190,66056,1,8,0:0:0:0:
171,190,66153,1,0,0:0:0:0:
171,190,66346,1,0,0:0:0:0:
171,190,66540,1,8,0:0:0:0:
255,173,66637,1,0,0:0:0:0:
171,190,66733,1,8,0:0:0:0:
171,190,66830,1,8,0:0:0:0:
255,173,66927,1,0,0:0:0:0:
223,191,67121,1,8,0:0:0:0:
223,191,67217,1,0,0:0:0:0:
366,271,67314,1,12,0:0:0:0:
223,191,67508,1,0,0:0:0:0:
223,191,67604,1,8,0:0:0:0:
366,271,67701,1,4,0:0:0:0:
223,191,67895,1,8,0:0:0:0:
223,191,67992,1,0,0:0:0:0:
366,271,68088,1,12,0:0:0:0:
223,191,68282,1,0,0:0:0:0:
223,191,68475,1,8,0:0:0:0:
223,191,68572,1,0,0:0:0:0:
223,191,68669,1,0,0:0:0:0:
223,191,68766,1,0,0:0:0:0:
366,271,68863,1,12,0:0:0:0:
171,190,69056,1,0,0:0:0:0:
171,190,69153,1,8,0:0:0:0:
171,190,69250,1,0,0:0:0:0:
171,190,69443,1,0,0:0:0:0:
171,190,69637,1,8,0:0:0:0:
220,167,69733,1,0,0:0:0:0:
171,190,69830,1,0,0:0:0:0:
171,190,69927,1,8,0:0:0:0:
220,167,70024,1,0,0:0:0:0:
171,190,70217,1,8,0:0:0:0:
171,190,70314,1,8,0:0:0:0:
171,190,70411,1,0,0:0:0:0:
171,190,70604,1,8,0:0:0:0:
171,190,70798,1,8,0:0:0:0:
294,211,70992,1,0,0:0:0:0:
294,211,71185,1,8,0:0:0:0:
294,211,71282,1,8,0:0:0:0:
294,211,71379,1,0,0:0:0:0:
294,211,71475,1,0,0:0:0:0:
294,211,71572,1,8,0:0:0:0:
299,210,71766,1,0,0:0:0:0:
366,271,71959,1,12,0:0:0:0:
171,190,72153,1,0,0:0:0:0:
171,190,72250,1,8,0:0:0:0:
171,190,72346,1,0,0:0:0:0:
171,190,72540,1,0,0:0:0:0:
171,190,72733,1,8,0:0:0:0:
220,167,72830,1,8,0:0:0:0:
171,190,72927,1,0,0:0:0:0:
171,190,73024,1,8,0:0:0:0:
220,167,73121,1,0,0:0:0:0:
171,167,73314,1,0,0:0:0:0:
171,167,73411,1,0,0:0:0:0:
366,271,73508,1,8,0:0:0:0:
233,188,73701,1,0,0:0:0:0:
309,218,73895,5,8,0:0:0:0:
171,167,74088,1,8,0:0:0:0:
309,218,74282,1,0,0:0:0:0:
294,203,75056,1,12,0:0:0:0:
256,192,75250,12,0,75733,0:0:0:0:
