osu file format v14

[General]
AudioFilename: Renard - Intensive Care Unit (feat. FIAB).mp3
AudioLeadIn: 0
PreviewTime: 69642
Countdown: 1
SampleSet: Soft
StackLeniency: 0.7
Mode: 0
LetterboxInBreaks: 0
WidescreenStoryboard: 0

[Editor]
DistanceSpacing: 1
BeatDivisor: 4
GridSize: 4
TimelineZoom: 1.6

[Metadata]
Title:Intensive Care Unit (feat. FIAB)
TitleUnicode:Intensive Care Unit (feat. FIAB)
Artist:Renard
ArtistUnicode:Renard
Creator:Leader
Version:Trauma
Source:
Tags:delis stefan tng thenutritiousguy -kevincela- lapfox trax
BeatmapID:955346
BeatmapSetID:444699

[Difficulty]
HPDrainRate:7
CircleSize:4.3
OverallDifficulty:8
ApproachRate:9.4
SliderMultiplier:1.7
SliderTickRate:1

[Events]
//Background and Video events
0,0,"bg.jpg",0,0
//Break Periods
2,60247,68502
//Storyboard Layer 0 (Background)
//Storyboard Layer 1 (Fail)
//Storyboard Layer 2 (Pass)
//Storyboard Layer 3 (Foreground)
//Storyboard Sound Samples

[TimingPoints]
2476,299.850074962519,4,2,0,60,1,0
20467,-133.333333333333,4,2,0,60,0,0
20616,-133.333333333333,4,2,0,5,0,0
20766,-133.333333333333,4,2,0,60,0,0
20916,-133.333333333333,4,2,0,5,0,0
21066,-133.333333333333,4,2,0,60,0,0
21216,-133.333333333333,4,2,0,5,0,0
21366,-133.333333333333,4,2,0,60,0,0
21516,-100,4,2,0,60,0,0
69642,-100,4,2,0,60,0,1
78038,-133.333333333333,4,2,0,60,0,0
79237,-100,4,2,0,60,0,1
98428,-100,4,2,0,60,0,0

[Colours]
Combo1 : 17,254,176
Combo2 : 173,255,95
Combo3 : 255,88,100
Combo4 : 255,94,55

[HitObjects]
296,228,2475,5,4,0:0:0:0:
296,228,2775,2,0,L|304:132,1,85
372,40,3075,2,0,P|400:36|424:36,2,42.5,8|0|0,0:0|0:0|0:0,0:0:0:0:
212,120,3375,1,0,0:0:0:0:
400,184,3525,1,0,0:0:0:0:
208,328,3675,6,0,P|164:328|112:336,2,85,2|0|0,0:0|0:0|0:0,0:0:0:0:
360,356,4125,1,0,0:0:0:0:
296,228,4275,2,0,L|304:136,1,85,8|0,0:0|0:0,0:0:0:0:
388,80,4574,1,0,0:0:0:0:
200,144,4724,1,0,0:0:0:0:
408,316,4874,6,0,B|356:308|356:308|304:324|304:324|240:316,1,170,2|0,0:0|0:0,0:0:0:0:
40,208,5324,1,0,0:0:0:0:
120,360,5474,2,0,P|128:332|140:308,2,42.5,8|0|0,0:0|0:0|0:0,0:0:0:0:
12,312,5774,1,0,0:0:0:0:
176,216,5924,1,0,0:0:0:0:
276,368,6074,6,0,L|364:360,1,85,2|0,0:0|0:0,0:0:0:0:
476,284,6374,1,0,0:0:0:0:
358,203,6523,2,0,P|348:160|370:100,1,85,0|8,0:0|0:0,0:0:0:0:
464,152,6823,1,0,0:0:0:0:
360,360,6973,2,0,P|368:336|372:312,2,42.5
200,364,7273,6,0,P|172:308|184:200,1,170,4|0,0:0|0:0,0:0:0:0:
308,136,7723,1,0,0:0:0:0:
364,292,7873,2,0,L|264:280,1,85,8|0,0:0|0:0,0:0:0:0:
90,75,8173,5,0,0:0:0:0:
97,86,8248,1,0,0:0:0:0:
103,97,8323,1,0,0:0:0:0:
109,108,8398,1,0,0:0:0:0:
116,120,8473,2,0,P|164:120|212:92,1,85,2|0,0:0|0:0,0:0:0:0:
356,188,8772,2,0,P|377:183|410:179,2,42.5
176,268,9072,2,0,L|168:368,1,85,8|0,0:0|0:0,0:0:0:0:
88,208,9372,1,0,0:0:0:0:
176,168,9522,1,0,0:0:0:0:
272,320,9672,6,0,B|360:292|360:348|452:320,1,170,2|0,0:0|0:0,0:0:0:0:
508,244,10122,1,0,0:0:0:0:
408,184,10272,2,0,L|396:100,1,85,8|0,0:0|0:0,0:0:0:0:
480,36,10571,1,0,0:0:0:0:
480,36,10721,1,0,0:0:0:0:
395,99,10871,6,0,P|359:95|311:71,1,85,2|0,0:0|0:0,0:0:0:0:
384,8,11171,1,2,0:0:0:0:
276,172,11321,2,0,L|176:184,1,85,0|8,0:0|0:0,0:0:0:0:
384,8,11621,1,0,0:0:0:0:
92,88,11771,2,0,P|65:82|44:80,2,42.5,2|0|2,0:0|0:0|0:0,0:0:0:0:
256,256,12071,6,0,P|304:252|336:236,1,85,6|0,0:1|0:0,0:0:0:0:
488,156,12371,2,0,L|404:140,1,85,2|0,0:1|0:0,0:0:0:0:
212,100,12670,1,8,0:0:0:0:
368,56,12820,1,2,0:1:0:0:
404,140,12970,1,2,0:1:0:0:
280,40,13120,1,2,0:1:0:0:
128,216,13270,6,0,L|40:204,1,85,2|0,0:0|0:0,0:0:0:0:
135,81,13570,1,2,0:0:0:0:
224,168,13720,1,0,0:0:0:0:
84,368,13870,2,0,L|76:280,1,85,8|0,0:0|0:0,0:0:0:0:
20,92,14170,1,0,0:0:0:0:
232,176,14320,5,0,0:0:0:0:
232,176,14395,1,0,0:0:0:0:
232,176,14470,2,0,L|320:168,1,85,2|0,0:1|0:0,0:0:0:0:
468,104,14769,2,0,P|420:104|372:84,1,85,2|0,0:1|0:0,0:0:0:0:
248,56,15069,1,8,0:0:0:0:
384,216,15219,1,2,0:1:0:0:
164,248,15369,1,2,0:1:0:0:
248,56,15519,1,2,0:1:0:0:
384,216,15669,6,0,L|376:304,1,85
300,152,15969,1,2,0:0:0:0:
488,256,16119,1,0,0:0:0:0:
316,372,16269,2,0,L|220:364,1,85,8|0,0:0|0:0,0:0:0:0:
72,256,16568,1,2,0:0:0:0:
72,256,16643,1,0,0:0:0:0:
72,256,16718,1,0,0:0:0:0:
72,256,16793,1,0,0:0:0:0:
72,256,16868,6,0,P|118:259|170:239,1,85,2|0,0:1|0:0,0:0:0:0:
280,144,17168,2,0,L|188:132,1,85,2|0,0:1|0:0,0:0:0:0:
40,120,17468,1,8,0:0:0:0:
128,76,17618,1,2,0:1:0:0:
320,320,17768,2,0,L|332:220,1,85,2|2,0:1|0:1,0:0:0:0:
360,96,18068,5,2,0:0:0:0:
224,200,18218,1,0,0:0:0:0:
424,356,18368,2,0,L|436:256,1,85,2|0,0:0|0:0,0:0:0:0:
444,152,18667,2,0,P|468:144|488:140,2,42.5,8|0|0,0:0|0:0|0:0,0:0:0:0:
264,280,18967,1,2,0:0:0:0:
424,356,19117,1,0,0:0:0:0:
195,367,19267,6,0,P|159:293|178:212,1,170,2|2,0:1|0:1,0:0:0:0:
304,176,19717,1,0,0:0:0:0:
212,116,19867,2,0,L|200:24,1,85,8|0,0:0|0:0,0:0:0:0:
304,176,20167,1,2,0:1:0:0:
212,116,20317,1,2,0:1:0:0:
220,360,20467,6,0,P|255:361|288:364,1,63.7500024318696,4|0,0:0|0:0,0:0:0:0:
292,24,20766,2,0,P|256:22|224:20,1,63.7500024318696,4|0,0:0|0:0,0:0:0:0:
424,228,21066,6,0,P|425:192|428:160,1,63.7500024318696,4|0,0:0|0:0,0:0:0:0:
88,156,21366,2,0,P|86:191|84:224,1,63.7500024318696,4|0,0:0|0:0,0:0:0:0:
72,340,21666,6,0,L|156:332,1,85,4|0,0:0|0:0,0:0:0:0:
448,200,21966,2,0,L|364:208,1,85,2|0,0:0|0:0,0:0:0:0:
312,80,22266,1,2,0:0:0:0:
448,200,22416,1,2,0:0:0:0:
480,24,22565,1,8,0:0:0:0:
320,88,22715,5,0,0:0:0:0:
320,88,22790,1,0,0:0:0:0:
320,88,22865,2,0,L|224:80,1,85,2|0,0:0|0:0,0:0:0:0:
56,184,23165,2,0,P|112:184|156:160,1,85,2|0,0:0|0:0,0:0:0:0:
235,80,23465,1,2,0:0:0:0:
124,40,23615,1,2,0:0:0:0:
32,308,23765,2,0,P|24:288|16:260,2,42.5,8|0|0,0:0|0:0|0:0,0:0:0:0:
156,356,24065,6,0,L|264:348,1,85,2|0,0:0|0:0,0:0:0:0:
396,244,24365,2,0,P|348:240|300:216,1,85,2|0,0:0|0:0,0:0:0:0:
376,152,24664,1,2,0:0:0:0:
224,268,24814,2,0,L|136:276,1,85,2|8,0:0|0:0,0:0:0:0:
48,152,25114,5,0,0:0:0:0:
48,152,25189,1,0,0:0:0:0:
48,152,25264,2,0,P|100:148|148:124,1,85,2|0,0:0|0:0,0:0:0:0:
328,92,25564,1,2,0:0:0:0:
172,56,25714,1,0,0:0:0:0:
130,135,25864,1,2,0:0:0:0:
256,36,26014,1,2,0:0:0:0:
197,208,26164,5,8,0:0:0:0:
203,219,26239,1,0,0:0:0:0:
209,230,26314,1,0,0:0:0:0:
215,241,26389,1,0,0:0:0:0:
220,252,26464,2,0,L|226:159,1,85,2|0,0:0|0:0,0:0:0:0:
44,56,26763,2,0,L|50:149,1,85,2|0,0:0|0:0,0:0:0:0:
140,340,27063,1,2,0:0:0:0:
61,241,27213,1,2,0:0:0:0:
232,268,27363,5,8,0:0:0:0:
232,268,27438,1,0,0:0:0:0:
232,268,27513,1,0,0:0:0:0:
232,268,27588,1,0,0:0:0:0:
232,268,27663,2,0,P|284:268|320:252,1,85,2|0,0:0|0:0,0:0:0:0:
476,164,27963,2,0,L|384:152,1,85,2|0,0:0|0:0,0:0:0:0:
332,32,28263,1,2,0:0:0:0:
476,164,28413,1,2,0:0:0:0:
393,338,28562,1,8,0:0:0:0:
393,338,28637,1,0,0:0:0:0:
393,338,28712,1,0,0:0:0:0:
240,280,28862,6,0,P|196:284|152:292,1,85,2|0,0:0|0:0,0:0:0:0:
48,148,29162,2,0,L|136:156,1,85,2|0,0:0|0:0,0:0:0:0:
240,280,29462,1,2,0:0:0:0:
132,155,29612,1,2,0:0:0:0:
320,128,29762,1,8,0:0:0:0:
248,287,29912,5,0,0:0:0:0:
248,287,29987,1,0,0:0:0:0:
248,287,30062,2,0,P|295:283|343:271,1,85,2|0,0:0|0:0,0:0:0:0:
480,228,30362,1,2,0:0:0:0:
368,372,30511,1,0,0:0:0:0:
284,200,30661,2,0,L|272:112,1,85,2|2,0:0|0:0,0:0:0:0:
387,288,30961,1,8,0:0:0:0:
387,288,31036,1,0,0:0:0:0:
387,288,31111,1,0,0:0:0:0:
387,288,31186,1,0,0:0:0:0:
387,288,31261,6,0,B|336:280|336:280|272:296|272:296|216:288,1,170,4|2,0:1|0:0,0:0:0:0:
72,220,31711,1,0,0:0:0:0:
220,288,31861,1,2,0:0:0:0:
44,320,32011,1,2,0:0:0:0:
136,88,32161,1,8,0:0:0:0:
76,224,32311,5,0,0:0:0:0:
76,224,32386,1,0,0:0:0:0:
76,224,32461,2,0,P|123:226|164:232,1,85,2|0,0:0|0:0,0:0:0:0:
340,100,32760,2,0,P|284:80|216:168,1,170,2|2,0:0|0:0,0:0:0:0:
388,364,33210,1,2,0:0:0:0:
136,320,33360,2,0,P|104:316|84:316,2,42.5,8|0|0,0:0|0:0|0:0,0:0:0:0:
388,364,33660,6,0,L|400:192,1,170,2|2,0:0|0:0,0:0:0:0:
488,292,34110,1,0,0:0:0:0:
304,224,34260,2,0,L|296:132,1,85,2|2,0:0|0:0,0:0:0:0:
412,96,34559,2,0,P|440:100|456:104,2,42.5,8|0|0,0:0|0:0|0:0,0:0:0:0:
240,304,34859,6,0,L|156:312,1,85,2|0,0:0|0:0,0:0:0:0:
16,252,35159,1,2,0:0:0:0:
132,164,35309,2,0,L|140:60,1,85,0|2,0:0|0:0,0:0:0:0:
16,252,35609,1,2,0:0:0:0:
168,328,35759,5,8,0:0:0:0:
168,328,35834,1,0,0:0:0:0:
168,328,35909,1,0,0:0:0:0:
168,328,35984,1,0,0:0:0:0:
168,328,36059,2,0,P|212:330|256:336,1,85,2|0,0:0|0:0,0:0:0:0:
396,152,36359,1,2,0:0:0:0:
292,216,36508,1,0,0:0:0:0:
444,356,36658,2,0,L|448:260,1,85,2|2,0:0|0:0,0:0:0:0:
456,40,36958,5,8,0:0:0:0:
448,48,37033,1,0,0:0:0:0:
440,56,37108,1,0,0:0:0:0:
432,64,37183,1,0,0:0:0:0:
424,72,37258,2,0,P|376:77|316:93,1,85,2|0,0:0|0:0,0:0:0:0:
108,156,37558,1,2,0:0:0:0:
192,20,37708,1,0,0:0:0:0:
232,252,37858,2,0,L|216:360,1,85,2|2,0:0|0:0,0:0:0:0:
336,132,38158,5,8,0:0:0:0:
328,136,38233,1,0,0:0:0:0:
320,140,38308,1,0,0:0:0:0:
312,144,38383,1,0,0:0:0:0:
304,148,38458,2,0,P|256:148|212:132,1,85,2|0,0:0|0:0,0:0:0:0:
64,72,38757,2,0,L|156:56,1,85,2|0,0:0|0:0,0:0:0:0:
304,148,39057,1,2,0:0:0:0:
452,44,39207,1,2,0:0:0:0:
368,224,39357,5,8,0:0:0:0:
374,235,39432,1,0,0:0:0:0:
380,246,39507,1,0,0:0:0:0:
386,257,39582,1,0,0:0:0:0:
392,268,39657,2,0,L|398:175,1,85,2|0,0:0|0:0,0:0:0:0:
476,316,39957,1,2,0:0:0:0:
384,372,40107,2,0,L|300:364,1,85,0|2,0:0|0:0,0:0:0:0:
476,316,40407,1,2,0:0:0:0:
304,148,40556,2,0,P|296:124|292:96,2,42.5,8|0|0,0:0|0:0|0:0,0:0:0:0:
476,316,40856,6,0,L|484:224,1,85,4|0,0:1|0:0,0:0:0:0:
448,32,41156,1,0,1:0:0:0:
304,148,41306,1,0,0:0:0:0:
305,169,41381,1,0,0:0:0:0:
307,190,41456,1,0,0:0:0:0:
309,211,41531,1,0,0:0:0:0:
311,232,41606,1,0,1:0:0:0:
432,344,41756,1,8,0:0:0:0:
484,188,41906,1,0,0:0:0:0:
311,232,42056,6,0,L|303:320,1,85,4|0,0:1|0:0,0:0:0:0:
196,152,42356,1,0,0:0:0:0:
198,173,42431,1,0,0:0:0:0:
200,194,42505,1,0,1:0:0:0:
396,280,42655,1,0,0:0:0:0:
220,372,42805,1,0,3:0:0:0:
396,280,42955,1,8,0:0:0:0:
417,278,43030,1,0,0:0:0:0:
438,276,43105,1,0,0:0:0:0:
459,274,43180,1,0,0:0:0:0:
480,272,43255,6,0,L|484:184,1,85,4|0,0:1|0:0,0:0:0:0:
492,64,43555,1,0,1:0:0:0:
372,191,43705,1,0,0:0:0:0:
351,193,43780,1,0,0:0:0:0:
330,195,43855,1,0,0:0:0:0:
309,197,43930,1,0,0:0:0:0:
288,199,44005,1,0,1:0:0:0:
104,352,44155,1,8,0:0:0:0:
125,350,44230,1,0,0:0:0:0:
146,348,44305,1,0,0:0:0:0:
167,346,44380,1,0,0:0:0:0:
188,344,44455,6,0,L|196:240,1,85,4|0,0:1|0:0,0:0:0:0:
108,96,44754,1,2,0:0:0:0:
110,117,44829,1,0,0:0:0:0:
112,138,44904,1,0,1:0:0:0:
296,280,45054,2,0,P|340:280|384:260,1,85,2|0,0:0|0:0,0:0:0:0:
468,96,45354,5,8,0:0:0:0:
462,107,45429,1,0,0:0:0:0:
456,118,45504,1,0,0:0:0:0:
450,129,45579,1,0,0:0:0:0:
444,140,45654,2,0,L|347:132,1,85,4|0,0:1|0:0,0:0:0:0:
228,40,45954,1,2,0:0:0:0:
180,232,46104,2,0,L|277:224,1,85,2|0,0:0|0:0,0:0:0:0:
360,133,46404,1,2,0:0:0:0:
416,336,46553,2,0,L|319:328,1,85,10|0,0:0|0:0,0:0:0:0:
180,232,46853,6,0,L|172:144,1,85,2|0,0:0|0:0,0:0:0:0:
221,45,47153,1,2,0:0:0:0:
289,177,47303,1,0,1:0:0:0:
60,201,47453,1,2,0:0:0:0:
108,57,47603,1,0,0:0:0:0:
168,240,47753,5,8,0:0:0:0:
162,251,47828,1,0,0:0:0:0:
156,262,47903,1,0,0:0:0:0:
150,273,47978,1,0,0:0:0:0:
144,284,48053,2,0,L|47:276,1,85,4|0,0:1|0:0,0:0:0:0:
236,344,48353,1,0,1:0:0:0:
48,180,48502,2,0,L|40:88,1,85
144,284,48802,1,0,1:0:0:0:
160,128,48952,2,0,L|168:36,1,85,8|0,0:0|0:0,0:0:0:0:
48,180,49252,5,2,0:0:0:0:
50,201,49327,1,0,0:0:0:0:
52,222,49402,2,0,L|56:286,1,42.5
138,368,49552,5,2,0:0:0:0:
140,347,49627,1,0,0:0:0:0:
142,326,49702,2,0,L|146:262,1,42.5
231,171,49852,5,2,0:0:0:0:
233,192,49927,1,0,0:0:0:0:
235,213,50002,2,0,L|239:277,1,42.5
316,324,50152,5,8,0:0:0:0:
337,322,50227,1,0,0:0:0:0:
358,320,50302,1,0,0:0:0:0:
379,318,50377,1,0,0:0:0:0:
400,316,50452,6,0,L|405:227,1,85,4|0,0:1|0:0,0:0:0:0:
464,112,50751,1,2,0:0:0:0:
304,208,50901,1,0,0:0:0:0:
504,220,51051,1,2,0:0:0:0:
362,108,51201,1,0,0:0:0:0:
400,316,51351,1,8,0:0:0:0:
464,112,51501,1,0,0:0:0:0:
192,240,51651,6,0,L|92:232,1,85,2|0,0:0|0:0,0:0:0:0:
24,148,51951,1,2,0:0:0:0:
120,328,52101,1,0,0:0:0:0:
152,136,52251,1,0,0:0:0:0:
8,280,52401,1,0,0:0:0:0:
236,332,52550,2,0,L|328:324,1,85,8|0,0:0|0:0,0:0:0:0:
464,248,52850,6,0,P|420:244|372:220,1,85,4|0,0:1|0:0,0:0:0:0:
240,100,53150,1,2,0:0:0:0:
382,227,53300,1,0,0:0:0:0:
420,52,53450,1,2,0:0:0:0:
280,228,53600,1,0,0:0:0:0:
464,164,53750,1,8,0:0:0:0:
320,40,53900,1,0,0:0:0:0:
280,228,54050,6,0,L|180:220,1,85
28,152,54350,1,2,0:0:0:0:
136,312,54499,1,0,0:0:0:0:
144,124,54649,1,2,0:0:0:0:
24,268,54799,1,0,0:0:0:0:
328,336,54949,1,8,0:0:0:0:
349,334,55024,1,0,0:0:0:0:
370,332,55099,1,0,0:0:0:0:
391,330,55174,1,0,0:0:0:0:
412,328,55249,6,0,L|416:240,1,85,4|0,0:1|0:0,0:0:0:0:
368,140,55549,1,2,0:0:0:0:
512,260,55699,1,0,0:0:0:0:
312,240,55849,1,2,0:0:0:0:
480,144,55999,1,0,0:0:0:0:
412,328,56149,1,8,0:0:0:0:
368,140,56299,1,0,0:0:0:0:
212,280,56449,6,0,L|204:192,1,85,2|0,0:0|0:0,0:0:0:0:
312,240,56748,1,2,0:0:0:0:
172,52,56898,1,0,0:0:0:0:
103,165,57048,1,2,0:0:0:0:
291,77,57198,1,0,0:0:0:0:
114,301,57348,1,8,0:0:0:0:
113,288,57422,1,0,0:0:0:0:
112,275,57497,1,0,0:0:0:0:
111,262,57572,1,0,0:0:0:0:
110,249,57648,6,0,L|102:162,1,85,4|0,0:1|0:0,0:0:0:0:
36,72,57948,1,2,0:0:0:0:
212,176,58098,1,0,0:0:0:0:
8,208,58248,1,2,0:0:0:0:
136,60,58398,1,0,0:0:0:0:
351,269,58547,2,0,L|357:182,1,85,8|0,0:0|0:0,0:0:0:0:
441,49,58847,5,2,0:0:0:0:
443,70,58922,1,0,0:0:0:0:
445,91,58997,2,0,L|449:155,1,42.5
351,269,59147,5,2,0:0:0:0:
353,248,59222,1,0,0:0:0:0:
355,227,59297,2,0,L|359:163,1,42.5
408,356,59447,5,0,3:0:0:0:
366,365,59522,1,0,3:0:0:0:
325,357,59597,1,0,3:0:0:0:
290,333,59672,1,0,3:0:0:0:
268,297,59747,1,8,3:2:0:0:
261,256,59822,1,0,3:0:0:0:
272,215,59897,1,0,3:0:0:0:
298,182,59972,1,0,3:0:0:0:
335,162,60047,5,4,3:1:0:0:
256,256,69042,5,4,0:0:0:0:
456,288,69192,1,2,0:0:0:0:
456,288,69267,1,2,0:0:0:0:
456,288,69342,1,2,0:0:0:0:
208,352,69492,1,4,0:0:0:0:
352,228,69642,6,0,L|344:140,1,85,4|0,0:1|1:0,0:0:0:0:
224,84,69942,1,2,0:0:0:0:
460,156,70092,1,0,0:0:0:0:
236,188,70242,1,2,0:0:0:0:
432,56,70392,1,0,1:0:0:0:
352,228,70541,1,2,0:0:0:0:
324,12,70691,1,0,0:0:0:0:
172,276,70841,6,0,L|272:288,1,85,2|0,0:0|1:0,0:0:0:0:
460,224,71141,1,2,0:0:0:0:
252,164,71291,1,0,0:0:0:0:
252,164,71366,1,0,0:0:0:0:
252,164,71441,1,2,0:0:0:0:
380,328,71591,1,0,1:0:0:0:
376,120,71741,1,2,0:0:0:0:
259,288,71891,1,0,1:0:0:0:
459,223,72041,6,0,P|412:216|365:199,1,85,2|0,0:0|1:0,0:0:0:0:
376,204,72341,1,2,0:0:0:0:
216,53,72490,2,0,L|228:141,1,85,4|2,0:0|0:0,0:0:0:0:
244,365,72790,1,0,1:0:0:0:
223,363,72865,1,0,0:0:0:0:
202,361,72940,1,2,0:0:0:0:
181,359,73015,1,0,0:0:0:0:
160,357,73090,1,0,0:0:0:0:
56,224,73240,6,0,L|156:212,1,85,2|0,0:0|1:0,0:0:0:0:
352,280,73540,1,2,0:0:0:0:
264,184,73690,1,0,0:0:0:0:
262,163,73765,1,0,0:0:0:0:
260,142,73840,1,2,0:0:0:0:
449,68,73990,1,0,1:0:0:0:
447,89,74065,1,0,0:0:0:0:
445,110,74140,1,2,0:0:0:0:
443,131,74215,1,0,0:0:0:0:
441,152,74290,1,0,1:0:0:0:
360,364,74440,6,0,L|350:268,1,85,4|0,0:1|1:0,0:0:0:0:
440,152,74739,1,0,0:0:0:0:
216,197,74889,1,0,0:0:0:0:
303,69,75039,1,2,0:0:0:0:
351,279,75189,1,0,1:0:0:0:
112,264,75339,1,2,0:0:0:0:
91,262,75414,1,0,0:0:0:0:
70,260,75489,1,0,0:0:0:0:
49,258,75564,1,0,0:0:0:0:
28,256,75639,6,0,L|22:169,1,85,2|0,0:0|1:0,0:0:0:0:
212,84,75939,1,2,0:0:0:0:
56,44,76089,1,0,0:0:0:0:
56,44,76164,1,0,0:0:0:0:
56,44,76239,1,2,0:0:0:0:
248,204,76389,1,0,1:0:0:0:
344,112,76538,1,2,0:0:0:0:
128,168,76688,1,0,1:0:0:0:
352,356,76838,6,0,P|360:320|344:264,1,85,2|0,0:0|1:0,0:0:0:0:
248,92,77138,1,2,0:0:0:0:
112,280,77288,2,0,L|200:292,1,85,0|2,0:0|0:0,0:0:0:0:
408,183,77588,1,0,1:0:0:0:
387,185,77663,1,0,0:0:0:0:
366,187,77738,1,2,0:0:0:0:
345,189,77813,1,0,0:0:0:0:
324,191,77888,1,0,1:0:0:0:
112,280,78038,5,4,0:0:0:0:
361,315,78338,1,4,0:0:0:0:
396,65,78637,1,4,0:0:0:0:
147,30,78937,1,4,0:0:0:0:
112,280,79237,6,0,P|160:288|200:300,1,85,4|0,0:1|0:0,0:0:0:0:
416,136,79537,2,0,L|328:148,1,85,8|0,0:0|0:0,0:0:0:0:
240,88,79837,1,0,0:0:0:0:
384,240,79987,1,0,1:0:0:0:
444,48,80137,1,8,0:0:0:0:
252,208,80287,5,0,0:0:0:0:
252,208,80362,1,0,0:0:0:0:
252,208,80437,2,0,P|208:208|156:180,1,85
32,92,80736,2,0,L|132:76,1,85,8|0,0:0|0:0,0:0:0:0:
368,164,81036,1,0,0:0:0:0:
276,56,81186,1,0,1:0:0:0:
84,232,81336,2,0,P|56:224|32:220,2,42.5,8|0|0,0:0|0:0|0:0,0:0:0:0:
304,368,81636,6,0,L|312:280,1,85
368,164,81936,1,8,0:0:0:0:
192,260,82086,1,0,0:0:0:0:
424,284,82236,2,0,P|440:288|464:296,2,42.5,0|0|0,0:0|0:0|1:0,0:0:0:0:
256,168,82535,1,8,0:0:0:0:
254,147,82610,1,0,0:0:0:0:
252,126,82685,1,0,0:0:0:0:
107,250,82835,6,0,L|211:262,1,85
424,284,83135,1,8,0:0:0:0:
309,368,83285,1,0,0:0:0:0:
307,347,83360,1,0,0:0:0:0:
305,326,83435,1,0,0:0:0:0:
449,68,83585,1,0,1:0:0:0:
447,89,83660,1,0,0:0:0:0:
445,110,83735,1,8,0:0:0:0:
443,131,83810,1,0,0:0:0:0:
441,152,83885,1,0,0:0:0:0:
305,326,84035,6,0,L|216:316,1,85,4|0,0:1|0:0,0:0:0:0:
104,188,84335,1,8,0:0:0:0:
128,352,84484,1,0,0:0:0:0:
208,212,84634,1,0,0:0:0:0:
52,280,84784,1,0,1:0:0:0:
305,326,84934,1,8,0:0:0:0:
326,324,85009,1,0,0:0:0:0:
347,322,85084,1,0,0:0:0:0:
368,320,85159,1,0,0:0:0:0:
389,318,85234,6,0,L|395:228,1,85
488,120,85534,1,8,0:0:0:0:
276,208,85684,1,0,0:0:0:0:
276,208,85759,1,0,0:0:0:0:
276,208,85834,1,0,0:0:0:0:
360,104,85984,1,0,1:0:0:0:
136,288,86134,1,8,0:0:0:0:
115,286,86209,1,0,0:0:0:0:
94,284,86284,1,0,0:0:0:0:
73,282,86359,1,0,0:0:0:0:
52,280,86434,6,0,L|48:192,1,85
188,372,86733,1,8,0:0:0:0:
276,208,86883,2,0,L|280:120,1,85
128,28,87183,1,0,1:0:0:0:
129,49,87258,1,0,0:0:0:0:
131,70,87333,1,8,0:0:0:0:
133,91,87408,1,0,0:0:0:0:
135,112,87483,1,0,0:0:0:0:
392,344,87633,6,0,L|396:256,1,85
316,180,87933,1,8,0:0:0:0:
496,260,88083,1,0,0:0:0:0:
288,308,88233,1,0,0:0:0:0:
420,156,88383,1,0,1:0:0:0:
422,135,88458,1,0,0:0:0:0:
424,114,88532,1,8,0:0:0:0:
426,93,88607,1,0,0:0:0:0:
429,72,88682,1,0,0:0:0:0:
232,260,88832,6,0,P|188:260|148:244,1,85,4|0,0:1|0:0,0:0:0:0:
20,156,89132,2,0,L|124:136,1,85,8|0,0:0|0:0,0:0:0:0:
280,104,89432,1,0,0:0:0:0:
160,20,89582,1,0,1:0:0:0:
40,248,89732,1,8,0:0:0:0:
288,344,89882,5,0,0:0:0:0:
288,344,89957,1,0,0:0:0:0:
288,344,90032,2,0,L|196:356,1,85
40,248,90332,2,0,P|88:248|128:232,1,85,8|0,0:0|0:0,0:0:0:0:
320,156,90631,1,0,0:0:0:0:
187,64,90781,1,0,1:0:0:0:
189,85,90856,1,0,0:0:0:0:
191,106,90931,1,8,0:0:0:0:
404,216,91081,1,0,0:0:0:0:
204,360,91231,6,0,L|196:268,1,85
308,64,91531,2,0,L|300:156,1,85,8|0,0:0|0:0,0:0:0:0:
191,106,91831,1,0,0:0:0:0:
404,216,91981,1,0,1:0:0:0:
406,195,92056,1,0,0:0:0:0:
408,174,92131,1,8,0:0:0:0:
454,312,92281,5,0,0:0:0:0:
454,312,92356,1,0,0:0:0:0:
454,312,92431,2,0,L|358:324,1,85
120,253,92730,1,8,0:0:0:0:
184,66,92880,1,0,0:0:0:0:
321,208,93030,2,0,L|329:112,1,85,0|0,0:0|1:0,0:0:0:0:
454,312,93330,5,8,0:0:0:0:
447,323,93405,1,0,0:0:0:0:
441,334,93480,1,0,0:0:0:0:
435,345,93555,1,0,0:0:0:0:
428,355,93630,2,0,L|341:366,1,85,4|0,0:1|0:0,0:0:0:0:
196,208,93930,1,8,0:0:0:0:
391,244,94080,1,0,0:0:0:0:
232,108,94230,2,0,L|224:8,1,85,0|0,0:0|1:0,0:0:0:0:
308,312,94529,5,8,0:0:0:0:
301,323,94604,1,0,0:0:0:0:
295,334,94679,1,0,0:0:0:0:
289,345,94754,1,0,0:0:0:0:
282,357,94829,2,0,L|182:345,1,85
72,248,95129,1,8,0:0:0:0:
232,128,95279,1,0,0:0:0:0:
230,149,95354,1,0,0:0:0:0:
228,170,95429,1,0,0:0:0:0:
96,72,95579,1,0,1:0:0:0:
88,264,95729,5,8,0:0:0:0:
88,264,95804,1,0,0:0:0:0:
88,264,95879,1,0,0:0:0:0:
88,264,95954,1,0,0:0:0:0:
88,264,96029,2,0,P|144:264|180:248,1,85
332,112,96329,1,8,0:0:0:0:
440,340,96478,2,0,L|320:324,1,85
208,188,96778,1,0,1:0:0:0:
206,167,96853,1,0,0:0:0:0:
204,146,96928,1,8,0:0:0:0:
202,125,97003,1,0,0:0:0:0:
201,104,97078,1,0,0:0:0:0:
440,340,97228,6,0,L|352:356,1,85
28,192,97528,1,8,0:0:0:0:
201,104,97678,1,0,0:0:0:0:
300,264,97828,2,0,P|344:261|388:248,1,85,0|0,0:0|1:0,0:0:0:0:
440,40,98128,1,8,0:0:0:0:
434,59,98203,1,0,0:0:0:0:
429,78,98278,1,8,0:0:0:0:
383,250,98428,5,4,0:1:0:0:
256,192,98502,12,0,107123,0:0:0:0:
256,256,107423,5,4,0:0:0:0:
456,288,107573,1,2,0:0:0:0:
456,288,107648,1,2,0:0:0:0:
456,288,107723,1,2,0:0:0:0:
208,352,107873,1,4,0:0:0:0:
352,228,108023,6,0,L|356:140,1,85,2|0,0:1|0:0,0:0:0:0:
292,48,108323,1,2,0:1:0:0:
460,168,108473,1,0,0:0:0:0:
460,168,108547,1,0,0:0:0:0:
460,168,108622,1,2,0:1:0:0:
420,48,108772,1,2,0:1:0:0:
420,48,108922,1,2,0:1:0:0:
264,164,109072,5,2,0:1:0:0:
264,164,109147,1,0,0:0:0:0:
264,164,109222,2,0,P|212:164|168:148,1,85,2|0,0:0|0:0,0:0:0:0:
48,76,109522,2,0,L|152:60,1,85,2|0,0:0|0:0,0:0:0:0:
360,203,109822,1,8,0:0:0:0:
358,224,109897,1,0,0:0:0:0:
356,245,109972,1,0,0:0:0:0:
354,266,110047,1,0,0:0:0:0:
352,287,110122,1,0,1:0:0:0:
474,244,110272,1,0,0:0:0:0:
276,360,110422,6,0,L|191:352,1,85,2|0,0:1|0:0,0:0:0:0:
55,224,110721,2,0,P|96:222|139:208,1,85,2|0,0:1|0:0,0:0:0:0:
269,129,111021,1,2,0:1:0:0:
157,78,111171,1,2,0:1:0:0:
157,78,111321,1,2,0:1:0:0:
251,253,111471,5,2,0:1:0:0:
251,253,111546,1,0,0:0:0:0:
251,253,111621,2,0,L|339:241,1,85,2|0,0:0|0:0,0:0:0:0:
481,141,111921,2,0,P|433:141|389:123,1,85,2|0,0:0|0:0,0:0:0:0:
460,44,112221,1,8,0:0:0:0:
460,44,112371,1,0,0:0:0:0:
360,224,112520,5,0,1:0:0:0:
353,235,112595,1,0,0:0:0:0:
347,246,112670,1,0,0:0:0:0:
341,257,112745,1,0,0:0:0:0:
334,269,112820,2,0,L|234:257,1,85,2|0,0:1|0:0,0:0:0:0:
56,336,113120,2,0,P|112:336|160:316,1,85,2|0,0:1|0:0,0:0:0:0:
256,148,113420,1,2,0:1:0:0:
258,127,113495,1,0,0:0:0:0:
260,106,113570,1,2,0:1:0:0:
324,24,113720,1,2,0:1:0:0:
168,116,113870,1,2,0:1:0:0:
368,248,114020,6,0,B|316:240|316:240|264:256|264:256|200:248,1,170,2|2,0:0|0:0,0:0:0:0:
88,164,114470,1,0,0:0:0:0:
64,284,114619,1,8,0:0:0:0:
66,305,114694,1,0,0:0:0:0:
68,326,114769,1,0,0:0:0:0:
201,248,114919,1,0,1:0:0:0:
88,164,115069,1,0,0:0:0:0:
312,364,115219,6,0,P|340:308|320:200,1,170,2|2,0:1|0:1,0:0:0:0:
199,101,115669,1,0,0:0:0:0:
140,273,115819,1,2,0:1:0:0:
161,275,115894,1,0,0:0:0:0:
182,277,115969,1,2,0:1:0:0:
203,279,116044,1,0,0:0:0:0:
224,281,116119,1,2,0:1:0:0:
440,244,116269,1,2,0:1:0:0:
308,120,116419,5,4,3:0:0:0:
310,99,116493,1,0,3:0:0:0:
312,76,116568,1,0,3:0:0:0:
200,76,116718,5,4,3:0:0:0:
202,99,116793,1,0,3:0:0:0:
204,120,116868,1,0,3:0:0:0:
444,336,117018,5,2,3:0:0:0:
402,330,117093,1,0,3:0:0:0:
366,307,117168,1,0,3:0:0:0:
345,271,117243,1,0,3:0:0:0:
342,229,117318,1,2,3:0:0:0:
358,190,117393,1,0,3:0:0:0:
389,162,117468,1,0,3:0:0:0:
429,151,117543,1,0,3:0:0:0:
472,156,117618,5,4,3:0:0:0:
