osu file format v14

[General]
AudioFilename: Renard - Intensive Care Unit (feat. FIAB).mp3
AudioLeadIn: 0
PreviewTime: 69642
Countdown: 1
SampleSet: Soft
StackLeniency: 0.7
Mode: 0
LetterboxInBreaks: 0
WidescreenStoryboard: 1

[Editor]
DistanceSpacing: 1.2
BeatDivisor: 4
GridSize: 4
TimelineZoom: 2.6

[Metadata]
Title:Intensive Care Unit (feat. FIAB)
TitleUnicode:Intensive Care Unit (feat. FIAB)
Artist:Renard
ArtistUnicode:Renard
Creator:Leader
Version:Stefan's Normal
Source:
Tags:delis stefan tng thenutritiousguy -kevincela- lapfox trax
BeatmapID:972378
BeatmapSetID:444699

[Difficulty]
HPDrainRate:4
CircleSize:3
OverallDifficulty:4
ApproachRate:5
SliderMultiplier:0.799999999999999
SliderTickRate:1

[Events]
//Background and Video events
0,0,"bg.jpg",0,0
//Break Periods
2,60247,67722
2,98628,106703
//Storyboard Layer 0 (Background)
//Storyboard Layer 1 (Fail)
//Storyboard Layer 2 (Pass)
//Storyboard Layer 3 (Foreground)
//Storyboard Sound Samples

[TimingPoints]
2476,299.850074962519,4,2,0,60,1,0
20467,-100,4,2,0,60,0,0
20766,-100,4,2,0,60,0,0
21066,-100,4,2,0,60,0,0
21216,-100,4,2,0,5,0,0
21366,-100,4,2,0,60,0,0
21516,-100,4,2,0,60,0,0
69642,-100,4,2,0,60,0,1
78038,-100,4,2,0,60,0,0
79237,-100,4,2,0,60,0,1
98428,-100,4,2,0,60,0,0

[Colours]
Combo1 : 17,254,176
Combo2 : 173,255,95
Combo3 : 255,88,100
Combo4 : 255,94,55

[HitObjects]
348,284,2475,6,0,P|426:283|485:334,2,160,4|8|2,0:0|0:0|0:0,0:0:0:0:
256,312,3975,1,0,0:0:0:0:
164,336,4275,2,0,P|85:336|26:285,2,160,8|2|8,0:0|0:0|0:0,0:0:0:0:
256,312,5774,1,0,0:0:0:0:
348,284,6074,2,0,B|388:264|424:284|424:284|460:260,1,120,2|2,0:0|0:0,0:0:0:0:
500,124,6973,1,0,0:0:0:0:
448,44,7273,6,0,L|292:12,2,160,4|8|2,0:0|0:0|0:0,0:0:0:0:
500,124,8772,1,0,0:0:0:0:
448,204,9072,2,0,L|292:236,2,160,8|2|8,0:0|0:0|0:0,0:0:0:0:
500,124,10571,1,0,0:0:0:0:
444,48,10871,2,0,B|404:32|368:56|368:56|320:44,1,120,2|2,0:0|0:0,0:0:0:0:
188,24,11771,1,2,0:0:0:0:
92,40,12071,6,0,P|56:56|32:96,1,79.9999999999999,6|2,0:1|0:1,0:0:0:0:
33,184,12670,2,0,L|33:224,3,40,8|2|2|2,0:0|0:1|0:1|0:1,0:0:0:0:
256,320,13870,1,8,0:0:0:0:
348,288,14170,1,2,0:0:0:0:
436,256,14470,6,0,P|450:220|438:174,1,79.9999999999999,2|2,0:1|0:1,0:0:0:0:
376,112,15069,2,0,L|344:84,3,40,8|2|2|2,0:0|0:1|0:1|0:1,0:0:0:0:
108,56,16269,1,8,0:0:0:0:
60,140,16568,1,2,0:0:0:0:
60,236,16868,6,0,P|75:271|116:295,1,79.9999999999999,2|2,0:1|0:1,0:0:0:0:
204,293,17468,2,0,L|244:288,3,40,8|2|2|2,0:0|0:1|0:1|0:1,0:0:0:0:
464,192,18667,1,8,0:0:0:0:
436,100,18967,1,2,0:0:0:0:
364,36,19267,6,0,P|328:24|284:28,1,79.9999999999999,2|2,0:1|0:1,0:0:0:0:
224,100,19867,1,8,0:0:0:0:
276,180,20167,1,2,0:1:0:0:
364,220,20467,6,0,L|440:256,2,79.9999999999999,4|4|4,0:0|0:0|0:0,0:0:0:0:
188,140,21666,6,0,P|148:124|104:128,1,79.9999999999999,4|2,0:0|0:0,0:0:0:0:
36,184,22266,1,2,0:0:0:0:
68,220,22416,2,0,P|104:236|196:220,2,120,2|2|2,0:0|0:0|0:0,0:0:0:0:
88,76,23765,1,8,0:0:0:0:
176,36,24065,6,0,P|216:28|264:32,1,79.9999999999999,2|2,0:0|0:0,0:0:0:0:
344,64,24664,1,2,0:0:0:0:
328,108,24814,2,0,P|316:160|340:220,2,120,2|2|2,0:0|0:0|0:0,0:0:0:0:
456,44,26164,1,8,0:0:0:0:
500,132,26464,6,0,B|524:208|524:208|480:280,1,160,2|2,0:0|0:0,0:0:0:0:
408,340,27363,1,8,0:0:0:0:
316,360,27663,1,0,0:0:0:0:
268,348,27813,2,0,P|228:344|188:356,1,79.9999999999999,2|0,0:0|0:0,0:0:0:0:
64,288,28562,1,8,0:0:0:0:
120,212,28862,6,0,P|136:172|124:124,1,79.9999999999999,2|2,0:0|0:0,0:0:0:0:
76,56,29462,1,2,0:0:0:0:
36,80,29612,2,0,P|24:128|36:208,2,120,2|2|2,0:0|0:0|0:0,0:0:0:0:
172,28,30961,1,8,0:0:0:0:
268,36,31261,6,0,L|364:48,1,79.9999999999999,4|2,0:1|0:0,0:0:0:0:
440,80,31861,1,2,0:0:0:0:
472,116,32011,2,0,P|484:172|468:236,2,120,2|2|2,0:0|0:0|0:0,0:0:0:0:
332,88,33360,1,8,0:0:0:0:
256,148,33660,6,0,P|224:172|176:188,1,79.9999999999999,2|2,0:0|0:0,0:0:0:0:
92,184,34260,1,2,0:0:0:0:
48,200,34410,2,0,P|12:244|16:312,2,120,2|2|2,0:0|0:0|0:0,0:0:0:0:
164,112,35759,1,8,0:0:0:0:
248,68,36059,6,0,B|320:36|320:36|391:81,1,160,2|2,0:0|0:0,0:0:0:0:
460,144,36958,1,8,0:0:0:0:
444,240,37258,1,0,0:0:0:0:
476,272,37408,2,0,L|440:352,1,79.9999999999999,2|0,0:0|0:0,0:0:0:0:
300,364,38158,1,8,0:0:0:0:
236,292,38458,6,0,P|237:259|260:214,1,79.9999999999999,2|2,0:0|0:0,0:0:0:0:
344,176,39057,1,2,0:0:0:0:
392,184,39207,2,0,P|452:224|464:272,2,120,2|2|2,0:0|0:0|0:0,0:0:0:0:
512,104,40556,1,8,0:0:0:0:
443,36,40856,5,4,0:1:0:0:
396,48,41006,1,0,0:0:0:0:
352,68,41156,2,0,P|259:78|185:20,1,160,0|8,1:0|0:0,0:0:0:0:
112,20,42056,2,0,P|16:88|16:204,1,240,4|8,0:1|0:0,0:0:0:0:
72,280,43255,5,4,0:1:0:0:
116,264,43405,1,0,0:0:0:0:
163,248,43555,2,0,P|256:238|330:296,1,160,0|8,1:0|0:0,0:0:0:0:
403,296,44455,2,0,P|499:228|499:112,1,240,4|8,0:1|0:0,0:0:0:0:
424,56,45654,6,0,B|388:40|388:40|352:60|352:60|316:44|316:44|180:56,1,240,4|10,0:1|0:0,0:0:0:0:
100,68,46853,2,0,P|36:112|16:192,1,160,2|2,0:0|0:0,0:0:0:0:
28,284,47753,1,8,0:0:0:0:
92,356,48053,6,0,B|128:372|128:372|164:352|164:352|200:368|200:368|336:356,1,240,4|8,0:1|0:0,0:0:0:0:
412,328,49252,2,0,L|484:292,2,79.9999999999999,2|2|2,0:0|0:0|0:0,0:0:0:0:
280,188,50452,6,0,L|184:116,3,120,4|0|8|0,0:1|0:0|0:0|0:0,0:0:0:0:
96,76,52101,1,0,0:0:0:0:
52,96,52251,2,0,P|30:135|27:186,1,79.9999999999999,0|8,0:0|0:0,0:0:0:0:
68,256,52850,6,0,L|164:328,3,120,4|0|8|0,0:1|0:0|0:0|0:0,0:0:0:0:
252,368,54499,1,0,0:0:0:0:
288,336,54649,2,0,P|324:316|368:316,1,79.9999999999999,2|8,0:0|0:0,0:0:0:0:
396,224,55248,6,0,L|379:105,3,120,4|0|8|0,0:1|0:0|0:0|0:0,0:0:0:0:
312,36,56898,1,0,0:0:0:0:
264,32,57048,2,0,P|220:40|184:76,1,79.9999999999999,2|8,0:0|0:0,0:0:0:0:
164,152,57647,6,0,L|181:271,3,120,4|0|8|0,0:1|0:0|0:0|0:0,0:0:0:0:
240,348,59297,1,0,0:0:0:0:
288,360,59447,2,0,P|328:344|368:356,1,79.9999999999999,0|8,3:0|3:2,0:0:0:0:
444,300,60047,1,4,3:1:0:0:
48,88,69042,6,0,B|112:40|112:40|152:48,1,120,4|4,0:0|0:0,0:0:0:0:
196,60,69642,6,0,P|276:68|320:52,3,120,4|0|2|0,0:1|0:0|0:0|1:0,0:0:0:0:
400,16,71291,1,0,0:0:0:0:
444,32,71441,1,2,0:0:0:0:
508,104,71741,1,2,0:0:0:0:
508,200,72041,6,0,P|516:280|500:324,3,120,2|4|2|0,0:0|0:0|0:0|1:0,0:0:0:0:
420,364,73690,1,0,0:0:0:0:
372,372,73840,1,2,0:0:0:0:
280,340,74140,1,2,0:0:0:0:
208,276,74440,6,0,P|159:211|150:164,3,120,4|0|2|0,0:1|0:0|0:0|1:0,0:0:0:0:
152,80,76089,1,0,0:0:0:0:
196,60,76239,1,2,0:0:0:0:
288,40,76538,1,2,0:0:0:0:
384,60,76839,6,0,P|446:110|466:153,2,120,2|0|2,0:0|0:0|0:0,0:0:0:0:
288,76,78038,2,0,L|214:46,2,79.9999999999999,4|4|4,0:0|0:0|0:0,0:0:0:0:
468,148,79237,5,4,0:1:0:0:
484,244,79537,1,8,0:0:0:0:
436,328,79837,2,0,B|413:361|413:361|371:375,1,79.9999999999999,0|8,0:0|0:0,0:0:0:0:
328,376,80287,1,0,0:0:0:0:
192,328,80736,1,0,0:0:0:0:
152,240,81036,2,0,L|192:168,1,79.9999999999999,0|8,0:0|0:0,0:0:0:0:
236,156,81486,1,0,0:0:0:0:
284,168,81636,5,0,0:0:0:0:
376,196,81936,1,8,0:0:0:0:
464,160,82236,2,0,B|488:128|488:128|488:84,1,79.9999999999999,0|8,0:0|0:0,0:0:0:0:
468,44,82685,2,0,P|416:12|352:20,1,120,0|8,0:0|0:0,0:0:0:0:
268,44,83435,2,0,L|192:76,1,79.9999999999999,0|8,0:0|0:0,0:0:0:0:
164,112,83885,1,0,0:0:0:0:
132,148,84035,6,0,L|56:180,2,79.9999999999999,4|8|0,0:1|0:0|0:0,0:0:0:0:
220,112,84934,1,8,0:0:0:0:
312,144,85234,1,0,0:0:0:0:
348,112,85384,2,0,P|400:92|460:112,1,120,2|2,0:0|0:0,0:0:0:0:
512,192,86134,1,8,0:0:0:0:
496,236,86284,1,0,0:0:0:0:
480,280,86434,6,0,L|420:332,2,79.9999999999999,0|8|0,0:0|0:0|0:0,0:0:0:0:
468,184,87333,1,8,0:0:0:0:
372,16,87933,1,8,0:0:0:0:
288,60,88233,2,0,P|250:74|211:72,1,79.9999999999999,0|8,0:0|0:0,0:0:0:0:
120,44,88832,5,4,0:1:0:0:
76,128,89132,1,8,0:0:0:0:
168,152,89432,2,0,B|182:189|182:189|170:231,1,79.9999999999999,0|8,0:0|0:0,0:0:0:0:
145,269,89882,1,0,0:0:0:0:
20,340,90331,1,8,0:0:0:0:
8,244,90631,2,0,L|28:164,1,79.9999999999999,0|8,0:0|0:0,0:0:0:0:
44,120,91081,1,0,0:0:0:0:
80,88,91231,5,0,0:0:0:0:
172,68,91531,1,8,0:0:0:0:
260,108,91831,2,0,B|298:118|298:118|339:101,1,79.9999999999999,0|8,0:0|0:0,0:0:0:0:
380,84,92281,2,0,P|440:84|488:124,1,120,0|8,0:0|0:0,0:0:0:0:
468,216,93030,2,0,L|432:288,1,79.9999999999999,0|8,0:0|0:0,0:0:0:0:
396,320,93480,1,0,0:0:0:0:
356,292,93630,6,0,L|280:324,2,79.9999999999999,4|8|0,0:1|0:0|0:0,0:0:0:0:
372,196,94529,1,8,0:0:0:0:
320,116,94829,1,0,0:0:0:0:
288,80,94979,2,0,P|248:44|184:40,1,120,2|10,0:0|0:0,0:0:0:0:
104,96,95729,1,8,0:0:0:0:
120,140,95879,1,0,0:0:0:0:
96,180,96029,6,0,L|40:236,2,79.9999999999999,0|8|0,0:0|0:0|0:0,0:0:0:0:
188,152,96928,1,8,0:0:0:0:
368,84,97528,1,8,0:0:0:0:
416,168,97828,2,0,L|392:244,1,79.9999999999999,0|8,0:0|0:0,0:0:0:0:
300,272,98428,1,4,0:1:0:0:
412,292,108023,6,0,P|448:276|472:236,1,79.9999999999999,2|2,0:1|0:1,0:0:0:0:
471,148,108622,2,0,L|471:108,3,40,2|2|2|2,0:1|0:1|0:1|0:1,0:0:0:0:
248,12,109822,1,8,0:0:0:0:
156,44,110122,1,0,1:0:0:0:
68,76,110422,6,0,P|54:112|66:158,1,79.9999999999999,2|2,0:1|0:1,0:0:0:0:
128,220,111021,2,0,L|160:248,3,40,2|2|2|2,0:1|0:1|0:1|0:1,0:0:0:0:
396,276,112221,1,8,0:0:0:0:
444,192,112520,1,0,1:0:0:0:
444,96,112820,6,0,P|429:61|388:37,1,79.9999999999999,2|2,0:1|0:1,0:0:0:0:
300,39,113420,2,0,L|260:44,3,40,2|2|2|2,0:1|0:1|0:1|0:1,0:0:0:0:
40,140,114619,1,8,0:0:0:0:
68,232,114919,1,0,1:0:0:0:
140,296,115219,6,0,L|216:332,2,79.9999999999999,2|2|2,0:1|0:1|0:1,0:0:0:0:
164,204,116119,1,2,0:1:0:0:
108,124,116419,6,0,L|79:44,2,79.9999999999999,4|4|2,3:0|3:0|3:0,0:0:0:0:
156,132,117168,2,0,B|180:164|180:164|220:148|260:164,1,120,0|4,3:0|3:0,0:0:0:0:
