osu file format v14

[General]
AudioFilename: Renard - Intensive Care Unit (feat. FIAB).mp3
AudioLeadIn: 0
PreviewTime: 69642
Countdown: 1
SampleSet: Soft
StackLeniency: 0.7
Mode: 0
LetterboxInBreaks: 0
WidescreenStoryboard: 1

[Editor]
DistanceSpacing: 1.3
BeatDivisor: 1
GridSize: 4
TimelineZoom: 1

[Metadata]
Title:Intensive Care Unit (feat. FIAB)
TitleUnicode:Intensive Care Unit (feat. FIAB)
Artist:Renard
ArtistUnicode:Renard
Creator:Leader
Version:Easy
Source:
Tags:delis stefan tng thenutritiousguy -kevincela- lapfox trax
BeatmapID:1695282
BeatmapSetID:444699

[Difficulty]
HPDrainRate:2
CircleSize:2
OverallDifficulty:2
ApproachRate:2
SliderMultiplier:0.699999999999999
SliderTickRate:1

[Events]
//Background and Video events
0,0,"bg.jpg",0,0
//Break Periods
2,60247,68082
2,98627,106463
//Storyboard Layer 0 (Background)
//Storyboard Layer 1 (Fail)
//Storyboard Layer 2 (Pass)
//Storyboard Layer 3 (Foreground)
//Storyboard Sound Samples

[TimingPoints]
2476,299.850074962519,4,2,0,60,1,0
69642,-100,4,2,0,60,0,1
78038,-100,4,2,0,60,0,0
79237,-100,4,2,0,60,0,1
98428,-100,4,2,0,60,0,0

[Colours]
Combo1 : 17,254,176
Combo2 : 173,255,95
Combo3 : 255,88,100
Combo4 : 255,94,55

[HitObjects]
152,336,2475,6,0,B|252:304|252:372|364:348,1,210,4|0,0:0|0:0,0:0:0:0:
436,304,3675,2,0,L|452:76,1,210,2|0,0:0|0:0,0:0:0:0:
368,60,4874,2,0,B|268:28|268:96|156:72,1,210,2|0,0:0|0:0,0:0:0:0:
76,44,6074,1,2,0:0:0:0:
204,176,6673,1,8,0:0:0:0:
68,296,7273,6,0,P|164:272|264:336,1,210,4|0,0:1|0:0,0:0:0:0:
336,364,8473,2,0,L|360:156,1,210,2|0,0:0|0:0,0:0:0:0:
436,105,9672,2,0,P|392:66|271:137,1,210,2|0,0:0|0:0,0:0:0:0:
245,212,10871,1,2,0:0:0:0:
360,352,11471,1,8,0:0:0:0:
480,215,12071,5,6,0:1:0:0:
344,104,12670,2,0,P|304:88|260:80,2,69.9999999999999,8|2|2,0:0|0:1|0:0,0:0:0:0:
480,215,13870,1,8,0:0:0:0:
369,359,14470,5,2,0:1:0:0:
196,300,15069,2,0,P|144:308|108:320,2,69.9999999999999,8|2|0,0:0|0:1|0:0,0:0:0:0:
368,360,16269,1,8,0:0:0:0:
260,216,16868,5,2,0:1:0:0:
396,96,17468,2,0,P|432:88|472:84,2,69.9999999999999,8|2|2,0:0|0:1|0:0,0:0:0:0:
260,216,18667,1,8,0:0:0:0:
124,336,19267,2,0,B|160:240|88:240|128:112,1,210,2|2,0:1|0:1,0:0:0:0:
36,100,20467,6,0,P|100:40|204:88,1,210,4|4,0:0|0:0,0:0:0:0:
248,160,21666,5,4,0:0:0:0:
408,76,22266,1,2,0:0:0:0:
464,248,22865,2,0,P|416:260|380:276,1,69.9999999999999,2|2,0:0|0:0,0:0:0:0:
320,316,23465,1,2,0:0:0:0:
168,216,24065,5,2,0:0:0:0:
48,352,24664,1,2,0:0:0:0:
168,216,25264,2,0,L|152:52,1,140,2|2,0:0|0:0,0:0:0:0:
245,80,26164,1,8,0:0:0:0:
324,35,26464,5,2,0:0:0:0:
428,192,27063,1,2,0:0:0:0:
332,348,27663,2,0,B|224:316|224:384|124:344,1,210,2|8,0:0|0:0,0:0:0:0:
52,292,28862,5,2,0:0:0:0:
148,136,29462,1,2,0:0:0:0:
284,256,30062,2,0,P|356:264|408:144,1,210,2|8,0:0|0:0,0:0:0:0:
356,84,31261,5,4,0:1:0:0:
180,36,31861,1,2,0:0:0:0:
72,180,32461,2,0,P|80:212|84:252,1,69.9999999999999,2|2,0:0|0:0,0:0:0:0:
72,340,33060,1,2,0:0:0:0:
240,272,33660,5,2,0:0:0:0:
404,348,34260,2,0,P|408:308|420:268,1,69.9999999999999,2|8,0:0|0:0,0:0:0:0:
460,200,34859,1,2,0:0:0:0:
348,56,35459,1,2,0:0:0:0:
240,200,36059,5,2,0:0:0:0:
132,56,36658,1,2,0:0:0:0:
68,228,37258,2,0,P|80:336|176:324,1,210,2|8,0:0|0:0,0:0:0:0:
236,284,38458,5,2,0:0:0:0:
408,348,39057,1,2,0:0:0:0:
476,180,39657,2,0,P|466:133|448:92,1,69.9999999999999,2|2,0:0|0:0,0:0:0:0:
424,28,40257,1,2,0:0:0:0:
348,192,40856,6,0,B|248:156|248:224|136:192,1,210,4|8,0:1|0:0,0:0:0:0:
84,116,42056,2,0,P|48:168|116:292,1,210,4|8,0:1|0:0,0:0:0:0:
184,332,43255,2,0,L|344:344,1,140,4|0,0:1|0:0,0:0:0:0:
460,220,44455,2,0,L|300:208,1,140,4|2,0:1|0:0,0:0:0:0:
200,72,45654,6,0,B|300:44|300:108|416:80,1,210,4|10,0:1|0:0,0:0:0:0:
472,144,46853,2,0,L|452:312,1,140,2|2,0:0|0:0,0:0:0:0:
416,368,47753,1,8,0:0:0:0:
344,312,48053,6,0,P|264:288|160:372,1,210,4|8,0:1|0:0,0:0:0:0:
84,320,49252,2,0,L|72:164,1,140,2|2,0:0|0:0,0:0:0:0:
200,52,50452,6,0,P|304:40|380:104,2,210,4|8|0,0:1|0:0|0:0,0:0:0:0:
140,120,52550,1,8,0:0:0:0:
164,208,52850,2,0,P|242:273|344:260,2,210,4|8|2,0:1|0:0|0:0,0:0:0:0:
252,48,55249,6,0,B|352:24|352:92|476:56,2,210,4|8|2,0:1|0:0|0:0,0:0:0:0:
168,84,57348,1,8,0:0:0:0:
108,152,57648,2,0,B|84:252|152:252|116:376,2,210,4|8|0,0:1|0:0|3:0,0:0:0:0:
256,44,60047,5,4,3:1:0:0:
324,336,69642,6,0,P|400:348|472:240,2,210,4|2|2,0:1|0:0|0:0,0:0:0:0:
256,272,71741,1,2,0:0:0:0:
188,336,72041,2,0,P|112:348|40:240,2,210,2|2|2,0:0|0:0|0:0,0:0:0:0:
256,276,74140,1,2,0:0:0:0:
324,216,74440,6,0,P|352:160|300:12,2,210,4|2|2,0:1|0:0|0:0,0:0:0:0:
160,296,76838,2,0,P|120:292|76:292,2,69.9999999999999,2|2|2,0:0|0:0|0:0,0:0:0:0:
331,358,78038,5,4,0:0:0:0:
489,30,79237,6,0,P|412:12|291:67,1,210,4|8,0:1|0:0,0:0:0:0:
239,134,80437,1,0,0:0:0:0:
154,298,81036,2,0,P|146:257|133:219,1,69.9999999999999,0|8,0:0|0:0,0:0:0:0:
101,146,81636,5,0,0:0:0:0:
251,43,82236,1,0,0:0:0:0:
394,154,82835,2,0,P|445:145|485:142,2,69.9999999999999,0|8|0,0:0|0:0|0:0,0:0:0:0:
308,315,84035,6,0,B|203:280|204:352|87:307,1,210,4|8,0:1|0:0,0:0:0:0:
38,246,85234,2,0,P|21:188|44:109,1,140,0|0,0:0|0:0,0:0:0:0:
116,60,86134,1,8,0:0:0:0:
202,87,86434,6,0,B|268:88|268:88|319:130|319:130|403:130,1,210,0|8,0:0|0:0,0:0:0:0:
483,100,87633,1,0,0:0:0:0:
371,243,88233,1,0,0:0:0:0:
209,160,88832,6,0,P|143:137|74:253,1,210,4|8,0:1|0:0,0:0:0:0:
102,319,90032,2,0,L|263:340,1,140,0|0,0:0|0:0,0:0:0:0:
407,263,91231,6,0,L|425:125,1,140,0|0,0:0|0:0,0:0:0:0:
257,52,92431,2,0,P|220:55|185:64,1,69.9999999999999,0|8,0:0|0:0,0:0:0:0:
105,102,93030,1,0,0:0:0:0:
68,280,93630,6,0,B|169:249|169:319|288:292,1,210,4|8,0:1|0:0,0:0:0:0:
355,255,94829,2,0,L|375:85,1,140,0|0,0:0|0:0,0:0:0:0:
403,30,95729,1,8,0:0:0:0:
312,40,96029,6,0,B|211:9|211:79|92:52,1,210,0|8,0:0|0:0,0:0:0:0:
40,117,97228,2,0,P|24:182|53:259,2,140,0|0|4,0:0|0:0|0:1,0:0:0:0:
28,220,108023,5,2,0:1:0:0:
168,104,108622,2,0,P|208:88|252:80,2,69.9999999999999,2|2|2,0:1|0:1|0:0,0:0:0:0:
28,220,109822,1,8,0:0:0:0:
144,360,110422,5,2,0:1:0:0:
316,300,111021,2,0,P|368:308|404:320,2,69.9999999999999,2|2|2,0:1|0:1|0:0,0:0:0:0:
144,360,112221,1,8,0:0:0:0:
252,216,112820,5,2,0:1:0:0:
116,96,113420,2,0,P|80:88|40:84,2,69.9999999999999,2|2|2,0:1|0:1|0:0,0:0:0:0:
252,216,114619,1,8,0:0:0:0:
388,336,115219,2,0,B|352:240|424:240|384:112,1,210,2|2,0:1|0:1,0:0:0:0:
476,100,116419,6,0,P|412:40|308:88,1,210,4|4,0:0|0:0,0:0:0:0:
264,160,117618,1,4,0:0:0:0:
