osu file format v14

[General]
AudioFilename: Renard - Intensive Care Unit (feat. FIAB).mp3
AudioLeadIn: 0
PreviewTime: 69642
Countdown: 1
SampleSet: Soft
StackLeniency: 0.7
Mode: 0
LetterboxInBreaks: 0
WidescreenStoryboard: 1

[Editor]
DistanceSpacing: 0.2
BeatDivisor: 4
GridSize: 4
TimelineZoom: 1.4

[Metadata]
Title:Intensive Care Unit (feat. FIAB)
TitleUnicode:Intensive Care Unit (feat. FIAB)
Artist:Renard
ArtistUnicode:Renard
Creator:Leader
Version:Delis' Insane
Source:
Tags:delis stefan tng thenutritiousguy -kevincela- lapfox trax
BeatmapID:1364997
BeatmapSetID:444699

[Difficulty]
HPDrainRate:6
CircleSize:4
OverallDifficulty:7
ApproachRate:9
SliderMultiplier:1.5
SliderTickRate:2

[Events]
//Background and Video events
0,0,"bg.jpg",0,0
//Break Periods
2,60247,68442
//Storyboard Layer 0 (Background)
//Storyboard Layer 1 (Fail)
//Storyboard Layer 2 (Pass)
//Storyboard Layer 3 (Foreground)
//Storyboard Sound Samples

[TimingPoints]
2476,299.850074962519,4,2,0,60,1,0
69642,-100,4,2,0,60,0,1
78038,-100,4,2,0,60,0,0
79237,-90.9090909090909,4,2,0,60,0,1
98428,-100,4,2,0,60,0,0

[Colours]
Combo1 : 17,254,176
Combo2 : 173,255,95
Combo3 : 255,88,100
Combo4 : 255,94,55

[HitObjects]
48,112,2475,6,0,L|144:104,1,75,4|4,0:0|0:0,0:0:0:0:
192,176,2775,2,0,L|224:28,1,150,0|8,0:0|0:0,0:0:0:0:
308,144,3225,2,0,L|268:312,1,150,0|0,0:0|0:0,0:0:0:0:
192,256,3675,6,0,B|144:256|104:272,1,75,2|0,0:0|0:0,0:0:0:0:
32,232,3975,2,0,B|-8:200|8:120|68:108,1,150,0|8,0:0|0:0,0:0:0:0:
144,160,4425,1,0,0:0:0:0:
232,112,4574,2,0,B|232:48|228:8,1,75,0|0,0:0|0:0,0:0:0:0:
336,112,4874,6,0,B|392:108|432:108,1,75,2|0,0:0|0:0,0:0:0:0:
448,192,5174,2,0,B|352:200|276:196,1,150,0|8,0:0|0:0,0:0:0:0:
392,280,5624,1,0,0:0:0:0:
392,280,5774,2,0,B|436:276|484:276,1,75,0|0,0:0|0:0,0:0:0:0:
280,284,6074,5,2,0:0:0:0:
298,196,6224,2,0,L|208:212,1,75,0|0,0:0|0:0,0:0:0:0:
176,288,6523,1,0,0:0:0:0:
244,116,6673,2,0,L|328:100,1,75,8|0,0:0|0:0,0:0:0:0:
224,208,6973,1,0,0:0:0:0:
224,208,7048,1,0,0:0:0:0:
224,208,7123,1,0,0:0:0:0:
136,220,7273,6,0,B|88:148|132:68,1,150,4|0,0:1|0:0,0:0:0:0:
204,120,7723,1,0,0:0:0:0:
272,64,7873,2,0,L|360:52,1,75,8|0,0:0|0:0,0:0:0:0:
400,128,8173,1,0,0:0:0:0:
312,144,8323,1,0,0:0:0:0:
232,248,8473,6,0,B|268:224|328:236,1,75,2|0,0:0|0:0,0:0:0:0:
400,324,8772,1,0,0:0:0:0:
384,244,8922,1,0,0:0:0:0:
468,264,9072,2,0,L|456:160,1,75,8|0,0:0|0:0,0:0:0:0:
480,100,9372,1,0,0:0:0:0:
400,44,9522,5,0,0:0:0:0:
400,44,9597,1,0,0:0:0:0:
400,44,9672,2,0,L|228:76,1,150,2|0,0:0|0:0,0:0:0:0:
164,44,10122,1,0,0:0:0:0:
76,176,10272,2,0,L|92:80,1,75,8|0,0:0|0:0,0:0:0:0:
192,232,10571,1,0,0:0:0:0:
180,332,10721,1,0,0:0:0:0:
104,272,10871,5,2,0:0:0:0:
264,292,11021,1,0,0:0:0:0:
360,300,11171,1,2,0:0:0:0:
264,292,11321,1,0,0:0:0:0:
360,300,11471,2,0,B|364:260|364:212,1,75,8|0,0:0|0:0,0:0:0:0:
320,136,11771,1,2,0:0:0:0:
328,108,11846,1,0,0:0:0:0:
336,80,11921,1,2,0:0:0:0:
492,168,12071,6,0,B|448:172|392:168,1,75,6|0,0:1|0:0,0:0:0:0:
200,220,12371,2,0,B|244:216|300:220,1,75,2|0,0:1|0:0,0:0:0:0:
392,336,12670,1,8,0:0:0:0:
364,236,12820,2,0,B|360:196|360:128,1,75,2|2,0:1|0:1,0:0:0:0:
452,248,13120,6,0,B|460:164|436:92,1,150,2|0,0:1|0:0,0:0:0:0:
261,70,13570,2,0,B|253:154|277:226,1,150,2|8,0:0|0:0,0:0:0:0:
364,236,14020,1,0,0:0:0:0:
344,152,14170,2,0,B|348:112|360:56,1,75,0|0,0:0|0:0,0:0:0:0:
176,132,14470,6,0,L|80:152,1,75,2|0,0:1|0:0,0:0:0:0:
196,220,14769,2,0,L|100:240,1,75,2|0,0:1|0:0,0:0:0:0:
60,308,15069,1,8,0:0:0:0:
56,300,15219,1,2,0:1:0:0:
160,336,15369,1,2,0:1:0:0:
168,340,15519,2,0,B|240:332|328:336,1,150,2|0,0:1|0:0,0:0:0:0:
424,272,15969,6,0,B|436:232|420:188,1,75,2|0,0:0|0:0,0:0:0:0:
348,116,16269,1,8,0:0:0:0:
256,120,16419,1,0,0:0:0:0:
260,212,16568,1,2,0:0:0:0:
260,212,16643,1,0,0:0:0:0:
260,212,16718,1,0,0:0:0:0:
360,288,16868,6,0,B|368:248|364:208,1,75,2|0,0:1|0:0,0:0:0:0:
364,213,17168,2,0,L|472:225,1,75,2|0,0:1|0:0,0:0:0:0:
172,112,17468,2,0,B|164:152|168:192,1,75,8|2,0:0|0:1,0:0:0:0:
167,186,17768,1,2,0:1:0:0:
76,228,17918,6,0,B|60:152|84:72,1,150,2|0,0:1|0:0,0:0:0:0:
172,112,18368,2,0,L|264:96,1,75,2|0,0:0|0:0,0:0:0:0:
312,40,18667,1,8,0:0:0:0:
352,132,18817,1,0,0:0:0:0:
296,216,18967,1,2,0:0:0:0:
344,308,19117,1,0,0:0:0:0:
232,304,19267,6,0,B|184:308|136:320,1,75,2|0,0:1|0:0,0:0:0:0:
88,232,19567,2,0,B|136:228|184:216,1,75,2|0,0:1|0:0,0:0:0:0:
252,120,19867,1,8,0:0:0:0:
264,220,20017,1,0,0:0:0:0:
168,144,20167,1,2,0:1:0:0:
284,72,20317,1,2,0:1:0:0:
136,48,20467,5,4,0:0:0:0:
128,44,20766,5,4,0:0:0:0:
408,168,21066,5,4,0:0:0:0:
344,220,21366,5,4,0:0:0:0:
344,220,21666,6,0,B|288:220|288:220|256:236|256:236|180:236,1,150,4|2,0:0|0:0,0:0:0:0:
316,304,22116,2,0,B|376:304|376:304|404:288|404:288|480:288,1,150,0|2,0:0|0:0,0:0:0:0:
344,220,22565,1,8,0:0:0:0:
344,220,22865,2,0,B|292:208|280:132|324:96,1,150,2|2,0:0|0:0,0:0:0:0:
416,80,23315,2,0,B|468:92|480:168|436:204,1,150,0|2,0:0|0:0,0:0:0:0:
300,280,23765,1,8,0:0:0:0:
284,276,23840,1,0,0:0:0:0:
268,272,23915,2,0,L|184:248,1,75,0|2,0:0|0:0,0:0:0:0:
195,251,24365,1,2,0:0:0:0:
128,312,24514,6,0,B|68:244|128:160,1,150,0|2,0:0|0:0,0:0:0:0:
224,108,24964,1,8,0:0:0:0:
296,144,25114,1,0,0:0:0:0:
224,108,25264,2,0,L|380:92,1,150,2|2,0:0|0:0,0:0:0:0:
440,248,25714,2,0,L|284:264,1,150,0|2,0:0|0:0,0:0:0:0:
104,280,26164,1,8,0:0:0:0:
104,280,26239,1,0,0:0:0:0:
104,280,26314,2,0,B|144:264|192:272,1,75,0|2,0:0|0:0,0:0:0:0:
177,270,26763,1,2,0:0:0:0:
232,200,26913,6,0,B|272:112|192:56,1,150,0|2,0:0|0:0,0:0:0:0:
84,160,27363,1,8,0:0:0:0:
84,160,27513,2,0,L|172:144,1,75,0|2,0:0|0:0,0:0:0:0:
324,116,27813,1,0,0:0:0:0:
324,116,27963,2,0,B|368:204|288:264,1,150,2|2,0:0|0:0,0:0:0:0:
248,172,28413,1,2,0:0:0:0:
416,220,28562,1,8,0:0:0:0:
416,220,28637,1,0,0:0:0:0:
416,220,28712,1,0,0:0:0:0:
464,144,28862,6,0,B|376:108|320:188,1,150,2|2,0:0|0:0,0:0:0:0:
188,296,29312,2,0,B|280:332|332:252,1,150,0|2,0:0|0:0,0:0:0:0:
192,212,29762,2,0,L|88:192,1,75,8|0,0:0|0:0,0:0:0:0:
44,304,30062,1,2,0:0:0:0:
126,338,30212,1,0,0:0:0:0:
126,338,30362,2,0,B|158:326|188:295,1,75,2|0,0:0|0:0,0:0:0:0:
192,212,30661,1,2,0:0:0:0:
276,152,30811,1,2,0:0:0:0:
292,254,30961,5,8,0:0:0:0:
284,258,31036,1,0,0:0:0:0:
276,262,31111,1,0,0:0:0:0:
268,266,31186,1,0,0:0:0:0:
260,270,31261,2,0,B|196:302|124:338,1,150,4|2,0:1|0:0,0:0:0:0:
20,336,31711,1,0,0:0:0:0:
44,256,31861,1,2,0:0:0:0:
44,256,32011,2,0,B|80:240|128:216,1,75,2|8,0:0|0:0,0:0:0:0:
208,152,32311,6,0,B|212:96|152:56|96:88,1,150,0|0,0:0|0:0,0:0:0:0:
208,152,32760,2,0,B|256:156|296:152,1,75,2|0,0:0|0:0,0:0:0:0:
368,120,33060,1,2,0:0:0:0:
352,224,33210,1,2,0:0:0:0:
376,328,33360,1,8,0:0:0:0:
376,328,33435,1,0,0:0:0:0:
376,328,33510,2,0,L|464:320,1,75,0|2,0:0|0:0,0:0:0:0:
450,321,33960,1,2,0:0:0:0:
288,284,34110,6,0,L|120:296,1,150,0|2,0:0|0:0,0:0:0:0:
72,228,34559,1,8,0:0:0:0:
208,128,34709,1,0,0:0:0:0:
208,128,34859,2,0,B|244:116|284:124,1,75,2|0,0:0|0:0,0:0:0:0:
288,284,35159,2,0,B|252:296|212:288,1,75,2|0,0:0|0:0,0:0:0:0:
144,212,35459,5,2,0:0:0:0:
248,200,35609,1,2,0:0:0:0:
352,188,35759,1,8,0:0:0:0:
352,188,35834,1,0,0:0:0:0:
352,188,35909,2,0,B|400:180|452:188,1,75,0|2,0:0|0:0,0:0:0:0:
426,185,36359,1,2,0:0:0:0:
304,256,36508,1,0,0:0:0:0:
288,116,36658,1,2,0:0:0:0:
288,116,36808,2,0,B|280:72|292:16,1,75,2|8,0:0|0:0,0:0:0:0:
228,196,37108,6,0,B|144:184|76:216,1,150,0|0,0:0|0:0,0:0:0:0:
168,112,37558,2,0,B|168:68|140:28,1,75,2|0,0:0|0:0,0:0:0:0:
228,196,37858,2,0,B|256:228|268:280,1,75,2|2,0:0|0:0,0:0:0:0:
200,328,38158,2,0,B|168:360|156:376,1,37.5,8|0,0:0|0:0,0:0:0:0:
128,296,38308,2,0,L|64:308,1,37.5,0|0,0:0|0:0,0:0:0:0:
80,224,38458,6,0,B|48:148|76:64,2,150,2|2|2,0:0|0:0|0:0,0:0:0:0:
152,168,39207,2,0,B|208:168|244:184,1,75,2|8,0:0|0:0,0:0:0:0:
304,216,39507,1,0,0:0:0:0:
304,216,39582,1,0,0:0:0:0:
304,216,39657,2,0,L|320:128,1,75,2|0,0:0|0:0,0:0:0:0:
404,216,39957,2,0,L|412:300,1,75,2|0,0:0|0:0,0:0:0:0:
304,216,40257,5,2,0:0:0:0:
212,252,40407,1,2,0:0:0:0:
136,192,40556,1,8,0:0:0:0:
120,192,40631,1,0,0:0:0:0:
104,192,40706,1,0,0:0:0:0:
88,192,40781,1,0,0:0:0:0:
72,192,40856,2,0,L|56:96,1,75,4|0,0:1|0:0,0:0:0:0:
59,118,41156,1,0,1:0:0:0:
208,192,41306,6,0,L|220:280,1,75,0|0,0:0|0:0,0:0:0:0:
218,266,41606,1,0,1:0:0:0:
368,192,41756,6,0,L|380:104,1,75,8|0,0:0|0:0,0:0:0:0:
379,117,42056,1,4,0:1:0:0:
512,192,42206,6,0,L|500:280,1,75,0|0,0:0|0:0,0:0:0:0:
501,267,42506,1,0,1:0:0:0:
420,244,42655,5,0,0:0:0:0:
428,336,42804,1,0,3:0:0:0:
344,348,42954,1,0,0:0:0:0:
326,346,43029,1,0,0:0:0:0:
307,342,43104,1,0,0:0:0:0:
290,336,43179,1,0,0:0:0:0:
273,328,43255,2,0,L|261:218,1,75,4|0,0:1|0:0,0:0:0:0:
304,180,43555,5,0,1:0:0:0:
240,40,43705,2,0,L|252:150,1,75,0|0,0:0|0:0,0:0:0:0:
304,180,44005,1,0,1:0:0:0:
188,296,44155,6,0,B|148:288|108:288,1,75,8|0,0:0|0:0,0:0:0:0:
188,296,44455,2,0,B|228:304|276:304,1,75,4|0,0:1|0:0,0:0:0:0:
113,288,44754,2,0,L|126:206,1,75,2|0,0:0|1:0,0:0:0:0:
262,303,45054,2,0,L|250:395,1,75,2|0,0:0|0:0,0:0:0:0:
304,180,45354,5,8,0:0:0:0:
328,164,45429,1,0,0:0:0:0:
356,156,45504,1,0,0:0:0:0:
384,160,45579,1,0,0:0:0:0:
412,168,45654,2,0,B|456:176|500:148,1,75,4|0,0:1|0:0,0:0:0:0:
432,72,45954,1,2,0:0:0:0:
280,68,46104,2,0,L|180:84,1,75,2|0,0:0|0:0,0:0:0:0:
172,204,46404,1,2,0:0:0:0:
124,132,46553,5,10,0:0:0:0:
252,192,46703,1,0,0:0:0:0:
136,276,46853,2,0,L|40:256,1,75,2|0,0:0|0:0,0:0:0:0:
240,152,47153,2,0,L|336:172,1,75,2|0,0:0|1:0,0:0:0:0:
360,308,47453,5,2,0:0:0:0:
264,240,47603,1,0,0:0:0:0:
400,196,47753,1,8,0:0:0:0:
408,168,47828,1,0,0:0:0:0:
408,140,47903,1,0,0:0:0:0:
400,112,47978,1,0,0:0:0:0:
384,88,48053,2,0,B|428:84|464:56,1,75,4|0,0:1|0:0,0:0:0:0:
324,152,48353,5,0,1:0:0:0:
252,116,48502,2,0,B|216:96|156:96,1,75,0|0,0:0|0:0,0:0:0:0:
80,124,48802,1,0,1:0:0:0:
100,216,48952,1,8,0:0:0:0:
192,192,49102,1,0,0:0:0:0:
160,300,49252,5,2,0:0:0:0:
160,300,49327,2,0,L|144:368,1,37.5,0|0,0:0|0:0,0:0:0:0:
324,320,49552,5,2,0:0:0:0:
324,320,49627,2,0,L|392:336,1,37.5,0|0,0:0|0:0,0:0:0:0:
452,272,49852,5,2,0:0:0:0:
457,254,49927,1,0,0:0:0:0:
459,235,50002,1,0,0:0:0:0:
458,215,50077,1,0,0:0:0:0:
455,197,50152,2,0,L|472:144,1,37.5,8|0,0:0|0:0,0:0:0:0:
396,124,50302,2,0,L|384:68,1,37.5,0|0,0:0|0:0,0:0:0:0:
373,206,50452,5,4,0:1:0:0:
373,206,50601,2,0,B|332:192|280:200,1,75,0|2,0:0|0:0,0:0:0:0:
228,136,50901,2,0,B|148:156|76:108,1,150,0|0,0:0|0:0,0:0:0:0:
168,56,51351,2,0,L|248:44,1,75,8|0,0:0|0:0,0:0:0:0:
192,228,51651,5,2,0:0:0:0:
192,228,51801,2,0,B|128:296|32:252,1,150,0|0,0:0|0:0,0:0:0:0:
192,328,52251,2,0,L|280:344,1,75,0|0,0:0|0:0,0:0:0:0:
448,292,52550,2,0,L|360:276,1,75,8|0,0:0|0:0,0:0:0:0:
256,184,52850,6,0,L|232:16,1,150,4|2,0:1|0:0,0:0:0:0:
316,84,53300,2,0,B|348:116|412:96,1,75,0|2,0:0|0:0,0:0:0:0:
385,102,53600,1,0,0:0:0:0:
480,220,53750,2,0,B|448:188|384:208,1,75,8|0,0:0|0:0,0:0:0:0:
410,201,54050,1,0,0:0:0:0:
208,292,54200,6,0,B|288:320|352:256,1,150,0|0,0:0|0:0,0:0:0:0:
172,200,54649,2,0,L|80:164,1,75,2|0,0:0|0:0,0:0:0:0:
256,132,54949,2,0,L|164:96,1,75,8|0,0:0|0:0,0:0:0:0:
416,88,55249,6,0,L|268:32,1,150,4|2,0:1|0:0,0:0:0:0:
356,144,55699,2,0,L|520:112,1,150,0|0,0:0|0:0,0:0:0:0:
408,204,56149,2,0,L|268:124,1,150,8|2,0:0|0:0,0:0:0:0:
352,268,56598,2,0,L|504:204,1,150,0|0,0:0|0:0,0:0:0:0:
256,228,57048,2,0,B|212:240|184:280,1,75,2|0,0:0|0:0,0:0:0:0:
56,200,57348,2,0,B|100:216|148:188,1,75,8|0,0:0|0:0,0:0:0:0:
208,160,57648,5,4,0:1:0:0:
200,60,57798,1,0,0:0:0:0:
200,60,57948,1,2,0:0:0:0:
304,152,58098,5,0,0:0:0:0:
404,148,58248,1,2,0:0:0:0:
404,148,58398,1,0,0:0:0:0:
260,248,58547,5,8,0:0:0:0:
256,136,58697,1,0,0:0:0:0:
160,192,58847,2,0,L|108:204,2,37.5,2|0|0,0:0|0:0|0:0,0:0:0:0:
184,68,59147,5,2,0:0:0:0:
200,64,59222,1,0,0:0:0:0:
220,60,59297,1,0,0:0:0:0:
235,56,59372,1,0,0:0:0:0:
252,52,59447,2,0,L|292:40,3,37.5,0|0|0|0,3:0|3:0|3:0|3:0,0:0:0:0:
296,124,59747,2,0,L|352:140,3,37.5,8|0|0|0,3:2|3:0|3:0|3:0,0:0:0:0:
216,156,60047,1,4,3:1:0:0:
16,192,69042,5,4,0:0:0:0:
104,160,69192,1,2,0:0:0:0:
104,160,69267,1,2,0:0:0:0:
104,160,69342,1,2,0:0:0:0:
176,220,69492,1,4,0:0:0:0:
268,192,69642,6,0,L|348:188,2,75,4|0|2,0:1|1:0|0:0,0:0:0:0:
196,136,70092,2,0,L|192:56,2,75,0|2|0,0:0|0:0|1:0,0:0:0:0:
128,196,70541,2,0,L|48:200,2,75,2|0|2,0:0|0:0|0:0,0:0:0:0:
200,252,70991,2,0,L|204:332,2,75,0|2|0,1:0|0:0|0:0,0:0:0:0:
196,136,71441,5,2,0:0:0:0:
200,252,71591,1,0,1:0:0:0:
128,196,71741,1,2,0:0:0:0:
268,192,71891,1,0,1:0:0:0:
352,188,72041,6,0,B|396:188|440:184,1,75,2|0,0:0|1:0,0:0:0:0:
426,185,72341,1,2,0:0:0:0:
300,100,72490,2,0,B|256:100|192:112,1,75,4|2,0:0|0:0,0:0:0:0:
193,199,72790,1,0,1:0:0:0:
193,199,72865,1,0,0:0:0:0:
193,199,72940,2,0,B|233:191|281:191,1,75,2|0,0:0|0:0,0:0:0:0:
112,152,73240,1,2,0:0:0:0:
96,256,73390,6,0,B|132:288|176:284,1,75,0|2,1:0|0:0,0:0:0:0:
256,284,73690,1,0,0:0:0:0:
256,284,73765,1,0,0:0:0:0:
256,284,73840,2,0,L|348:308,1,75,2|0,0:0|1:0,0:0:0:0:
352,320,74065,1,0,0:0:0:0:
376,304,74140,1,2,0:0:0:0:
404,300,74215,1,0,0:0:0:0:
432,308,74290,1,0,1:0:0:0:
488,224,74440,6,0,L|468:132,1,75,4|0,0:1|1:0,0:0:0:0:
492,64,74739,1,0,0:0:0:0:
404,56,74889,2,0,L|324:32,1,75,0|2,0:0|0:0,0:0:0:0:
256,88,75189,1,0,1:0:0:0:
168,36,75339,1,2,0:0:0:0:
140,40,75414,1,0,0:0:0:0:
112,44,75489,1,0,0:0:0:0:
84,48,75564,1,0,0:0:0:0:
56,52,75639,1,2,0:0:0:0:
12,136,75789,5,0,1:0:0:0:
100,184,75939,1,2,0:0:0:0:
32,248,76089,2,0,L|52:300,2,37.5,0|0|2,0:0|0:0|0:0,0:0:0:0:
100,184,76389,2,0,B|144:188|184:156,1,75,0|2,1:0|0:0,0:0:0:0:
304,52,76688,1,0,1:0:0:0:
220,24,76838,6,0,L|120:44,1,75,2|0,0:0|1:0,0:0:0:0:
256,128,77138,1,2,0:0:0:0:
344,132,77288,2,0,L|444:112,1,75,0|2,0:0|0:0,0:0:0:0:
392,208,77588,1,0,1:0:0:0:
364,224,77663,1,0,0:0:0:0:
348,252,77738,1,2,0:0:0:0:
344,280,77813,1,0,0:0:0:0:
348,308,77888,1,0,1:0:0:0:
424,356,78038,5,4,0:0:0:0:
448,280,78338,5,4,0:0:0:0:
212,340,78637,5,4,0:0:0:0:
256,192,78937,5,4,0:0:0:0:
256,192,79237,6,0,B|200:172|152:180,1,82.5000025177003,4|0,0:1|0:0,0:0:0:0:
104,236,79537,2,0,L|72:76,1,123.75000377655,8|0,0:0|0:0,0:0:0:0:
64,88,79837,2,0,B|104:104|168:116,1,82.5000025177003,0|0,0:0|1:0,0:0:0:0:
228,76,80137,1,8,0:0:0:0:
376,124,80287,5,0,0:0:0:0:
376,124,80362,1,0,0:0:0:0:
376,124,80437,2,0,B|328:116|292:144,1,82.5000025177003,0|0,0:0|0:0,0:0:0:0:
192,224,80736,2,0,B|220:260|268:256,1,82.5000025177003,8|0,0:0|0:0,0:0:0:0:
368,316,81036,2,0,L|344:212,1,82.5000025177003,0|0,0:0|1:0,0:0:0:0:
344,204,81261,1,0,0:0:0:0:
344,204,81336,2,0,L|395:209,2,41.2500012588501,8|0|0,0:0|0:0|0:0,0:0:0:0:
288,332,81636,6,0,B|208:396|104:340,2,165.000005035401,0|8|0,0:0|0:0|0:0,0:0:0:0:
224,268,82386,1,0,1:0:0:0:
224,268,82461,1,0,0:0:0:0:
224,268,82535,2,0,B|200:228|208:164,1,82.5000025177003,8|0,0:0|0:0,0:0:0:0:
240,104,82835,6,0,L|276:12,1,82.5000025177003,0|0,0:0|0:0,0:0:0:0:
344,164,83135,2,0,L|308:264,1,82.5000025177003,8|0,0:0|0:0,0:0:0:0:
344,164,83435,2,0,L|444:148,1,82.5000025177003,0|0,0:0|1:0,0:0:0:0:
236,200,83735,1,8,0:0:0:0:
236,200,83810,1,0,0:0:0:0:
236,200,83885,2,0,B|188:212|128:192,1,82.5000025177003,0|4,0:0|0:1,0:0:0:0:
76,148,84185,5,0,0:0:0:0:
0,196,84335,2,0,B|-4:240|0:292,1,82.5000025177003,8|0,0:0|0:0,0:0:0:0:
80,312,84634,1,0,0:0:0:0:
80,312,84784,2,0,B|84:224|80:196,1,82.5000025177003,0|8,1:0|0:0,0:0:0:0:
128,76,85084,6,0,B|208:76|298:68,1,165.000005035401
304,152,85534,2,0,B|352:144|400:144,1,82.5000025177003,8|0,0:0|0:0,0:0:0:0:
464,176,85834,1,0,0:0:0:0:
468,260,85984,1,0,1:0:0:0:
392,288,86134,1,8,0:0:0:0:
340,224,86284,1,0,0:0:0:0:
232,288,86434,6,0,B|184:292|124:280,1,82.5000025177003,0|0,0:0|0:0,0:0:0:0:
104,212,86733,1,8,0:0:0:0:
200,196,86883,2,0,B|248:160|236:72|164:60,1,165.000005035401,0|0,0:0|1:0,0:0:0:0:
176,63,87258,1,0,0:0:0:0:
176,63,87333,1,8,0:0:0:0:
116,128,87483,1,0,0:0:0:0:
200,196,87633,5,0,0:0:0:0:
268,136,87783,2,0,B|320:128|356:124,1,82.5000025177003,0|8,0:0|0:0,0:0:0:0:
400,56,88083,1,0,0:0:0:0:
472,116,88233,2,0,B|488:168|460:208,1,82.5000025177003,0|0,0:0|1:0,0:0:0:0:
444,220,88458,1,0,0:0:0:0:
428,248,88532,1,8,0:0:0:0:
420,280,88607,1,0,0:0:0:0:
428,312,88682,1,0,0:0:0:0:
291,314,88832,6,0,B|230:326|180:256|228:197,1,165.000005035401,4|8,0:1|0:0,0:0:0:0:
223,206,89432,1,0,0:0:0:0:
232,104,89582,1,0,1:0:0:0:
320,156,89732,1,8,0:0:0:0:
223,206,89882,2,0,B|176:208|136:200,1,82.5000025177003,0|0,0:0|0:0,0:0:0:0:
76,144,90182,5,0,0:0:0:0:
4,244,90332,2,0,B|56:248|100:256,1,82.5000025177003,8|0,0:0|0:0,0:0:0:0:
156,312,90631,2,0,L|244:300,1,82.5000025177003,0|0,0:0|1:0,0:0:0:0:
260,296,90856,1,0,0:0:0:0:
280,292,90931,1,8,0:0:0:0:
300,288,91006,1,0,3:0:0:0:
320,284,91081,1,0,0:0:0:0:
400,232,91231,6,0,B|412:192|400:144,1,82.5000025177003,0|0,0:0|0:0,0:0:0:0:
268,48,91531,1,8,0:0:0:0:
268,140,91681,1,0,0:0:0:0:
176,168,91831,1,0,0:0:0:0:
97,117,91981,1,0,1:0:0:0:
97,117,92056,1,0,0:0:0:0:
97,117,92131,2,0,B|36:128|-16:144,1,82.5000025177003,8|0,0:0|0:0,0:0:0:0:
80,292,92431,6,0,L|168:268,1,82.5000025177003,0|0,0:0|0:0,0:0:0:0:
232,376,92730,2,0,L|144:352,1,82.5000025177003,8|0,0:0|0:0,0:0:0:0:
240,204,93030,2,0,L|248:296,1,82.5000025177003,0|0,0:0|1:0,0:0:0:0:
256,296,93255,1,0,3:0:0:0:
264,304,93330,1,8,0:0:0:0:
272,312,93405,1,0,0:0:0:0:
280,320,93480,1,0,0:0:0:0:
324,240,93630,6,0,B|376:232|408:268,1,82.5000025177003,4|0,0:1|0:0,0:0:0:0:
472,216,93930,2,0,L|488:120,1,82.5000025177003,8|0,0:0|0:0,0:0:0:0:
436,68,94230,1,0,0:0:0:0:
344,48,94380,2,0,B|376:92|364:144,1,82.5000025177003,0|8,1:0|0:0,0:0:0:0:
252,252,94679,6,0,B|176:188|232:80,1,165.000005035401,0|0,0:0|0:0,0:0:0:0:
140,248,95129,2,0,B|100:276|36:256,1,82.5000025177003,8|0,0:0|0:0,0:0:0:0:
12,192,95429,1,0,0:0:0:0:
88,148,95579,1,0,1:0:0:0:
176,180,95729,1,8,0:0:0:0:
256,208,95879,1,0,0:0:0:0:
328,160,96029,6,0,B|328:120|324:68,1,82.5000025177003,0|0,0:0|0:0,0:0:0:0:
244,48,96329,1,8,0:0:0:0:
408,52,96478,2,0,B|424:136|408:232,1,165.000005035401,0|0,0:0|1:0,0:0:0:0:
410,216,96853,1,0,0:0:0:0:
410,216,96928,1,8,0:0:0:0:
468,296,97078,1,0,0:0:0:0:
364,344,97228,6,0,L|268:352,1,82.5000025177003,0|0,0:0|0:0,0:0:0:0:
208,256,97528,2,0,L|304:248,1,82.5000025177003,8|0,0:0|0:0,0:0:0:0:
48,320,97828,1,0,0:0:0:0:
132,360,97978,1,0,1:0:0:0:
136,340,98053,1,0,3:0:0:0:
140,320,98128,1,8,0:0:0:0:
144,300,98203,1,0,0:0:0:0:
148,280,98278,1,8,0:0:0:0:
152,260,98353,1,0,3:0:0:0:
156,240,98428,1,4,0:1:0:0:
256,192,98577,12,0,107123,0:0:0:0:
208,308,107423,6,0,L|216:208,1,75,4|2,0:0|0:0,0:0:0:0:
213,233,107648,1,2,0:0:0:0:
213,233,107723,1,2,0:0:0:0:
308,244,107873,1,4,0:0:0:0:
296,328,108023,5,2,0:1:0:0:
112,352,108323,1,2,0:1:0:0:
84,176,108622,1,2,0:1:0:0:
180,156,108772,1,2,0:1:0:0:
192,252,108922,1,2,0:1:0:0:
96,268,109072,1,2,0:1:0:0:
180,52,109372,5,0,0:0:0:0:
268,96,109522,1,2,0:0:0:0:
428,48,109822,5,8,0:0:0:0:
348,72,109972,1,0,0:0:0:0:
268,96,110122,1,0,1:0:0:0:
224,336,110422,5,2,0:1:0:0:
268,96,110721,1,2,0:1:0:0:
268,96,111021,1,2,0:1:0:0:
324,180,111171,1,2,0:1:0:0:
236,224,111321,1,2,0:1:0:0:
180,144,111471,1,2,0:1:0:0:
420,112,111771,5,0,0:0:0:0:
380,256,111921,1,2,0:0:0:0:
460,196,112071,1,0,0:0:0:0:
332,124,112221,5,8,0:0:0:0:
252,344,112520,2,0,L|232:284,2,37.5,0|0|0,1:0|0:0|0:0,0:0:0:0:
344,340,112820,5,2,0:1:0:0:
156,240,113120,1,2,0:1:0:0:
332,124,113420,1,2,0:1:0:0:
256,180,113570,1,2,0:1:0:0:
244,88,113720,1,2,0:1:0:0:
344,216,113870,1,2,0:1:0:0:
84,156,114170,5,0,0:0:0:0:
84,156,114320,1,2,0:0:0:0:
180,320,114619,1,8,0:0:0:0:
260,272,114769,1,0,0:0:0:0:
316,344,114919,1,0,1:0:0:0:
176,228,115069,5,0,0:0:0:0:
176,228,115144,1,0,0:0:0:0:
176,228,115219,2,0,B|172:188|176:148,1,75,2|0,0:1|0:0,0:0:0:0:
312,96,115519,2,0,B|316:136|312:176,1,75,2|0,0:1|0:0,0:0:0:0:
264,244,115819,1,2,0:1:0:0:
248,340,115969,1,2,0:1:0:0:
344,360,116119,1,2,0:1:0:0:
360,264,116269,1,2,0:1:0:0:
156,320,116419,6,0,L|92:296,2,37.5,4|0|0,3:0|3:0|3:0,0:0:0:0:
264,244,116718,2,0,L|328:220,2,37.5,4|0|0,3:0|3:0|3:0,0:0:0:0:
152,136,117018,5,2,3:0:0:0:
172,104,117092,1,0,3:0:0:0:
204,84,117167,1,0,3:0:0:0:
240,76,117242,1,0,3:0:0:0:
276,80,117317,1,2,3:0:0:0:
312,88,117392,1,0,3:0:0:0:
344,112,117468,1,0,3:0:0:0:
440,52,117618,1,4,3:0:0:0:
