osu file format v14

[General]
AudioFilename: Renard - Intensive Care Unit (feat. FIAB).mp3
AudioLeadIn: 0
PreviewTime: 69642
Countdown: 1
SampleSet: Soft
StackLeniency: 0.7
Mode: 0
LetterboxInBreaks: 0
WidescreenStoryboard: 1

[Editor]
DistanceSpacing: 1.4
BeatDivisor: 4
GridSize: 4
TimelineZoom: 1

[Metadata]
Title:Intensive Care Unit (feat. FIAB)
TitleUnicode:Intensive Care Unit (feat. FIAB)
Artist:Renard
ArtistUnicode:Renard
Creator:Leader
Version:-kevincela-'s Hard
Source:
Tags:delis stefan tng thenutritiousguy -kevincela- lapfox trax
BeatmapID:1427789
BeatmapSetID:444699

[Difficulty]
HPDrainRate:5
CircleSize:4
OverallDifficulty:6
ApproachRate:8
SliderMultiplier:1.3
SliderTickRate:1

[Events]
//Background and Video events
0,0,"bg.jpg",0,0
//Break Periods
2,60247,68142
//Storyboard Layer 0 (Background)
//Storyboard Layer 1 (Fail)
//Storyboard Layer 2 (Pass)
//Storyboard Layer 3 (Foreground)
//Storyboard Sound Samples

[TimingPoints]
2476,299.850074962519,4,2,0,60,1,0
20467,-100,4,2,0,60,0,0
20616,-100,4,2,0,5,0,0
20766,-100,4,2,0,60,0,0
20916,-100,4,2,0,5,0,0
21066,-100,4,2,0,60,0,0
21216,-100,4,2,0,5,0,0
21366,-100,4,2,0,60,0,0
21516,-100,4,2,0,60,0,0
69642,-100,4,2,0,60,0,1
78038,-100,4,2,0,60,0,0
79237,-100,4,2,0,60,0,1
98428,-100,4,2,0,60,0,0

[Colours]
Combo1 : 17,254,176
Combo2 : 173,255,95
Combo3 : 255,88,100
Combo4 : 255,94,55

[HitObjects]
48,202,2475,5,4,0:0:0:0:
118,245,2625,1,0,0:0:0:0:
186,199,2775,2,0,L|171:53,1,130,0|8,0:0|0:0,0:0:0:0:
242,26,3225,1,0,0:0:0:0:
309,72,3375,2,0,L|394:57,1,65,0|0,0:0|0:0,0:0:0:0:
451,168,3675,5,2,0:0:0:0:
371,184,3825,1,0,0:0:0:0:
290,195,3975,2,0,P|279:253|294:334,1,130,0|8,0:0|0:0,0:0:0:0:
350,378,4425,1,0,0:0:0:0:
428,357,4574,2,0,L|436:284,1,65,0|0,0:0|0:0,0:0:0:0:
451,168,4874,5,2,0:0:0:0:
389,115,5024,1,0,0:0:0:0:
328,61,5174,2,0,L|192:70,1,130,0|8,0:0|0:0,0:0:0:0:
123,37,5624,1,0,0:0:0:0:
57,84,5774,2,0,P|46:115|42:159,1,65,0|0,0:0|0:0,0:0:0:0:
149,222,6074,6,0,L|141:145,2,65,2|0|0,0:0|0:0|0:0,0:0:0:0:
226,288,6523,2,0,L|218:364,2,65,0|8|0,0:0|0:0|0:0,0:0:0:0:
317,241,6973,2,0,L|310:180,2,32.5,0|0|0,0:0|0:0|0:0,0:0:0:0:
437,317,7273,5,4,0:1:0:0:
437,317,7423,1,0,0:0:0:0:
482,249,7573,2,0,P|494:187|486:121,1,130,0|8,0:0|0:0,0:0:0:0:
442,52,8023,1,0,0:0:0:0:
367,84,8173,2,0,P|328:84|294:76,1,65,0|0,0:0|0:0,0:0:0:0:
186,22,8473,5,2,0:0:0:0:
186,22,8622,1,0,0:0:0:0:
144,92,8772,2,0,L|156:234,1,130,0|8,0:0|0:0,0:0:0:0:
115,293,9222,1,0,0:0:0:0:
171,353,9372,2,0,L|259:345,1,65,0|0,0:0|0:0,0:0:0:0:
361,292,9672,5,2,0:0:0:0:
361,292,9822,1,0,0:0:0:0:
409,226,9972,2,0,P|417:172|401:80,1,130,0|8,0:0|0:0,0:0:0:0:
358,32,10422,1,0,0:0:0:0:
282,61,10571,2,0,L|194:57,1,65,0|0,0:0|0:0,0:0:0:0:
87,103,10871,6,0,P|79:69|75:15,2,65,2|0|2,0:0|0:0|0:0,0:0:0:0:
144,184,11321,2,0,P|135:215|132:246,2,65,0|8|0,0:0|0:0|0:0,0:0:0:0:
230,134,11771,2,0,L|276:138,2,32.5,2|0|2,0:0|0:0|0:0,0:0:0:0:
324,239,12071,6,0,L|462:223,2,130,6|2|8,0:1|0:1|0:0,0:0:0:0:
263,292,12820,1,2,0:1:0:0:
339,319,12970,1,2,0:1:0:0:
274,369,13120,2,0,L|136:354,1,130,2|0,0:1|0:0,0:0:0:0:
84,223,13570,6,0,P|116:215|161:211,1,65,2|0,0:0|0:0,0:0:0:0:
192,134,13870,2,0,P|159:126|128:124,2,65,8|0|0,0:0|0:0|0:0,0:0:0:0:
269,180,14320,1,0,0:0:0:0:
401,130,14470,6,0,P|413:84|413:0,2,130,2|2|8,0:1|0:1|0:0,0:0:0:0:
355,197,15219,1,2,0:1:0:0:
401,264,15369,1,2,0:1:0:0:
352,330,15519,2,0,B|307:325|307:325|271:334|271:334|224:330,1,130,2|0,0:1|0:0,0:0:0:0:
110,268,15969,6,0,L|29:280,2,65,2|0|8,0:0|0:0|0:0,0:0:0:0:
183,199,16419,1,0,0:0:0:0:
98,149,16568,2,0,L|57:155,2,32.5,2|0|0,0:0|0:0|0:0,0:0:0:0:
209,80,16868,6,0,L|348:99,1,130,2|2,0:1|0:1,0:0:0:0:
390,161,17318,1,0,0:0:0:0:
451,107,17468,2,0,P|455:72|455:38,2,65,8|2|2,0:0|0:1|0:1,0:0:0:0:
390,161,17918,2,0,P|382:215|398:291,1,130,2|0,0:1|0:0,0:0:0:0:
413,376,18368,6,0,L|340:368,1,65,2|0,0:0|0:0,0:0:0:0:
396,288,18667,2,0,L|469:280,2,65,8|0|2,0:0|0:0|0:0,0:0:0:0:
323,231,19117,1,0,0:0:0:0:
235,354,19267,6,0,P|169:354|112:327,2,130,2|2|8,0:1|0:1|0:0,0:0:0:0:
315,315,20017,1,0,0:0:0:0:
323,231,20167,2,0,L|327:146,1,65,2|2,0:1|0:1,0:0:0:0:
363,69,20467,5,4,0:0:0:0:
156,69,20766,1,4,0:0:0:0:
363,69,21066,1,4,0:0:0:0:
156,69,21366,5,4,0:0:0:0:
363,69,21666,6,0,L|363:207,1,130,4|2,0:0|0:0,0:0:0:0:
305,257,22116,1,0,0:0:0:0:
359,318,22266,2,0,P|390:324|436:324,2,65,2|2|8,0:0|0:0|0:0,0:0:0:0:
305,257,22715,2,0,P|254:248|182:276,1,130,0|0,0:0|0:0,0:0:0:0:
113,345,23165,6,0,L|25:334,1,65,2|0,0:0|0:0,0:0:0:0:
25,245,23465,2,0,L|88:253,1,65,2|2,0:0|0:0,0:0:0:0:
133,172,23765,2,0,L|82:165,2,32.5,8|0|0,0:0|0:0|0:0,0:0:0:0:
256,218,24065,6,0,L|267:88,1,130,2|2,0:0|0:0,0:0:0:0:
339,51,24514,1,0,0:0:0:0:
398,107,24664,2,0,L|467:96,2,65,2|2|8,0:0|0:0|0:0,0:0:0:0:
266,88,25114,6,0,L|135:109,1,130,0|0,0:0|0:0,0:0:0:0:
104,180,25564,2,0,L|234:201,1,130,2|2,0:0|0:0,0:0:0:0:
285,263,26014,1,2,0:0:0:0:
225,318,26164,2,0,L|175:330,2,32.5,8|0|0,0:0|0:0|0:0,0:0:0:0:
363,291,26464,6,0,B|378:235|347:223|363:163,1,130,2|2,0:0|0:0,0:0:0:0:
403,92,26913,1,0,0:0:0:0:
332,53,27063,2,0,P|300:52|263:65,1,65,2|2,0:0|0:0,0:0:0:0:
208,118,27363,1,8,0:0:0:0:
256,184,27513,6,0,P|213:199|136:157,1,130,0|0,0:0|0:0,0:0:0:0:
86,103,27963,2,0,L|93:237,1,130,2|2,0:0|0:0,0:0:0:0:
153,289,28413,1,2,0:0:0:0:
88,338,28562,2,0,L|34:331,2,32.5,8|0|0,0:0|0:0|0:0,0:0:0:0:
233,304,28862,6,0,L|375:323,2,130,2|2|2,0:0|0:0|0:0,0:0:0:0:
153,288,29612,2,0,P|145:258|149:212,1,65,2|8,0:0|0:0,0:0:0:0:
202,164,29912,2,0,P|140:187|79:149,1,130,0|0,0:0|0:0,0:0:0:0:
139,45,30362,6,0,L|147:113,1,65,2|0,0:0|0:0,0:0:0:0:
228,64,30661,2,0,L|218:-7,1,65,2|2,0:0|0:0,0:0:0:0:
309,45,30961,2,0,L|313:88,2,32.5,8|0|0,0:0|0:0|0:0,0:0:0:0:
378,134,31261,6,0,L|363:272,1,130,4|2,0:1|0:0,0:0:0:0:
295,307,31711,1,0,0:0:0:0:
225,264,31861,2,0,P|193:259|151:266,2,65,2|2|8,0:0|0:0|0:0,0:0:0:0:
295,307,32311,2,0,P|349:341|417:324,1,130,0|0,0:0|0:0,0:0:0:0:
486,241,32760,6,0,L|474:172,1,65,2|0,0:0|0:0,0:0:0:0:
398,134,33060,2,0,L|386:199,1,65,2|2,0:0|0:0,0:0:0:0:
313,142,33360,2,0,L|307:107,2,32.5,8|0|0,0:0|0:0|0:0,0:0:0:0:
248,245,33660,6,0,P|205:257|131:221,1,130,2|2,0:0|0:0,0:0:0:0:
102,145,34110,1,0,0:0:0:0:
148,78,34260,2,0,P|178:68|216:64,2,65,2|2|8,0:0|0:0|0:0,0:0:0:0:
203,161,34709,6,0,L|345:149,1,130,0|0,0:0|0:0,0:0:0:0:
357,228,35159,2,0,L|215:240,1,130,2|2,0:0|0:0,0:0:0:0:
161,287,35609,1,2,0:0:0:0:
87,254,35759,2,0,L|37:258,2,32.5,8|0|0,0:0|0:0|0:0,0:0:0:0:
227,238,36059,6,0,P|238:180|234:99,2,130,2|2|2,0:0|0:0|0:0,0:0:0:0:
168,351,36808,2,0,L|161:287,1,65,2|8,0:0|0:0,0:0:0:0:
87,254,37108,6,0,P|76:312|80:392,1,130,0|0,0:0|0:0,0:0:0:0:
168,351,37558,2,0,L|297:355,1,130,2|2,0:0|0:0,0:0:0:0:
368,311,38008,1,2,0:0:0:0:
435,264,38158,2,0,L|481:265,2,32.5,8|0|0,0:0|0:0|0:0,0:0:0:0:
302,211,38458,6,0,L|153:214,2,130,2|2|2,0:0|0:0|0:0,0:0:0:0:
371,168,39207,2,0,P|375:138|371:96,1,65,2|8,0:0|0:0,0:0:0:0:
321,40,39507,2,0,P|275:55|194:32,1,130,0|0,0:0|0:0,0:0:0:0:
87,7,39957,6,0,L|79:84,1,65,2|0,0:0|0:0,0:0:0:0:
136,145,40257,2,0,L|144:222,1,65,2|2,0:0|0:0,0:0:0:0:
100,291,40556,2,0,L|95:338,2,32.5,8|0|0,0:0|0:0|0:0,0:0:0:0:
221,234,40856,6,0,P|254:235|290:245,2,65,4|0|0,0:1|0:0|1:0,0:0:0:0:
240,318,41306,2,0,P|255:347|264:384,2,65,0|0|0,0:0|0:0|1:0,0:0:0:0:
129,230,41756,6,0,P|137:197|152:169,2,65,8|0|4,0:0|0:0|0:1,0:0:0:0:
63,288,42206,2,0,P|72:318|88:346,2,65,0|0|0,0:0|0:0|1:0,0:0:0:0:
221,234,42655,5,0,0:0:0:0:
302,268,42805,1,0,3:0:0:0:
371,215,42955,2,0,B|382:176|382:176|375:76,1,130,8|4,0:0|0:1,0:0:0:0:
311,28,43405,5,0,0:0:0:0:
232,65,43555,2,0,P|198:69|152:61,1,65,0|0,1:0|0:0,0:0:0:0:
55,135,43855,2,0,P|86:130|118:133,2,65,0|0|8,0:0|1:0|0:0,0:0:0:0:
91,215,44305,1,0,0:0:0:0:
175,192,44455,5,4,0:1:0:0:
87,42,44754,1,2,0:0:0:0:
240,126,45054,1,2,0:0:0:0:
91,215,45354,2,0,L|80:268,2,32.5,8|0|0,0:0|0:0|0:0,0:0:0:0:
31,155,45654,5,4,0:1:0:0:
111,127,45804,1,0,0:0:0:0:
171,187,45954,2,0,P|178:217|178:252,1,65,2|2,0:0|0:0,0:0:0:0:
140,328,46254,2,0,L|75:324,2,65,0|2|10,0:0|0:0|0:0,0:0:0:0:
213,376,46703,1,0,0:0:0:0:
279,318,46853,6,0,L|294:241,1,65,2|0,0:0|0:0,0:0:0:0:
371,291,47153,2,0,L|397:159,1,130,2|2,0:0|0:0,0:0:0:0:
340,96,47603,1,0,0:0:0:0:
268,146,47753,2,0,L|276:187,2,32.5,8|0|0,0:0|0:0|0:0,0:0:0:0:
197,95,48053,5,4,0:1:0:0:
197,95,48203,1,0,0:0:0:0:
156,172,48353,2,0,L|167:238,1,65,0|0,1:0|0:0,0:0:0:0:
67,149,48652,2,0,L|78:81,2,65,0|0|8,0:0|1:0|0:0,0:0:0:0:
23,225,49102,1,0,0:0:0:0:
97,288,49252,6,0,L|101:334,2,32.5,2|0|0,0:0|0:0|0:0,0:0:0:0:
166,236,49552,2,0,L|170:190,2,32.5,2|0|0,0:0|0:0|0:0,0:0:0:0:
256,291,49852,6,0,L|394:280,1,130,2|8,0:0|0:0,0:0:0:0:
467,314,50302,1,0,0:0:0:0:
501,207,50452,6,0,P|501:176|494:138,1,65,0|0,0:1|0:0,0:0:0:0:
458,64,50751,1,2,0:0:0:0:
405,134,50901,2,0,L|259:119,1,130,0|0,0:0|0:0,0:0:0:0:
160,107,51351,6,0,L|167:172,1,65,8|0,0:0|0:0,0:0:0:0:
130,251,51651,1,2,0:0:0:0:
52,211,51801,2,0,P|29:172|40:84,1,130,0|0,0:0|0:0,0:0:0:0:
117,23,52251,6,0,L|194:15,1,65,0|0,0:0|0:0,0:0:0:0:
221,100,52550,2,0,L|144:108,1,65,8|0,0:0|0:0,0:0:0:0:
256,184,52850,6,0,L|332:176,1,65,4|0,0:1|0:0,0:0:0:0:
390,231,53150,1,2,0:0:0:0:
451,168,53300,2,0,P|463:126|444:30,1,130,0|0,0:0|0:0,0:0:0:0:
332,11,53750,6,0,L|256:19,1,65,8|0,0:0|0:0,0:0:0:0:
193,65,54050,1,0,0:0:0:0:
113,30,54200,2,0,P|100:93|113:155,1,130,0|0,0:0|0:0,0:0:0:0:
167,249,54649,6,0,L|248:241,1,65,2|0,0:0|0:0,0:0:0:0:
267,330,54949,2,0,L|186:337,1,65,8|0,0:0|0:0,0:0:0:0:
313,234,55249,6,0,L|394:226,1,65,4|0,0:1|0:0,0:0:0:0:
448,280,55549,1,2,0:0:0:0:
501,211,55699,2,0,B|496:163|496:163|485:135|485:135|481:84,1,130,0|0,0:0|0:0,0:0:0:0:
378,34,56149,6,0,L|385:114,1,65,8|0,0:0|0:0,0:0:0:0:
314,153,56449,1,2,0:0:0:0:
237,111,56598,1,0,0:0:0:0:
172,172,56748,2,0,L|179:252,1,65,2|0,0:0|0:0,0:0:0:0:
248,331,57048,6,0,P|280:335|311:331,1,65,2|0,0:0|0:0,0:0:0:0:
348,244,57348,2,0,P|314:240|282:243,1,65,8|0,0:0|0:0,0:0:0:0:
160,318,57648,6,0,L|84:311,2,65,4|0|2,0:1|0:0|0:0,0:0:0:0:
248,331,58098,2,0,L|382:342,1,130,0|0,0:0|0:0,0:0:0:0:
432,274,58547,1,8,0:0:0:0:
386,199,58697,1,0,0:0:0:0:
440,108,58847,6,0,L|479:94,2,32.5,2|0|0,0:0|0:0|0:0,0:0:0:0:
352,48,59147,2,0,L|313:34,2,32.5,2|0|0,0:0|0:0|0:0,0:0:0:0:
284,132,59447,2,0,P|227:147|151:134,1,130,0|8,3:0|3:2,0:0:0:0:
0,52,60047,5,4,3:1:0:0:
88,160,69042,5,4,0:0:0:0:
154,231,69192,2,0,L|147:289,2,32.5,2|2|2,0:0|0:0|0:0,0:0:0:0:
238,183,69492,1,4,0:0:0:0:
334,267,69642,6,0,L|322:359,1,65,4|0,0:1|1:0,0:0:0:0:
402,383,69942,1,2,0:0:0:0:
478,335,70092,2,0,P|490:287|470:199,1,130,0|0,0:0|1:0,0:0:0:0:
382,111,70541,6,0,L|318:119,1,65,2|0,0:0|0:0,0:0:0:0:
254,183,70841,1,2,0:0:0:0:
190,119,70991,1,0,1:0:0:0:
190,119,71141,2,0,L|126:111,1,65,2|0,0:0|0:0,0:0:0:0:
166,211,71441,6,0,L|206:291,1,65,2|0,0:0|1:0,0:0:0:0:
312,269,71741,2,0,L|342:211,1,65,2|0,0:0|1:0,0:0:0:0:
254,118,72041,6,0,L|254:190,2,65,2|0|2,0:0|1:0|0:0,0:0:0:0:
186,59,72490,2,0,B|166:87|166:87|102:103|102:103|82:131,1,130,4|0,0:0|1:0,0:0:0:0:
130,207,72940,6,0,L|174:199,2,32.5,2|0|0,0:0|0:0|0:0,0:0:0:0:
74,279,73240,1,2,0:0:0:0:
134,351,73390,1,0,1:0:0:0:
134,351,73540,2,0,L|224:334,1,65,2|0,0:0|0:0,0:0:0:0:
286,271,73840,6,0,L|196:254,1,65,2|0,0:0|1:0,0:0:0:0:
318,191,74140,2,0,L|349:184,2,32.5,2|0|0,0:0|0:0|1:0,0:0:0:0:
204,132,74440,6,0,P|196:100|196:52,1,65,4|0,0:1|1:0,0:0:0:0:
256,0,74739,1,0,0:0:0:0:
328,56,74889,2,0,P|364:68|460:36,1,130,0|0,0:0|1:0,0:0:0:0:
480,132,75339,6,0,L|516:124,2,32.5,2|0|0,0:0|0:0|0:0,0:0:0:0:
436,212,75639,1,2,0:0:0:0:
476,292,75789,1,0,1:0:0:0:
475,292,75939,2,0,L|402:308,1,65,2|0,0:0|0:0,0:0:0:0:
300,320,76239,6,0,L|328:252,1,65,2|0,0:0|1:0,0:0:0:0:
187,259,76538,2,0,L|211:319,1,65,2|0,0:0|1:0,0:0:0:0:
256,200,76838,6,0,L|256:132,1,65,2|0,0:0|1:0,0:0:0:0:
256,44,77138,1,2,0:0:0:0:
176,88,77288,2,0,B|112:96|112:96|44:56,1,130,0|0,0:0|1:0,0:0:0:0:
12,144,77738,1,2,0:0:0:0:
92,188,77888,1,0,1:0:0:0:
184,180,78038,5,4,0:0:0:0:
356,60,78338,1,4,0:0:0:0:
184,180,78637,1,4,0:0:0:0:
356,60,78937,5,4,0:0:0:0:
184,180,79237,6,0,L|173:310,1,130,4|8,0:1|0:0,0:0:0:0:
244,366,79687,1,0,0:0:0:0:
320,315,79837,2,0,L|326:242,2,65,0|0|8,0:0|1:0|0:0,0:0:0:0:
392,372,80287,2,0,P|452:372|504:316,1,130,0|0,0:0|0:0,0:0:0:0:
512,212,80736,6,0,L|496:128,1,65,8|0,0:0|0:0,0:0:0:0:
408,100,81036,2,0,L|392:184,1,65,0|0,0:0|1:0,0:0:0:0:
300,204,81336,2,0,L|292:165,2,32.5,8|0|0,0:0|0:0|0:0,0:0:0:0:
340,320,81636,6,0,P|280:328|216:292,1,130,0|8,0:0|0:0,0:0:0:0:
164,224,82086,1,0,0:0:0:0:
84,268,82236,2,0,P|76:300|76:340,2,65,0|0|8,0:0|1:0|0:0,0:0:0:0:
144,132,82685,6,0,B|208:124|208:160|272:148,1,130,0|0,0:0|0:0,0:0:0:0:
356,116,83135,2,0,L|348:256,1,130,8|0,0:0|0:0,0:0:0:0:
428,296,83585,1,0,1:0:0:0:
508,252,83735,2,0,L|510:207,2,32.5,8|0|0,0:0|0:0|0:0,0:0:0:0:
476,372,84035,6,0,P|420:384|348:340,1,130,4|8,0:1|0:0,0:0:0:0:
324,268,84484,1,0,0:0:0:0:
376,192,84634,2,0,P|400:184|448:184,2,65,0|0|8,0:0|1:0|0:0,0:0:0:0:
268,148,85084,6,0,P|212:178|149:167,1,130,0|0,0:0|0:0,0:0:0:0:
68,128,85534,2,0,L|80:268,1,130,8|0,0:0|0:0,0:0:0:0:
136,328,85984,1,0,1:0:0:0:
64,384,86134,2,0,L|24:380,2,32.5,8|0|0,0:0|0:0|0:0,0:0:0:0:
220,336,86434,6,0,L|375:351,1,130,0|8,0:0|0:0,0:0:0:0:
436,380,86883,1,0,0:0:0:0:
500,316,87033,2,0,P|504:284|500:248,2,65,0|0|8,0:0|1:0|0:0,0:0:0:0:
348,348,87483,6,0,P|336:280|356:208,1,130,0|0,0:0|0:0,0:0:0:0:
388,140,87933,2,0,L|240:132,1,130,8|0,0:0|0:0,0:0:0:0:
184,184,88382,1,0,1:0:0:0:
112,124,88532,2,0,L|96:80,2,32.5,8|0|0,0:0|0:0|0:0,0:0:0:0:
132,264,88832,6,0,B|196:276|196:276|260:248,1,130,4|8,0:1|0:0,0:0:0:0:
328,192,89282,1,0,0:0:0:0:
392,256,89432,2,0,L|384:328,2,65,0|0|8,0:0|1:0|0:0,0:0:0:0:
468,204,89882,2,0,L|451:51,1,130,0|0,0:0|0:0,0:0:0:0:
352,16,90332,6,0,P|316:20|276:36,1,65,8|0,0:0|0:0,0:0:0:0:
208,96,90631,2,0,P|175:92|144:82,1,65,0|0,0:0|1:0,0:0:0:0:
52,32,90931,2,0,L|48:0,2,32.5,8|0|0,0:0|0:0|0:0,0:0:0:0:
84,148,91231,6,0,L|67:276,1,130,0|8,0:0|0:0,0:0:0:0:
140,336,91681,1,0,0:0:0:0:
216,284,91831,2,0,P|236:280|284:280,2,65,0|0|8,0:0|1:0|0:0,0:0:0:0:
290,187,92281,6,0,P|358:231|374:279,1,130,0|0,0:0|0:0,0:0:0:0:
336,357,92730,2,0,L|496:348,1,130,8|0,0:0|0:0,0:0:0:0:
512,268,93180,1,0,1:0:0:0:
452,200,93330,2,0,L|397:203,2,32.5,8|0|0,0:0|0:0|0:0,0:0:0:0:
344,144,93630,6,0,B|324:208|324:208|348:272,1,130,4|8,0:1|0:0,0:0:0:0:
416,324,94080,1,0,0:0:0:0:
340,372,94230,2,0,L|264:360,2,65,0|0|8,0:0|1:0|0:0,0:0:0:0:
497,376,94679,6,0,B|517:316|517:316|493:248,1,130
421,200,95129,2,0,L|281:224,1,130,8|0,0:0|0:0,0:0:0:0:
209,184,95579,1,0,1:0:0:0:
145,248,95729,2,0,L|133:304,2,32.5,8|0|0,0:0|0:0|0:0,0:0:0:0:
76,124,96029,6,0,P|44:60|48:-8,2,130,0|8|0,0:0|0:0|0:0,0:0:0:0:
156,184,96778,2,0,L|144:260,1,65,0|8,1:0|0:0,0:0:0:0:
236,228,97078,2,0,L|259:79,1,130,0|0,0:0|0:0,0:0:0:0:
328,208,97528,6,0,L|316:284,1,65,8|0,0:0|0:0,0:0:0:0:
210,380,97828,2,0,L|222:304,1,65,0|0,0:0|1:0,0:0:0:0:
152,216,98128,2,0,L|143:270,2,32.5,8|0|8,0:0|0:0|0:0,0:0:0:0:
256,99,98428,5,4,0:1:0:0:
256,192,98502,12,4,107423,0:0:0:0:
172,208,108023,6,0,L|184:344,2,130,2|2|2,0:1|0:1|0:1,0:0:0:0:
116,144,108772,1,2,0:1:0:0:
60,212,108922,1,2,0:1:0:0:
12,140,109072,2,0,L|23:10,1,130,2|0,0:1|0:0,0:0:0:0:
140,52,109522,6,0,L|228:44,1,65,2|0,0:0|0:0,0:0:0:0:
280,96,109822,2,0,L|344:90,2,65,8|0|0,0:0|0:0|1:0,0:0:0:0:
216,160,110272,1,0,0:0:0:0:
320,276,110422,6,0,P|376:300|460:296,2,130,2|2|2,0:1|0:1|0:1,0:0:0:0:
244,236,111171,1,2,0:1:0:0:
200,308,111321,2,0,L|203:373,1,65,2|2,0:1|0:1,0:0:0:0:
120,272,111621,6,0,L|123:207,2,65,2|0|2,0:0|0:0|0:0,0:0:0:0:
200,172,112071,2,0,L|196:107,2,65,0|8|0,0:0|0:0|0:0,0:0:0:0:
124,64,112520,2,0,L|126:25,2,32.5,0|0|0,1:0|0:0|0:0,0:0:0:0:
200,172,112820,6,0,P|260:180|320:216,2,130,2|2|2,0:1|0:1|0:1,0:0:0:0:
122,207,113570,1,2,0:1:0:0:
52,160,113720,1,2,0:1:0:0:
128,124,113870,1,2,0:1:0:0:
200,172,114020,6,0,L|208:248,2,65,2|0|2,0:0|0:0|0:0,0:0:0:0:
264,116,114470,1,0,0:0:0:0:
332,164,114619,2,0,P|363:171|395:170,1,65,8|0,0:0|0:0,0:0:0:0:
440,96,114919,2,0,P|408:88|376:89,1,65,0|0,1:0|0:0,0:0:0:0:
312,248,115219,6,0,P|372:260|452:244,2,130,2|2|2,0:1|0:1|0:1,0:0:0:0:
240,204,115969,1,2,0:1:0:0:
168,244,116119,2,0,L|172:320,1,65,2|2,0:1|0:1,0:0:0:0:
88,204,116419,6,0,P|79:172|87:122,1,65,4|0,3:0|0:0,0:0:0:0:
192,34,116718,2,0,P|168:57|122:74,1,65,4|0,3:0|0:0,0:0:0:0:
0,28,117018,2,0,P|31:36|70:68,1,65,4|0,3:0|0:0,0:0:0:0:
88,204,117318,2,0,L|80:260,4,32.5,2|0|0|0|4,3:0|3:0|3:0|3:0|3:0,0:0:0:0:
