osu file format v14

[General]
AudioFilename: audio.mp3
AudioLeadIn: 0
PreviewTime: 17897
Countdown: 0
SampleSet: Normal
StackLeniency: 0.7
Mode: 1
LetterboxInBreaks: 0
WidescreenStoryboard: 0

[Editor]
Bookmarks: 118,9008,13452,17897,26786,31230,35675
DistanceSpacing: 0.8
BeatDivisor: 4
GridSize: 8
TimelineZoom: 1

[Metadata]
Title:Hey Mr. Mouth
TitleUnicode:Hey Mr. Mouth
Artist:Renard
ArtistUnicode:Renard
Creator:Pruz
Version:Muzukashii
Source:LAPFOX TRAX
Tags:Jackal Queenston Renard Smash Mouth All Star Squeedge
BeatmapID:1063781
BeatmapSetID:498395

[Difficulty]
HPDrainRate:5
CircleSize:4.5
OverallDifficulty:5
ApproachRate:8.6
SliderMultiplier:1.4
SliderTickRate:1

[Events]
//Background and Video events
0,0,"ftj2.jpg",0,55
//Break Periods
//Storyboard Layer 0 (Background)
//Storyboard Layer 1 (Fail)
//Storyboard Layer 2 (Pass)
//Storyboard Layer 3 (Foreground)
//Storyboard Sound Samples

[TimingPoints]
118.947156092007,555.555555555556,4,1,0,70,1,0
9007,-100,4,1,0,80,0,1
17896,-100,4,1,0,70,0,0

[HitObjects]
256,192,118,5,8,0:0:0:0:
256,192,257,1,0,0:0:0:0:
256,192,396,1,0,0:0:0:0:
256,192,674,1,4,0:0:0:0:
256,192,952,5,8,0:0:0:0:
256,192,1091,1,0,0:0:0:0:
256,192,1230,5,8,0:0:0:0:
256,192,1368,1,0,0:0:0:0:
256,192,1507,1,8,0:0:0:0:
256,192,1785,1,4,0:0:0:0:
256,192,2063,5,8,0:0:0:0:
256,192,2202,1,0,0:0:0:0:
256,192,2341,5,8,0:0:0:0:
256,192,2480,1,0,0:0:0:0:
256,192,2619,1,8,0:0:0:0:
256,192,2896,1,4,0:0:0:0:
256,192,3174,5,0,0:0:0:0:
256,192,3730,5,8,0:0:0:0:
256,192,3869,1,0,0:0:0:0:
256,192,4007,6,0,L|352:192,1,70
256,192,4563,1,0,0:0:0:0:
256,192,4702,5,0,0:0:0:0:
256,192,4841,1,0,0:0:0:0:
256,192,5119,1,4,0:0:0:0:
256,192,5396,5,8,0:0:0:0:
256,192,5535,1,0,0:0:0:0:
256,192,5674,5,8,0:0:0:0:
256,192,5813,1,0,0:0:0:0:
256,192,5952,1,8,0:0:0:0:
256,192,6230,1,4,0:0:0:0:
256,192,6508,5,8,0:0:0:0:
256,192,6646,1,0,0:0:0:0:
256,192,6785,5,8,0:0:0:0:
256,192,6924,1,0,0:0:0:0:
256,192,7063,1,8,0:0:0:0:
256,192,7619,5,0,0:0:0:0:
256,192,8174,6,0,L|408:192,1,140
256,192,9008,5,4,0:0:0:0:
256,192,9285,1,2,0:0:0:0:
256,192,9424,1,0,0:0:0:0:
256,192,9563,1,2,0:0:0:0:
256,192,9841,5,0,0:0:0:0:
256,192,9980,1,0,0:0:0:0:
256,192,10119,5,2,0:0:0:0:
256,192,10396,1,2,0:0:0:0:
256,192,10535,1,0,0:0:0:0:
256,192,10674,1,2,0:0:0:0:
256,192,10952,5,0,0:0:0:0:
256,192,11091,1,0,0:0:0:0:
256,192,11230,5,0,0:0:0:0:
256,192,11369,1,0,0:0:0:0:
256,192,11508,1,2,0:0:0:0:
256,192,11647,1,0,0:0:0:0:
256,192,11785,1,2,0:0:0:0:
256,192,12063,5,0,0:0:0:0:
256,192,12202,1,0,0:0:0:0:
256,192,12341,1,2,0:0:0:0:
256,192,12619,5,2,0:0:0:0:
256,192,12758,1,0,0:0:0:0:
256,192,12897,1,2,0:0:0:0:
256,192,13174,5,2,0:0:0:0:
256,192,13313,1,0,0:0:0:0:
256,192,13452,2,0,L|400:192,3,140
256,192,15674,5,10,0:0:0:0:
256,192,16230,5,10,0:0:0:0:
256,192,16786,5,10,0:0:0:0:
256,192,17063,1,10,0:0:0:0:
256,192,17341,5,6,0:0:0:0:
256,192,17480,1,2,0:0:0:0:
256,192,17618,1,0,0:0:0:0:
256,192,17757,1,0,0:0:0:0:
256,192,17897,5,2,0:0:0:0:
256,192,18174,1,0,0:0:0:0:
256,192,18452,1,0,0:0:0:0:
256,192,18730,1,0,0:0:0:0:
256,192,18868,1,0,0:0:0:0:
256,192,19007,5,8,0:0:0:0:
256,192,19286,1,0,0:0:0:0:
256,192,19563,1,0,0:0:0:0:
256,192,19702,1,0,0:0:0:0:
256,192,19841,1,0,0:0:0:0:
256,192,20119,5,8,0:0:0:0:
256,192,20397,1,0,0:0:0:0:
256,192,20674,1,0,0:0:0:0:
256,192,20813,1,0,0:0:0:0:
256,192,20952,1,0,0:0:0:0:
256,192,21230,5,8,0:0:0:0:
256,192,21369,1,0,0:0:0:0:
256,192,21508,1,8,0:0:0:0:
256,192,21786,1,8,0:0:0:0:
256,192,21925,1,0,0:0:0:0:
256,192,22063,1,8,0:0:0:0:
256,192,22341,5,8,0:0:0:0:
256,192,22619,1,0,0:0:0:0:
256,192,22897,1,0,0:0:0:0:
256,192,23175,1,0,0:0:0:0:
256,192,23452,5,8,0:0:0:0:
256,192,23591,1,0,0:0:0:0:
256,192,23730,1,0,0:0:0:0:
256,192,24008,1,0,0:0:0:0:
256,192,24286,1,0,0:0:0:0:
256,192,24425,1,0,0:0:0:0:
256,192,24564,5,8,0:0:0:0:
256,192,24841,1,0,0:0:0:0:
256,192,24980,1,0,0:0:0:0:
256,192,25119,1,0,0:0:0:0:
256,192,25397,1,0,0:0:0:0:
256,192,25675,5,8,0:0:0:0:
256,192,25814,1,0,0:0:0:0:
256,192,25952,1,8,0:0:0:0:
256,192,26230,1,8,0:0:0:0:
256,192,26369,1,0,0:0:0:0:
256,192,26508,1,8,0:0:0:0:
256,192,26647,1,0,0:0:0:0:
256,192,26786,5,8,0:0:0:0:
256,192,27064,1,0,0:0:0:0:
256,192,27341,1,0,0:0:0:0:
256,192,27619,1,0,0:0:0:0:
256,192,27897,5,8,0:0:0:0:
256,192,28036,1,0,0:0:0:0:
256,192,28175,1,0,0:0:0:0:
256,192,28453,1,0,0:0:0:0:
256,192,28730,1,0,0:0:0:0:
256,192,29008,5,8,0:0:0:0:
256,192,29147,1,0,0:0:0:0:
256,192,29286,1,0,0:0:0:0:
256,192,29564,1,0,0:0:0:0:
256,192,29703,1,0,0:0:0:0:
256,192,29841,1,0,0:0:0:0:
256,192,30118,5,8,0:0:0:0:
256,192,30258,1,0,0:0:0:0:
256,192,30397,1,8,0:0:0:0:
256,192,30675,1,8,0:0:0:0:
256,192,30814,1,0,0:0:0:0:
256,192,30953,1,8,0:0:0:0:
256,192,31230,5,12,0:0:0:0:
256,192,31508,1,0,0:0:0:0:
256,192,31786,1,0,0:0:0:0:
256,192,31925,1,0,0:0:0:0:
256,192,32064,1,0,0:0:0:0:
256,192,32342,5,8,0:0:0:0:
256,192,32480,1,0,0:0:0:0:
256,192,32619,1,0,0:0:0:0:
256,192,32897,1,0,0:0:0:0:
256,192,33175,1,0,0:0:0:0:
256,192,33452,5,8,0:0:0:0:
256,192,33730,1,0,0:0:0:0:
256,192,33869,1,0,0:0:0:0:
256,192,34008,1,0,0:0:0:0:
256,192,34286,1,0,0:0:0:0:
256,192,34564,5,8,0:0:0:0:
256,192,34703,1,0,0:0:0:0:
256,192,34842,1,8,0:0:0:0:
256,192,35118,1,8,0:0:0:0:
256,192,35258,1,0,0:0:0:0:
256,192,35397,1,8,0:0:0:0:
256,192,35535,1,2,0:0:0:0:
256,192,35674,5,0,0:0:0:0:
