osu file format v14

[General]
AudioFilename: audio.mp3
AudioLeadIn: 0
PreviewTime: 44864
Countdown: 0
SampleSet: Normal
StackLeniency: 0.7
Mode: 3
LetterboxInBreaks: 0
SpecialStyle: 0
WidescreenStoryboard: 1

[Editor]
DistanceSpacing: 0.8
BeatDivisor: 3
GridSize: 32
TimelineZoom: 2.5

[Metadata]
Title:Gabberse Town
TitleUnicode:Gabberse Town
Artist:Renard
ArtistUnicode:Renard
Creator:Anwul_
Version:Normal
Source:
Tags:breakcore hardcore gabber gabba lapfox vulpvibe records trax traverse town kingdom hearts full techno jackass jump quad stream quadstream chord jack chordjack stamina electronic instrumental emma essex halley labs goodies
BeatmapID:4166440
BeatmapSetID:1947714

[Difficulty]
HPDrainRate:7
CircleSize:4
OverallDifficulty:7
ApproachRate:5
SliderMultiplier:1.4
SliderTickRate:1

[Events]
//Background and Video events
0,0,"gabba.jpg",0,0
//Break Periods
//Storyboard Layer 0 (Background)
//Storyboard Layer 1 (Fail)
//Storyboard Layer 2 (Pass)
//Storyboard Layer 3 (Foreground)
//Storyboard Layer 4 (Overlay)
//Storyboard Sound Samples

[TimingPoints]
979,342.857142857143,4,1,1,30,1,0
44864,-100,4,1,1,30,0,1
66464,-100,4,1,1,30,0,0
66807,-100,4,1,1,30,0,1
88407,-100,4,1,1,30,0,0

[HitObjects]
64,192,978,5,8,0:0:0:0:
448,192,978,1,6,0:0:0:0:
320,192,1321,1,8,0:0:0:0:
192,192,1664,1,8,0:0:0:0:
320,192,2007,1,8,0:0:0:0:
64,192,2236,1,8,0:0:0:0:
192,192,2350,1,8,0:0:0:0:
320,192,2693,1,8,0:0:0:0:
192,192,3036,1,8,0:0:0:0:
448,192,3264,1,8,0:0:0:0:
320,192,3379,1,8,0:0:0:0:
64,192,3607,1,8,0:0:0:0:
192,192,3721,1,8,0:0:0:0:
320,192,4064,1,8,0:0:0:0:
192,192,4407,1,8,0:0:0:0:
320,192,4750,1,8,0:0:0:0:
64,192,4979,1,8,0:0:0:0:
192,192,5093,1,8,0:0:0:0:
320,192,5436,1,8,0:0:0:0:
192,192,5779,1,8,0:0:0:0:
448,192,6007,1,8,0:0:0:0:
320,192,6121,1,8,0:0:0:0:
64,192,6350,1,8,0:0:0:0:
192,192,6464,1,10,0:0:0:0:
448,192,6464,1,4,0:0:0:0:
320,192,6807,1,8,0:0:0:0:
192,192,7150,1,8,0:0:0:0:
320,192,7493,1,8,0:0:0:0:
64,192,7721,1,8,0:0:0:0:
192,192,7836,1,10,0:0:0:0:
448,192,7836,1,4,0:0:0:0:
320,192,8179,1,8,0:0:0:0:
192,192,8521,1,8,0:0:0:0:
448,192,8750,1,8,0:0:0:0:
320,192,8864,1,8,0:0:0:0:
64,192,9093,1,8,0:0:0:0:
192,192,9207,1,10,0:0:0:0:
448,192,9207,1,4,0:0:0:0:
320,192,9550,1,8,0:0:0:0:
192,192,9893,1,8,0:0:0:0:
320,192,10236,1,8,0:0:0:0:
320,192,10464,1,8,0:0:0:0:
64,192,10579,1,12,0:0:0:0:
192,192,10579,1,2,0:0:0:0:
320,192,10921,1,2,0:0:0:0:
448,192,10921,1,12,0:0:0:0:
192,192,11264,1,2,0:0:0:0:
64,192,11264,1,12,0:0:0:0:
320,192,11607,128,2,11950:0:0:0:0:
448,192,11950,1,10,0:0:0:0:
64,192,11950,1,4,0:0:0:0:
320,192,12293,1,10,0:0:0:0:
192,192,12636,1,10,0:0:0:0:
64,192,12979,1,10,0:0:0:0:
320,192,13207,1,8,0:0:0:0:
448,192,13321,1,10,0:0:0:0:
320,192,13664,1,10,0:0:0:0:
192,192,14007,1,10,0:0:0:0:
320,192,14236,1,8,0:0:0:0:
64,192,14350,1,10,0:0:0:0:
192,192,14579,1,10,0:0:0:0:
448,192,14693,1,10,0:0:0:0:
192,192,15036,1,10,0:0:0:0:
320,192,15379,1,10,0:0:0:0:
64,192,15721,1,10,0:0:0:0:
320,192,15950,1,8,0:0:0:0:
448,192,16064,1,10,0:0:0:0:
192,192,16407,1,10,0:0:0:0:
320,192,16750,1,10,0:0:0:0:
448,192,16979,1,8,0:0:0:0:
64,192,17093,1,10,0:0:0:0:
192,192,17321,1,10,0:0:0:0:
448,192,17436,1,10,0:0:0:0:
64,192,17436,1,4,0:0:0:0:
320,192,17779,1,10,0:0:0:0:
192,192,18121,1,10,0:0:0:0:
64,192,18464,1,10,0:0:0:0:
320,192,18693,1,8,0:0:0:0:
448,192,18807,1,10,0:0:0:0:
320,192,19150,1,10,0:0:0:0:
192,192,19493,1,10,0:0:0:0:
320,192,19721,1,8,0:0:0:0:
64,192,19836,1,10,0:0:0:0:
192,192,20064,1,10,0:0:0:0:
448,192,20179,1,10,0:0:0:0:
192,192,20521,1,10,0:0:0:0:
320,192,20864,1,10,0:0:0:0:
64,192,21207,1,10,0:0:0:0:
320,192,21436,1,8,0:0:0:0:
448,192,21550,128,2,21893:0:0:0:0:
320,192,21893,128,2,22236:0:0:0:0:
192,192,22236,128,2,22579:0:0:0:0:
64,192,22579,1,4,0:0:0:0:
448,192,22579,128,2,22921:0:0:0:0:
64,192,22921,1,4,0:0:0:0:
192,192,22921,1,2,0:0:0:0:
448,192,23150,1,0,0:0:0:0:
320,192,23264,1,0,0:0:0:0:
64,192,23493,1,0,0:0:0:0:
448,192,23607,1,0,0:0:0:0:
192,192,23836,1,0,0:0:0:0:
448,192,24179,1,0,0:0:0:0:
192,192,24293,128,0,24636:0:0:0:0:
320,192,24636,1,0,0:0:0:0:
64,192,24979,128,0,25321:0:0:0:0:
448,192,25321,128,0,25664:0:0:0:0:
192,192,25664,1,0,0:0:0:0:
64,192,25893,1,0,0:0:0:0:
320,192,26007,1,0,0:0:0:0:
192,192,26236,1,0,0:0:0:0:
448,192,26350,1,0,0:0:0:0:
192,192,26579,1,0,0:0:0:0:
320,192,26921,1,0,0:0:0:0:
64,192,27036,128,0,27379:0:0:0:0:
320,192,27379,1,0,0:0:0:0:
64,192,27721,128,0,28064:0:0:0:0:
192,192,28064,128,0,28407:0:0:0:0:
448,192,28407,1,0,0:0:0:0:
192,192,28636,1,0,0:0:0:0:
320,192,28750,1,0,0:0:0:0:
64,192,28979,1,0,0:0:0:0:
448,192,29093,1,0,0:0:0:0:
192,192,29321,1,0,0:0:0:0:
448,192,29664,1,0,0:0:0:0:
192,192,29779,128,0,30121:0:0:0:0:
320,192,30121,1,0,0:0:0:0:
64,192,30464,128,0,30807:0:0:0:0:
448,192,30807,128,0,31150:0:0:0:0:
192,192,31150,1,0,0:0:0:0:
320,192,31379,1,0,0:0:0:0:
64,192,31493,1,0,0:0:0:0:
448,192,31721,1,0,0:0:0:0:
320,192,31836,1,0,0:0:0:0:
192,192,32064,1,0,0:0:0:0:
64,192,32407,1,0,0:0:0:0:
320,192,32521,128,0,32864:0:0:0:0:
192,192,32864,1,0,0:0:0:0:
448,192,33207,128,0,33550:0:0:0:0:
320,192,33550,128,0,33893:0:0:0:0:
192,192,33893,1,4,0:0:0:0:
64,192,33893,1,8,0:0:0:0:
320,192,34121,1,0,0:0:0:0:
448,192,34236,1,8,0:0:0:0:
192,192,34464,1,0,0:0:0:0:
64,192,34579,1,8,0:0:0:0:
448,192,34807,1,0,0:0:0:0:
320,192,34921,128,8,35264:0:0:0:0:
192,192,35264,1,8,0:0:0:0:
64,192,35493,1,0,0:0:0:0:
448,192,35607,1,8,0:0:0:0:
192,192,35836,1,0,0:0:0:0:
320,192,35950,1,8,0:0:0:0:
448,192,36179,1,8,0:0:0:0:
64,192,36293,1,8,0:0:0:0:
320,192,36521,1,8,0:0:0:0:
192,192,36636,128,8,36979:0:0:0:0:
320,192,36979,128,8,37321:0:0:0:0:
64,192,37321,128,8,37664:0:0:0:0:
448,192,37664,128,8,38007:0:0:0:0:
192,192,38007,128,8,38350:0:0:0:0:
320,192,38350,128,8,38693:0:0:0:0:
64,192,38693,128,8,39036:0:0:0:0:
448,192,39036,128,8,39379:0:0:0:0:
64,192,39379,1,8,0:0:0:0:
192,192,39607,1,0,0:0:0:0:
320,192,39721,1,8,0:0:0:0:
448,192,39950,1,0,0:0:0:0:
192,192,40064,1,8,0:0:0:0:
320,192,40293,1,0,0:0:0:0:
64,192,40407,128,8,40750:0:0:0:0:
448,192,40750,1,8,0:0:0:0:
320,192,40979,1,0,0:0:0:0:
192,192,41093,1,8,0:0:0:0:
64,192,41321,1,0,0:0:0:0:
320,192,41436,1,8,0:0:0:0:
192,192,41664,1,8,0:0:0:0:
448,192,41779,1,8,0:0:0:0:
320,192,42007,1,8,0:0:0:0:
64,192,42121,1,8,0:0:0:0:
448,192,42350,1,0,0:0:0:0:
192,192,42464,1,8,0:0:0:0:
320,192,42693,1,0,0:0:0:0:
448,192,42807,1,8,0:0:0:0:
192,192,43036,1,0,0:0:0:0:
64,192,43150,1,8,0:0:0:0:
320,192,43379,1,8,0:0:0:0:
192,192,43493,1,8,0:0:0:0:
64,192,43721,1,0,0:0:0:0:
320,192,43836,1,8,0:0:0:0:
192,192,44064,1,0,0:0:0:0:
448,192,44179,1,8,0:0:0:0:
320,192,44407,1,8,0:0:0:0:
64,192,44521,1,2,0:0:0:0:
192,192,44521,1,0,0:0:0:0:
448,192,44864,1,4,0:0:0:0:
320,192,44864,1,2,0:0:0:0:
64,192,45093,1,0,0:0:0:0:
192,192,45207,1,2,0:0:0:0:
448,192,45436,1,0,0:0:0:0:
320,192,45550,1,2,0:0:0:0:
448,192,45779,1,0,0:0:0:0:
64,192,45893,1,2,0:0:0:0:
320,192,46121,1,0,0:0:0:0:
448,192,46236,1,2,0:0:0:0:
64,192,46350,1,0,0:0:0:0:
320,192,46464,1,0,0:0:0:0:
192,192,46579,1,2,0:0:0:0:
320,192,46921,128,2,47264:0:0:0:0:
64,192,47264,128,2,47607:0:0:0:0:
192,192,47607,1,2,0:0:0:0:
320,192,47836,1,0,0:0:0:0:
448,192,47950,1,2,0:0:0:0:
192,192,48293,1,2,0:0:0:0:
64,192,48521,1,0,0:0:0:0:
320,192,48636,1,2,0:0:0:0:
448,192,48864,1,0,0:0:0:0:
64,192,48979,1,2,0:0:0:0:
320,192,49093,1,0,0:0:0:0:
448,192,49207,1,0,0:0:0:0:
192,192,49321,1,2,0:0:0:0:
448,192,49664,128,2,50007:0:0:0:0:
64,192,50007,128,2,50350:0:0:0:0:
192,192,50350,1,2,0:0:0:0:
320,192,50579,1,0,0:0:0:0:
64,192,50693,1,2,0:0:0:0:
192,192,50921,1,0,0:0:0:0:
448,192,51036,1,2,0:0:0:0:
64,192,51264,1,0,0:0:0:0:
192,192,51379,1,2,0:0:0:0:
448,192,51607,1,0,0:0:0:0:
320,192,51721,1,2,0:0:0:0:
64,192,51836,1,0,0:0:0:0:
192,192,51950,1,0,0:0:0:0:
448,192,52064,1,2,0:0:0:0:
64,192,52407,128,2,52750:0:0:0:0:
448,192,52750,128,2,53093:0:0:0:0:
320,192,53093,1,2,0:0:0:0:
64,192,53321,1,0,0:0:0:0:
192,192,53436,1,2,0:0:0:0:
64,192,53779,1,2,0:0:0:0:
320,192,54007,1,0,0:0:0:0:
448,192,54121,1,2,0:0:0:0:
64,192,54350,1,0,0:0:0:0:
320,192,54464,1,2,0:0:0:0:
448,192,54579,1,0,0:0:0:0:
64,192,54693,1,0,0:0:0:0:
192,192,54807,1,2,0:0:0:0:
448,192,55150,128,2,55493:0:0:0:0:
64,192,55493,128,2,55836:0:0:0:0:
320,192,55836,1,2,0:0:0:0:
192,192,55836,1,4,0:0:0:0:
448,192,56064,1,0,0:0:0:0:
192,192,56179,1,2,0:0:0:0:
64,192,56407,1,0,0:0:0:0:
320,192,56521,1,2,0:0:0:0:
448,192,56750,1,0,0:0:0:0:
64,192,56864,1,2,0:0:0:0:
192,192,56979,1,0,0:0:0:0:
320,192,57093,1,0,0:0:0:0:
448,192,57207,1,2,0:0:0:0:
192,192,57436,1,0,0:0:0:0:
320,192,57550,1,2,0:0:0:0:
448,192,57779,1,0,0:0:0:0:
192,192,57893,1,2,0:0:0:0:
320,192,58121,1,0,0:0:0:0:
64,192,58236,1,2,0:0:0:0:
192,192,58464,1,2,0:0:0:0:
320,192,58579,128,2,58921:0:0:0:0:
192,192,58921,128,2,59264:0:0:0:0:
448,192,59264,128,2,59607:0:0:0:0:
64,192,59607,128,2,59950:0:0:0:0:
320,192,59950,128,2,60293:0:0:0:0:
192,192,60293,128,2,60636:0:0:0:0:
64,192,60636,128,2,60979:0:0:0:0:
448,192,60979,128,2,61321:0:0:0:0:
192,192,61321,1,2,0:0:0:0:
64,192,61550,1,0,0:0:0:0:
448,192,61664,1,2,0:0:0:0:
192,192,61893,1,0,0:0:0:0:
320,192,62007,1,2,0:0:0:0:
448,192,62236,1,0,0:0:0:0:
64,192,62350,1,2,0:0:0:0:
320,192,62464,1,0,0:0:0:0:
448,192,62579,1,0,0:0:0:0:
192,192,62693,1,2,0:0:0:0:
448,192,62921,1,0,0:0:0:0:
320,192,63036,1,2,0:0:0:0:
192,192,63264,1,0,0:0:0:0:
64,192,63379,1,2,0:0:0:0:
320,192,63607,1,0,0:0:0:0:
448,192,63721,1,2,0:0:0:0:
320,192,63950,1,2,0:0:0:0:
192,192,64064,1,2,0:0:0:0:
64,192,64293,1,0,0:0:0:0:
320,192,64407,1,2,0:0:0:0:
448,192,64636,1,0,0:0:0:0:
64,192,64750,1,2,0:0:0:0:
192,192,64979,1,0,0:0:0:0:
448,192,65093,1,2,0:0:0:0:
64,192,65321,1,0,0:0:0:0:
320,192,65436,128,2,65779:0:0:0:0:
192,192,65779,1,2,0:0:0:0:
64,192,66007,1,0,0:0:0:0:
448,192,66121,1,2,0:0:0:0:
192,192,66350,1,0,0:0:0:0:
320,192,66464,1,2,0:0:0:0:
64,192,66807,1,4,0:0:0:0:
448,192,66807,1,2,0:0:0:0:
320,192,67036,1,0,0:0:0:0:
192,192,67150,1,2,0:0:0:0:
64,192,67379,1,0,0:0:0:0:
320,192,67493,1,2,0:0:0:0:
448,192,67721,1,0,0:0:0:0:
64,192,67836,1,2,0:0:0:0:
192,192,68064,1,0,0:0:0:0:
448,192,68179,128,2,68521:0:0:0:0:
320,192,68521,1,2,0:0:0:0:
64,192,68750,1,0,0:0:0:0:
192,192,68864,1,2,0:0:0:0:
320,192,69093,1,0,0:0:0:0:
448,192,69207,1,2,0:0:0:0:
320,192,69436,1,2,0:0:0:0:
64,192,69550,1,2,0:0:0:0:
448,192,69779,1,0,0:0:0:0:
192,192,69893,1,2,0:0:0:0:
64,192,70121,1,0,0:0:0:0:
320,192,70236,1,2,0:0:0:0:
192,192,70464,1,0,0:0:0:0:
448,192,70579,1,2,0:0:0:0:
320,192,70807,1,0,0:0:0:0:
192,192,70921,128,2,71264:0:0:0:0:
320,192,71264,1,2,0:0:0:0:
448,192,71493,1,0,0:0:0:0:
64,192,71607,1,2,0:0:0:0:
192,192,71836,1,0,0:0:0:0:
448,192,71950,1,2,0:0:0:0:
64,192,72179,1,2,0:0:0:0:
320,192,72293,1,2,0:0:0:0:
448,192,72521,1,0,0:0:0:0:
192,192,72636,1,2,0:0:0:0:
320,192,72864,1,0,0:0:0:0:
448,192,72979,1,2,0:0:0:0:
192,192,73207,1,0,0:0:0:0:
64,192,73321,1,2,0:0:0:0:
320,192,73550,1,0,0:0:0:0:
192,192,73664,128,2,74007:0:0:0:0:
320,192,74007,1,2,0:0:0:0:
448,192,74236,1,0,0:0:0:0:
64,192,74350,1,2,0:0:0:0:
192,192,74579,1,0,0:0:0:0:
448,192,74693,1,2,0:0:0:0:
192,192,74921,1,2,0:0:0:0:
320,192,75036,1,2,0:0:0:0:
64,192,75264,1,0,0:0:0:0:
192,192,75379,1,2,0:0:0:0:
448,192,75607,1,0,0:0:0:0:
320,192,75721,1,2,0:0:0:0:
192,192,75950,1,0,0:0:0:0:
64,192,76064,1,2,0:0:0:0:
320,192,76293,1,0,0:0:0:0:
448,192,76407,128,2,76750:0:0:0:0:
192,192,76750,1,2,0:0:0:0:
64,192,76979,1,0,0:0:0:0:
320,192,77093,1,2,0:0:0:0:
192,192,77321,1,0,0:0:0:0:
64,192,77436,1,2,0:0:0:0:
448,192,77664,1,2,0:0:0:0:
192,192,77779,1,2,0:0:0:0:
320,192,77779,1,4,0:0:0:0:
64,192,78007,1,0,0:0:0:0:
320,192,78121,1,2,0:0:0:0:
192,192,78350,1,0,0:0:0:0:
448,192,78464,1,2,0:0:0:0:
320,192,78693,1,0,0:0:0:0:
192,192,78807,1,2,0:0:0:0:
64,192,79036,1,0,0:0:0:0:
448,192,79150,128,2,79493:0:0:0:0:
320,192,79493,1,2,0:0:0:0:
64,192,79721,1,0,0:0:0:0:
192,192,79836,1,2,0:0:0:0:
448,192,80064,1,0,0:0:0:0:
64,192,80179,1,2,0:0:0:0:
192,192,80407,1,2,0:0:0:0:
448,192,80521,1,2,0:0:0:0:
320,192,80750,1,0,0:0:0:0:
192,192,80864,1,2,0:0:0:0:
448,192,81093,1,0,0:0:0:0:
320,192,81207,1,2,0:0:0:0:
192,192,81436,1,0,0:0:0:0:
64,192,81550,1,2,0:0:0:0:
448,192,81779,1,0,0:0:0:0:
192,192,81893,128,2,82236:0:0:0:0:
320,192,82236,1,2,0:0:0:0:
448,192,82464,1,0,0:0:0:0:
64,192,82579,1,2,0:0:0:0:
192,192,82807,1,0,0:0:0:0:
448,192,82921,1,2,0:0:0:0:
64,192,83150,1,2,0:0:0:0:
320,192,83264,1,2,0:0:0:0:
448,192,83493,1,0,0:0:0:0:
192,192,83607,1,2,0:0:0:0:
64,192,83836,1,0,0:0:0:0:
448,192,83950,1,2,0:0:0:0:
320,192,84179,1,0,0:0:0:0:
64,192,84293,1,2,0:0:0:0:
320,192,84521,1,0,0:0:0:0:
192,192,84636,128,2,84979:0:0:0:0:
320,192,84979,1,2,0:0:0:0:
64,192,85207,1,0,0:0:0:0:
448,192,85321,1,2,0:0:0:0:
320,192,85550,1,0,0:0:0:0:
64,192,85664,1,2,0:0:0:0:
192,192,85893,1,2,0:0:0:0:
320,192,86007,1,2,0:0:0:0:
448,192,86236,1,0,0:0:0:0:
192,192,86350,1,2,0:0:0:0:
320,192,86579,1,0,0:0:0:0:
64,192,86693,1,2,0:0:0:0:
320,192,86921,1,0,0:0:0:0:
448,192,87036,1,2,0:0:0:0:
192,192,87264,1,0,0:0:0:0:
64,192,87379,128,2,87721:0:0:0:0:
320,192,87721,1,2,0:0:0:0:
448,192,87950,1,0,0:0:0:0:
192,192,88064,1,2,0:0:0:0:
448,192,88407,1,4,0:0:0:0:
64,192,88407,1,2,0:0:0:0:
