osu file format v14

[General]
AudioFilename: audio.mp3
AudioLeadIn: 0
PreviewTime: 87814
Countdown: 1
SampleSet: Soft
StackLeniency: 0.7
Mode: 0
LetterboxInBreaks: 0
WidescreenStoryboard: 0

[Editor]
Bookmarks: 9269,26723,32178,70360,83451
DistanceSpacing: 0.7
BeatDivisor: 4
GridSize: 4
TimelineZoom: 2

[Metadata]
Title:Fuck Your Rails, Too
TitleUnicode:Fuck Your Rails, Too
Artist:Renard
ArtistUnicode:Renard
Creator:Kyshiro
Version:Hatred
Source:
Tags:
BeatmapID:1003013
BeatmapSetID:469023

[Difficulty]
HPDrainRate:6
CircleSize:4.2
OverallDifficulty:9.6
ApproachRate:10
SliderMultiplier:1.8
SliderTickRate:1

[Events]
//Background and Video events
0,0,"asdasd.jpg",0,0
//Break Periods
2,26923,31728
2,70560,83001
//Storyboard Layer 0 (Background)
//Storyboard Layer 1 (Fail)
//Storyboard Layer 2 (Pass)
//Storyboard Layer 3 (Foreground)
//Storyboard Sound Samples

[TimingPoints]
542,272.727272727273,4,2,0,100,1,0
35451,-111.111111111111,4,2,0,100,0,0
44042,-111.111111111111,4,2,0,5,0,0
44178,-111.111111111111,4,2,0,100,0,0
86723,-83.3333333333333,4,2,0,100,0,0
87542,-133.333333333333,4,2,0,100,0,0
87814,-74.0740740740741,4,2,0,100,0,1
104178,-100,4,2,0,100,0,0
105269,-74.0740740740741,4,2,0,100,0,1
121632,-100,4,2,0,100,0,1
122723,-100,4,2,0,100,0,0

[Colours]
Combo1 : 239,220,194
Combo2 : 237,194,205
Combo3 : 186,223,254
Combo4 : 236,197,245

[HitObjects]
256,192,4905,12,0,8451,0:0:0:0:
392,60,8723,5,0,0:0:0:0:
284,94,8860,1,0,0:0:0:0:
172,46,8996,1,0,0:0:0:0:
180,76,9064,1,0,0:0:0:0:
188,106,9132,1,0,0:0:0:0:
196,136,9201,1,0,0:0:0:0:
204,169,9269,6,0,L|196:265,1,90
70,147,9542,1,0,0:0:0:0:
318,131,9678,2,0,P|236:141|152:80,1,180
405,91,10087,1,0,0:0:0:0:
331,296,10223,1,0,0:0:0:0:
405,69,10360,6,0,L|403:174,1,90
504,120,10632,1,0,0:0:0:0:
236,231,10769,2,0,L|327:180,1,90
231,119,11041,1,0,0:0:0:0:
464,288,11178,2,0,L|374:233,1,90
75,254,11451,5,0,0:0:0:0:
330,301,11587,1,0,0:0:0:0:
153,338,11723,1,0,0:0:0:0:
247,87,11860,2,0,L|234:280,1,180
51,154,12269,2,0,P|112:139|147:142,1,90
346,192,12542,5,0,0:0:0:0:
127,275,12678,1,0,0:0:0:0:
360,312,12814,1,0,0:0:0:0:
333,84,12951,1,0,0:0:0:0:
239,325,13087,1,0,0:0:0:0:
464,199,13223,1,0,0:0:0:0:
171,144,13360,2,0,L|65:155,1,90
426,294,13632,6,0,L|320:283,1,90
182,265,13905,1,0,0:0:0:0:
451,162,14042,2,0,P|367:196|269:173,1,180
186,73,14451,1,0,0:0:0:0:
170,293,14587,1,0,0:0:0:0:
176,45,14723,6,0,L|163:154,1,90
32,223,14996,1,0,0:0:0:0:
399,220,15132,2,0,L|388:130,1,90
273,266,15405,1,0,0:0:0:0:
485,167,15542,1,0,0:0:0:0:
253,130,15678,1,0,0:0:0:0:
422,295,15814,6,0,P|471:312|519:317,1,90
380,55,16087,1,0,0:0:0:0:
175,203,16223,2,0,P|250:215|349:179,1,180
59,230,16632,2,0,P|31:281|23:318,1,90
94,128,16905,6,0,P|64:89|30:60,1,90
0,45,17110,1,0,0:0:0:0:
0,45,17178,1,0,0:0:0:0:
1,162,17314,1,0,0:0:0:0:
242,148,17451,2,0,L|353:140,1,90
128,155,17723,1,0,0:0:0:0:
441,138,17860,1,0,0:0:0:0:
441,138,17928,1,0,0:0:0:0:
441,138,17996,6,0,P|453:188|448:236,1,90
387,328,18269,1,0,0:0:0:0:
250,135,18405,2,0,P|212:96|171:74,1,90
58,52,18678,1,0,0:0:0:0:
229,254,18814,2,0,P|277:255|325:243,1,90
56,147,19087,5,0,0:0:0:0:
225,166,19223,1,0,0:0:0:0:
122,304,19360,1,0,0:0:0:0:
426,218,19496,1,0,0:0:0:0:
311,91,19632,1,0,0:0:0:0:
480,57,19769,1,0,0:0:0:0:
249,246,19905,2,0,P|188:249|143:237,1,90
397,22,20178,6,0,L|395:127,1,90
504,179,20451,1,0,0:0:0:0:
232,174,20587,2,0,P|315:171|403:239,1,180
161,271,20996,2,0,L|64:264,1,90
165,55,21269,5,0,0:0:0:0:
349,171,21405,1,0,0:0:0:0:
70,143,21542,1,0,0:0:0:0:
294,27,21678,1,0,0:0:0:0:
264,303,21814,1,0,0:0:0:0:
55,34,21951,1,0,0:0:0:0:
438,114,22087,2,0,L|444:219,1,90
120,161,22360,6,0,L|225:155,1,90
26,243,22632,1,0,0:0:0:0:
316,114,22769,2,0,P|243:122|152:59,1,180
261,0,23178,1,0,0:0:0:0:
48,101,23314,1,0,0:0:0:0:
258,211,23451,6,0,L|243:314,1,90
142,239,23723,1,0,0:0:0:0:
330,78,23860,2,0,L|345:181,1,90
446,106,24132,1,0,0:0:0:0:
220,36,24269,2,0,L|126:39,1,90
37,269,24542,5,0,0:0:0:0:
266,158,24678,1,0,0:0:0:0:
23,110,24814,1,0,0:0:0:0:
286,321,24951,2,0,P|361:331|454:286,1,180
415,76,25360,2,0,L|409:178,1,90
94,197,25632,6,0,L|100:299,2,90
230,45,26042,2,0,L|224:147,2,90
6,78,26451,2,0,P|59:73|103:78,1,90
222,278,26723,5,0,0:0:0:0:
256,192,32178,12,0,34632,0:0:0:0:
151,23,34905,5,0,0:0:0:0:
59,65,35042,1,0,0:0:0:0:
59,65,35110,1,0,0:0:0:0:
59,65,35178,1,0,0:0:0:0:
202,106,35314,1,0,0:0:0:0:
25,148,35451,6,0,P|96:159|185:124,1,161.999995056153
261,59,35860,1,0,0:0:0:0:
144,249,35996,2,0,P|138:293|146:340,1,80.9999975280763
314,246,36269,2,0,P|318:205|312:165,1,80.9999975280763
95,55,36542,6,0,L|186:45,1,80.9999975280763
11,125,36814,1,0,0:0:0:0:
238,180,36951,2,0,P|157:177|79:217,1,161.999995056153
404,253,37360,2,0,L|412:165,1,80.9999975280763
177,22,37632,6,0,P|236:65|338:85,1,161.999995056153
0,186,38042,2,0,P|59:143|161:123,1,161.999995056153
272,311,38451,2,0,L|258:207,1,80.9999975280763
157,287,38723,5,0,0:0:0:0:
381,259,38860,1,0,0:0:0:0:
250,150,38996,1,0,0:0:0:0:
126,302,39132,1,0,0:0:0:0:
414,266,39269,1,0,0:0:0:0:
246,126,39405,1,0,0:0:0:0:
279,358,39542,2,0,L|265:254,1,80.9999975280763
508,114,39814,6,0,P|452:152|354:163,1,161.999995056153
220,96,40223,1,0,0:0:0:0:
363,264,40360,2,0,P|314:243|267:237,1,80.9999975280763
91,360,40632,2,0,P|130:351|167:334,1,80.9999975280763
137,98,40905,6,0,L|126:195,1,80.9999975280763
23,123,41178,1,0,0:0:0:0:
250,309,41314,2,0,L|231:148,1,161.999995056153
439,224,41723,2,0,P|392:239|356:245,1,80.9999975280763
96,272,41996,6,0,P|197:280|271:328,1,161.999995056153
0,154,42405,2,0,P|80:152|153:117,1,161.999995056153
357,76,42814,2,0,P|333:141|329:171,1,80.9999975280763
256,192,43087,12,0,44042,0:0:0:0:
151,173,44178,6,0,P|139:106|89:25,1,161.999995056153
35,163,44587,1,0,0:0:0:0:
270,40,44723,2,0,P|251:84|244:123,1,80.9999975280763
355,271,44996,2,0,P|346:231|329:194,1,80.9999975280763
114,259,45269,6,0,P|140:190|143:84,1,161.999995056153
267,384,45678,2,0,P|239:308|235:227,1,161.999995056153
480,269,46087,2,0,L|391:288,1,80.9999975280763
331,41,46360,5,0,0:0:0:0:
464,116,46496,1,0,0:0:0:0:
333,196,46632,1,0,0:0:0:0:
349,14,46769,1,0,0:0:0:0:
477,144,46905,1,0,0:0:0:0:
300,193,47041,1,0,0:0:0:0:
497,179,47178,2,0,L|483:268,1,80.9999975280763
162,88,47451,6,0,P|266:89|337:126,1,161.999995056153
61,151,47860,1,0,0:0:0:0:
395,202,47996,2,0,P|342:202|305:213,1,80.9999975280763
0,63,48269,2,0,P|53:63|90:74,1,80.9999975280763
154,289,48542,6,0,L|144:201,1,80.9999975280763
75,338,48814,1,0,0:0:0:0:
261,96,48951,2,0,L|242:256,1,161.999995056153
436,140,49360,2,0,L|348:162,1,80.9999975280763
105,188,49632,6,0,P|148:247|175:338,1,161.999995056153
306,21,50042,2,0,P|263:80|236:171,1,161.999995056153
59,58,50451,2,0,P|112:64|149:80,1,80.9999975280763
366,256,50723,6,0,L|285:273,2,80.9999975280763
84,185,51132,2,0,L|165:202,2,80.9999975280763
462,123,51542,2,0,L|381:140,1,80.9999975280763
65,267,51814,6,0,P|44:210|48:93,1,161.999995056153
133,27,52223,1,0,0:0:0:0:
256,247,52360,2,0,P|209:244|172:231,1,80.9999975280763
385,115,52632,2,0,P|345:140|307:151,1,80.9999975280763
33,92,52905,6,0,L|27:61,4,20.2499993820191
138,310,53178,2,0,L|134:329,4,20.2499993820191
276,117,53451,2,0,L|247:129,3,20.2499993820191
300,149,53587,2,0,L|329:161,4,20.2499993820191
61,213,53860,2,0,L|36:218,3,20.2499993820191
157,46,54132,6,0,L|156:18,3,20.2499993820191
186,68,54269,2,0,L|185:88,4,20.2499993820191
431,209,54542,2,0,L|468:203,3,20.2499993820191
398,228,54678,2,0,L|361:222,3,20.2499993820191
429,255,54814,2,0,L|466:249,4,20.2499993820191
82,322,55087,6,0,L|51:318,4,20.2499993820191
294,255,55360,2,0,L|325:251,4,20.2499993820191
143,103,55632,2,0,L|139:129,4,20.2499993820191
355,77,55905,2,0,L|350:51,3,20.2499993820191
326,102,56042,2,0,L|322:121,4,20.2499993820191
445,310,56314,6,0,L|471:305,3,20.2499993820191
420,281,56451,2,0,L|400:277,4,20.2499993820191
166,318,56723,2,0,L|162:343,3,20.2499993820191
208,313,56860,2,0,L|216:336,3,20.2499993820191,0|0|0|0,2:0|2:0|2:0|2:0,2:0:0:0:
242,294,56996,2,0,L|259:311,4,20.2499993820191,0|0|0|0|0,2:0|2:0|2:0|2:0|2:0,2:0:0:0:
43,176,57269,6,0,L|14:170,4,20.2499993820191
234,17,57542,2,0,L|228:47,4,20.2499993820191
368,206,57814,2,0,L|398:200,3,20.2499993820191
339,235,57951,2,0,L|309:229,4,20.2499993820191
468,70,58223,2,0,L|463:41,4,20.2499993820191
236,172,58496,6,0,L|232:200,3,20.2499993820191
200,213,58632,2,0,L|204:241,4,20.2499993820191
27,120,58905,2,0,L|21:93,3,20.2499993820191
62,83,59042,2,0,L|73:57,3,20.2499993820191
111,67,59178,2,0,L|134:51,4,20.2499993820191
301,297,59451,6,0,L|295:331,4,20.2499993820191
206,139,59723,2,0,L|202:119,4,20.2499993820191
85,285,59996,2,0,L|111:280,4,20.2499993820191
378,184,60269,2,0,L|342:180,3,20.2499993820191
411,161,60405,2,0,L|447:157,4,20.2499993820191
166,96,60678,6,0,L|162:132,3,20.2499993820191
143,63,60814,2,0,L|139:27,4,20.2499993820191
225,248,61087,2,0,L|220:285,3,20.2499993820191
188,291,61223,2,0,L|193:328,3,20.2499993820191
221,332,61360,2,0,L|216:369,4,20.2499993820191
438,99,61632,5,0,0:0:0:0:
435,123,61701,1,0,0:0:0:0:
432,147,61769,1,0,0:0:0:0:
429,171,61837,1,0,0:0:0:0:
427,195,61905,1,0,0:0:0:0:
427,195,62178,2,0,L|417:109,1,80.9999975280763
417,114,62587,2,0,P|365:120|260:92,1,161.999995056153
233,71,62928,5,0,0:0:0:0:
233,71,62996,2,0,P|204:32|192:-2,1,80.9999975280763
240,181,63269,2,0,P|192:172|160:155,1,80.9999975280763
327,254,63542,2,0,P|286:280|251:289,1,80.9999975280763
55,132,63814,6,0,L|48:102,4,20.2499993820191
74,315,64087,2,0,L|44:322,4,20.2499993820191
254,288,64360,2,0,L|261:318,4,20.2499993820191
20,239,64632,2,0,L|-9:235,3,20.2499993820191
52,213,64769,2,0,L|81:209,4,20.2499993820191
290,110,65042,6,0,L|319:106,3,20.2499993820191
258,84,65179,2,0,L|229:80,4,20.2499993820191
244,289,65451,2,0,L|247:315,3,20.2499993820191
279,261,65587,2,0,L|305:258,3,20.2499993820191
270,221,65723,2,0,L|267:195,4,20.2499993820191
31,88,65996,5,0,0:0:0:0:
32,112,66064,1,0,0:0:0:0:
34,136,66132,1,0,0:0:0:0:
36,160,66201,1,0,0:0:0:0:
37,184,66269,1,0,0:0:0:0:
117,175,66542,2,0,L|26:185,1,80.9999975280763
263,198,66951,2,0,P|192:215|106:160,1,161.999995056153
131,204,67292,5,0,0:0:0:0:
131,204,67360,2,0,P|142:246|145:288,1,80.9999975280763
277,118,67632,2,0,P|266:160|263:202,1,80.9999975280763
154,7,67905,2,0,P|165:49|168:91,1,80.9999975280763
50,258,68178,6,0,L|23:268,4,20.2499993820191
266,332,68451,2,0,L|293:342,4,20.2499993820191
222,116,68723,2,0,L|216:149,4,20.2499993820191
414,200,68996,2,0,L|442:196,3,20.2499993820191
383,169,69132,2,0,L|355:165,4,20.2499993820191
136,255,69405,2,0,L|108:259,3,20.2499993820191
167,286,69541,2,0,L|195:290,4,20.2499993820191
210,56,69814,6,0,L|205:26,3,20.2499993820191
174,82,69951,2,0,L|169:112,3,20.2499993820191
137,56,70087,2,0,L|132:26,4,20.2499993820191
473,197,70360,5,0,0:0:0:0:
34,88,83451,5,0,0:0:0:0:
55,98,83519,1,0,0:0:0:0:
78,103,83587,1,0,0:0:0:0:
102,104,83655,1,0,0:0:0:0:
126,102,83723,5,0,0:0:0:0:
150,98,83792,1,0,0:0:0:0:
172,89,83860,1,0,0:0:0:0:
193,77,83928,1,0,0:0:0:0:
212,62,83996,5,0,0:0:0:0:
234,52,84064,1,0,0:0:0:0:
257,47,84132,1,0,0:0:0:0:
281,47,84201,1,0,0:0:0:0:
304,51,84269,5,0,0:0:0:0:
326,58,84337,1,0,0:0:0:0:
346,70,84405,1,0,0:0:0:0:
363,86,84473,1,0,0:0:0:0:
375,107,84542,5,0,0:0:0:0:
387,136,84610,1,0,0:0:0:0:
389,168,84678,1,0,0:0:0:0:
381,199,84746,1,0,0:0:0:0:
363,225,84814,5,0,0:0:0:0:
334,241,84882,1,0,0:0:0:0:
301,245,84951,1,0,0:0:0:0:
269,238,85019,1,0,0:0:0:0:
244,216,85087,5,0,0:0:0:0:
225,184,85155,1,0,0:0:0:0:
223,147,85223,1,0,0:0:0:0:
239,114,85292,1,0,0:0:0:0:
273,92,85360,5,0,0:0:0:0:
313,93,85428,1,0,0:0:0:0:
343,119,85496,1,0,0:0:0:0:
355,157,85564,1,0,0:0:0:0:
344,200,85632,5,0,0:0:0:0:
317,236,85701,1,0,0:0:0:0:
279,259,85769,1,0,0:0:0:0:
235,265,85837,1,0,0:0:0:0:
189,247,85905,5,0,0:0:0:0:
146,222,85973,1,0,0:0:0:0:
92,218,86042,1,0,0:0:0:0:
45,241,86110,1,0,0:0:0:0:
21,288,86178,5,0,0:0:0:0:
25,340,86246,1,0,0:0:0:0:
65,373,86314,1,0,0:0:0:0:
116,383,86382,1,0,0:0:0:0:
166,355,86451,5,0,0:0:0:0:
216,322,86519,1,0,0:0:0:0:
276,315,86587,1,0,0:0:0:0:
334,329,86655,1,0,0:0:0:0:
385,361,86723,6,0,P|392:305|414:256,1,107.999996704102
493,170,86996,1,0,0:0:0:0:
179,52,87132,6,0,P|186:108|208:157,1,107.999996704102
287,243,87405,1,0,0:0:0:0:
425,95,87542,6,0,L|321:92,1,101.250003862381
287,89,87814,5,0,0:0:0:0:
419,240,87951,1,0,0:0:0:0:
129,202,88087,1,0,0:0:0:0:
422,134,88223,1,0,0:0:0:0:
337,338,88360,1,0,0:0:0:0:
162,90,88496,1,0,0:0:0:0:
493,200,88632,1,0,0:0:0:0:
80,296,88769,1,0,0:0:0:0:
295,20,88905,6,0,P|309:91|300:153,1,121.500000463486
72,143,89178,1,0,0:0:0:0:
436,189,89314,2,0,P|363:168|207:241,1,243.000000926971
499,281,89723,1,0,0:0:0:0:
377,31,89860,1,0,0:0:0:0:
174,302,89996,6,0,L|154:183,1,121.500000463486
39,273,90269,1,0,0:0:0:0:
411,224,90405,2,0,P|345:229|288:212,1,121.500000463486
256,82,90678,1,0,0:0:0:0:
488,162,90814,1,0,0:0:0:0:
191,213,90951,1,0,0:0:0:0:
477,75,91087,5,0,0:0:0:0:
151,115,91223,1,0,0:0:0:0:
391,331,91360,1,0,0:0:0:0:
308,14,91496,1,0,0:0:0:0:
244,341,91632,1,0,0:0:0:0:
512,162,91769,1,0,0:0:0:0:
77,282,91905,1,0,0:0:0:0:
480,243,92042,1,0,0:0:0:0:
0,257,92178,6,0,P|77:232|150:234,1,121.500000463486
275,267,92451,1,0,0:0:0:0:
0,79,92587,2,0,P|61:127|223:132,1,243.000000926971
456,55,92996,2,0,P|416:111|393:169,1,121.500000463486
368,326,93269,5,0,0:0:0:0:
303,37,93405,1,0,0:0:0:0:
146,220,93542,1,0,0:0:0:0:
477,246,93678,1,0,0:0:0:0:
100,105,93814,1,0,0:0:0:0:
342,362,93951,1,0,0:0:0:0:
479,30,94087,1,0,0:0:0:0:
17,221,94223,1,0,0:0:0:0:
362,355,94360,6,0,L|375:223,1,121.500000463486
237,45,94632,1,0,0:0:0:0:
84,271,94769,2,0,P|145:295|220:292,1,121.500000463486
436,172,95042,1,0,0:0:0:0:
128,135,95178,2,0,L|6:152,1,121.500000463486
266,204,95451,5,0,0:0:0:0:
297,22,95587,1,0,0:0:0:0:
99,220,95723,1,0,0:0:0:0:
403,230,95860,1,0,0:0:0:0:
91,56,95996,1,0,0:0:0:0:
275,354,96132,1,0,0:0:0:0:
422,23,96269,1,0,0:0:0:0:
11,314,96405,1,0,0:0:0:0:
482,287,96542,6,0,P|425:313|348:311,1,121.500000463486
140,169,96814,1,0,0:0:0:0:
383,108,96951,2,0,L|399:244,1,121.500000463486
238,299,97223,1,0,0:0:0:0:
170,0,97360,2,0,L|154:136,1,121.500000463486
311,217,97632,5,0,0:0:0:0:
27,118,97769,1,0,0:0:0:0:
353,84,97905,1,0,0:0:0:0:
218,330,98042,1,0,0:0:0:0:
194,23,98178,1,0,0:0:0:0:
426,250,98314,1,0,0:0:0:0:
8,199,98451,1,0,0:0:0:0:
462,46,98587,1,0,0:0:0:0:
112,369,98723,6,0,P|101:305|106:226,1,121.500000463486
193,103,98996,1,0,0:0:0:0:
507,258,99132,2,0,P|404:289|270:225,1,243.000000926971
30,65,99542,2,0,P|82:105|120:162,1,121.500000463486
275,53,99814,5,0,0:0:0:0:
156,280,99951,1,0,0:0:0:0:
417,73,100087,1,0,0:0:0:0:
72,120,100223,1,0,0:0:0:0:
386,314,100360,1,0,0:0:0:0:
299,3,100496,1,0,0:0:0:0:
17,267,100632,1,0,0:0:0:0:
512,142,100769,1,0,0:0:0:0:
46,57,100905,6,0,P|112:81|188:82,1,121.500000463486
351,47,101178,1,0,0:0:0:0:
79,216,101314,2,0,P|180:200|323:263,1,243.000000926971
384,363,101723,1,0,0:0:0:0:
233,134,101860,1,0,0:0:0:0:
478,274,101996,5,0,0:0:0:0:
181,341,102132,1,0,0:0:0:0:
265,53,102269,1,0,0:0:0:0:
359,358,102405,1,0,0:0:0:0:
15,199,102542,1,0,0:0:0:0:
398,62,102678,1,0,0:0:0:0:
205,370,102814,1,0,0:0:0:0:
73,39,102951,1,0,0:0:0:0:
503,201,103087,6,0,P|430:210|368:194,1,121.500000463486
236,115,103360,1,0,0:0:0:0:
0,314,103496,2,0,P|73:323|135:307,1,121.500000463486
267,228,103769,1,0,0:0:0:0:
83,29,103905,2,0,L|63:156,1,121.500000463486
228,336,104178,5,0,0:0:0:0:
263,330,104246,1,0,0:0:0:0:
298,325,104314,1,0,0:0:0:0:
334,320,104382,1,0,0:0:0:0:
370,315,104451,1,0,0:0:0:0:
276,188,104587,1,0,0:0:0:0:
109,232,104723,2,0,P|103:287|116:329,1,90
317,114,104996,2,0,P|323:59|310:17,1,90
194,68,105269,5,0,0:0:0:0:
436,134,105405,1,0,0:0:0:0:
177,182,105542,1,0,0:0:0:0:
425,22,105678,1,0,0:0:0:0:
389,267,105814,1,0,0:0:0:0:
98,36,105951,1,0,0:0:0:0:
436,134,106087,1,0,0:0:0:0:
50,282,106223,1,0,0:0:0:0:
271,11,106360,6,0,L|288:143,1,121.500000463486
72,105,106632,1,0,0:0:0:0:
433,168,106769,2,0,P|346:154|212:245,1,243.000000926971
468,378,107178,2,0,L|489:240,1,121.500000463486
211,68,107451,5,0,0:0:0:0:
159,288,107587,1,0,0:0:0:0:
345,127,107723,1,0,0:0:0:0:
54,86,107860,1,0,0:0:0:0:
336,277,107996,1,0,0:0:0:0:
256,3,108132,1,0,0:0:0:0:
0,257,108269,1,0,0:0:0:0:
453,207,108405,1,0,0:0:0:0:
14,64,108542,6,0,P|77:81|146:76,1,121.500000463486
352,36,108814,1,0,0:0:0:0:
29,362,108951,2,0,P|86:331|133:280,1,121.500000463486
257,110,109223,1,0,0:0:0:0:
447,337,109360,2,0,P|399:288|339:253,1,121.500000463486
48,170,109632,5,0,0:0:0:0:
354,92,109769,1,0,0:0:0:0:
125,282,109905,1,0,0:0:0:0:
106,13,110042,1,0,0:0:0:0:
396,233,110178,1,0,0:0:0:0:
23,295,110314,1,0,0:0:0:0:
269,22,110451,1,0,0:0:0:0:
363,355,110587,1,0,0:0:0:0:
1,111,110723,6,0,L|136:125,1,121.500000463486
267,144,110996,1,0,0:0:0:0:
119,272,111132,2,0,L|373:248,1,243.000000926971
488,71,111542,2,0,L|367:58,1,121.500000463486
139,165,111814,5,0,0:0:0:0:
436,271,111951,1,0,0:0:0:0:
173,49,112087,1,0,0:0:0:0:
166,326,112223,1,0,0:0:0:0:
487,178,112360,1,0,0:0:0:0:
30,200,112496,1,0,0:0:0:0:
415,338,112632,1,0,0:0:0:0:
221,14,112769,1,0,0:0:0:0:
97,377,112905,6,0,L|83:243,1,121.500000463486
157,127,113178,1,0,0:0:0:0:
482,267,113314,2,0,P|373:295|256:217,1,243.000000926971
404,47,113723,2,0,L|389:177,1,121.500000463486
209,333,113996,5,0,0:0:0:0:
116,133,114132,1,0,0:0:0:0:
336,264,114269,1,0,0:0:0:0:
38,226,114405,1,0,0:0:0:0:
246,23,114542,1,0,0:0:0:0:
302,369,114678,1,0,0:0:0:0:
11,108,114814,1,0,0:0:0:0:
503,207,114951,1,0,0:0:0:0:
8,274,115087,6,0,L|150:294,1,121.500000463486
267,309,115360,1,0,0:0:0:0:
483,120,115496,2,0,L|341:140,1,121.500000463486
224,155,115769,1,0,0:0:0:0:
411,355,115905,2,0,L|439:223,1,121.500000463486
131,45,116178,5,0,0:0:0:0:
166,259,116314,1,0,0:0:0:0:
308,25,116451,1,0,0:0:0:0:
14,222,116587,1,0,0:0:0:0:
412,244,116723,1,0,0:0:0:0:
21,100,116860,1,0,0:0:0:0:
201,360,116996,1,0,0:0:0:0:
512,45,117132,1,0,0:0:0:0:
0,93,117269,6,0,P|3:166|32:219,1,121.500000463486
178,124,117542,1,0,0:0:0:0:
436,281,117678,2,0,P|339:247|189:283,1,243.000000926971
266,42,118087,2,0,P|208:86|174:129,1,121.500000463486
331,150,118360,5,0,0:0:0:0:
95,73,118496,1,0,0:0:0:0:
423,55,118632,1,0,0:0:0:0:
246,284,118769,1,0,0:0:0:0:
164,12,118905,1,0,0:0:0:0:
418,254,119042,1,0,0:0:0:0:
35,162,119178,1,0,0:0:0:0:
504,93,119314,1,0,0:0:0:0:
83,371,119451,6,0,P|65:311|69:228,1,121.500000463486
112,108,119723,1,0,0:0:0:0:
512,223,119860,2,0,P|452:241|369:237,1,121.500000463486
249,194,120132,1,0,0:0:0:0:
365,10,120269,2,0,P|372:80|358:140,1,121.500000463486
127,174,120542,5,0,0:0:0:0:
274,338,120678,1,0,0:0:0:0:
244,48,120814,1,0,0:0:0:0:
0,233,120951,1,0,0:0:0:0:
384,273,121087,1,0,0:0:0:0:
122,46,121223,1,0,0:0:0:0:
91,361,121360,1,0,0:0:0:0:
459,120,121496,1,0,0:0:0:0:
154,167,121632,5,0,0:0:0:0:
268,192,121905,1,0,0:0:0:0:
56,209,122178,1,0,0:0:0:0:
242,279,122314,1,0,0:0:0:0:
361,144,122451,1,0,0:0:0:0:
361,144,122519,1,0,0:0:0:0:
361,144,122587,1,0,0:0:0:0:
361,144,122655,1,0,0:0:0:0:
361,144,122723,1,0,0:0:0:0:
