osu file format v14

[General]
AudioFilename: audio.mp3
AudioLeadIn: 0
PreviewTime: 517
Countdown: 0
SampleSet: Normal
StackLeniency: 0.7
Mode: 1
LetterboxInBreaks: 0
WidescreenStoryboard: 1

[Editor]
Bookmarks: 15403,48380
DistanceSpacing: 1.2
BeatDivisor: 1
GridSize: 32
TimelineZoom: 1.6

[Metadata]
Title:Feel Better
TitleUnicode:Feel Better
Artist:Renard
ArtistUnicode:Renard
Creator:Oui
Version:Muzukashii
Source:
Tags:lapfox trax queenston breakcore songs about love vulpvibe records broken core
BeatmapID:1563158
BeatmapSetID:741004

[Difficulty]
HPDrainRate:5
CircleSize:2
OverallDifficulty:5
ApproachRate:10
SliderMultiplier:1.4
SliderTickRate:1

[Events]
//Background and Video events
0,0,"same bg as every other feel better map.png",0,0
//Break Periods
//Storyboard Layer 0 (Background)
//Storyboard Layer 1 (Fail)
//Storyboard Layer 2 (Pass)
//Storyboard Layer 3 (Foreground)
//Storyboard Sound Samples

[TimingPoints]
-169,229.007633587786,4,1,0,80,1,0
518,-125,4,1,0,80,0,0
30060,-125,4,1,0,100,0,1
44716,-125,4,1,0,80,0,0

[HitObjects]
256,192,518,5,0,0:0:0:0:
256,192,747,1,8,0:0:0:0:
256,192,1434,1,8,0:0:0:0:
256,192,1892,1,0,0:0:0:0:
256,192,2121,1,8,0:0:0:0:
256,192,2579,1,0,0:0:0:0:
256,192,4182,1,0,0:0:0:0:
256,192,4411,1,8,0:0:0:0:
256,192,5098,1,0,0:0:0:0:
256,192,5556,1,0,0:0:0:0:
256,192,5785,1,8,0:0:0:0:
256,192,6243,1,0,0:0:0:0:
256,192,7846,1,0,0:0:0:0:
256,192,8075,1,8,0:0:0:0:
256,192,8762,1,0,0:0:0:0:
256,192,9220,1,0,0:0:0:0:
256,192,9449,1,8,0:0:0:0:
256,192,9907,1,0,0:0:0:0:
256,192,11510,1,0,0:0:0:0:
256,192,11739,1,8,0:0:0:0:
256,192,12426,1,8,0:0:0:0:
256,192,12884,1,0,0:0:0:0:
256,192,13113,1,8,0:0:0:0:
256,192,13571,1,0,0:0:0:0:
256,192,15403,1,0,0:0:0:0:
256,192,15632,1,0,0:0:0:0:
256,192,15861,1,8,0:0:0:0:
256,192,15976,1,8,0:0:0:0:
256,192,16090,1,8,0:0:0:0:
256,192,16319,1,0,0:0:0:0:
256,192,16548,1,8,0:0:0:0:
256,192,16777,1,0,0:0:0:0:
256,192,17235,1,8,0:0:0:0:
256,192,17464,1,8,0:0:0:0:
256,192,17693,1,8,0:0:0:0:
256,192,17808,1,8,0:0:0:0:
256,192,17922,1,8,0:0:0:0:
256,192,18151,1,0,0:0:0:0:
256,192,18380,1,8,0:0:0:0:
256,192,18609,1,8,0:0:0:0:
256,192,18838,1,0,0:0:0:0:
256,192,19067,1,0,0:0:0:0:
256,192,19525,1,8,0:0:0:0:
256,192,19754,1,0,0:0:0:0:
256,192,19869,1,0,0:0:0:0:
256,192,19983,1,0,0:0:0:0:
256,192,20212,1,8,0:0:0:0:
256,192,20441,1,0,0:0:0:0:
256,192,20670,1,8,0:0:0:0:
256,192,20899,1,8,0:0:0:0:
256,192,21243,1,8,0:0:0:0:
256,192,21357,1,8,0:0:0:0:
256,192,21586,1,8,0:0:0:0:
256,192,21815,1,0,0:0:0:0:
256,192,22044,1,8,0:0:0:0:
256,192,22273,1,0,0:0:0:0:
256,192,22388,1,0,0:0:0:0:
256,192,22502,1,0,0:0:0:0:
256,192,22731,1,8,0:0:0:0:
256,192,23189,1,0,0:0:0:0:
256,192,23418,1,8,0:0:0:0:
256,192,23647,1,0,0:0:0:0:
256,192,23762,1,0,0:0:0:0:
256,192,23876,1,0,0:0:0:0:
256,192,24105,1,0,0:0:0:0:
256,192,24334,1,8,0:0:0:0:
256,192,24563,1,0,0:0:0:0:
256,192,25021,1,8,0:0:0:0:
256,192,25479,1,0,0:0:0:0:
256,192,25708,1,0,0:0:0:0:
256,192,25937,1,8,0:0:0:0:
256,192,26166,1,0,0:0:0:0:
256,192,26281,1,0,0:0:0:0:
256,192,26395,1,0,0:0:0:0:
256,192,26624,1,0,0:0:0:0:
256,192,26853,1,8,0:0:0:0:
256,192,27311,1,0,0:0:0:0:
256,192,27769,1,8,0:0:0:0:
256,192,27998,1,0,0:0:0:0:
256,192,28227,1,8,0:0:0:0:
256,192,28456,1,8,0:0:0:0:
256,192,28685,1,8,0:0:0:0:
256,192,28914,1,0,0:0:0:0:
256,192,29143,1,0,0:0:0:0:
256,192,29372,1,8,0:0:0:0:
256,192,29487,1,8,0:0:0:0:
256,192,29601,1,8,0:0:0:0:
256,192,30060,1,4,0:0:0:0:
256,192,30289,1,8,0:0:0:0:
256,192,30403,1,8,0:0:0:0:
256,192,30518,1,8,0:0:0:0:
256,192,30747,1,8,0:0:0:0:
256,192,31205,1,0,0:0:0:0:
256,192,31434,1,8,0:0:0:0:
256,192,31663,1,0,0:0:0:0:
256,192,31777,1,0,0:0:0:0:
256,192,31892,1,0,0:0:0:0:
256,192,32121,1,8,0:0:0:0:
256,192,32350,1,0,0:0:0:0:
256,192,32579,1,8,0:0:0:0:
256,192,32808,1,8,0:0:0:0:
256,192,33037,1,0,0:0:0:0:
256,192,33495,1,8,0:0:0:0:
256,192,33724,1,0,0:0:0:0:
256,192,33953,1,0,0:0:0:0:
256,192,34067,1,0,0:0:0:0:
256,192,34182,1,0,0:0:0:0:
256,192,34411,1,8,0:0:0:0:
256,192,34640,1,8,0:0:0:0:
256,192,34754,1,8,0:0:0:0:
256,192,34869,1,8,0:0:0:0:
256,192,35098,1,0,0:0:0:0:
256,192,35327,1,8,0:0:0:0:
256,192,35556,1,0,0:0:0:0:
256,192,36014,1,0,0:0:0:0:
256,192,36472,1,8,0:0:0:0:
256,192,36701,1,8,0:0:0:0:
256,192,36815,1,8,0:0:0:0:
256,192,36930,1,8,0:0:0:0:
256,192,37388,1,0,0:0:0:0:
256,192,37617,1,0,0:0:0:0:
256,192,37731,1,0,0:0:0:0:
256,192,37846,1,0,0:0:0:0:
256,192,38075,1,8,0:0:0:0:
256,192,38304,1,8,0:0:0:0:
256,192,38418,1,8,0:0:0:0:
256,192,38533,1,8,0:0:0:0:
256,192,38762,1,0,0:0:0:0:
256,192,38991,1,8,0:0:0:0:
256,192,39220,1,0,0:0:0:0:
256,192,39678,1,8,0:0:0:0:
256,192,39907,1,0,0:0:0:0:
256,192,40021,1,0,0:0:0:0:
256,192,40136,1,0,0:0:0:0:
256,192,40365,1,0,0:0:0:0:
256,192,40594,1,8,0:0:0:0:
256,192,41052,1,8,0:0:0:0:
256,192,41166,1,8,0:0:0:0:
256,192,41281,1,8,0:0:0:0:
256,192,41510,1,0,0:0:0:0:
256,192,41739,1,8,0:0:0:0:
256,192,41968,1,0,0:0:0:0:
256,192,42197,1,0,0:0:0:0:
256,192,42426,1,8,0:0:0:0:
256,192,42655,1,0,0:0:0:0:
256,192,42884,1,8,0:0:0:0:
256,192,42998,1,8,0:0:0:0:
256,192,43113,1,8,0:0:0:0:
256,192,43342,1,0,0:0:0:0:
256,192,43571,1,8,0:0:0:0:
256,192,43800,1,0,0:0:0:0:
256,192,44258,1,0,0:0:0:0:
256,192,44487,1,8,0:0:0:0:
256,192,44716,1,4,0:0:0:0:
256,192,48151,5,0,0:0:0:0:
256,192,48380,1,8,0:0:0:0:
256,192,49067,1,8,0:0:0:0:
256,192,49525,1,0,0:0:0:0:
256,192,49754,1,8,0:0:0:0:
256,192,50212,1,0,0:0:0:0:
256,192,51815,1,0,0:0:0:0:
256,192,52044,1,8,0:0:0:0:
256,192,52731,1,0,0:0:0:0:
256,192,53189,1,0,0:0:0:0:
256,192,53418,1,8,0:0:0:0:
256,192,53876,1,0,0:0:0:0:
256,192,55479,1,0,0:0:0:0:
256,192,55708,1,8,0:0:0:0:
256,192,56395,1,0,0:0:0:0:
256,192,56853,1,0,0:0:0:0:
256,192,57082,1,8,0:0:0:0:
256,192,57540,1,0,0:0:0:0:
256,192,59143,1,0,0:0:0:0:
256,192,59372,1,8,0:0:0:0:
256,192,60060,1,8,0:0:0:0:
256,192,60518,1,0,0:0:0:0:
256,192,60747,1,8,0:0:0:0:
256,192,61205,1,0,0:0:0:0:
