osu file format v14

[General]
AudioFilename: audio.mp3
AudioLeadIn: 0
PreviewTime: 19
Countdown: 0
SampleSet: Normal
StackLeniency: 0.7
Mode: 1
LetterboxInBreaks: 0
WidescreenStoryboard: 0

[Editor]
Bookmarks: 16068,26734,37401,48067,69401,81901
DistanceSpacing: 1.14
BeatDivisor: 4
GridSize: 4
TimelineZoom: 2.899999

[Metadata]
Title:ENDLESS QUEER
TitleUnicode:ENDLESS QUEER
Artist:Renard
ArtistUnicode:Renard
Creator:radar
Version:Oni
Source:
Tags:english electronic LAPFOX TRAX FULL TECHNO JACKASS Breakcore Queenston David Remmler Truxton Negaren Hardcore rave
BeatmapID:2259651
BeatmapSetID:1080059

[Difficulty]
HPDrainRate:5
CircleSize:5
OverallDifficulty:5
ApproachRate:5
SliderMultiplier:1.4
SliderTickRate:1

[Events]
//Background and Video events
0,0,"wallhaven-d5l6xo.jpg",0,0
//Break Periods
//Storyboard Layer 0 (Background)
//Storyboard Layer 1 (Fail)
//Storyboard Layer 2 (Pass)
//Storyboard Layer 3 (Foreground)
//Storyboard Layer 4 (Overlay)
//Storyboard Sound Samples

[TimingPoints]
15686,333.333333333333,4,1,0,60,1,0
47685,-100,4,1,0,75,0,1
69019,-100,4,1,0,60,0,0

[HitObjects]
145,42,15686,5,12,0:0:0:0:
110,278,15852,1,8,0:0:0:0:
110,278,15936,1,8,0:0:0:0:
111,294,16019,1,0,0:0:0:0:
115,284,16186,1,8,0:0:0:0:
115,301,16352,1,0,0:0:0:0:
116,304,16519,1,0,0:0:0:0:
123,288,16686,1,8,0:0:0:0:
117,308,16852,1,0,0:0:0:0:
125,283,17019,1,8,0:0:0:0:
132,285,17186,1,8,0:0:0:0:
130,288,17269,1,8,0:0:0:0:
130,300,17352,1,0,0:0:0:0:
121,316,17519,1,0,0:0:0:0:
136,290,17686,1,8,0:0:0:0:
143,312,17852,1,0,0:0:0:0:
144,297,18019,1,8,0:0:0:0:
136,262,18352,1,8,0:0:0:0:
137,268,18519,1,8,0:0:0:0:
137,268,18602,1,8,0:0:0:0:
136,290,18686,1,0,0:0:0:0:
139,273,18852,1,8,0:0:0:0:
119,270,19019,1,8,0:0:0:0:
115,292,19186,1,0,0:0:0:0:
116,273,19352,1,8,0:0:0:0:
116,289,19519,1,0,0:0:0:0:
129,276,19686,1,8,0:0:0:0:
139,273,19852,1,8,0:0:0:0:
134,274,19936,1,8,0:0:0:0:
126,290,20019,1,0,0:0:0:0:
149,277,20186,1,8,0:0:0:0:
149,285,20352,1,0,0:0:0:0:
149,286,20436,1,0,0:0:0:0:
152,282,20519,1,8,0:0:0:0:
152,283,20602,1,8,0:0:0:0:
150,297,20686,1,0,0:0:0:0:
126,50,21019,1,12,0:0:0:0:
158,292,21186,1,8,0:0:0:0:
161,293,21269,1,8,0:0:0:0:
156,313,21352,1,0,0:0:0:0:
116,299,21519,1,8,0:0:0:0:
122,327,21686,1,0,0:0:0:0:
122,327,21852,1,0,0:0:0:0:
128,354,21936,1,0,0:0:0:0:
129,312,22019,1,8,0:0:0:0:
130,328,22186,1,0,0:0:0:0:
137,315,22352,1,0,0:0:0:0:
138,303,22519,1,8,0:0:0:0:
138,303,22602,1,8,0:0:0:0:
137,322,22686,1,0,0:0:0:0:
121,298,22852,1,8,0:0:0:0:
95,300,23019,1,8,0:0:0:0:
105,318,23186,1,0,0:0:0:0:
121,335,23269,1,0,0:0:0:0:
111,303,23352,1,8,0:0:0:0:
153,308,23519,1,0,0:0:0:0:
110,306,23852,1,8,0:0:0:0:
110,306,23936,1,8,0:0:0:0:
112,319,24019,1,0,0:0:0:0:
140,286,24186,1,8,0:0:0:0:
144,312,24352,1,0,0:0:0:0:
146,322,24519,1,8,0:0:0:0:
131,324,24602,1,0,0:0:0:0:
150,301,24686,1,8,0:0:0:0:
146,329,24852,1,0,0:0:0:0:
153,304,25019,1,8,0:0:0:0:
117,301,25186,1,8,0:0:0:0:
111,309,25269,1,8,0:0:0:0:
112,326,25352,1,0,0:0:0:0:
110,302,25519,1,8,0:0:0:0:
117,311,25686,1,8,0:0:0:0:
117,311,25769,1,8,0:0:0:0:
117,319,25852,1,0,0:0:0:0:
117,319,25936,1,0,0:0:0:0:
119,305,26019,1,8,0:0:0:0:
143,42,26352,1,12,0:0:0:0:
160,301,26519,1,8,0:0:0:0:
160,301,26602,1,8,0:0:0:0:
162,319,26686,1,0,0:0:0:0:
150,303,26852,1,8,0:0:0:0:
138,319,27019,1,0,0:0:0:0:
140,318,27186,1,0,0:0:0:0:
148,304,27352,1,8,0:0:0:0:
119,307,27519,1,0,0:0:0:0:
121,314,27686,1,8,0:0:0:0:
131,292,27852,1,8,0:0:0:0:
132,298,27936,1,8,0:0:0:0:
133,294,28019,1,0,0:0:0:0:
162,298,28186,1,8,0:0:0:0:
143,316,28519,1,0,0:0:0:0:
149,300,28686,1,8,0:0:0:0:
145,298,28852,1,8,0:0:0:0:
135,313,29019,1,0,0:0:0:0:
133,300,29186,1,8,0:0:0:0:
133,300,29269,1,8,0:0:0:0:
131,319,29352,1,0,0:0:0:0:
119,301,29519,1,8,0:0:0:0:
138,308,29686,1,0,0:0:0:0:
148,301,29852,1,0,0:0:0:0:
146,290,30019,1,8,0:0:0:0:
148,303,30186,1,0,0:0:0:0:
150,289,30352,1,8,0:0:0:0:
146,290,30519,1,8,0:0:0:0:
156,294,30602,1,8,0:0:0:0:
148,311,30686,1,0,0:0:0:0:
138,296,30852,1,0,0:0:0:0:
146,290,31019,1,8,0:0:0:0:
134,285,31102,1,8,0:0:0:0:
141,299,31186,1,0,0:0:0:0:
142,299,31269,1,0,0:0:0:0:
144,286,31352,1,8,0:0:0:0:
141,22,31686,1,12,0:0:0:0:
166,289,31852,1,8,0:0:0:0:
166,289,31936,1,8,0:0:0:0:
166,307,32019,1,0,0:0:0:0:
180,287,32186,1,8,0:0:0:0:
179,298,32352,1,0,0:0:0:0:
167,298,32436,1,0,0:0:0:0:
186,281,32519,1,8,0:0:0:0:
192,279,32686,1,8,0:0:0:0:
185,300,32852,1,0,0:0:0:0:
150,302,33019,1,0,0:0:0:0:
122,281,33186,1,8,0:0:0:0:
122,281,33269,1,8,0:0:0:0:
124,303,33352,1,0,0:0:0:0:
140,282,33519,1,8,0:0:0:0:
140,289,33686,1,0,0:0:0:0:
140,290,33852,1,0,0:0:0:0:
144,282,34019,1,8,0:0:0:0:
151,278,34352,1,8,0:0:0:0:
150,278,34519,1,8,0:0:0:0:
150,278,34602,1,8,0:0:0:0:
148,293,34685,1,0,0:0:0:0:
155,279,34852,1,0,0:0:0:0:
154,273,35019,1,8,0:0:0:0:
137,257,35185,1,8,0:0:0:0:
141,276,35269,1,0,0:0:0:0:
139,260,35352,1,8,0:0:0:0:
142,268,35519,1,8,0:0:0:0:
144,287,35685,1,0,0:0:0:0:
141,282,35852,1,8,0:0:0:0:
141,283,35935,1,8,0:0:0:0:
137,270,36019,1,0,0:0:0:0:
154,289,36185,1,0,0:0:0:0:
160,276,36352,1,0,0:0:0:0:
160,276,36435,1,0,0:0:0:0:
159,286,36519,1,8,0:0:0:0:
162,258,36602,1,8,0:0:0:0:
157,43,36685,1,4,0:0:0:0:
216,107,37019,1,12,0:0:0:0:
199,257,37185,1,8,0:0:0:0:
199,257,37352,1,0,0:0:0:0:
199,257,37519,1,8,0:0:0:0:
199,257,37685,1,0,0:0:0:0:
181,264,38019,1,0,0:0:0:0:
194,266,38352,1,8,0:0:0:0:
194,266,38519,1,8,0:0:0:0:
179,281,38685,1,0,0:0:0:0:
181,264,38852,1,8,0:0:0:0:
180,278,39019,1,0,0:0:0:0:
180,278,39352,1,0,0:0:0:0:
188,284,39685,1,8,0:0:0:0:
188,284,39852,1,8,0:0:0:0:
181,285,40019,1,0,0:0:0:0:
186,267,40185,1,8,0:0:0:0:
181,290,40352,1,0,0:0:0:0:
181,290,40685,1,0,0:0:0:0:
182,267,41019,1,8,0:0:0:0:
186,267,41185,1,8,0:0:0:0:
181,273,41352,1,0,0:0:0:0:
182,261,41519,1,8,0:0:0:0:
182,261,41685,1,8,0:0:0:0:
182,277,42019,1,0,0:0:0:0:
142,45,42352,1,12,0:0:0:0:
197,298,42519,1,0,0:0:0:0:
197,298,42602,1,0,0:0:0:0:
201,291,42685,1,8,0:0:0:0:
201,291,42769,1,8,0:0:0:0:
203,304,42852,1,0,0:0:0:0:
211,301,43019,1,0,0:0:0:0:
179,304,43352,1,0,0:0:0:0:
128,279,43685,1,8,0:0:0:0:
128,279,43852,1,8,0:0:0:0:
133,308,44019,1,0,0:0:0:0:
137,288,44185,1,8,0:0:0:0:
133,308,44352,1,0,0:0:0:0:
133,308,44685,1,0,0:0:0:0:
139,291,45019,1,8,0:0:0:0:
139,298,45185,1,8,0:0:0:0:
141,309,45352,1,0,0:0:0:0:
144,295,45519,1,8,0:0:0:0:
142,316,45685,1,0,0:0:0:0:
142,316,46019,1,0,0:0:0:0:
144,292,46352,1,8,0:0:0:0:
144,295,46519,1,8,0:0:0:0:
148,314,46685,1,0,0:0:0:0:
134,288,46852,1,8,0:0:0:0:
135,288,47019,1,8,0:0:0:0:
153,296,47352,1,0,0:0:0:0:
140,44,47685,1,12,0:0:0:0:
131,297,47852,1,8,0:0:0:0:
141,296,47935,1,8,0:0:0:0:
138,309,48019,1,0,0:0:0:0:
141,287,48185,1,8,0:0:0:0:
142,287,48269,1,8,0:0:0:0:
140,298,48352,1,0,0:0:0:0:
134,301,48519,1,0,0:0:0:0:
145,283,48685,1,8,0:0:0:0:
136,302,48852,1,0,0:0:0:0:
138,272,49019,1,8,0:0:0:0:
100,266,49352,1,8,0:0:0:0:
104,287,49519,1,0,0:0:0:0:
110,267,49685,1,8,0:0:0:0:
108,256,50019,1,8,0:0:0:0:
127,254,50352,1,0,0:0:0:0:
136,253,50519,1,8,0:0:0:0:
136,253,50602,1,8,0:0:0:0:
137,280,50685,1,0,0:0:0:0:
144,260,50852,1,8,0:0:0:0:
144,260,50935,1,8,0:0:0:0:
143,279,51019,1,0,0:0:0:0:
157,265,51185,1,0,0:0:0:0:
166,245,51352,1,8,0:0:0:0:
155,279,51519,1,0,0:0:0:0:
129,258,51685,1,8,0:0:0:0:
164,270,51852,1,0,0:0:0:0:
164,257,51935,1,8,0:0:0:0:
151,260,52102,1,8,0:0:0:0:
140,270,52185,1,0,0:0:0:0:
146,273,52352,1,0,0:0:0:0:
160,258,52519,1,8,0:0:0:0:
165,256,52685,1,8,0:0:0:0:
156,268,52769,1,8,0:0:0:0:
139,47,53019,1,12,0:0:0:0:
201,278,53185,1,8,0:0:0:0:
201,278,53269,1,8,0:0:0:0:
205,293,53352,1,0,0:0:0:0:
214,277,53519,1,8,0:0:0:0:
216,278,53602,1,8,0:0:0:0:
206,299,53685,1,0,0:0:0:0:
204,300,53852,1,0,0:0:0:0:
206,282,54019,1,8,0:0:0:0:
201,303,54185,1,0,0:0:0:0:
200,279,54352,1,8,0:0:0:0:
150,273,54685,1,8,0:0:0:0:
152,293,54852,1,0,0:0:0:0:
163,274,55019,1,8,0:0:0:0:
172,269,55352,1,8,0:0:0:0:
172,290,55685,1,0,0:0:0:0:
174,277,55852,1,8,0:0:0:0:
176,278,55935,1,8,0:0:0:0:
171,295,56019,1,0,0:0:0:0:
131,275,56185,1,8,0:0:0:0:
131,275,56269,1,8,0:0:0:0:
131,299,56352,1,0,0:0:0:0:
112,310,56519,1,0,0:0:0:0:
125,283,56685,1,8,0:0:0:0:
121,310,56852,1,0,0:0:0:0:
131,281,57019,1,8,0:0:0:0:
131,275,57185,1,8,0:0:0:0:
135,294,57352,1,0,0:0:0:0:
135,294,57519,1,0,0:0:0:0:
136,281,57685,1,8,0:0:0:0:
139,51,58019,1,12,0:0:0:0:
175,71,58352,1,12,0:0:0:0:
146,300,58519,1,8,0:0:0:0:
146,300,58602,1,8,0:0:0:0:
144,313,58685,1,0,0:0:0:0:
146,300,58852,1,8,0:0:0:0:
146,300,58935,1,8,0:0:0:0:
141,320,59019,1,0,0:0:0:0:
136,320,59185,1,0,0:0:0:0:
125,308,59352,1,8,0:0:0:0:
123,323,59519,1,0,0:0:0:0:
128,311,59685,1,8,0:0:0:0:
122,305,60019,1,8,0:0:0:0:
125,322,60185,1,0,0:0:0:0:
125,308,60352,1,8,0:0:0:0:
121,302,60685,1,8,0:0:0:0:
119,320,60852,1,0,0:0:0:0:
129,301,61019,1,0,0:0:0:0:
134,289,61185,1,8,0:0:0:0:
134,289,61269,1,8,0:0:0:0:
128,308,61352,1,0,0:0:0:0:
131,285,61519,1,8,0:0:0:0:
131,285,61602,1,8,0:0:0:0:
127,306,61685,1,0,0:0:0:0:
127,306,61852,1,0,0:0:0:0:
130,286,62019,1,8,0:0:0:0:
117,290,62185,1,0,0:0:0:0:
122,262,62352,1,8,0:0:0:0:
110,263,62519,1,8,0:0:0:0:
111,270,62602,1,0,0:0:0:0:
106,284,62769,1,0,0:0:0:0:
115,264,62852,1,8,0:0:0:0:
111,284,63019,1,0,0:0:0:0:
112,266,63185,1,8,0:0:0:0:
109,266,63352,1,8,0:0:0:0:
110,263,63435,1,8,0:0:0:0:
134,46,63685,1,12,0:0:0:0:
175,285,63852,1,8,0:0:0:0:
175,285,63935,1,8,0:0:0:0:
182,305,64019,1,0,0:0:0:0:
183,293,64185,1,8,0:0:0:0:
183,293,64269,1,8,0:0:0:0:
188,315,64352,1,0,0:0:0:0:
179,320,64519,1,0,0:0:0:0:
187,288,64685,1,8,0:0:0:0:
176,327,64852,1,0,0:0:0:0:
174,298,65019,1,8,0:0:0:0:
146,294,65352,1,8,0:0:0:0:
151,311,65519,1,0,0:0:0:0:
161,292,65685,1,8,0:0:0:0:
161,292,66019,1,8,0:0:0:0:
154,308,66185,1,0,0:0:0:0:
159,302,66352,1,0,0:0:0:0:
167,286,66519,1,8,0:0:0:0:
167,286,66602,1,8,0:0:0:0:
164,309,66685,1,0,0:0:0:0:
172,288,66852,1,8,0:0:0:0:
173,288,66935,1,8,0:0:0:0:
166,309,67019,1,0,0:0:0:0:
162,310,67185,1,0,0:0:0:0:
160,286,67352,1,8,0:0:0:0:
142,313,67519,1,0,0:0:0:0:
130,294,67685,1,8,0:0:0:0:
102,290,67852,1,8,0:0:0:0:
115,316,68019,1,0,0:0:0:0:
115,316,68185,1,0,0:0:0:0:
118,305,68352,1,8,0:0:0:0:
140,294,68519,1,0,0:0:0:0:
146,51,68685,1,12,0:0:0:0:
146,51,69019,1,12,0:0:0:0:
132,281,69352,1,8,0:0:0:0:
139,287,69685,1,8,0:0:0:0:
115,271,70019,1,8,0:0:0:0:
124,294,70352,1,0,0:0:0:0:
126,283,70685,1,8,0:0:0:0:
116,276,71019,1,8,0:0:0:0:
109,287,71352,1,8,0:0:0:0:
107,290,71685,1,0,0:0:0:0:
111,278,72019,1,8,0:0:0:0:
107,265,72352,1,8,0:0:0:0:
82,262,72685,1,8,0:0:0:0:
89,286,73019,1,0,0:0:0:0:
111,258,73352,1,8,0:0:0:0:
111,258,73685,1,8,0:0:0:0:
152,280,74019,1,0,0:0:0:0:
152,280,74102,1,0,0:0:0:0:
152,280,74185,1,0,0:0:0:0:
119,42,74352,1,12,0:0:0:0:
129,288,74685,1,8,0:0:0:0:
129,288,75019,1,8,0:0:0:0:
129,288,75352,1,8,0:0:0:0:
115,294,75685,1,0,0:0:0:0:
121,285,76019,1,8,0:0:0:0:
121,285,76352,1,8,0:0:0:0:
121,285,76685,1,8,0:0:0:0:
116,299,77019,1,0,0:0:0:0:
121,285,77352,1,8,0:0:0:0:
121,285,77685,1,8,0:0:0:0:
121,287,78019,1,8,0:0:0:0:
121,292,78352,1,0,0:0:0:0:
127,268,78685,1,8,0:0:0:0:
126,267,79019,1,8,0:0:0:0:
131,280,79352,1,0,0:0:0:0:
136,285,79435,1,0,0:0:0:0:
136,286,79519,1,0,0:0:0:0:
256,192,79685,12,0,81352,0:0:0:0:
81,256,81602,6,0,L|354:225,1,245
