osu file format v14

[General]
AudioFilename: audio.mp3
AudioLeadIn: 0
PreviewTime: 19
Countdown: 0
SampleSet: Normal
StackLeniency: 0.7
Mode: 1
LetterboxInBreaks: 0
WidescreenStoryboard: 1

[Editor]
Bookmarks: 16068,26734,37401,48067,69401,81901
DistanceSpacing: 1.14
BeatDivisor: 4
GridSize: 4
TimelineZoom: 2.899999

[Metadata]
Title:ENDLESS QUEER
TitleUnicode:ENDLESS QUEER
Artist:Renard
ArtistUnicode:Renard
Creator:radar
Version:Kantan
Source:
Tags:english electronic LAPFOX TRAX FULL TECHNO JACKASS Breakcore Queenston David Remmler Truxton Negaren Hardcore rave
BeatmapID:2259649
BeatmapSetID:1080059

[Difficulty]
HPDrainRate:8
CircleSize:5
OverallDifficulty:3
ApproachRate:5
SliderMultiplier:1.4
SliderTickRate:1

[Events]
//Background and Video events
0,0,"wallhaven-d5l6xo.jpg",0,0
//Break Periods
//Storyboard Layer 0 (Background)
//Storyboard Layer 1 (Fail)
//Storyboard Layer 2 (Pass)
//Storyboard Layer 3 (Foreground)
//Storyboard Layer 4 (Overlay)
//Storyboard Sound Samples

[TimingPoints]
15686,333.333333333333,4,1,0,60,1,0
47685,-100,4,1,0,75,0,1
69019,-100,4,1,0,60,0,0

[HitObjects]
145,42,15686,5,12,0:0:0:0:
111,294,16019,1,8,0:0:0:0:
115,301,16352,1,0,0:0:0:0:
125,283,17019,1,0,0:0:0:0:
128,293,17352,1,0,0:0:0:0:
144,297,17686,1,8,0:0:0:0:
136,262,18352,1,0,0:0:0:0:
136,290,18686,1,8,0:0:0:0:
119,270,19019,1,8,0:0:0:0:
116,273,19352,1,0,0:0:0:0:
129,276,19686,1,0,0:0:0:0:
152,282,20352,1,8,0:0:0:0:
143,269,20686,1,8,0:0:0:0:
126,50,21019,1,12,0:0:0:0:
129,312,22019,1,8,0:0:0:0:
137,315,22352,1,0,0:0:0:0:
137,322,22686,1,8,0:0:0:0:
95,300,23019,1,8,0:0:0:0:
118,315,23686,1,0,0:0:0:0:
144,312,24352,1,0,0:0:0:0:
150,301,24686,1,8,0:0:0:0:
153,304,25019,1,0,0:0:0:0:
112,326,25352,1,0,0:0:0:0:
117,311,25686,1,8,0:0:0:0:
151,308,26019,1,8,0:0:0:0:
143,42,26352,1,12,0:0:0:0:
148,304,27352,1,8,0:0:0:0:
121,314,27686,1,0,0:0:0:0:
133,294,28019,1,8,0:0:0:0:
162,298,28352,1,0,0:0:0:0:
135,313,29019,1,0,0:0:0:0:
146,289,29352,1,8,0:0:0:0:
138,308,29686,1,0,0:0:0:0:
150,289,30352,1,0,0:0:0:0:
148,311,30686,1,0,0:0:0:0:
146,290,31019,1,8,0:0:0:0:
168,288,31352,1,8,0:0:0:0:
141,22,31686,1,12,0:0:0:0:
192,279,32686,1,8,0:0:0:0:
150,302,33019,1,0,0:0:0:0:
124,303,33352,1,8,0:0:0:0:
140,289,33686,1,8,0:0:0:0:
151,278,34352,1,0,0:0:0:0:
148,293,34685,1,8,0:0:0:0:
154,273,35019,1,0,0:0:0:0:
139,260,35352,1,8,0:0:0:0:
144,287,35685,1,0,0:0:0:0:
160,276,36352,1,8,0:0:0:0:
157,43,36685,1,12,0:0:0:0:
216,107,37019,1,12,0:0:0:0:
191,291,38019,1,0,0:0:0:0:
194,266,38352,1,8,0:0:0:0:
180,278,39352,1,0,0:0:0:0:
188,284,39685,1,8,0:0:0:0:
183,288,40352,1,8,0:0:0:0:
182,267,41019,1,8,0:0:0:0:
182,261,41685,1,8,0:0:0:0:
142,45,42352,1,12,0:0:0:0:
201,291,42685,1,8,0:0:0:0:
211,301,43019,1,0,0:0:0:0:
128,279,43685,1,8,0:0:0:0:
142,306,44685,1,0,0:0:0:0:
139,291,45019,1,8,0:0:0:0:
111,290,46019,1,0,0:0:0:0:
144,292,46352,1,8,0:0:0:0:
135,288,47019,1,8,0:0:0:0:
140,44,47685,1,12,0:0:0:0:
138,309,48019,1,8,0:0:0:0:
140,298,48352,1,0,0:0:0:0:
145,283,48685,1,8,0:0:0:0:
138,272,49019,1,0,0:0:0:0:
110,267,50019,1,0,0:0:0:0:
127,254,50352,1,0,0:0:0:0:
137,280,50685,1,8,0:0:0:0:
144,260,51019,1,8,0:0:0:0:
166,245,51352,1,0,0:0:0:0:
129,258,51685,1,8,0:0:0:0:
175,283,52185,1,0,0:0:0:0:
140,302,52685,1,8,0:0:0:0:
139,47,53019,1,12,0:0:0:0:
205,293,53352,1,8,0:0:0:0:
206,299,53685,1,0,0:0:0:0:
206,282,54019,1,8,0:0:0:0:
200,279,54352,1,0,0:0:0:0:
163,274,55352,1,0,0:0:0:0:
172,290,55685,1,0,0:0:0:0:
171,295,56019,1,8,0:0:0:0:
131,275,56352,1,8,0:0:0:0:
125,283,56685,1,0,0:0:0:0:
131,281,57019,1,8,0:0:0:0:
139,51,58019,1,12,0:0:0:0:
175,71,58352,1,12,0:0:0:0:
144,313,58685,1,8,0:0:0:0:
146,300,59019,1,0,0:0:0:0:
125,308,59352,1,0,0:0:0:0:
128,311,59685,1,8,0:0:0:0:
121,302,60685,1,0,0:0:0:0:
129,301,61019,1,0,0:0:0:0:
128,308,61352,1,8,0:0:0:0:
131,285,61685,1,8,0:0:0:0:
130,286,62019,1,0,0:0:0:0:
122,262,62352,1,8,0:0:0:0:
122,262,62852,1,0,0:0:0:0:
109,266,63352,1,8,0:0:0:0:
134,46,63685,1,12,0:0:0:0:
182,305,64019,1,8,0:0:0:0:
183,293,64352,1,0,0:0:0:0:
187,288,64685,1,8,0:0:0:0:
174,298,65019,1,0,0:0:0:0:
161,292,66019,1,8,0:0:0:0:
159,302,66352,1,0,0:0:0:0:
164,309,66685,1,8,0:0:0:0:
172,288,67019,1,8,0:0:0:0:
160,286,67352,1,0,0:0:0:0:
130,294,67685,1,8,0:0:0:0:
146,51,68685,1,12,0:0:0:0:
146,51,69019,1,12,0:0:0:0:
139,287,69685,1,8,0:0:0:0:
124,294,70352,1,0,0:0:0:0:
116,276,71019,1,8,0:0:0:0:
107,290,71685,1,0,0:0:0:0:
107,265,72352,1,8,0:0:0:0:
89,286,73019,1,0,0:0:0:0:
143,246,74019,1,0,0:0:0:0:
149,48,74352,1,12,0:0:0:0:
129,288,75019,1,8,0:0:0:0:
115,294,75685,1,0,0:0:0:0:
121,285,76352,1,8,0:0:0:0:
116,299,77019,1,0,0:0:0:0:
121,285,77685,1,8,0:0:0:0:
121,292,78352,1,0,0:0:0:0:
131,280,79352,1,0,0:0:0:0:
256,192,79685,12,0,81352,0:0:0:0:
81,256,81602,6,0,L|354:225,1,245
