osu file format v14

[General]
AudioFilename: Renard - FULL TECHNO JACKASS - 29 EXTREME FUCKING SOCA PARTY.mp3
AudioLeadIn: 0
PreviewTime: 15067
Countdown: 0
SampleSet: Soft
StackLeniency: 0.3
Mode: 0
LetterboxInBreaks: 0
WidescreenStoryboard: 1

[Editor]
Bookmarks: 12696,15053,29196,36053,38410,42910
DistanceSpacing: 1.5
BeatDivisor: 4
GridSize: 4
TimelineZoom: 1.5

[Metadata]
Title:EXTREME FUCKING SOCA PARTY
TitleUnicode:EXTREME FUCKING SOCA PARTY
Artist:Renard
ArtistUnicode:Renard
Creator:Snaggletooth
Version:Normal
Source:
Tags:Stefan Bonsai Lapfox Trax FULL TECHNO JACKASS Breakcore Breakbeat Gabber Hardcore Blue Dragon
BeatmapID:793938
BeatmapSetID:361356

[Difficulty]
HPDrainRate:4.5
CircleSize:3.5
OverallDifficulty:4
ApproachRate:5.5
SliderMultiplier:1
SliderTickRate:1

[Events]
//Background and Video events
0,0,"6833494-crazy-wallpaper.jpg",0,0
//Break Periods
//Storyboard Layer 0 (Background)
//Storyboard Layer 1 (Fail)
//Storyboard Layer 2 (Pass)
//Storyboard Layer 3 (Foreground)
//Storyboard Sound Samples

[TimingPoints]
1782,428.571428571429,4,2,0,30,1,0
15496,-100,4,1,0,70,0,0

[Colours]
Combo1 : 254,71,117
Combo2 : 255,72,72
Combo3 : 255,163,94
Combo4 : 255,255,128
Combo5 : 171,255,79
Combo6 : 70,190,255
Combo7 : 158,89,251
Combo8 : 251,115,237

[HitObjects]
332,84,1782,6,0,P|360:112|360:192,1,100
228,228,2639,2,0,P|200:200|200:120,1,100,2|2,0:0|0:0,0:0:0:0:
328,220,3496,6,0,L|316:324,1,100
168,336,4353,2,0,B|124:308|124:308|104:248,1,100,2|2,0:0|0:0,0:0:0:0:
60,120,5210,5,0,0:0:0:0:
180,32,5639,1,0,0:0:0:0:
300,120,6067,2,0,P|352:136|400:124,1,100,2|2,0:0|0:0,0:0:0:0:
484,248,6924,5,0,0:0:0:0:
376,356,7353,1,0,0:0:0:0:
320,216,7782,2,0,L|304:152,1,50,2|0,0:0|0:0,0:0:0:0:
232,164,8210,2,0,L|212:216,1,50,2|0,0:0|0:0,0:0:0:0:
184,284,8639,6,0,P|144:292|88:256,1,100,4|0,0:0|0:0,0:0:0:0:
56,200,9282,1,2,0:0:0:0:
104,144,9496,2,0,P|116:88|80:36,1,100
204,156,10353,6,0,B|256:164|256:164|312:152,1,100
368,116,10996,1,2,0:0:0:0:
428,160,11210,2,0,P|448:188|432:260,1,100
316,336,12067,6,0,L|208:324,1,100
152,288,12710,1,2,0:0:0:0:
88,328,12924,2,0,P|76:296|104:228,1,100
164,104,13782,6,0,L|112:80,1,50,0|2,0:0|0:0,0:0:0:0:
56,124,14210,2,0,L|16:80,2,50,0|2|0,0:0|0:0|0:0,0:0:0:0:
116,168,14853,5,2,0:0:0:0:
68,224,15067,1,0,0:0:0:0:
164,340,15496,6,2,L|252:328,1,75,6|2,0:0|0:0,0:0:0:0:
324,256,16139,1,8,0:0:0:0:
384,300,16353,2,2,P|416:308|464:292,1,75
504,196,16996,1,8,0:0:0:0:
448,144,17210,6,0,L|356:152,2,75,2|2|8,0:0|0:0|0:0,0:0:0:0:
444,68,18067,2,2,L|348:76,1,75
272,132,18710,1,10,0:0:0:0:
200,108,18924,6,0,P|168:92|120:96,2,75,6|2|8,0:0|0:0|0:0,0:0:0:0:
272,132,19782,2,0,P|272:88|248:48,2,75,2|2|8,0:0|0:0|0:0,0:0:0:0:
316,196,20639,6,2,L|284:272,1,75
340,364,21282,1,8,0:0:0:0:
408,336,21496,2,2,P|424:308|416:252,1,75
388,160,22139,1,10,0:0:0:0:
332,112,22353,6,0,B|324:72|324:72|332:36,2,75,6|2|8,0:0|0:0|0:0,0:0:0:0:
388,160,23210,2,0,L|372:248,1,75,2|2,0:0|0:0,0:0:0:0:
304,320,23853,1,8,0:0:0:0:
240,284,24067,6,0,P|212:272|160:280,2,75,2|2|8,0:0|0:0|0:0,0:0:0:0:
304,244,24924,2,2,L|296:168,1,75
340,64,25567,1,10,0:0:0:0:
268,40,25782,6,2,P|232:32|184:52,1,75,6|2,0:0|0:0,0:0:0:0:
120,124,26424,1,8,0:0:0:0:
164,184,26639,2,0,B|172:224|172:224|164:268,2,75,2|2|8,0:0|0:0|0:0,0:0:0:0:
96,224,27496,6,2,B|88:268|88:268|108:312,1,75
200,344,28139,1,8,0:0:0:0:
256,292,28353,2,2,L|344:300,1,75
424,232,28996,1,10,0:0:0:0:
372,180,29210,6,0,P|352:136|356:96,2,75,6|2|8,0:0|0:0|0:0,0:0:0:0:
424,232,30067,2,2,L|416:312,1,75
228,320,30924,6,0,P|172:284|128:296,1,100,6|2,0:0|0:0,0:0:0:0:
72,320,31567,1,10,0:0:0:0:
32,256,31782,2,2,P|32:220|72:176,2,75,2|2|10,0:0|0:0|0:0,0:0:0:0:
72,320,32639,6,2,P|112:336|156:324,1,75,6|2,0:0|0:0,0:0:0:0:
244,280,33282,1,8,0:0:0:0:
304,324,33496,2,2,L|376:316,1,50,2|0,0:0|0:0,0:0:0:0:
424,288,33924,2,0,L|480:308,2,50,0|8|6,0:0|0:0|0:0,0:0:0:0:
308,192,34782,6,2,L|316:136,1,50,2|10,0:0|0:0,0:0:0:0:
260,92,35210,2,2,P|228:84|168:104,2,75,2|2|10,0:0|0:0|0:0,0:0:0:0:
332,64,36067,6,2,L|412:76,1,75
480,160,36710,1,8,0:0:0:0:
428,216,36924,2,2,P|408:256|424:304,1,75
236,348,37782,6,2,P|200:344|156:288,1,100,6|2,0:0|0:0,0:0:0:0:
124,232,38424,1,10,0:0:0:0:
168,172,38639,2,2,L|164:96,2,75,2|2|10,0:0|0:0|0:0,0:0:0:0:
220,224,39496,6,2,P|260:244|292:240,1,75,6|2,0:0|0:0,0:0:0:0:
396,204,40139,1,8,0:0:0:0:
432,140,40353,2,2,L|424:76,1,50,2|10,0:0|0:0,0:0:0:0:
356,64,40782,2,0,L|372:0,2,50,0|10|6,0:0|0:0|0:0,0:0:0:0:
232,148,41639,6,2,L|160:136,1,50,2|10,0:0|0:0,0:0:0:0:
112,168,42067,2,2,P|88:208|92:252,1,75
108,348,42710,5,10,0:0:0:0:
