osu file format v14

[General]
AudioFilename: Renard - FULL TECHNO JACKASS - 29 EXTREME FUCKING SOCA PARTY.mp3
AudioLeadIn: 0
PreviewTime: 15067
Countdown: 0
SampleSet: Normal
StackLeniency: 0.2
Mode: 0
LetterboxInBreaks: 0
WidescreenStoryboard: 0

[Editor]
Bookmarks: 8625,12696,15053,29196,36053,38410,42910
DistanceSpacing: 1.4
BeatDivisor: 4
GridSize: 4
TimelineZoom: 1.2

[Metadata]
Title:EXTREME FUCKING SOCA PARTY
TitleUnicode:EXTREME FUCKING SOCA PARTY
Artist:Renard
ArtistUnicode:Renard
Creator:Snaggletooth
Version:Insane
Source:
Tags:Stefan Bonsai Lapfox Trax FULL TECHNO JACKASS Breakcore Breakbeat Gabber Hardcore Blue Dragon
BeatmapID:793937
BeatmapSetID:361356

[Difficulty]
HPDrainRate:7
CircleSize:4
OverallDifficulty:7.5
ApproachRate:9
SliderMultiplier:1.3
SliderTickRate:1

[Events]
//Background and Video events
0,0,"6833494-crazy-wallpaper.jpg",0,0
//Break Periods
//Storyboard Layer 0 (Background)
//Storyboard Layer 1 (Fail)
//Storyboard Layer 2 (Pass)
//Storyboard Layer 3 (Foreground)
//Storyboard Sound Samples

[TimingPoints]
1782,428.571428571429,4,2,1,30,1,0
15496,-57.1428571428571,4,1,0,70,0,0

[Colours]
Combo1 : 254,71,117
Combo2 : 255,72,72
Combo3 : 255,163,94
Combo4 : 255,255,128
Combo5 : 171,255,79
Combo6 : 70,190,255
Combo7 : 158,89,251
Combo8 : 251,115,237

[HitObjects]
176,72,1782,5,0,0:0:0:0:
224,152,1996,2,0,L|212:224,1,65
300,304,2424,1,0,0:0:0:0:
368,244,2639,2,0,P|408:240|436:252,1,65,2|0,0:0|0:0,0:0:0:0:
324,376,3067,2,0,P|284:380|256:368,1,65,2|0,0:0|0:0,0:0:0:0:
208,304,3496,5,0,0:0:0:0:
136,208,3710,2,0,L|144:140,1,65
88,68,4139,1,0,0:0:0:0:
32,184,4353,2,0,P|28:216|40:252,1,65,2|0,0:0|0:0,0:0:0:0:
128,360,4782,2,0,P|132:328|120:292,1,65,2|0,0:0|0:0,0:0:0:0:
52,336,5210,5,0,0:0:0:0:
188,260,5424,2,0,L|260:264,1,65
328,208,5853,1,0,0:0:0:0:
432,280,6067,2,0,P|440:312|424:352,1,65,2|0,0:0|0:0,0:0:0:0:
328,208,6496,2,0,P|320:176|336:136,1,65,2|0,0:0|0:0,0:0:0:0:
496,144,6924,5,0,0:0:0:0:
435,215,7139,2,0,L|431:295,1,65
260,328,7567,2,0,L|264:248,1,65
204,200,7996,5,0,0:0:0:0:
376,336,8210,1,0,0:0:0:0:
416,120,8424,1,0,0:0:0:0:
336,228,8639,5,4,0:0:0:0:
336,228,8746,1,0,0:0:0:0:
336,228,8853,1,2,0:0:0:0:
248,128,9067,1,0,0:0:0:0:
248,128,9174,1,0,0:0:0:0:
248,128,9282,2,0,B|216:116|216:116|176:120,1,65,2|0,0:0|0:0,0:0:0:0:
104,176,9710,1,2,0:0:0:0:
168,264,9924,2,0,P|200:268|240:256,1,65,0|2,0:0|0:0,0:0:0:0:
36,320,10353,5,0,0:0:0:0:
36,320,10460,1,0,0:0:0:0:
36,320,10567,1,2,0:0:0:0:
168,264,10782,1,0,0:0:0:0:
168,264,10889,1,0,0:0:0:0:
168,264,10996,2,0,P|208:252|244:264,1,65,2|0,0:0|0:0,0:0:0:0:
312,304,11424,1,2,0:0:0:0:
388,196,11639,1,0,0:0:0:0:
280,116,11853,1,2,0:0:0:0:
412,292,12067,5,0,0:0:0:0:
412,292,12174,1,0,0:0:0:0:
412,292,12282,1,2,0:0:0:0:
492,112,12496,1,0,0:0:0:0:
492,112,12603,1,0,0:0:0:0:
492,112,12710,2,0,L|412:120,1,65,2|0,0:0|0:0,0:0:0:0:
352,184,13139,1,2,0:0:0:0:
280,116,13353,1,0,0:0:0:0:
244,304,13567,1,2,0:0:0:0:
184,232,13782,5,0,0:0:0:0:
184,232,13889,1,0,0:0:0:0:
184,232,13996,2,0,P|144:240|112:232,1,65,2|0,0:0|0:0,0:0:0:0:
0,140,14424,2,0,P|40:132|72:140,1,65,2|0,0:0|0:0,0:0:0:0:
152,100,14853,5,2,0:0:0:0:
72,312,15067,2,0,B|40:316|40:316|7:310,1,65,4|0,0:0|0:0,0:0:0:0:
152,100,15496,6,2,P|216:84|272:116,1,113.750001084805,6|0,0:0|0:0,0:0:0:0:
260,244,15817,2,2,P|196:260|140:228,1,113.750001084805,2|0,0:0|0:0,0:0:0:0:
360,171,16139,2,8,L|424:187,1,56.8750005424023,8|0,0:0|0:0,0:0:0:0:
428,344,16353,6,2,L|304:348,1,113.750001084805,2|0,0:0|0:0,0:0:0:0:
184,188,16674,2,2,P|248:152|308:168,1,113.750001084805,2|0,0:0|0:0,0:0:0:0:
160,272,16996,2,0,L|92:280,1,56.8750005424023,8|0,0:0|0:0,0:0:0:0:
160,80,17210,6,0,L|276:84,1,113.750001084805,2|0,0:0|0:0,0:0:0:0:
269,293,17532,2,2,B|209:293|209:293|153:269,1,113.750001084805,2|0,0:0|0:0,0:0:0:0:
344,248,17853,2,0,L|396:280,1,56.8750005424023,8|0,0:0|0:0,0:0:0:0:
284,160,18067,6,0,P|272:88|356:32,1,170.625001627207,2|2,0:0|0:0,0:0:0:0:
420,24,18496,1,0,0:0:0:0:
484,72,18603,1,0,0:0:0:0:
492,152,18710,1,10,0:0:0:0:
448,220,18817,1,8,0:0:0:0:
376,248,18924,6,2,P|304:248|256:212,1,113.750001084805,6|0,0:0|0:0,0:0:0:0:
124,44,19246,2,2,P|196:44|244:80,1,113.750001084805,6|0,0:0|0:0,0:0:0:0:
100,256,19567,2,0,L|40:244,1,56.8750005424023,8|0,0:0|0:0,0:0:0:0:
192,216,19782,6,2,P|204:276|155:346,1,113.750001084805,2|0,0:0|0:0,0:0:0:0:
124,152,20103,2,2,B|180:132|180:132|252:140,1,113.750001084805,2|0,0:0|0:0,0:0:0:0:
100,256,20424,2,0,L|40:244,1,56.8750005424023,8|0,0:0|0:0,0:0:0:0:
196,64,20639,6,2,L|336:80,1,113.750001084805,2|0,0:0|0:0,0:0:0:0:
404,240,20960,2,2,P|384:292|316:324,1,113.750001084805,2|0,0:0|0:0,0:0:0:0:
360,168,21282,2,0,L|424:152,1,56.8750005424023,8|0,0:0|0:0,0:0:0:0:
320,240,21496,5,2,0:0:0:0:
98,171,21710,2,0,L|162:155,1,56.8750005424023
52,244,21924,1,0,0:0:0:0:
20,172,22032,1,0,0:0:0:0:
52,100,22139,1,10,0:0:0:0:
128,76,22246,1,8,0:0:0:0:
204,104,22353,6,2,P|252:128|336:104,1,113.750001084805,6|0,0:0|0:0,0:0:0:0:
504,56,22674,2,2,P|456:32|372:56,1,113.750001084805,2|0,0:0|0:0,0:0:0:0:
404,240,22996,2,8,L|460:228,1,56.8750005424023
310,121,23210,6,2,P|246:109|186:141,1,113.750001084805,2|0,0:0|0:0,0:0:0:0:
403,351,23532,2,2,B|415:291|415:291|403:235,1,113.750001084805,2|0,0:0|0:0,0:0:0:0:
200,296,23853,2,8,L|208:352,1,56.8750005424023
306,229,24067,6,2,P|322:157|302:109,1,113.750001084805,2|0,0:0|0:0,0:0:0:0:
96,56,24389,2,2,L|104:176,1,113.750001084805,2|0,0:0|0:0,0:0:0:0:
236,80,24710,2,8,L|232:20,1,56.8750005424023
212,159,24924,6,0,P|269:157|316:48,1,170.625001627207,2|2,0:0|0:0,0:0:0:0:
392,32,25353,1,0,0:0:0:0:
400,112,25460,1,0,0:0:0:0:
368,184,25567,1,10,0:0:0:0:
306,229,25674,1,8,0:0:0:0:
228,240,25782,6,2,L|112:224,1,113.750001084805,2|0,0:0|0:0,0:0:0:0:
44,360,26103,2,2,B|104:368|104:368|164:344,1,113.750001084805,2|0,0:0|0:0,0:0:0:0:
48,176,26424,2,8,P|32:204|36:248,1,56.8750005424023
295,336,26639,6,2,P|315:264|299:216,1,113.750001084805,2|0,0:0|0:0,0:0:0:0:
148,44,26960,2,2,B|128:96|128:96|136:168,1,113.750001084805,2|0,0:0|0:0,0:0:0:0:
336,144,27282,2,8,L|320:80,1,56.8750005424023
305,228,27496,6,2,P|368:228|408:192,1,113.750001084805,2|0,0:0|0:0,0:0:0:0:
360,12,27817,2,2,L|248:28,1,113.750001084805,2|0,0:0|0:0,0:0:0:0:
172,140,28139,2,8,L|108:128,1,56.8750005424023
44,244,28353,6,0,P|40:296|132:368,1,170.625001627207,2|2,0:0|0:0,0:0:0:0:
200,352,28782,1,0,0:0:0:0:
280,360,28889,1,0,0:0:0:0:
360,348,28996,2,0,L|420:352,1,56.8750005424023,10|0,0:0|0:0,0:0:0:0:
472,288,29210,6,2,P|484:216|456:164,1,113.750001084805,6|8,0:0|0:0,0:0:0:0:
288,112,29532,2,2,B|276:168|276:168|288:248,1,113.750001084805,2|0,0:0|0:0,0:0:0:0:
360,268,29853,1,8,0:0:0:0:
360,268,29960,1,8,0:0:0:0:
400,200,30067,6,2,L|388:76,1,113.750001084805,2|8,0:0|0:0,0:0:0:0:
148,136,30389,2,2,P|136:200|180:264,1,113.750001084805,2|0,0:0|0:0,0:0:0:0:
294,168,30710,2,8,L|286:100,1,56.8750005424023
124,48,30924,6,2,B|72:44|72:44|0:68,1,113.750001084805,2|8,0:0|0:0,0:0:0:0:
12,152,31246,1,0,0:0:0:0:
16,156,31353,2,0,L|32:220,1,56.8750005424023,2|0,0:0|0:0,0:0:0:0:
132,344,31567,2,0,L|116:280,1,56.8750005424023,8|0,0:0|0:0,0:0:0:0:
294,168,31782,6,2,P|310:224|278:296,1,113.750001084805,2|8,0:0|0:0,0:0:0:0:
194,134,32103,2,2,P|226:86|295:69,1,113.750001084805,2|0,0:0|0:0,0:0:0:0:
206,228,32424,2,8,P|166:228|138:212,1,56.8750005424023,10|8,0:0|0:0,0:0:0:0:
352,96,32639,6,2,P|384:148|368:220,1,113.750001084805,2|8,0:0|0:0,0:0:0:0:
194,134,32960,2,2,B|186:82|186:82|206:18,1,113.750001084805,2|0,0:0|0:0,0:0:0:0:
360,39,33282,2,8,L|352:95,1,56.8750005424023
206,228,33496,6,0,P|180:300|248:368,1,170.625001627207,2|0,0:0|0:0,0:0:0:0:
316,360,33924,1,10,0:0:0:0:
356,292,34032,1,0,0:0:0:0:
324,220,34139,2,0,P|332:188|328:156,1,56.8750005424023,10|0,0:0|0:0,0:0:0:0:
188,31,34353,6,0,P|172:99|208:143,1,113.750001084805,2|8,0:0|0:0,0:0:0:0:
260,168,34674,1,0,0:0:0:0:
304,92,34782,2,0,L|296:28,1,56.8750005424023,2|0,0:0|0:0,0:0:0:0:
92,100,34996,2,0,L|100:164,1,56.8750005424023,8|0,0:0|0:0,0:0:0:0:
206,228,35210,5,2,0:0:0:0:
328,108,35424,1,0,0:0:0:0:
296,35,35532,1,2,0:0:0:0:
120,244,35746,1,0,0:0:0:0:
156,316,35853,2,0,L|152:376,1,56.8750005424023,10|0,0:0|0:0,0:0:0:0:
44,260,36067,6,2,P|56:196|108:168,1,113.750001084805,2|8,0:0|0:0,0:0:0:0:
280,188,36389,2,2,B|336:200|336:200|400:172,1,113.750001084805,2|0,0:0|0:0,0:0:0:0:
412,80,36710,1,8,0:0:0:0:
412,80,36817,1,8,0:0:0:0:
292,36,36924,6,2,P|224:24|164:56,1,113.750001084805,2|8,0:0|0:0,0:0:0:0:
168,200,37246,2,2,B|225:207|225:207|281:187,1,113.750001084805,2|0,0:0|0:0,0:0:0:0:
124,120,37567,2,8,L|60:136,1,56.8750005424023
128,320,37782,6,2,P|192:336|248:304,1,113.750001084805,2|8,0:0|0:0,0:0:0:0:
284,260,38103,1,0,0:0:0:0:
348,300,38210,2,0,L|360:360,1,56.8750005424023,2|0,0:0|0:0,0:0:0:0:
179,255,38424,2,0,L|167:195,1,56.8750005424023,8|0,0:0|0:0,0:0:0:0:
344,96,38639,6,2,P|368:156|336:224,1,113.750001084805,2|8,0:0|0:0,0:0:0:0:
264,72,38960,2,2,P|312:16|388:24,1,113.750001084805,2|0,0:0|0:0,0:0:0:0:
280,152,39282,2,8,P|240:152|212:132,1,56.8750005424023,10|0,0:0|0:0,0:0:0:0:
444,92,39496,6,2,B|460:148|460:148|448:204,1,113.750001084805,2|8,0:0|0:0,0:0:0:0:
257,254,39817,2,2,P|249:202|305:138,1,113.750001084805,2|0,0:0|0:0,0:0:0:0:
336,220,40139,1,8,0:0:0:0:
336,220,40246,1,8,0:0:0:0:
176,296,40353,6,0,P|104:316|32:244,1,170.625001627207,2|0,0:0|0:0,0:0:0:0:
68,184,40782,1,2,0:0:0:0:
24,116,40889,1,0,0:0:0:0:
76,56,40996,2,0,L|72:0,1,56.8750005424023,8|8,0:0|0:0,0:0:0:0:
120,236,41210,6,0,B|172:216|172:216|240:232,1,113.750001084805,2|8,0:0|0:0,0:0:0:0:
288,276,41532,1,0,0:0:0:0:
336,220,41639,2,0,L|352:144,1,56.8750005424023,2|0,0:0|0:0,0:0:0:0:
152,64,41853,2,0,L|136:140,1,56.8750005424023,8|0,0:0|0:0,0:0:0:0:
200,204,42067,5,2,0:0:0:0:
424,116,42282,1,0,0:0:0:0:
352,84,42389,1,2,0:0:0:0:
288,276,42603,1,0,0:0:0:0:
360,308,42710,1,10,0:0:0:0:
