osu file format v14

[General]
AudioFilename: Renard - FULL TECHNO JACKASS - 29 EXTREME FUCKING SOCA PARTY.mp3
AudioLeadIn: 0
PreviewTime: 15067
Countdown: 0
SampleSet: Soft
StackLeniency: 0.3
Mode: 0
LetterboxInBreaks: 0
WidescreenStoryboard: 0

[Editor]
Bookmarks: 12696,15053,29196,36053,38410,42910
DistanceSpacing: 1.5
BeatDivisor: 4
GridSize: 4
TimelineZoom: 1.5

[Metadata]
Title:EXTREME FUCKING SOCA PARTY
TitleUnicode:EXTREME FUCKING SOCA PARTY
Artist:Renard
ArtistUnicode:Renard
Creator:Snaggletooth
Version:Hard
Source:
Tags:Stefan Bonsai Lapfox Trax FULL TECHNO JACKASS Breakcore Breakbeat Gabber Hardcore Blue Dragon
BeatmapID:793936
BeatmapSetID:361356

[Difficulty]
HPDrainRate:6
CircleSize:4
OverallDifficulty:6
ApproachRate:7.5
SliderMultiplier:1.2
SliderTickRate:1

[Events]
//Background and Video events
0,0,"6833494-crazy-wallpaper.jpg",0,0
//Break Periods
//Storyboard Layer 0 (Background)
//Storyboard Layer 1 (Fail)
//Storyboard Layer 2 (Pass)
//Storyboard Layer 3 (Foreground)
//Storyboard Sound Samples

[TimingPoints]
1782,428.571428571429,4,2,0,30,1,0
15496,-57.1428571428571,4,1,0,70,0,0

[Colours]
Combo1 : 254,71,117
Combo2 : 255,72,72
Combo3 : 255,163,94
Combo4 : 255,255,128
Combo5 : 171,255,79
Combo6 : 70,190,255
Combo7 : 158,89,251
Combo8 : 251,115,237

[HitObjects]
336,92,1782,5,0,0:0:0:0:
380,156,1996,2,0,L|372:224,1,60
404,288,2424,1,0,0:0:0:0:
352,348,2639,2,0,P|312:352|268:336,1,60,2|0,0:0|0:0,0:0:0:0:
180,280,3067,2,0,P|220:276|264:292,1,60,2|0,0:0|0:0,0:0:0:0:
116,332,3496,5,0,0:0:0:0:
72,268,3710,2,0,L|84:200,1,60
52,136,4139,1,0,0:0:0:0:
104,80,4353,2,0,P|100:44|112:16,1,60,2|0,0:0|0:0,0:0:0:0:
160,144,4782,2,0,P|164:180|152:208,1,60,2|0,0:0|0:0,0:0:0:0:
224,84,5210,6,0,L|292:88,1,60
340,140,5639,2,0,L|408:124,1,60
476,112,6067,1,2,0:0:0:0:
512,232,6282,1,0,0:0:0:0:
452,184,6496,1,2,0:0:0:0:
488,304,6710,1,0,0:0:0:0:
424,260,6924,6,0,P|376:272|344:260,1,60
300,228,7353,1,0,0:0:0:0:
236,272,7567,1,0,0:0:0:0:
172,228,7782,1,0,0:0:0:0:
168,304,7996,5,0,0:0:0:0:
236,192,8210,1,0,0:0:0:0:
104,192,8424,1,0,0:0:0:0:
100,272,8639,6,0,L|64:280,2,30,0|0|2,0:0|0:0|0:0,0:0:0:0:
168,304,9067,2,0,L|204:296,2,30,0|0|2,0:0|0:0|0:0,0:0:0:0:
256,348,9496,2,0,P|280:352|332:344,1,60,0|2,0:0|0:0,0:0:0:0:
436,288,9924,2,0,P|412:284|360:292,1,60,0|2,0:0|0:0,0:0:0:0:
488,216,10353,6,0,L|480:180,2,30,0|0|2,0:0|0:0|0:0,0:0:0:0:
416,136,10782,2,0,L|428:92,2,30,0|0|2,0:0|0:0|0:0,0:0:0:0:
376,40,11210,2,0,L|296:36,1,60,0|2,0:0|0:0,0:0:0:0:
188,72,11639,2,0,L|268:76,1,60,0|2,0:0|0:0,0:0:0:0:
120,28,12067,6,0,L|68:36,2,30,0|0|2,0:0|0:0|0:0,0:0:0:0:
64,120,12496,2,0,L|116:112,2,30,0|0|2,0:0|0:0|0:0,0:0:0:0:
148,184,12924,2,0,P|148:216|128:248,1,60,0|2,0:0|0:0,0:0:0:0:
44,336,13353,2,0,P|44:304|64:272,1,60,0|2,0:0|0:0,0:0:0:0:
120,328,13782,5,0,0:0:0:0:
192,360,13996,1,2,0:0:0:0:
256,316,14210,2,0,L|328:324,1,60,0|2,0:0|0:0,0:0:0:0:
376,276,14639,1,0,0:0:0:0:
384,352,14853,5,0,0:0:0:0:
312,224,15067,2,0,L|332:152,1,60,4|0,0:0|0:0,0:0:0:0:
184,52,15496,6,2,P|172:104|224:164,1,105.000001001358,6|0,0:0|0:0,0:0:0:0:
216,164,15817,2,2,L|196:272,1,105.000001001358,2|0,0:0|0:0,0:0:0:0:
180,288,16139,1,8,0:0:0:0:
288,372,16353,6,0,P|352:376|416:304,2,157.500001502037,2|2|8,0:0|0:0|0:0,0:0:0:0:
356,224,17210,6,2,B|368:172|368:172|348:112,1,105.000001001358,2|0,0:0|0:0,0:0:0:0:
336,104,17532,2,2,P|284:92|232:108,1,105.000001001358,2|0,0:0|0:0,0:0:0:0:
216,120,17853,1,8,0:0:0:0:
88,48,18067,6,0,B|72:124|72:124|92:212,1,157.500001502037,2|2,0:0|0:0,0:0:0:0:
100,228,18496,1,0,0:0:0:0:
108,252,18603,1,0,0:0:0:0:
116,276,18710,1,10,0:0:0:0:
264,332,18924,6,2,P|328:344|380:320,1,105.000001001358,2|0,0:0|0:0,0:0:0:0:
384,312,19246,2,2,L|376:204,1,105.000001001358,2|0,0:0|0:0,0:0:0:0:
388,184,19567,1,8,0:0:0:0:
272,72,19782,6,0,P|216:88|128:40,2,157.500001502037,2|2|8,0:0|0:0|0:0,0:0:0:0:
160,184,20639,6,2,P|140:240|164:304,1,105.000001001358,2|0,0:0|0:0,0:0:0:0:
164,304,20960,2,2,P|208:332|264:332,1,105.000001001358,2|0,0:0|0:0,0:0:0:0:
284,324,21282,1,8,0:0:0:0:
408,228,21496,6,0,P|424:156|364:80,1,157.500001502037,2|2,0:0|0:0,0:0:0:0:
356,76,21924,1,0,0:0:0:0:
332,68,22032,1,0,0:0:0:0:
308,60,22139,1,10,0:0:0:0:
200,176,22353,6,2,P|144:184|100:160,1,105.000001001358,6|0,0:0|0:0,0:0:0:0:
80,148,22674,2,2,B|96:92|96:92|88:40,1,105.000001001358,2|0,0:0|0:0,0:0:0:0:
80,16,22996,1,8,0:0:0:0:
232,56,23210,6,0,P|288:72|380:24,2,157.500001502037,2|2|8,0:0|0:0|0:0,0:0:0:0:
364,144,24067,6,2,P|384:200|368:256,1,105.000001001358,2|0,0:0|0:0,0:0:0:0:
372,272,24389,2,2,L|256:260,1,105.000001001358,2|0,0:0|0:0,0:0:0:0:
244,272,24710,1,8,0:0:0:0:
108,348,24924,6,0,B|92:272|92:272|108:188,1,157.500001502037,2|2,0:0|0:0,0:0:0:0:
116,168,25353,1,0,0:0:0:0:
124,144,25460,1,0,0:0:0:0:
132,120,25567,1,10,0:0:0:0:
276,56,25782,6,2,B|328:80|328:80|392:76,1,105.000001001358,2|0,0:0|0:0,0:0:0:0:
404,72,26103,2,2,P|424:124|412:184,1,105.000001001358,2|0,0:0|0:0,0:0:0:0:
408,196,26424,1,8,0:0:0:0:
272,276,26639,6,0,B|340:320|340:320|424:312,2,157.500001502037,2|2|8,0:0|0:0|0:0,0:0:0:0:
200,136,27496,6,2,P|128:136|68:172,1,105.000001001358,2|0,0:0|0:0,0:0:0:0:
76,164,27817,2,2,L|96:280,1,105.000001001358,2|0,0:0|0:0,0:0:0:0:
84,292,28139,1,8,0:0:0:0:
232,240,28353,6,0,P|288:192|284:76,1,157.500001502037,2|2,0:0|0:0,0:0:0:0:
292,88,28782,2,0,L|260:44,2,52.500000500679,0|0|10,0:0|0:0|0:0,0:0:0:0:
420,180,29210,6,2,L|424:296,1,105.000001001358,6|8,0:0|0:0,0:0:0:0:
408,308,29532,2,0,P|352:340|252:312,1,157.500001502037,2|8,0:0|0:0,0:0:0:0:
176,192,30067,2,2,L|184:80,1,105.000001001358,2|8,0:0|0:0,0:0:0:0:
164,60,30389,2,0,P|104:36|8:80,1,157.500001502037,2|8,0:0|0:0,0:0:0:0:
72,216,30924,6,0,P|56:280|112:364,1,157.500001502037,2|2,0:0|0:0,0:0:0:0:
120,368,31353,1,0,0:0:0:0:
244,268,31567,1,8,0:0:0:0:
392,328,31782,2,0,P|424:268|376:168,2,157.500001502037,2|2|10,0:0|0:0|0:0,0:0:0:0:
304,196,32639,6,2,L|320:80,1,105.000001001358,6|8,0:0|0:0,0:0:0:0:
304,72,32960,2,0,P|356:96|460:60,1,157.500001502037,2|8,0:0|0:0,0:0:0:0:
448,228,33496,2,0,B|444:304|444:304|392:376,2,157.500001502037,2|2|8,0:0|0:0|0:0,0:0:0:0:
304,164,34353,6,0,P|228:188|136:136,1,157.500001502037,2|2,0:0|0:0,0:0:0:0:
136,140,34782,1,0,0:0:0:0:
248,32,34996,1,8,0:0:0:0:
376,120,35210,2,0,P|444:128|488:96,1,105.000001001358,2|8,0:0|0:0,0:0:0:0:
488,88,35532,2,0,L|500:192,1,105.000001001358,2|0,0:0|0:0,0:0:0:0:
488,220,35853,1,10,0:0:0:0:
380,336,36067,6,2,L|264:324,1,105.000001001358,6|8,0:0|0:0,0:0:0:0:
248,332,36389,2,2,P|188:344|144:324,1,105.000001001358,2|0,0:0|0:0,0:0:0:0:
128,308,36710,1,8,0:0:0:0:
60,168,36924,2,0,B|84:96|84:96|48:12,2,157.500001502037,2|2|8,0:0|0:0|0:0,0:0:0:0:
216,196,37782,6,0,P|268:212|364:152,1,157.500001502037,2|2,0:0|0:0,0:0:0:0:
368,140,38210,1,0,0:0:0:0:
332,292,38424,1,8,0:0:0:0:
176,268,38639,2,0,P|116:256|32:328,2,157.500001502037,2|2|10,0:0|0:0|0:0,0:0:0:0:
332,292,39496,6,2,L|448:284,1,105.000001001358,6|8,0:0|0:0,0:0:0:0:
464,292,39817,2,2,B|452:244|452:244|468:188,1,105.000001001358,2|0,0:0|0:0,0:0:0:0:
460,164,40139,1,8,0:0:0:0:
336,68,40353,2,0,L|164:72,2,157.500001502037,2|2|8,0:0|0:0|0:0,0:0:0:0:
460,164,41210,6,0,P|472:220|392:300,1,157.500001502037,2|2,0:0|0:0,0:0:0:0:
388,304,41639,1,0,0:0:0:0:
256,216,41853,1,8,0:0:0:0:
124,300,42067,2,2,L|16:312,1,105.000001001358,2|8,0:0|0:0,0:0:0:0:
0,288,42389,2,2,P|16:232|0:176,1,105.000001001358,2|0,0:0|0:0,0:0:0:0:
20,164,42710,1,10,0:0:0:0:
