osu file format v14

[General]
AudioFilename: Renard - FULL TECHNO JACKASS - 29 EXTREME FUCKING SOCA PARTY.mp3
AudioLeadIn: 0
PreviewTime: 15067
Countdown: 0
SampleSet: Soft
StackLeniency: 0.2
Mode: 0
LetterboxInBreaks: 0
WidescreenStoryboard: 1

[Editor]
Bookmarks: 8625,12696,15053,29196,29839,36053,38410,42910
DistanceSpacing: 1.4
BeatDivisor: 4
GridSize: 4
TimelineZoom: 1.2

[Metadata]
Title:EXTREME FUCKING SOCA PARTY
TitleUnicode:EXTREME FUCKING SOCA PARTY
Artist:Renard
ArtistUnicode:Renard
Creator:Snaggletooth
Version:Extra
Source:
Tags:Stefan Bonsai Lapfox Trax FULL TECHNO JACKASS Breakcore Breakbeat Gabber Hardcore Blue Dragon
BeatmapID:827015
BeatmapSetID:361356

[Difficulty]
HPDrainRate:7.5
CircleSize:4.2
OverallDifficulty:8
ApproachRate:9.2
SliderMultiplier:1.6
SliderTickRate:1

[Events]
//Background and Video events
0,0,"6833494-crazy-wallpaper.jpg",0,0
//Break Periods
//Storyboard Layer 0 (Background)
//Storyboard Layer 1 (Fail)
//Storyboard Layer 2 (Pass)
//Storyboard Layer 3 (Foreground)
//Storyboard Sound Samples

[TimingPoints]
1782,428.571428571429,4,2,1,30,1,0
15496,-57.1428571428571,4,1,0,70,0,0

[Colours]
Combo1 : 254,71,117
Combo2 : 255,72,72
Combo3 : 255,163,94
Combo4 : 255,255,128
Combo5 : 171,255,79
Combo6 : 70,190,255
Combo7 : 158,89,251
Combo8 : 251,115,237

[HitObjects]
312,104,1782,5,0,0:0:0:0:
216,200,1996,2,0,P|200:244|216:296,1,80
288,352,2424,1,0,0:0:0:0:
368,248,2639,1,2,0:0:0:0:
272,96,2853,1,0,0:0:0:0:
456,264,3067,1,2,0:0:0:0:
352,124,3282,1,0,0:0:0:0:
252,284,3496,6,0,B|212:288|212:288|144:268,1,80
40,104,3924,2,0,B|80:100|80:100|148:120,1,80
240,200,4353,1,2,0:0:0:0:
68,180,4567,1,0,0:0:0:0:
312,152,4782,1,2,0:0:0:0:
152,208,4996,1,0,0:0:0:0:
384,192,5210,6,0,P|424:184|464:200,1,80
280,280,5639,2,0,P|240:288|200:272,1,80
92,184,6067,1,2,0:0:0:0:
288,72,6282,1,0,0:0:0:0:
248,208,6496,1,2,0:0:0:0:
444,112,6710,1,0,0:0:0:0:
200,120,6924,5,0,0:0:0:0:
248,208,7139,1,0,0:0:0:0:
288,72,7353,1,0,0:0:0:0:
152,200,7567,1,0,0:0:0:0:
344,192,7782,1,0,0:0:0:0:
148,48,7996,5,0,0:0:0:0:
192,288,8210,1,0,0:0:0:0:
396,132,8424,1,0,0:0:0:0:
240,160,8639,5,4,0:0:0:0:
240,160,8746,1,0,0:0:0:0:
240,160,8853,1,2,0:0:0:0:
348,48,9067,1,0,0:0:0:0:
348,48,9174,1,0,0:0:0:0:
348,48,9282,1,2,0:0:0:0:
404,256,9496,2,0,P|408:304|392:352,1,80,0|2,0:0|0:0,0:0:0:0:
160,196,9924,2,0,P|156:148|172:100,1,80,0|2,0:0|0:0,0:0:0:0:
236,40,10353,5,0,0:0:0:0:
236,40,10460,1,0,0:0:0:0:
236,40,10567,1,2,0:0:0:0:
72,160,10782,1,0,0:0:0:0:
72,160,10889,1,0,0:0:0:0:
72,160,10996,1,2,0:0:0:0:
264,328,11210,2,0,B|304:336|304:336|360:328,1,80,0|2,0:0|0:0,0:0:0:0:
150,162,11639,2,0,B|110:154|110:154|54:162,1,80,0|2,0:0|0:0,0:0:0:0:
0,272,12067,5,0,0:0:0:0:
0,272,12174,1,0,0:0:0:0:
0,272,12282,1,2,0:0:0:0:
224,200,12496,1,0,0:0:0:0:
224,200,12603,1,0,0:0:0:0:
224,200,12710,1,2,0:0:0:0:
372,336,12924,2,0,L|456:332,1,80,0|2,0:0|0:0,0:0:0:0:
360,128,13353,2,0,L|276:132,1,80,0|2,0:0|0:0,0:0:0:0:
144,208,13782,5,0,0:0:0:0:
276,280,13996,1,2,0:0:0:0:
280,131,14210,1,0,0:0:0:0:
232,208,14424,1,2,0:0:0:0:
368,132,14639,1,0,0:0:0:0:
232,56,14853,5,0,0:0:0:0:
336,260,15067,2,0,B|344:300,1,40,4|0,0:0|0:0,0:0:0:0:
268,384,15282,1,0,0:0:0:0:
64,168,15496,6,2,P|76:104|152:64,1,140.000001335144,6|0,0:0|0:0,0:0:0:0:
364,160,15817,2,2,B|368:228|368:228|348:300,1,140.000001335144,2|0,0:0|0:0,0:0:0:0:
264,360,16139,1,8,0:0:0:0:
184,304,16246,1,0,0:0:0:0:
224,212,16353,6,2,P|248:140|200:56,1,140.000001335144,2|0,0:0|0:0,0:0:0:0:
24,216,16674,2,2,L|40:364,1,140.000001335144,2|0,0:0|0:0,0:0:0:0:
120,380,16996,1,8,0:0:0:0:
196,332,17103,1,0,0:0:0:0:
276,360,17210,6,2,L|352:368,1,70.000000667572,2|0,0:0|0:0,0:0:0:0:
428,304,17424,1,0,0:0:0:0:
348,232,17532,2,2,P|324:164|348:80,1,140.000001335144,2|0,0:0|0:0,0:0:0:0:
432,40,17853,1,8,0:0:0:0:
432,40,17960,1,0,0:0:0:0:
248,72,18067,6,2,P|180:32|100:56,1,140.000001335144,2|0,0:0|0:0,0:0:0:0:
48,160,18389,5,2,0:0:0:0:
128,248,18496,1,0,0:0:0:0:
168,132,18603,1,0,0:0:0:0:
36,248,18710,2,2,L|44:328,1,70.000000667572,10|0,0:0|0:0,0:0:0:0:
236,352,18924,6,2,P|264:296|224:204,1,140.000001335144,6|0,0:0|0:0,0:0:0:0:
72,112,19246,2,2,B|116:56|116:56|196:32,1,140.000001335144,2|0,0:0|0:0,0:0:0:0:
268,84,19567,1,8,0:0:0:0:
356,44,19674,1,0,0:0:0:0:
436,152,19782,6,2,B|440:216|440:216|412:320,1,140.000001335144,2|0,0:0|0:0,0:0:0:0:
184,320,20103,2,2,P|148:252|192:160,1,140.000001335144,2|0,0:0|0:0,0:0:0:0:
244,144,20424,1,8,0:0:0:0:
248,244,20532,1,0,0:0:0:0:
80,208,20639,6,0,L|4:220,2,70.000000667572,2|0|0,0:0|0:0|0:0,0:0:0:0:
168,104,20960,2,2,P|148:40|64:16,1,140.000001335144,2|0,0:0|0:0,0:0:0:0:
8,220,21282,2,0,L|24:300,1,70.000000667572,8|0,0:0|0:0,0:0:0:0:
144,340,21496,1,2,0:0:0:0:
144,340,21603,1,0,0:0:0:0:
236,213,21710,2,0,L|244:137,1,70.000000667572,0|0,0:0|0:0,0:0:0:0:
328,52,21924,5,0,0:0:0:0:
412,136,22032,1,0,0:0:0:0:
320,144,22139,1,8,0:0:0:0:
428,32,22246,1,8,0:0:0:0:
480,184,22353,6,2,P|488:260|420:324,1,140.000001335144,6|0,0:0|0:0,0:0:0:0:
188,244,22674,2,2,L|172:96,1,140.000001335144,2|0,0:0|0:0,0:0:0:0:
264,16,22996,1,8,0:0:0:0:
264,16,23103,1,8,0:0:0:0:
318,222,23210,6,2,P|238:254|166:230,1,140.000001335144,2|0,0:0|0:0,0:0:0:0:
36,24,23532,2,2,L|196:32,1,140.000001335144,2|0,0:0|0:0,0:0:0:0:
248,104,23853,1,8,0:0:0:0:
336,88,23960,1,8,0:0:0:0:
412,148,24067,6,2,P|428:220|368:288,1,140.000001335144,2|0,0:0|0:0,0:0:0:0:
130,163,24389,2,2,L|178:23,1,140.000001335144,2|0,0:0|0:0,0:0:0:0:
340,200,24710,2,8,P|312:208|268:204,1,70.000000667572
176,32,24924,6,2,P|240:8|324:28,1,140.000001335144,2|0,0:0|0:0,0:0:0:0:
360,132,25246,1,2,0:0:0:0:
272,204,25353,1,0,0:0:0:0:
256,104,25460,1,0,0:0:0:0:
368,232,25567,2,10,L|352:316,1,70.000000667572,10|8,0:0|0:0,0:0:0:0:
160,336,25782,6,2,P|96:296|84:216,1,140.000001335144,2|0,0:0|0:0,0:0:0:0:
309,19,26103,2,2,B|345:79|345:79|337:159,1,140.000001335144,2|0,0:0|0:0,0:0:0:0:
236,216,26424,1,8,0:0:0:0:
236,216,26532,1,8,0:0:0:0:
116,148,26639,6,2,P|36:148|-16:204,1,140.000001335144,2|0,0:0|0:0,0:0:0:0:
204,364,26960,2,2,L|356:352,1,140.000001335144,2|0,0:0|0:0,0:0:0:0:
440,276,27282,1,8,0:0:0:0:
440,276,27389,1,8,0:0:0:0:
344,176,27496,6,2,P|320:116|368:28,1,140.000001335144,2|0,0:0|0:0,0:0:0:0:
424,16,27817,1,2,0:0:0:0:
472,100,27924,2,0,L|452:176,1,70.000000667572
208,196,28139,2,8,L|228:120,1,70.000000667572
264,288,28353,6,2,P|188:300|128:264,1,140.000001335144,2|0,0:0|0:0,0:0:0:0:
60,192,28674,1,0,0:0:0:0:
140,96,28782,1,0,0:0:0:0:
208,196,28889,1,0,0:0:0:0:
60,116,28996,2,8,L|-12:128,1,70.000000667572
208,196,29210,6,2,P|276:200|344:160,1,140.000001335144,6|0,0:0|0:0,0:0:0:0:
384,80,29532,1,2,0:0:0:0:
284,20,29639,2,0,L|176:32,1,70.000000667572
72,248,29853,2,8,L|180:236,1,70.000000667572
208,104,30067,6,2,P|136:84|56:128,1,140.000001335144,2|0,0:0|0:0,0:0:0:0:
192,328,30389,2,2,L|348:308,1,140.000001335144,2|0,0:0|0:0,0:0:0:0:
408,216,30710,1,8,0:0:0:0:
408,216,30817,1,8,0:0:0:0:
288,140,30924,6,2,P|272:72|336:8,1,140.000001335144,2|0,0:0|0:0,0:0:0:0:
412,0,31246,1,2,0:0:0:0:
488,136,31353,2,0,L|504:216,1,70.000000667572
330,310,31567,2,8,L|314:230,1,70.000000667572
192,120,31782,6,2,P|112:120|52:184,1,140.000001335144,2|0,0:0|0:0,0:0:0:0:
20,268,32103,1,2,0:0:0:0:
140,248,32210,1,0,0:0:0:0:
68,156,32317,1,0,0:0:0:0:
88,308,32424,2,2,L|112:376,1,70.000000667572,10|8,0:0|0:0,0:0:0:0:
200,192,32639,6,2,B|192:124|192:124|216:48,1,140.000001335144,6|0,0:0|0:0,0:0:0:0:
448,136,32960,2,2,P|456:220|400:280,1,140.000001335144,2|0,0:0|0:0,0:0:0:0:
328,304,33282,1,8,0:0:0:0:
276,204,33389,1,8,0:0:0:0:
360,140,33496,6,2,P|372:76|316:16,1,140.000001335144,2|0,0:0|0:0,0:0:0:0:
100,136,33817,1,2,0:0:0:0:
136,212,33924,1,0,0:0:0:0:
104,288,34032,1,0,0:0:0:0:
156,356,34139,2,8,P|208:364|244:360,1,70.000000667572
360,140,34353,6,2,P|288:104|212:120,1,140.000001335144,2|0,0:0|0:0,0:0:0:0:
136,212,34674,1,0,0:0:0:0:
332,288,34782,2,2,L|408:272,1,70.000000667572,2|0,0:0|0:0,0:0:0:0:
152,60,34996,2,8,L|76:76,1,70.000000667572
64,280,35210,6,2,P|132:304|208:276,1,140.000001335144,2|0,0:0|0:0,0:0:0:0:
276,188,35532,1,2,0:0:0:0:
152,172,35639,1,0,0:0:0:0:
196,288,35746,1,0,0:0:0:0:
224,112,35853,2,8,L|208:40,1,70.000000667572,10|8,0:0|0:0,0:0:0:0:
196,288,36067,6,2,B|268:296|268:296|360:288,1,140.000001335144,6|0,0:0|0:0,0:0:0:0:
208,43,36389,2,2,P|128:40|72:80,1,140.000001335144,2|0,0:0|0:0,0:0:0:0:
332,188,36710,2,8,L|412:168,1,70.000000667572
224,112,36924,6,2,B|216:184|216:184|256:260,1,140.000001335144,2|0,0:0|0:0,0:0:0:0:
488,336,37246,2,2,L|472:196,1,140.000001335144,2|0,0:0|0:0,0:0:0:0:
400,88,37567,1,8,0:0:0:0:
400,88,37674,1,8,0:0:0:0:
288,156,37782,6,2,P|216:176|128:136,1,140.000001335144,2|0,0:0|0:0,0:0:0:0:
80,88,38103,1,2,0:0:0:0:
176,24,38210,2,0,L|280:32,1,70.000000667572
260,300,38424,2,8,L|156:292,1,70.000000667572
388,108,38639,6,2,P|400:172|368:248,1,140.000001335144,2|0,0:0|0:0,0:0:0:0:
260,300,38960,1,2,0:0:0:0:
268,176,39067,1,0,0:0:0:0:
374,240,39174,1,0,0:0:0:0:
184,228,39282,2,10,L|76:204,1,70.000000667572,10|8,0:0|0:0,0:0:0:0:
72,56,39496,6,2,P|148:28|252:64,1,140.000001335144,6|0,0:0|0:0,0:0:0:0:
260,300,39817,2,2,B|196:320|196:320|104:300,1,140.000001335144,2|0,0:0|0:0,0:0:0:0:
40,232,40139,1,8,0:0:0:0:
40,232,40246,1,8,0:0:0:0:
120,136,40353,6,2,L|272:152,1,140.000001335144,2|0,0:0|0:0,0:0:0:0:
376,68,40674,1,2,0:0:0:0:
436,136,40782,1,0,0:0:0:0:
400,212,40889,1,0,0:0:0:0:
460,272,40996,2,8,L|448:344,1,70.000000667572
236,356,41210,6,2,P|180:292|192:224,1,140.000001335144,2|0,0:0|0:0,0:0:0:0:
259,150,41532,1,0,0:0:0:0:
328,232,41639,2,0,L|320:308,1,70.000000667572,2|0,0:0|0:0,0:0:0:0:
108,136,41853,2,8,L|116:60,1,70.000000667572
348,32,42067,6,2,P|416:48|464:120,1,140.000001335144,2|0,0:0|0:0,0:0:0:0:
448,216,42389,1,2,0:0:0:0:
328,232,42496,1,0,0:0:0:0:
368,128,42603,1,0,0:0:0:0:
396,296,42710,1,10,0:0:0:0:
