osu file format v14

[General]
AudioFilename: Renard - FULL TECHNO JACKASS - 29 EXTREME FUCKING SOCA PARTY.mp3
AudioLeadIn: 0
PreviewTime: 15067
Countdown: 0
SampleSet: Soft
StackLeniency: 0.3
Mode: 0
LetterboxInBreaks: 0
WidescreenStoryboard: 1

[Editor]
Bookmarks: 12696,15053,29196,36053,38410,42910
DistanceSpacing: 1.2
BeatDivisor: 4
GridSize: 4
TimelineZoom: 1.5

[Metadata]
Title:EXTREME FUCKING SOCA PARTY
TitleUnicode:EXTREME FUCKING SOCA PARTY
Artist:Renard
ArtistUnicode:Renard
Creator:Snaggletooth
Version:Easy
Source:
Tags:Stefan Bonsai Lapfox Trax FULL TECHNO JACKASS Breakcore Breakbeat Gabber Hardcore Blue Dragon
BeatmapID:793935
BeatmapSetID:361356

[Difficulty]
HPDrainRate:2
CircleSize:3
OverallDifficulty:2
ApproachRate:3.5
SliderMultiplier:0.8
SliderTickRate:1

[Events]
//Background and Video events
0,0,"6833494-crazy-wallpaper.jpg",0,0
//Break Periods
//Storyboard Layer 0 (Background)
//Storyboard Layer 1 (Fail)
//Storyboard Layer 2 (Pass)
//Storyboard Layer 3 (Foreground)
//Storyboard Sound Samples

[TimingPoints]
1782,428.571428571429,4,2,0,30,1,0
15496,-100,4,1,0,70,0,0

[Colours]
Combo1 : 254,71,117
Combo2 : 255,72,72
Combo3 : 255,163,94
Combo4 : 255,255,128
Combo5 : 171,255,79
Combo6 : 70,190,255
Combo7 : 158,89,251
Combo8 : 251,115,237

[HitObjects]
180,72,1782,6,0,P|212:60|320:120,1,160,0|2,0:0|0:0,0:0:0:0:
340,204,3067,1,2,0:0:0:0:
300,292,3496,6,0,B|220:304|220:304|136:272,1,160,0|2,0:0|0:0,0:0:0:0:
68,216,4782,1,2,0:0:0:0:
132,144,5210,6,0,P|144:96|132:56,1,80
44,48,6067,2,0,P|32:96|44:136,1,80,2|2,0:0|0:0,0:0:0:0:
68,216,6924,5,0,0:0:0:0:
44,308,7353,1,0,0:0:0:0:
136,340,7782,2,0,L|220:328,1,80
308,352,8639,6,0,P|360:364|444:288,1,160,4|2,0:0|0:0,0:0:0:0:
440,208,9924,1,2,0:0:0:0:
356,160,10353,6,0,L|188:180,1,160,0|2,0:0|0:0,0:0:0:0:
108,140,11639,1,2,0:0:0:0:
148,52,12067,6,0,B|188:40|188:40|240:48,1,80
316,76,12924,2,0,B|353:81|353:81|393:69,1,80,2|2,0:0|0:0,0:0:0:0:
484,104,13782,5,0,0:0:0:0:
436,188,14210,2,0,P|452:220|448:272,1,80,0|2,0:0|0:0,0:0:0:0:
400,344,15067,5,4,0:0:0:0:
312,304,15496,6,2,L|244:308,1,60,6|2,0:0|0:0,0:0:0:0:
132,328,16353,2,2,L|64:320,1,60
16,216,17210,6,2,P|12:176|24:148,1,60
128,112,18067,2,0,L|256:124,1,120,2|10,0:0|0:0,0:0:0:0:
284,156,18924,6,2,L|344:144,1,60,6|2,0:0|0:0,0:0:0:0:
440,216,19782,2,2,L|480:168,1,60
416,68,20639,6,2,P|388:56|344:64,1,60
240,76,21496,2,0,P|176:92|112:64,1,120,2|10,0:0|0:0,0:0:0:0:
80,88,22353,6,2,L|64:156,1,60,6|2,0:0|0:0,0:0:0:0:
136,244,23210,2,2,L|120:312,1,60
232,356,24067,6,2,P|272:360|296:352,1,60
404,312,24924,2,0,P|420:280|412:184,1,120,2|10,0:0|0:0,0:0:0:0:
388,160,25782,6,2,L|404:92,1,60,6|2,0:0|0:0,0:0:0:0:
300,36,26639,2,2,L|304:100,1,60
232,192,27496,6,2,P|192:192|168:176,1,60
68,132,28353,2,0,P|52:164|64:256,1,120,2|10,0:0|0:0,0:0:0:0:
76,292,29210,6,2,L|140:284,1,60
220,368,30067,2,2,L|288:344,1,60
396,344,30924,5,6,0:0:0:0:
448,264,31353,1,0,0:0:0:0:
392,184,31782,2,2,P|384:144|404:100,1,80
324,44,32639,6,2,L|248:52,1,60,6|2,0:0|0:0,0:0:0:0:
180,132,33496,2,2,L|116:120,1,60
36,208,34353,5,6,0:0:0:0:
80,292,34782,1,0,0:0:0:0:
176,300,35210,2,2,L|268:296,1,80
336,352,36067,6,2,P|372:344|404:344,1,60,6|2,0:0|0:0,0:0:0:0:
440,232,36924,2,2,P|448:188|444:160,1,60
352,96,37782,5,6,0:0:0:0:
308,180,38210,1,0,0:0:0:0:
212,196,38639,2,2,P|160:188|132:156,1,80
128,76,39496,6,2,L|200:68,1,60,6|2,0:0|0:0,0:0:0:0:
300,24,40353,2,2,L|368:40,1,60
452,112,41210,5,6,0:0:0:0:
404,196,41639,1,0,0:0:0:0:
448,280,42067,2,2,P|384:288|332:256,1,120,2|10,0:0|0:0,0:0:0:0:
