osu file format v14

[General]
AudioFilename: audio.mp3
AudioLeadIn: 0
PreviewTime: -1
Countdown: 1
SampleSet: Normal
StackLeniency: 0.4
Mode: 0
LetterboxInBreaks: 0
WidescreenStoryboard: 0

[Editor]
DistanceSpacing: 1
BeatDivisor: 4
GridSize: 4
TimelineZoom: 1.9

[Metadata]
Title:EXTREME FUCKING SOCA PARTY
TitleUnicode:EXTREME FUCKING SOCA PARTY
Artist:Renard
ArtistUnicode:Renard
Creator:Herbayse
Version:extrul
Source:
Tags:
BeatmapID:1535366
BeatmapSetID:727257

[Difficulty]
HPDrainRate:6
CircleSize:3.5
OverallDifficulty:9
ApproachRate:10
SliderMultiplier:2
SliderTickRate:1

[Events]
//Background and Video events
0,0,"bob.jpg",0,0
//Break Periods
//Storyboard Layer 0 (Background)
//Storyboard Layer 1 (Fail)
//Storyboard Layer 2 (Pass)
//Storyboard Layer 3 (Foreground)
//Storyboard Sound Samples

[TimingPoints]
1782,428.571428571429,4,2,1,30,1,0
15067,-50,4,2,1,30,0,0
15496,-50,4,1,0,70,0,0
41639,-40,4,1,0,70,0,0
41853,-33.3333333333333,4,1,0,70,0,0
42067,-28.5714285714286,4,1,0,70,0,0
42282,-27.7777777777778,4,1,0,70,0,0
42389,-26.6666666666667,4,1,0,70,0,0
42603,-25.974025974026,4,1,0,70,0,0
42710,-25,4,1,0,70,0,0

[Colours]
Combo1 : 254,71,117
Combo2 : 255,72,72
Combo3 : 255,163,94
Combo4 : 255,255,128
Combo5 : 171,255,79
Combo6 : 70,190,255
Combo7 : 158,89,251
Combo8 : 251,115,237

[HitObjects]
76,120,1782,6,0,P|140:104|200:120,1,100
268,332,2210,2,0,P|222:284|206:224,1,100,0|0,0:0|2:0,0:0:0:0:
392,104,2639,1,0,0:0:0:0:
388,256,2853,1,0,0:0:0:0:
260,56,3067,1,0,0:0:0:0:
260,56,3282,1,0,0:0:0:0:
113,242,3496,6,0,P|169:258|229:246,1,100
446,177,3924,2,0,P|409:210|387:255,1,100
316,352,4353,1,0,0:0:0:0:
216,152,4567,1,0,0:0:0:0:
372,104,4782,1,0,0:0:0:0:
372,104,4996,1,0,0:0:0:0:
113,242,5210,6,0,P|89:190|93:130,1,100
370,290,5639,2,0,P|337:337|283:364,1,100
284,43,6067,2,0,P|341:48|391:81,1,100
256,192,6496,1,0,0:0:0:0:
256,192,6710,1,0,0:0:0:0:
141,93,6924,6,0,P|174:46|228:19,1,100
227,340,7353,2,0,P|170:335|120:302,1,100
399,142,7781,2,0,P|422:193|419:254,1,100
256,192,8210,1,0,0:0:0:0:
256,192,8424,1,0,0:0:0:0:
400,80,8639,5,0,0:0:0:0:
432,120,8746,1,0,0:0:0:0:
440,168,8853,1,0,0:0:0:0:
392,320,9067,1,0,0:0:0:0:
204,308,9282,1,0,0:0:0:0:
240,76,9496,2,0,P|264:128|264:172,1,100
24,232,9924,2,0,P|57:185|95:163,1,100
280,312,10353,5,0,0:0:0:0:
240,344,10460,1,0,0:0:0:0:
192,344,10567,1,0,0:0:0:0:
344,160,10782,1,0,0:0:0:0:
391,178,10889,1,0,0:0:0:0:
415,220,10996,1,0,0:0:0:0:
172,240,11210,1,0,0:0:0:0:
240,48,11424,1,0,0:0:0:0:
312,292,11639,1,0,0:0:0:0:
264,52,11853,1,0,0:0:0:0:
168,252,12067,5,0,0:0:0:0:
120,240,12174,1,0,0:0:0:0:
96,196,12282,1,0,0:0:0:0:
344,260,12496,1,0,0:0:0:0:
357,307,12603,1,0,0:0:0:0:
331,350,12711,1,0,0:0:0:0:
220,160,12924,1,0,0:0:0:0:
424,104,13139,1,0,0:0:0:0:
416,240,13353,1,0,0:0:0:0:
324,56,13567,1,0,0:0:0:0:
72,256,13782,6,0,L|204:240,1,100
440,256,14210,2,0,L|308:240,1,100
256,40,14639,1,0,0:0:0:0:
256,184,14853,1,0,0:0:0:0:
328,308,15067,6,0,P|256:360|176:288,1,200
396,44,15496,6,0,B|352:148|444:128|380:272,1,200
52,120,15817,2,0,L|192:104,1,100
320,308,16139,5,0,0:0:0:0:
128,224,16246,1,0,0:0:0:0:
436,180,16353,2,0,L|440:304,1,100
296,152,16567,2,0,L|300:44,1,100
448,192,16782,2,0,L|430:314,1,100
278,149,16996,2,0,L|300:43,1,100
328,296,17210,6,0,B|260:292|260:292|212:324|212:324|136:320,1,200
56,160,17532,1,0,0:0:0:0:
416,100,17639,2,0,L|424:208,1,100
440,344,17853,1,0,0:0:0:0:
104,104,18067,6,0,L|232:88,1,100
392,264,18282,2,0,L|264:248,1,100
412,56,18496,1,0,0:0:0:0:
244,336,18603,1,0,0:0:0:0:
132,32,18710,1,0,0:0:0:0:
428,152,18817,1,0,0:0:0:0:
96,298,18924,6,0,B|64:194|140:234|100:90,1,200
288,40,19246,1,0,0:0:0:0:
452,288,19353,2,0,L|336:280,1,100
208,152,19567,2,0,L|324:144,1,100
452,288,19782,6,0,B|408:324|408:324|312:324|312:324|272:288,1,200
168,80,20103,1,0,0:0:0:0:
436,80,20210,2,0,L|320:80,1,100
80,192,20424,2,0,L|196:192,1,100
388,192,20639,6,0,B|408:264|408:264|336:380,1,200
104,80,20960,1,0,0:0:0:0:
288,52,21067,2,0,L|288:172,1,100
288,292,21282,1,0,0:0:0:0:
64,216,21496,6,0,B|116:200|116:200|176:212,1,100
392,328,21710,2,0,B|340:344|340:344|280:332,1,100
148,68,21924,1,0,0:0:0:0:
432,192,22032,1,0,0:0:0:0:
144,336,22139,1,0,0:0:0:0:
244,36,22246,1,0,0:0:0:0:
436,284,22353,6,0,B|312:264|388:348|232:320,1,200
80,168,22674,1,0,0:0:0:0:
376,56,22782,2,0,L|380:156,1,100
284,332,22996,1,0,0:0:0:0:
184,140,23103,1,0,0:0:0:0:
376,56,23210,6,0,B|376:124|376:124|396:172|396:172|396:256,1,200
188,292,23532,1,0,0:0:0:0:
392,264,23639,1,0,0:0:0:0:
80,204,23746,2,0,L|80:308,1,100
280,360,23960,1,0,0:0:0:0:
376,56,24067,6,0,B|328:40|328:40|276:68|276:68|184:52,1,200
80,204,24389,1,0,0:0:0:0:
280,360,24496,2,0,L|288:248,1,100
186,52,24710,2,0,L|178:164,1,100
464,140,24924,6,0,L|352:132,1,100
88,206,25139,2,0,L|200:198,1,100
420,238,25353,1,0,0:0:0:0:
186,52,25460,1,0,0:0:0:0:
244,336,25567,1,0,0:0:0:0:
375,65,25674,1,0,0:0:0:0:
80,80,25782,6,0,B|40:144|40:144|68:276,1,200
244,336,26103,1,0,0:0:0:0:
212,84,26210,2,0,L|224:192,1,100
404,331,26424,2,0,L|415:231,1,100
387,78,26639,6,0,B|336:43|336:43|264:43|264:43|203:90,1,200
112,268,26960,1,0,0:0:0:0:
380,264,27067,2,0,L|280:264,1,100
111,83,27282,2,0,L|211:83,1,100
144,336,27496,6,0,B|120:284|120:284|136:236,1,100
368,48,27710,2,0,B|392:100|392:100|376:148,1,100
112,80,27924,2,0,B|164:55|164:55|212:72,1,100
400,304,28138,2,0,B|348:328|348:328|300:312,1,100
144,236,28353,5,0,0:0:0:0:
340,64,28567,5,0,0:0:0:0:
144,236,28782,1,0,0:0:0:0:
340,64,28889,1,0,0:0:0:0:
400,304,28996,1,0,0:0:0:0:
64,336,29210,6,0,P|28:216|48:148,1,200
224,48,29532,1,0,0:0:0:0:
400,304,29639,2,0,P|336:332|280:312,1,100
144,236,29853,2,0,P|208:208|264:228,1,100
400,304,30067,6,0,P|424:188|392:96,1,200
224,48,30389,1,0,0:0:0:0:
144,236,30496,2,0,P|204:244|256:204,1,100
400,304,30710,2,0,P|340:296|288:336,1,100
144,236,30924,6,0,B|96:176|120:96|120:96|144:120|148:160,1,200
332,64,31246,1,0,0:0:0:0:
235,238,31353,2,0,P|187:254|139:230,1,100
240,61,31567,2,0,P|288:45|336:69,1,100
401,266,31782,6,0,P|325:298|229:222,1,200
342,107,32103,6,0,P|407:156|389:277,1,200
234,237,32424,6,0,P|244:155|358:110,1,200
148,340,32853,5,0,0:0:0:0:
48,152,32960,2,0,P|88:116|152:116,1,100
318,195,33174,2,0,P|278:231|214:231,1,100
48,152,33389,1,0,0:0:0:0:
380,96,33496,2,0,P|432:192|384:284,1,200
252,336,33817,1,0,0:0:0:0:
124,112,33924,5,0,0:0:0:0:
318,195,34032,1,0,0:0:0:0:
152,352,34139,1,0,0:0:0:0:
200,80,34246,1,0,0:0:0:0:
380,96,34353,6,0,P|432:192|384:284,1,200
252,336,34674,1,0,0:0:0:0:
282,92,34782,2,0,P|338:104|394:88,1,100
176,104,34996,2,0,P|232:92|288:108,1,100
400,269,35210,2,0,P|344:281|288:265,1,100
144,192,35424,1,0,0:0:0:0:
424,308,35532,2,0,P|368:296|312:312,1,100
148,336,35746,5,0,0:0:0:0:
352,72,35853,1,0,0:0:0:0:
332,304,35960,1,0,0:0:0:0:
200,88,36067,1,0,0:0:0:0:
432,160,36282,5,0,0:0:0:0:
408,364,36389,2,0,B|416:292|416:292|436:260|436:260|448:164,1,200
272,56,36710,1,0,0:0:0:0:
464,96,36817,1,0,0:0:0:0:
176,160,36924,2,0,L|168:48,1,100
312,268,37139,2,0,L|320:156,1,100
72,236,37353,2,0,L|79:335,1,100
312,268,37567,2,0,L|304:367,1,100
68,92,37782,6,0,B|196:68|140:152|280:120,1,200
420,252,38103,1,0,0:0:0:0:
128,344,38210,2,0,L|120:236,1,100
258,124,38424,2,0,L|250:223,1,100
408,348,38639,6,0,B|452:280|452:280|424:156,1,200
180,40,38960,1,0,0:0:0:0:
220,320,39067,1,0,0:0:0:0:
440,76,39174,1,0,0:0:0:0:
112,108,39282,1,0,0:0:0:0:
448,92,39496,6,0,B|480:136|480:136|480:228|480:228|444:272,1,200
240,336,39817,1,0,0:0:0:0:
112,108,39924,2,0,L|236:92,1,100
392,224,40139,2,0,L|268:208,1,100
40,344,40353,6,0,B|96:332|96:332|152:356|152:356|232:344,1,200
412,324,40674,1,0,0:0:0:0:
272,84,40782,1,0,0:0:0:0:
248,344,40889,1,0,0:0:0:0:
436,128,40996,1,0,0:0:0:0:
144,180,41103,1,0,0:0:0:0:
424,328,41210,6,0,B|448:240|448:240|404:136,1,200
256,40,41532,1,0,0:0:0:0:
52,260,41639,2,0,L|192:241,1,125
444,158,41853,2,0,L|296:138,1,150.000005722046
381,309,42067,6,0,P|435:246|440:145,1,175.00000166893
262,50,42282,2,0,P|253:99|273:136,1,89.9999972534181
223,288,42389,6,0,P|125:313|51:259,1,187.500004470348
425,53,42603,2,0,P|434:108|417:159,1,96.2500009179115
223,288,42710,6,0,P|110:188|274:211,1,400
