osu file format v14

[General]
AudioFilename: audio.mp3
AudioLeadIn: 0
PreviewTime: 16056
Countdown: 0
SampleSet: Normal
StackLeniency: 0.2
Mode: 0
LetterboxInBreaks: 0
WidescreenStoryboard: 0

[Editor]
DistanceSpacing: 1.1
BeatDivisor: 4
GridSize: 16
TimelineZoom: 2.4

[Metadata]
Title:Dracula
TitleUnicode:Dracula
Artist:Renard
ArtistUnicode:Renard
Creator:Lazer
Version:Rezal
Source:
Tags:PTSD Lapfox Trax Post Traumatic Post-Traumatic stress disorder speedcore speed Bram Stoker's Dracula NES
BeatmapID:1463564
BeatmapSetID:691619

[Difficulty]
HPDrainRate:7
CircleSize:4
OverallDifficulty:8.5
ApproachRate:9
SliderMultiplier:1.8
SliderTickRate:1

[Events]
//Background and Video events
0,0,"lapfoxtrax-1510672918756-7704.jpg",0,0
//Break Periods
2,48256,53456
//Storyboard Layer 0 (Background)
//Storyboard Layer 1 (Fail)
//Storyboard Layer 2 (Pass)
//Storyboard Layer 3 (Foreground)
//Storyboard Sound Samples

[TimingPoints]
56,250,4,1,0,10,1,0
16056,-100,4,1,0,60,0,0
46056,-200,4,1,0,60,0,0
46118,-200,4,1,0,5,0,0
46806,-200,4,1,0,35,0,0
47993,-200,4,1,0,60,0,0
62556,-200,4,1,0,5,0,0
62806,-200,4,1,0,55,0,0
64055,-100,4,1,0,60,0,0
78056,-100,4,1,0,40,0,0
80056,-166.666666666667,4,1,0,50,0,0
94306,-125,4,1,0,60,0,0
96056,-100,4,1,0,60,0,0
110056,-100,4,1,0,40,0,0
111993,-133.333333333333,4,1,0,40,0,0
118056,-111.111111111111,4,1,0,50,0,0
126056,-200,4,1,0,50,0,0
127056,-100,4,1,0,60,0,0
128056,-100,4,1,0,60,0,0

[HitObjects]
256,192,14806,12,0,15806,0:0:0:0:
64,160,16056,6,0,P|147:128|234:146,1,180,4|0,0:0|0:0,0:0:0:0:
256,320,16431,2,0,P|172:351|85:333,1,180,4|0,0:0|0:0,0:0:0:0:
99,244,16806,1,0,0:0:0:0:
10,260,16931,1,0,0:0:0:0:
100,26,17056,6,0,P|128:105|63:159,1,180,4|0,0:0|0:0,0:0:0:0:
62,377,17431,2,0,P|33:297|98:243,1,180,4|0,0:0|0:0,0:0:0:0:
140,164,17806,1,0,0:0:0:0:
106,318,17931,1,0,0:0:0:0:
67,116,18056,6,0,P|143:76|217:120,1,180,4|0,0:0|0:0,0:0:0:0:
294,263,18431,2,0,P|368:307|445:268,1,180,4|0,0:0|0:0,0:0:0:0:
485,143,18806,1,0,0:0:0:0:
370,219,18931,1,0,0:0:0:0:
255,143,19056,6,0,L|465:129,1,180,4|0,0:0|0:0,0:0:0:0:
94,134,19431,2,0,L|304:120,1,180,4|0,0:0|0:0,0:0:0:0:
16,273,19806,2,0,P|57:257|84:221,1,90
137,322,20056,6,0,P|213:364|290:324,1,180,4|0,0:0|0:0,0:0:0:0:
323,170,20431,2,0,P|240:194|215:277,1,180,4|0,0:0|0:0,0:0:0:0:
367,349,20806,1,0,0:0:0:0:
301,257,20931,1,0,0:0:0:0:
473,124,21056,6,0,P|433:200|475:276,1,180,4|0,0:0|0:0,0:0:0:0:
257,150,21431,2,0,P|343:146|387:72,1,180,4|0,0:0|0:0,0:0:0:0:
299,71,21806,1,0,0:0:0:0:
301,257,21931,1,0,0:0:0:0:
167,68,22056,6,0,L|160:266,1,180,4|0,0:0|0:0,0:0:0:0:
49,363,22431,2,0,L|56:165,1,180,4|0,0:0|0:0,0:0:0:0:
167,68,22806,1,0,0:0:0:0:
134,204,22931,1,0,0:0:0:0:
14,47,23056,6,0,L|212:54,1,180,4|0,0:0|0:0,0:0:0:0:
266,101,23431,2,0,L|464:108,1,180,4|0,0:0|0:0,0:0:0:0:
186,139,23806,2,0,P|188:201|168:240,1,90
106,169,24056,5,4,0:0:0:0:
177,225,24181,1,0,0:0:0:0:
20,180,24306,1,0,0:0:0:0:
186,139,24431,2,0,P|256:158|367:135,1,180,4|0,0:0|0:0,0:0:0:0:
438,95,24806,1,0,0:0:0:0:
360,49,24931,1,0,0:0:0:0:
337,254,25056,6,0,L|353:350,1,90,4|0,0:0|0:0,0:0:0:0:
478,282,25306,1,0,0:0:0:0:
418,215,25431,6,0,L|447:35,1,180,4|0,0:0|0:0,0:0:0:0:
270,60,25806,2,0,L|369:47,1,90
176,92,26056,5,4,0:0:0:0:
251,158,26181,1,0,0:0:0:0:
76,98,26306,1,0,0:0:0:0:
52,247,26431,2,0,L|61:60,1,180,4|0,0:0|0:0,0:0:0:0:
176,92,26806,1,0,0:0:0:0:
93,128,26931,1,0,0:0:0:0:
244,55,27056,6,0,L|154:50,1,90,4|0,0:0|0:0,0:0:0:0:
283,136,27306,1,0,0:0:0:0:
353,191,27431,6,0,L|165:181,1,180,4|0,0:0|0:0,0:0:0:0:
98,232,27806,1,0,0:0:0:0:
190,153,27931,1,0,0:0:0:0:
54,305,28056,6,0,L|41:199,1,90,4|0,0:0|0:0,0:0:0:0:
143,345,28306,1,0,0:0:0:0:
232,343,28431,6,0,L|209:159,1,180,4|0,0:0|0:0,0:0:0:0:
330,77,28806,6,0,L|316:187,1,90
294,253,29056,5,4,0:0:0:0:
264,167,29181,1,0,0:0:0:0:
234,81,29306,1,0,0:0:0:0:
420,18,29431,2,0,L|351:222,1,180,4|0,0:0|0:0,0:0:0:0:
495,260,29806,2,0,L|466:174,1,90
348,90,30056,5,4,0:0:0:0:
270,136,30181,1,0,0:0:0:0:
246,222,30306,1,0,0:0:0:0:
266,309,30431,2,0,P|226:241|100:247,1,180,4|0,0:0|0:0,0:0:0:0:
81,352,30806,2,0,L|166:321,1,90
250,352,31056,5,6,0:0:0:0:
317,373,31181,1,2,0:0:0:0:
386,356,31306,1,2,0:0:0:0:
436,306,31431,1,2,0:0:0:0:
451,236,31556,1,2,0:0:0:0:
428,169,31681,1,2,0:0:0:0:
428,169,31743,1,0,0:0:0:0:
428,169,31806,2,0,P|416:120|430:76,1,90
270,28,32056,6,0,L|139:39,1,90,4|0,0:0|0:0,0:0:0:0:
106,2,32306,1,0,0:0:0:0:
77,77,32431,1,4,0:0:0:0:
149,113,32556,2,0,L|160:244,1,90
123,277,32806,1,0,0:0:0:0:
123,277,32868,1,0,0:0:0:0:
123,277,32931,1,0,0:0:0:0:
189,323,33056,6,0,L|320:312,1,90,4|0,0:0|0:0,0:0:0:0:
353,349,33306,1,0,0:0:0:0:
382,274,33431,1,4,0:0:0:0:
310,238,33556,2,0,L|299:107,1,90
336,74,33806,1,0,0:0:0:0:
336,74,33868,1,0,0:0:0:0:
336,74,33931,1,0,0:0:0:0:
487,104,34056,6,0,P|445:120|401:121,1,90,4|0,0:0|0:0,0:0:0:0:
336,74,34306,1,0,0:0:0:0:
310,238,34431,1,4,0:0:0:0:
243,87,34556,1,0,0:0:0:0:
209,172,34681,1,0,0:0:0:0:
152,100,34806,1,0,0:0:0:0:
152,100,34868,1,0,0:0:0:0:
152,100,34931,1,0,0:0:0:0:
212,308,35056,6,0,P|230:267|261:235,1,90,4|0,0:0|0:0,0:0:0:0:
152,100,35306,2,0,P|133:140|102:172,1,90,0|4,0:0|0:0,0:0:0:0:
251,41,35556,1,0,0:0:0:0:
336,74,35681,1,0,0:0:0:0:
264,131,35806,1,0,0:0:0:0:
264,131,35868,1,0,0:0:0:0:
264,131,35931,1,0,0:0:0:0:
396,28,36056,6,0,L|386:152,1,90,4|0,0:0|0:0,0:0:0:0:
340,183,36306,1,0,0:0:0:0:
468,130,36431,1,4,0:0:0:0:
371,369,36556,2,0,L|381:245,1,90
427,214,36806,1,0,0:0:0:0:
427,214,36868,1,0,0:0:0:0:
427,214,36931,1,0,0:0:0:0:
319,80,37056,6,0,L|312:170,1,90,4|0,0:0|0:0,0:0:0:0:
264,250,37306,1,0,0:0:0:0:
228,177,37431,1,4,0:0:0:0:
193,291,37556,2,0,L|282:298,1,90
390,336,37806,1,0,0:0:0:0:
390,336,37868,1,0,0:0:0:0:
390,336,37931,1,0,0:0:0:0:
337,214,38056,6,0,B|320:81|320:81|361:107,1,180,4|0,0:0|0:0,0:0:0:0:
468,44,38431,2,0,B|485:177|485:177|444:151,1,180,4|0,0:0|0:0,0:0:0:0:
341,4,38806,2,0,P|297:6|259:29,1,90
250,205,39056,6,0,P|259:161|250:117,1,90,4|0,0:0|0:0,0:0:0:0:
170,159,39306,1,0,0:0:0:0:
316,259,39431,6,0,P|335:171|320:83,1,180,4|0,0:0|0:0,0:0:0:0:
148,39,39806,2,0,L|155:83,2,45
79,75,40056,5,4,0:0:0:0:
129,138,40181,1,0,0:0:0:0:
63,185,40306,1,0,0:0:0:0:
113,248,40431,1,4,0:0:0:0:
90,361,40556,2,0,L|86:271,1,90
191,184,40806,1,0,0:0:0:0:
190,206,40868,1,0,0:0:0:0:
189,228,40931,1,0,0:0:0:0:
175,321,41056,5,4,0:0:0:0:
263,287,41181,1,0,0:0:0:0:
351,321,41306,2,0,L|347:231,1,90,0|4,0:0|0:0,0:0:0:0:
408,177,41556,2,0,L|460:181,2,45
274,281,41806,2,0,L|222:277,2,45
396,288,42056,5,4,0:0:0:0:
343,226,42181,1,0,0:0:0:0:
408,177,42306,1,0,0:0:0:0:
355,116,42431,1,4,0:0:0:0:
375,2,42556,2,0,L|381:91,1,90
280,182,42806,1,0,0:0:0:0:
280,160,42868,1,0,0:0:0:0:
280,138,42931,1,0,0:0:0:0:
291,45,43056,5,4,0:0:0:0:
204,82,43181,1,0,0:0:0:0:
115,51,43306,2,0,L|121:140,1,90,0|4,0:0|0:0,0:0:0:0:
63,197,43556,2,0,L|10:194,2,45
193,88,43806,2,0,L|245:90,2,45
184,289,44056,6,0,L|190:199,1,90,4|0,0:0|0:0,0:0:0:0:
125,339,44306,1,0,0:0:0:0:
206,362,44431,1,4,0:0:0:0:
262,298,44556,1,0,0:0:0:0:
318,362,44681,1,0,0:0:0:0:
400,339,44806,1,0,0:0:0:0:
413,341,44868,1,0,0:0:0:0:
426,344,44931,1,0,0:0:0:0:
345,283,45056,6,0,P|339:231|350:188,1,90,4|0,0:0|0:0,0:0:0:0:
348,113,45306,1,0,0:0:0:0:
420,149,45431,1,4,0:0:0:0:
271,124,45556,2,0,P|270:101|276:79,2,45
219,190,45806,6,0,P|225:242|214:285,1,90
146,360,46056,6,0,B|150:325|150:325|126:285|147:235|147:235|110:275|64:270|64:270|18:313,1,270,4|2,0:0|0:0,0:0:0:0:
256,192,47056,12,0,48056,0:0:0:0:
80,304,54056,6,0,P|160:320|176:240,1,180
335,240,54806,2,0,P|352:320|432:304,1,180
256,32,55556,2,0,L|256:176,1,135
256,167,55993,1,0,0:0:0:0:
256,167,56056,6,0,L|256:224,1,45
320,272,56306,2,0,P|348:268|368:256,1,45
407,156,56556,2,0,P|379:160|359:172,1,45
490,182,56806,1,0,0:0:0:0:
493,137,56931,1,0,0:0:0:0:
472,98,57056,6,0,P|461:79|457:57,1,45
390,17,57306,2,0,P|370:27|348:32,2,45
304,101,57806,1,0,0:0:0:0:
256,212,58056,6,0,L|256:167,1,45
149,260,58306,2,0,P|169:269|192:272,1,45
147,167,58556,2,0,P|127:158|105:156,1,45
22,182,58806,1,0,0:0:0:0:
18,137,58931,1,0,0:0:0:0:
39,98,59056,6,0,P|50:79|54:57,1,45
122,17,59306,2,0,P|141:27|163:32,2,45
208,101,59806,1,0,0:0:0:0:
60,352,60056,6,0,L|122:337,1,45
140,273,60306,1,0,0:0:0:0:
183,279,60431,1,0,0:0:0:0:
218,307,60556,2,0,L|203:245,1,45
124,160,60806,2,0,L|109:222,1,45
14,283,61056,5,0,0:0:0:0:
35,277,61181,1,0,0:0:0:0:
57,271,61306,2,0,L|-5:256,1,45
36,163,61556,1,0,0:0:0:0:
171,361,61806,1,0,0:0:0:0:
334,82,62056,6,0,P|254:118|175:80,1,180
57,96,62806,5,0,0:0:0:0:
124,140,63056,6,0,L|135:220,1,60
92,280,63389,1,0,0:0:0:0:
164,226,63556,1,0,0:0:0:0:
195,310,63722,1,0,0:0:0:0:
229,163,63889,1,0,0:0:0:0:
338,264,64055,6,0,P|330:177|384:108,1,180,4|0,0:0|0:0,0:0:0:0:
447,294,64431,2,0,P|391:361|304:372,1,180,4|0,0:0|0:0,0:0:0:0:
253,297,64806,1,0,0:0:0:0:
338,264,64931,1,0,0:0:0:0:
168,330,65056,6,0,L|188:126,1,180,4|0,0:0|0:0,0:0:0:0:
238,42,65431,2,0,L|218:246,1,180,4|0,0:0|0:0,0:0:0:0:
137,246,65806,1,0,0:0:0:0:
338,264,65931,1,0,0:0:0:0:
134,109,66056,6,0,L|114:313,1,180,4|0,0:0|0:0,0:0:0:0:
69,384,66431,2,0,L|89:180,1,180,4|0,0:0|0:0,0:0:0:0:
45,104,66806,1,0,0:0:0:0:
134,109,66931,1,0,0:0:0:0:
308,75,67056,6,0,P|290:150|222:113,1,180,4|0,0:0|0:0,0:0:0:0:
490,141,67431,2,0,P|422:178|405:103,1,180,4|0,0:0|0:0,0:0:0:0:
341,222,67806,2,0,P|358:262|355:307,1,90
249,281,68056,6,0,P|166:265|148:181,1,180,4|0,0:0|0:0,0:0:0:0:
63,131,68431,2,0,P|133:83|221:116,1,180,4|0,0:0|0:0,0:0:0:0:
221,209,68806,1,0,0:0:0:0:
148,181,68931,1,0,0:0:0:0:
309,56,69056,6,0,P|299:139|319:266,1,180,4|0,0:0|0:0,0:0:0:0:
441,318,69431,2,0,P|451:235|430:107,1,180,4|0,0:0|0:0,0:0:0:0:
471,47,69806,1,0,0:0:0:0:
383,89,69931,1,0,0:0:0:0:
228,59,70056,6,0,P|169:27|47:61,1,180,4|0,0:0|0:0,0:0:0:0:
144,119,70431,2,0,P|202:150|325:117,1,180,4|0,0:0|0:0,0:0:0:0:
228,59,70806,1,0,0:0:0:0:
52,132,71056,5,4,0:0:0:0:
234,83,71223,1,0,0:0:0:0:
45,107,71389,1,0,0:0:0:0:
51,83,71556,1,0,0:0:0:0:
215,177,71723,1,0,0:0:0:0:
64,61,71889,1,0,0:0:0:0:
39,250,72056,6,0,P|55:292|47:336,1,90,4|0,0:0|0:0,0:0:0:0:
131,323,72306,1,0,0:0:0:0:
211,351,72431,1,4,0:0:0:0:
273,292,72556,1,0,0:0:0:0:
249,210,72681,1,0,0:0:0:0:
332,230,72806,1,0,2:0:0:0:
332,230,72868,1,0,0:0:0:0:
332,230,72931,1,0,0:0:0:0:
203,134,73056,6,0,P|245:121|288:130,1,90,4|0,0:0|0:0,0:0:0:0:
368,99,73306,1,0,0:0:0:0:
427,159,73431,1,4,0:0:0:0:
481,78,73556,2,0,L|499:28,2,45
440,276,73806,2,0,L|458:326,2,45
359,91,74056,5,4,0:0:0:0:
281,57,74181,1,0,0:0:0:0:
291,142,74306,1,0,0:0:0:0:
213,108,74431,1,4,0:0:0:0:
111,83,74556,2,0,L|201:79,1,90
67,185,74806,1,0,0:0:0:0:
45,184,74868,1,0,0:0:0:0:
23,183,74931,1,0,0:0:0:0:
74,309,75056,5,4,0:0:0:0:
157,341,75181,1,0,0:0:0:0:
252,306,75306,2,0,L|162:310,1,90,0|4,0:0|0:0,0:0:0:0:
64,219,75556,2,0,L|19:215,2,45
196,156,75806,2,0,L|240:152,2,45
20,18,76056,6,0,L|24:108,1,90,4|0,0:0|0:0,0:0:0:0:
115,18,76306,1,0,0:0:0:0:
173,86,76431,1,4,0:0:0:0:
338,32,76556,2,0,L|248:36,1,90
269,122,76806,1,0,0:0:0:0:
269,122,76868,1,0,0:0:0:0:
269,122,76931,1,0,0:0:0:0:
455,45,77056,5,4,0:0:0:0:
469,157,77181,1,0,0:0:0:0:
475,66,77306,1,0,0:0:0:0:
489,178,77431,1,4,0:0:0:0:
365,113,77556,2,0,L|346:66,2,45
430,251,77806,2,0,L|411:298,2,45
307,250,78056,6,0,P|263:241|224:262,1,90
183,343,78306,1,8,0:0:0:0:
183,343,78431,1,8,0:0:0:0:
127,272,78556,2,0,P|83:280|44:259,1,90
4,179,78806,1,8,0:0:0:0:
4,179,78931,1,8,0:0:0:0:
117,23,79056,6,0,P|158:37|181:75,1,90
177,164,79306,1,8,0:0:0:0:
177,164,79431,1,8,0:0:0:0:
261,131,79556,2,0,P|294:159|338:161,1,90
415,112,79806,1,8,0:0:0:0:
415,112,79931,1,8,0:0:0:0:
456,324,80056,6,0,L|451:216,1,107.999996704102,4|0,0:0|0:0,0:0:0:0:
379,361,80556,1,0,0:0:0:0:
448,162,80806,6,0,L|455:338,1,161.999995056153
414,253,81306,1,0,0:0:0:0:
382,230,81389,1,0,0:0:0:0:
343,229,81472,1,0,0:0:0:0:
310,251,81556,6,0,L|256:248,1,53.9999983520508
156,164,81806,2,0,L|210:161,1,53.9999983520508
397,34,82056,6,0,P|351:62|296:65,1,107.999996704102
343,229,82556,2,0,P|390:204|443:207,1,107.999996704102
257,311,82931,1,0,0:0:0:0:
259,284,82993,1,0,0:0:0:0:
260,257,83056,6,0,L|251:193,1,53.9999983520508
311,148,83306,2,0,L|295:36,1,107.999996704102
36,76,83806,1,0,0:0:0:0:
49,75,83868,1,0,0:0:0:0:
62,74,83931,1,0,0:0:0:0:
76,74,83993,1,0,0:0:0:0:
89,73,84056,6,0,L|104:184,2,107.999996704102,4|0|0,0:0|0:0|0:0,0:0:0:0:
26,194,84806,6,0,L|18:370,1,161.999995056153
60,285,85306,1,0,0:0:0:0:
91,262,85389,1,0,0:0:0:0:
130,261,85472,1,0,0:0:0:0:
164,283,85556,2,0,L|218:280,1,53.9999983520508
318,196,85806,2,0,L|264:193,1,53.9999983520508
164,109,86056,6,0,P|100:131|30:64,1,161.999995056153
246,100,86556,2,0,P|258:33|351:6,1,161.999995056153
211,174,87056,6,0,P|245:216|248:269,2,107.999996704102
87,256,87806,1,0,0:0:0:0:
103,254,87868,1,0,0:0:0:0:
120,252,87931,1,0,0:0:0:0:
136,250,87993,1,0,0:0:0:0:
152,249,88056,6,0,L|136:360,2,107.999996704102,4|0|0,0:0|0:0|0:0,0:0:0:0:
222,346,88806,6,0,L|398:353,1,161.999995056153
420,282,89306,1,0,0:0:0:0:
420,282,89389,1,0,0:0:0:0:
420,282,89472,1,0,0:0:0:0:
465,304,89556,6,0,L|462:250,1,53.9999983520508
311,152,89806,2,0,L|308:206,1,53.9999983520508
496,44,90056,6,0,L|501:159,1,107.999996704102
401,9,90431,1,0,0:0:0:0:
401,9,90556,2,0,L|406:124,1,107.999996704102
306,44,90931,1,0,0:0:0:0:
306,44,91056,6,0,L|311:159,2,107.999996704102
119,46,91806,6,0,L|80:40,3,26.9999991760254
202,25,92056,6,0,L|204:78,1,53.9999983520508,4|0,0:0|0:0,0:0:0:0:
134,127,92306,2,0,L|131:180,1,53.9999983520508
214,167,92556,1,0,0:0:0:0:
115,185,92681,1,0,0:0:0:0:
181,262,92806,1,0,0:0:0:0:
245,337,92931,1,0,0:0:0:0:
279,239,93056,6,0,L|344:242,1,53.9999983520508
389,300,93306,1,0,0:0:0:0:
471,292,93431,1,0,0:0:0:0:
465,102,93556,2,0,L|399:105,1,53.9999983520508
355,163,93806,2,0,L|301:160,1,53.9999983520508
360,18,94056,5,8,0:0:0:0:
360,18,94181,1,8,0:0:0:0:
179,47,94306,6,0,L|262:34,1,72
438,97,94556,2,0,L|509:107,1,72
291,228,94806,2,0,L|306:129,1,72
250,36,95056,5,0,0:0:0:0:
224,288,95181,2,0,P|250:311|285:318,1,72
359,360,95430,1,0,0:0:0:0:
433,319,95556,1,0,0:0:0:0:
429,222,95681,1,0,0:0:0:0:
464,227,95743,1,0,0:0:0:0:
500,232,95806,2,0,L|485:192,1,36
394,103,95931,2,0,L|378:143,1,36
228,333,96056,6,0,P|154:290|169:207,1,180,4|0,0:0|0:0,0:0:0:0:
31,40,96431,2,0,P|103:83|87:166,1,180,4|0,0:0|0:0,0:0:0:0:
18,216,96806,1,0,0:0:0:0:
156,116,96931,1,0,0:0:0:0:
172,284,97056,6,0,P|255:299|298:226,1,180,4|0,0:0|0:0,0:0:0:0:
344,95,97431,2,0,P|274:143|297:225,1,180,4|0,0:0|0:0,0:0:0:0:
363,174,97806,1,0,0:0:0:0:
197,275,97931,1,0,0:0:0:0:
460,331,98056,6,0,P|473:254|452:149,1,180,4|0,0:0|0:0,0:0:0:0:
291,49,98431,2,0,P|278:126|299:231,1,180,4|0,0:0|0:0,0:0:0:0:
339,351,98806,2,0,P|363:317|363:267,1,90
204,166,99056,6,0,L|27:200,1,180,4|0,0:0|0:0,0:0:0:0:
364,148,99431,2,0,L|188:187,1,180,4|0,0:0|0:0,0:0:0:0:
239,38,99806,5,0,0:0:0:0:
266,5,99868,1,0,0:0:0:0:
308,15,99931,1,0,0:0:0:0:
318,56,99993,1,0,0:0:0:0:
288,85,100056,6,0,P|271:170|326:237,1,180,4|0,0:0|0:0,0:0:0:0:
477,256,100431,2,0,P|493:170|438:103,1,180,4|0,0:0|0:0,0:0:0:0:
326,237,100806,1,0,0:0:0:0:
438,103,100931,1,0,0:0:0:0:
192,47,101056,6,0,B|379:121,1,180,4|0,0:0|0:0,0:0:0:0:
184,171,101431,2,0,B|-3:96,1,180,4|0,0:0|0:0,0:0:0:0:
109,10,101806,1,0,0:0:0:0:
109,10,101931,1,0,0:0:0:0:
133,312,102056,6,0,P|132:254|23:237,1,180,4|0,0:0|0:0,0:0:0:0:
184,171,102431,2,0,P|225:211|314:146,1,180,4|0,0:0|0:0,0:0:0:0:
228,59,102806,1,0,0:0:0:0:
52,132,103056,5,4,0:0:0:0:
234,83,103223,1,0,0:0:0:0:
45,107,103389,1,0,0:0:0:0:
51,83,103556,1,0,0:0:0:0:
215,177,103723,1,0,0:0:0:0:
64,61,103889,1,0,0:0:0:0:
30,271,104056,6,0,L|219:254,1,180,4|0,0:0|0:0,0:0:0:0:
379,327,104431,2,0,L|199:343,1,180,4|0,0:0|0:0,0:0:0:0:
283,246,104806,1,0,0:0:0:0:
126,352,104931,1,0,0:0:0:0:
111,164,105056,6,0,P|182:117|247:169,1,180,4|0,0:0|0:0,0:0:0:0:
318,321,105431,2,0,P|383:373|454:327,1,180,4|0,0:0|0:0,0:0:0:0:
475,239,105806,1,0,0:0:0:0:
388,265,105931,1,0,0:0:0:0:
299,101,106056,6,0,L|487:154,1,180,4|0,0:0|0:0,0:0:0:0:
169,245,106431,2,0,L|342:196,1,180,4|0,0:0|0:0,0:0:0:0:
344,28,106806,2,0,P|311:57|298:100,1,90
244,347,107056,6,0,P|163:327|168:244,1,180,4|0,0:0|0:0,0:0:0:0:
17,104,107431,2,0,P|97:124|92:207,1,180,4|0,0:0|0:0,0:0:0:0:
32,312,107806,2,0,P|32:341|40:372,2,45
92,207,108056,5,4,0:0:0:0:
176,304,108181,1,0,0:0:0:0:
259,193,108306,2,0,L|149:205,1,90,0|4,0:0|0:0,0:0:0:0:
255,99,108556,1,0,0:0:0:0:
384,304,108681,1,0,0:0:0:0:
422,113,108806,2,0,L|311:101,1,90
61,99,109056,5,0,0:0:0:0:
63,112,109118,1,0,0:0:0:0:
66,125,109181,1,0,0:0:0:0:
68,138,109243,1,0,0:0:0:0:
49,155,109306,1,0,0:0:0:0:
51,168,109368,1,0,0:0:0:0:
54,181,109431,1,0,0:0:0:0:
56,194,109493,1,0,0:0:0:0:
60,209,109556,6,0,L|80:315,1,90
34,376,109806,1,0,0:0:0:0:
120,376,109931,1,0,0:0:0:0:
227,199,110056,5,0,0:0:0:0:
307,158,110181,1,0,0:0:0:0:
389,194,110306,1,0,0:0:0:0:
416,277,110431,1,0,0:0:0:0:
416,277,110806,2,0,P|450:300|481:271,1,90
468,78,111056,5,0,0:0:0:0:
387,118,111181,1,0,0:0:0:0:
307,158,111306,1,0,0:0:0:0:
227,199,111431,1,0,0:0:0:0:
227,199,111806,2,0,P|192:175|161:204,1,90
39,341,112056,6,0,L|186:325,1,135.000005149842
206,297,112431,1,0,0:0:0:0:
246,316,112556,2,0,L|320:307,1,67.5000025749208
475,290,112806,2,0,L|400:298,1,67.5000025749208
512,158,113056,6,0,L|365:174,1,135.000005149842
345,202,113431,1,0,0:0:0:0:
305,183,113556,2,0,L|158:199,1,135.000005149842
266,83,114056,6,0,L|192:91,1,67.5000025749208
359,89,114306,2,0,P|350:60|351:15,2,67.5000025749208
429,112,114681,1,0,0:0:0:0:
480,57,114806,2,0,L|470:220,2,135.000005149842
480,57,115431,1,0,0:0:0:0:
480,57,115556,1,0,0:0:0:0:
416,251,115806,1,0,0:0:0:0:
300,65,116056,6,0,P|329:56|374:57,2,67.5000025749208
229,40,116431,1,0,0:0:0:0:
175,91,116556,2,0,L|88:81,1,67.5000025749208
57,138,116806,2,0,P|71:168|65:227,1,67.5000025749208
23,257,117056,6,0,L|178:238,1,135.000005149842
156,240,117431,1,0,0:0:0:0:
156,240,117556,1,0,0:0:0:0:
256,256,117806,1,0,0:0:0:0:
97,96,118056,6,0,P|88:175|116:250,1,161.999995056153
395,250,118556,2,0,P|423:175|414:96,1,161.999995056153
163,156,119056,2,0,L|192:128,1,40.4999987640381
348,156,119181,2,0,L|320:128,1,40.4999987640381
256,192,119306,1,0,0:0:0:0:
183,323,119556,5,0,0:0:0:0:
216,345,119618,1,0,0:0:0:0:
255,353,119681,1,0,0:0:0:0:
294,345,119743,1,0,0:0:0:0:
327,323,119806,1,0,0:0:0:0:
411,349,119931,1,0,0:0:0:0:
495,323,120056,6,0,P|477:266|489:233,1,80.9999975280763
410,193,120306,1,0,0:0:0:0:
491,156,120431,1,0,0:0:0:0:
419,101,120556,2,0,P|423:62|406:26,1,80.9999975280763
296,96,120806,2,0,P|256:102|215:96,1,80.9999975280763
106,25,121056,2,0,P|88:62|92:101,1,80.9999975280763
102,193,121305,5,0,0:0:0:0:
21,156,121430,1,0,0:0:0:0:
30,247,121556,2,0,P|34:286|16:323,1,80.9999975280763
170,339,121806,2,0,P|146:306|114:283,1,80.9999975280763
163,144,122056,5,0,0:0:0:0:
224,208,122181,1,0,0:0:0:0:
240,66,122306,2,0,P|200:60|161:66,1,80.9999975280763
23,45,122556,1,0,0:0:0:0:
0,128,122681,1,0,0:0:0:0:
101,193,122806,2,0,P|140:198|180:192,1,80.9999975280763
255,144,123056,5,0,0:0:0:0:
260,232,123181,1,0,0:0:0:0:
334,183,123306,1,0,0:0:0:0:
334,183,123431,1,0,0:0:0:0:
467,251,123556,2,0,P|472:290|467:330,1,80.9999975280763
399,383,123806,2,0,P|359:388|319:383,1,80.9999975280763
174,316,124056,6,0,L|279:321,1,80.9999975280763
333,306,124306,1,0,0:0:0:0:
390,251,124431,1,0,0:0:0:0:
485,175,124556,2,0,L|405:172,1,80.9999975280763
356,97,124806,1,0,0:0:0:0:
273,146,124931,1,0,0:0:0:0:
169,31,125056,6,0,L|177:131,1,80.9999975280763
93,77,125306,2,0,L|101:177,1,80.9999975280763
16,124,125493,1,0,0:0:0:0:
16,124,125556,2,0,L|24:224,1,80.9999975280763
104,317,125806,2,0,L|96:217,1,80.9999975280763
280,151,126056,6,0,B|336:48|256:-2|176:48|232:152,1,270
368,208,127056,6,0,L|352:256,1,45
144,208,127181,2,0,L|160:256,1,45
256,336,127306,2,0,L|256:240,1,90
144,128,127556,1,0,0:0:0:0:
144,128,127681,1,0,0:0:0:0:
368,128,127806,1,0,0:0:0:0:
368,128,127931,1,0,0:0:0:0:
256,32,128056,6,0,P|173:54|80:38,1,180
6,103,128431,1,0,0:0:0:0:
57,187,128556,2,0,P|68:230|60:274,1,90
13,362,128806,1,0,0:0:0:0:
60,274,128931,1,0,0:0:0:0:
178,364,129056,6,0,P|156:281|172:188,1,180
97,122,129431,1,0,0:0:0:0:
250,267,129556,2,0,P|293:274|337:263,1,90
291,175,129806,1,0,0:0:0:0:
296,355,129931,1,0,0:0:0:0:
443,86,130056,6,0,P|465:169|449:262,1,180
381,321,130431,1,0,0:0:0:0:
375,125,130556,2,0,P|386:176|374:227,1,90
193,169,130806,1,0,0:0:0:0:
291,175,130931,1,0,0:0:0:0:
170,296,131056,6,0,L|138:118,1,180
201,42,131431,1,0,0:0:0:0:
370,137,131556,2,0,P|329:166|288:174,1,90
193,169,131806,1,0,0:0:0:0:
297,83,131931,1,0,0:0:0:0:
328,260,132056,6,0,L|296:82,1,180
201,42,132431,1,0,0:0:0:0:
44,73,132556,6,0,L|65:197,1,90
20,252,132806,1,0,0:0:0:0:
116,273,132931,1,0,0:0:0:0:
308,315,133056,6,0,L|130:346,1,180
49,345,133431,1,0,0:0:0:0:
140,188,133556,2,0,P|178:210|201:250,1,90
20,252,133806,1,0,0:0:0:0:
45,156,133931,1,0,0:0:0:0:
94,17,134056,6,0,P|125:84|217:47,1,180
299,58,134431,2,0,P|376:88|418:17,1,180
256,176,134806,1,0,0:0:0:0:
256,176,135056,5,4,0:0:0:0:
114,202,135243,1,0,0:0:0:0:
398,202,135431,1,0,0:0:0:0:
256,352,135556,1,0,0:0:0:0:
368,272,135743,1,0,0:0:0:0:
144,272,135931,1,0,0:0:0:0:
31,95,136056,6,0,P|109:140|197:138,1,180
315,178,136431,1,0,0:0:0:0:
290,83,136556,2,0,P|260:49|219:32,1,90
121,12,136806,1,0,0:0:0:0:
196,138,136931,1,0,0:0:0:0:
178,283,137056,6,0,P|101:327|9:308,1,180
79,209,137431,1,0,0:0:0:0:
262,333,137556,2,0,P|278:285|263:235,1,90
196,138,137806,1,0,0:0:0:0:
334,189,137931,1,0,0:0:0:0:
467,28,138056,6,0,L|275:99,1,180
172,34,138431,1,0,0:0:0:0:
196,138,138556,2,0,P|198:197|180:235,1,90
91,170,138806,1,0,0:0:0:0:
298,90,138931,1,0,0:0:0:0:
263,309,139056,6,0,L|59:289,1,180
83,292,139431,1,0,0:0:0:0:
260,219,139556,2,0,P|303:229|337:259,1,90
405,330,139806,1,0,0:0:0:0:
508,230,139931,1,0,0:0:0:0:
405,130,140056,6,0,P|374:82|472:73,1,180
359,211,140431,1,0,0:0:0:0:
297,45,140556,2,0,P|255:59|210:61,1,90
109,19,140806,1,0,0:0:0:0:
160,187,140931,1,0,0:0:0:0:
35,311,141056,6,0,P|92:289|219:344,1,180
310,323,141431,2,0,P|391:288|477:311,1,180
201,323,141806,1,0,0:0:0:0:
310,323,141931,1,0,0:0:0:0:
256,208,142056,5,0,0:0:0:0:
256,208,143056,5,0,0:0:0:0:
