osu file format v14

[General]
AudioFilename: heart.mp3
AudioLeadIn: 0
PreviewTime: 9581
Countdown: 0
SampleSet: Normal
StackLeniency: 0.7
Mode: 3
LetterboxInBreaks: 0
SpecialStyle: 0
WidescreenStoryboard: 1

[Editor]
DistanceSpacing: 1
BeatDivisor: 4
GridSize: 32
TimelineZoom: 2.2

[Metadata]
Title:Destination Of The Heart
TitleUnicode:Destination Of The Heart
Artist:Renard
ArtistUnicode:Renard
Creator:[ Eon Fox ]
Version:MYD3 4K Expert
Source:Mungyo Dance
Tags:Electronica Fast MYD Short
BeatmapID:3177185
BeatmapSetID:303186

[Difficulty]
HPDrainRate:8
CircleSize:4
OverallDifficulty:10
ApproachRate:5
SliderMultiplier:1.4
SliderTickRate:1

[Events]
//Background and Video events
0,0,"heart-bg.jpg",0,0
//Break Periods
//Storyboard Layer 0 (Background)
//Storyboard Layer 1 (Fail)
//Storyboard Layer 2 (Pass)
//Storyboard Layer 3 (Foreground)
//Storyboard Layer 4 (Overlay)
//Storyboard Sound Samples

[TimingPoints]
1191,300,4,1,0,100,1,0
9591,150,4,1,0,100,1,0
31191,2250,4,1,0,100,1,0
33441,150,4,1,0,100,1,0
59841,2400,4,1,0,100,1,0
62241,150,4,1,0,100,1,0
88791,399.997333,4,1,0,100,1,0
99991,199.999333,4,1,0,100,1,0

[HitObjects]
64,192,5091,5,0,0:0:0:0:
192,192,5241,1,0,0:0:0:0:
320,192,5391,1,0,0:0:0:0:
320,192,5691,1,0,0:0:0:0:
448,192,5841,1,0,0:0:0:0:
192,192,5991,1,0,0:0:0:0:
192,192,6291,1,0,0:0:0:0:
320,192,6441,1,0,0:0:0:0:
64,192,6591,1,0,0:0:0:0:
64,192,6891,1,0,0:0:0:0:
192,192,7041,1,0,0:0:0:0:
320,192,7191,1,0,0:0:0:0:
320,192,7491,1,0,0:0:0:0:
448,192,7641,1,0,0:0:0:0:
320,192,7791,1,0,0:0:0:0:
320,192,8091,1,0,0:0:0:0:
192,192,8241,1,0,0:0:0:0:
64,192,8391,1,0,0:0:0:0:
448,192,8691,1,0,0:0:0:0:
192,192,8991,1,0,0:0:0:0:
64,192,9291,1,0,0:0:0:0:
448,192,9291,1,0,0:0:0:0:
448,192,9591,1,0,0:0:0:0:
192,192,9741,1,0,0:0:0:0:
448,192,9891,1,0,0:0:0:0:
64,192,9966,1,0,0:0:0:0:
448,192,10041,1,0,0:0:0:0:
64,192,10191,1,0,0:0:0:0:
192,192,10341,1,0,0:0:0:0:
64,192,10491,1,0,0:0:0:0:
448,192,10566,1,0,0:0:0:0:
64,192,10641,1,0,0:0:0:0:
448,192,10791,1,0,0:0:0:0:
192,192,10941,1,0,0:0:0:0:
448,192,11091,1,0,0:0:0:0:
320,192,11166,1,0,0:0:0:0:
448,192,11241,1,0,0:0:0:0:
64,192,11391,1,0,0:0:0:0:
192,192,11541,1,0,0:0:0:0:
64,192,11691,1,0,0:0:0:0:
320,192,11766,1,0,0:0:0:0:
64,192,11841,1,0,0:0:0:0:
448,192,11991,1,0,0:0:0:0:
64,192,12141,1,0,0:0:0:0:
448,192,12291,1,0,0:0:0:0:
320,192,12366,1,0,0:0:0:0:
192,192,12441,1,0,0:0:0:0:
64,192,12516,1,0,0:0:0:0:
448,192,12591,1,0,0:0:0:0:
64,192,12741,1,0,0:0:0:0:
448,192,12891,1,0,0:0:0:0:
192,192,12966,1,0,0:0:0:0:
448,192,13041,1,0,0:0:0:0:
64,192,13191,1,0,0:0:0:0:
192,192,13341,1,0,0:0:0:0:
64,192,13491,1,0,0:0:0:0:
192,192,13566,1,0,0:0:0:0:
320,192,13641,1,0,0:0:0:0:
448,192,13716,1,0,0:0:0:0:
64,192,13791,1,0,0:0:0:0:
448,192,13941,1,0,0:0:0:0:
64,192,14091,1,0,0:0:0:0:
320,192,14166,1,0,0:0:0:0:
64,192,14241,1,0,0:0:0:0:
448,192,14391,1,0,0:0:0:0:
64,192,14541,1,0,0:0:0:0:
320,192,14616,1,0,0:0:0:0:
64,192,14691,1,0,0:0:0:0:
448,192,14841,1,0,0:0:0:0:
192,192,14916,1,0,0:0:0:0:
448,192,14991,1,0,0:0:0:0:
64,192,15141,1,0,0:0:0:0:
192,192,15216,1,0,0:0:0:0:
64,192,15291,1,0,0:0:0:0:
448,192,15441,1,0,0:0:0:0:
64,192,15591,1,0,0:0:0:0:
320,192,15741,1,0,0:0:0:0:
64,192,15816,1,0,0:0:0:0:
320,192,15891,1,0,0:0:0:0:
64,192,15966,1,0,0:0:0:0:
320,192,16041,1,0,0:0:0:0:
192,192,16191,1,0,0:0:0:0:
448,192,16341,1,0,0:0:0:0:
320,192,16416,1,0,0:0:0:0:
448,192,16491,1,0,0:0:0:0:
64,192,16641,1,0,0:0:0:0:
320,192,16791,1,0,0:0:0:0:
192,192,16941,1,0,0:0:0:0:
448,192,17091,1,0,0:0:0:0:
64,192,17241,1,0,0:0:0:0:
192,192,17316,1,0,0:0:0:0:
320,192,17391,1,0,0:0:0:0:
448,192,17541,1,0,0:0:0:0:
64,192,17691,1,0,0:0:0:0:
192,192,17766,1,0,0:0:0:0:
320,192,17841,1,0,0:0:0:0:
448,192,17916,1,0,0:0:0:0:
64,192,17991,1,0,0:0:0:0:
64,192,18141,1,0,0:0:0:0:
64,192,18291,1,0,0:0:0:0:
448,192,18441,1,0,0:0:0:0:
448,192,18591,1,0,0:0:0:0:
448,192,18741,1,0,0:0:0:0:
192,192,18891,1,0,0:0:0:0:
320,192,18891,1,0,0:0:0:0:
64,192,19191,1,0,0:0:0:0:
320,192,19341,1,0,0:0:0:0:
64,192,19491,1,0,0:0:0:0:
448,192,19566,1,0,0:0:0:0:
64,192,19641,1,0,0:0:0:0:
448,192,19791,1,0,0:0:0:0:
320,192,19941,1,0,0:0:0:0:
448,192,20091,1,0,0:0:0:0:
64,192,20166,1,0,0:0:0:0:
448,192,20241,1,0,0:0:0:0:
64,192,20391,1,0,0:0:0:0:
320,192,20541,1,0,0:0:0:0:
64,192,20691,1,0,0:0:0:0:
192,192,20766,1,0,0:0:0:0:
64,192,20841,1,0,0:0:0:0:
448,192,20991,1,0,0:0:0:0:
320,192,21141,1,0,0:0:0:0:
448,192,21291,1,0,0:0:0:0:
192,192,21366,1,0,0:0:0:0:
448,192,21441,1,0,0:0:0:0:
64,192,21591,1,0,0:0:0:0:
448,192,21741,1,0,0:0:0:0:
64,192,21891,1,0,0:0:0:0:
192,192,21966,1,0,0:0:0:0:
320,192,22041,1,0,0:0:0:0:
448,192,22116,1,0,0:0:0:0:
64,192,22191,1,0,0:0:0:0:
448,192,22341,1,0,0:0:0:0:
64,192,22491,1,0,0:0:0:0:
320,192,22566,1,0,0:0:0:0:
64,192,22641,1,0,0:0:0:0:
448,192,22791,1,0,0:0:0:0:
320,192,22941,1,0,0:0:0:0:
448,192,23091,1,0,0:0:0:0:
320,192,23166,1,0,0:0:0:0:
192,192,23241,1,0,0:0:0:0:
64,192,23316,1,0,0:0:0:0:
448,192,23391,1,0,0:0:0:0:
64,192,23541,1,0,0:0:0:0:
448,192,23691,1,0,0:0:0:0:
192,192,23766,1,0,0:0:0:0:
448,192,23841,1,0,0:0:0:0:
64,192,23991,1,0,0:0:0:0:
448,192,24141,1,0,0:0:0:0:
192,192,24216,1,0,0:0:0:0:
448,192,24291,1,0,0:0:0:0:
64,192,24441,1,0,0:0:0:0:
320,192,24516,1,0,0:0:0:0:
64,192,24591,1,0,0:0:0:0:
448,192,24741,1,0,0:0:0:0:
320,192,24816,1,0,0:0:0:0:
448,192,24891,1,0,0:0:0:0:
64,192,25041,1,0,0:0:0:0:
448,192,25191,1,0,0:0:0:0:
192,192,25341,1,0,0:0:0:0:
448,192,25416,1,0,0:0:0:0:
192,192,25491,1,0,0:0:0:0:
448,192,25566,1,0,0:0:0:0:
192,192,25641,1,0,0:0:0:0:
320,192,25791,1,0,0:0:0:0:
64,192,25941,1,0,0:0:0:0:
192,192,26016,1,0,0:0:0:0:
64,192,26091,1,0,0:0:0:0:
448,192,26241,1,0,0:0:0:0:
192,192,26391,1,0,0:0:0:0:
320,192,26541,1,0,0:0:0:0:
64,192,26691,1,0,0:0:0:0:
448,192,26841,1,0,0:0:0:0:
320,192,26916,1,0,0:0:0:0:
192,192,26991,1,0,0:0:0:0:
64,192,27141,1,0,0:0:0:0:
448,192,27291,1,0,0:0:0:0:
320,192,27366,1,0,0:0:0:0:
192,192,27441,1,0,0:0:0:0:
64,192,27516,1,0,0:0:0:0:
448,192,27591,1,0,0:0:0:0:
448,192,27741,1,0,0:0:0:0:
448,192,27891,1,0,0:0:0:0:
64,192,28041,1,0,0:0:0:0:
64,192,28191,1,0,0:0:0:0:
64,192,28341,1,0,0:0:0:0:
192,192,28491,1,0,0:0:0:0:
320,192,28491,1,0,0:0:0:0:
64,192,28791,128,0,31041:0:0:0:0:
192,192,29391,128,0,31041:0:0:0:0:
320,192,29991,128,0,31041:0:0:0:0:
448,192,30591,128,0,31041:0:0:0:0:
64,192,31191,1,0,0:0:0:0:
192,192,31191,1,0,0:0:0:0:
320,192,31191,1,0,0:0:0:0:
448,192,31191,1,0,0:0:0:0:
64,192,33591,1,0,0:0:0:0:
448,192,33591,1,0,0:0:0:0:
192,192,33741,1,0,0:0:0:0:
320,192,33891,1,0,0:0:0:0:
64,192,34041,1,0,0:0:0:0:
64,192,34191,1,0,0:0:0:0:
192,192,34191,1,0,0:0:0:0:
320,192,34341,1,0,0:0:0:0:
448,192,34491,1,0,0:0:0:0:
192,192,34641,1,0,0:0:0:0:
64,192,34791,1,0,0:0:0:0:
320,192,34791,1,0,0:0:0:0:
192,192,34941,1,0,0:0:0:0:
448,192,35091,1,0,0:0:0:0:
320,192,35241,1,0,0:0:0:0:
448,192,35241,1,0,0:0:0:0:
192,192,35541,1,0,0:0:0:0:
64,192,35691,1,0,0:0:0:0:
192,192,35766,1,0,0:0:0:0:
320,192,35841,1,0,0:0:0:0:
448,192,35916,1,0,0:0:0:0:
64,192,35991,1,0,0:0:0:0:
448,192,36141,1,0,0:0:0:0:
64,192,36291,1,0,0:0:0:0:
448,192,36441,1,0,0:0:0:0:
192,192,36591,1,0,0:0:0:0:
448,192,36741,1,0,0:0:0:0:
64,192,36816,1,0,0:0:0:0:
192,192,36891,1,0,0:0:0:0:
320,192,37041,1,0,0:0:0:0:
448,192,37191,1,0,0:0:0:0:
192,192,37341,1,0,0:0:0:0:
320,192,37491,1,0,0:0:0:0:
64,192,37641,1,0,0:0:0:0:
192,192,37791,1,0,0:0:0:0:
320,192,37941,1,0,0:0:0:0:
448,192,38091,1,0,0:0:0:0:
64,192,38241,1,0,0:0:0:0:
64,192,38391,1,0,0:0:0:0:
192,192,38391,1,0,0:0:0:0:
320,192,38541,1,0,0:0:0:0:
448,192,38691,1,0,0:0:0:0:
192,192,38841,1,0,0:0:0:0:
192,192,38991,1,0,0:0:0:0:
320,192,38991,1,0,0:0:0:0:
192,192,39141,1,0,0:0:0:0:
448,192,39291,1,0,0:0:0:0:
320,192,39441,1,0,0:0:0:0:
64,192,39591,1,0,0:0:0:0:
192,192,39591,1,0,0:0:0:0:
320,192,39741,1,0,0:0:0:0:
448,192,39891,1,0,0:0:0:0:
192,192,40041,1,0,0:0:0:0:
448,192,40041,1,0,0:0:0:0:
320,192,40341,1,0,0:0:0:0:
64,192,40491,1,0,0:0:0:0:
320,192,40566,1,0,0:0:0:0:
192,192,40641,1,0,0:0:0:0:
448,192,40716,1,0,0:0:0:0:
192,192,40791,1,0,0:0:0:0:
320,192,40941,1,0,0:0:0:0:
64,192,41091,1,0,0:0:0:0:
320,192,41241,1,0,0:0:0:0:
192,192,41391,1,0,0:0:0:0:
448,192,41541,1,0,0:0:0:0:
64,192,41616,1,0,0:0:0:0:
192,192,41691,1,0,0:0:0:0:
320,192,41841,1,0,0:0:0:0:
448,192,41991,1,0,0:0:0:0:
64,192,42141,1,0,0:0:0:0:
192,192,42291,1,0,0:0:0:0:
64,192,42441,1,0,0:0:0:0:
448,192,42591,1,0,0:0:0:0:
192,192,42741,1,0,0:0:0:0:
448,192,42891,1,0,0:0:0:0:
64,192,42966,1,0,0:0:0:0:
448,192,43041,1,0,0:0:0:0:
64,192,43191,1,0,0:0:0:0:
192,192,43341,1,0,0:0:0:0:
320,192,43491,1,0,0:0:0:0:
448,192,43566,1,0,0:0:0:0:
64,192,43641,1,0,0:0:0:0:
448,192,43791,1,0,0:0:0:0:
192,192,43941,1,0,0:0:0:0:
320,192,44091,1,0,0:0:0:0:
64,192,44241,1,0,0:0:0:0:
448,192,44391,1,0,0:0:0:0:
320,192,44541,1,0,0:0:0:0:
192,192,44691,1,0,0:0:0:0:
64,192,44766,1,0,0:0:0:0:
448,192,44841,1,0,0:0:0:0:
192,192,44991,1,0,0:0:0:0:
320,192,45141,1,0,0:0:0:0:
64,192,45291,1,0,0:0:0:0:
320,192,45441,1,0,0:0:0:0:
192,192,45591,1,0,0:0:0:0:
448,192,45741,1,0,0:0:0:0:
320,192,45891,1,0,0:0:0:0:
192,192,46041,1,0,0:0:0:0:
64,192,46191,1,0,0:0:0:0:
192,192,46341,1,0,0:0:0:0:
320,192,46491,1,0,0:0:0:0:
448,192,46641,1,0,0:0:0:0:
64,192,46791,1,0,0:0:0:0:
64,192,46941,1,0,0:0:0:0:
448,192,47091,1,0,0:0:0:0:
448,192,47241,1,0,0:0:0:0:
64,192,47391,1,0,0:0:0:0:
64,192,47541,1,0,0:0:0:0:
320,192,47691,1,0,0:0:0:0:
320,192,47841,1,0,0:0:0:0:
64,192,47991,1,0,0:0:0:0:
192,192,48066,1,0,0:0:0:0:
64,192,48141,1,0,0:0:0:0:
448,192,48216,1,0,0:0:0:0:
64,192,48291,1,0,0:0:0:0:
320,192,48366,1,0,0:0:0:0:
64,192,48441,1,0,0:0:0:0:
64,192,48891,1,0,0:0:0:0:
448,192,48891,1,0,0:0:0:0:
448,192,49191,1,0,0:0:0:0:
320,192,49266,1,0,0:0:0:0:
448,192,49341,1,0,0:0:0:0:
64,192,49416,1,0,0:0:0:0:
448,192,49491,1,0,0:0:0:0:
192,192,49566,1,0,0:0:0:0:
448,192,49641,1,0,0:0:0:0:
448,192,50091,1,0,0:0:0:0:
64,192,50166,1,0,0:0:0:0:
192,192,50241,1,0,0:0:0:0:
64,192,50391,1,0,0:0:0:0:
192,192,50391,1,0,0:0:0:0:
320,192,50541,1,0,0:0:0:0:
448,192,50691,1,0,0:0:0:0:
192,192,50841,1,0,0:0:0:0:
320,192,50991,1,0,0:0:0:0:
64,192,51141,1,0,0:0:0:0:
192,192,51291,1,0,0:0:0:0:
320,192,51441,1,0,0:0:0:0:
192,192,51591,1,0,0:0:0:0:
64,192,51741,1,0,0:0:0:0:
448,192,51891,1,0,0:0:0:0:
192,192,52041,1,0,0:0:0:0:
320,192,52191,1,0,0:0:0:0:
64,192,52341,1,0,0:0:0:0:
192,192,52491,1,0,0:0:0:0:
320,192,52641,1,0,0:0:0:0:
448,192,52791,1,0,0:0:0:0:
64,192,52941,1,0,0:0:0:0:
192,192,53016,1,0,0:0:0:0:
320,192,53091,1,0,0:0:0:0:
448,192,53241,1,0,0:0:0:0:
320,192,53316,1,0,0:0:0:0:
192,192,53391,1,0,0:0:0:0:
64,192,53541,1,0,0:0:0:0:
192,192,53616,1,0,0:0:0:0:
320,192,53691,1,0,0:0:0:0:
448,192,53841,1,0,0:0:0:0:
64,192,53991,1,0,0:0:0:0:
448,192,54141,1,0,0:0:0:0:
192,192,54216,1,0,0:0:0:0:
320,192,54291,1,0,0:0:0:0:
64,192,54441,1,0,0:0:0:0:
320,192,54516,1,0,0:0:0:0:
192,192,54591,1,0,0:0:0:0:
448,192,54741,1,0,0:0:0:0:
192,192,54816,1,0,0:0:0:0:
320,192,54891,1,0,0:0:0:0:
64,192,55041,1,0,0:0:0:0:
448,192,55191,1,0,0:0:0:0:
448,192,55341,1,0,0:0:0:0:
64,192,55491,1,0,0:0:0:0:
192,192,55566,1,0,0:0:0:0:
320,192,55641,1,0,0:0:0:0:
64,192,56091,1,0,0:0:0:0:
448,192,56091,1,0,0:0:0:0:
192,192,56391,1,0,0:0:0:0:
192,192,56541,1,0,0:0:0:0:
448,192,56691,1,0,0:0:0:0:
64,192,56841,1,0,0:0:0:0:
64,192,56991,1,0,0:0:0:0:
192,192,57141,1,0,0:0:0:0:
320,192,57291,1,0,0:0:0:0:
320,192,57441,1,0,0:0:0:0:
448,192,57591,1,0,0:0:0:0:
320,192,57666,1,0,0:0:0:0:
448,192,57741,1,0,0:0:0:0:
320,192,57816,1,0,0:0:0:0:
448,192,57891,1,0,0:0:0:0:
320,192,57966,1,0,0:0:0:0:
448,192,58041,1,0,0:0:0:0:
64,192,58191,1,0,0:0:0:0:
320,192,58266,1,0,0:0:0:0:
64,192,58341,1,0,0:0:0:0:
320,192,58416,1,0,0:0:0:0:
64,192,58491,1,0,0:0:0:0:
320,192,58566,1,0,0:0:0:0:
64,192,58641,1,0,0:0:0:0:
448,192,58791,1,0,0:0:0:0:
192,192,58866,1,0,0:0:0:0:
448,192,58941,1,0,0:0:0:0:
192,192,59016,1,0,0:0:0:0:
448,192,59091,1,0,0:0:0:0:
192,192,59166,1,0,0:0:0:0:
448,192,59241,1,0,0:0:0:0:
64,192,59391,1,0,0:0:0:0:
192,192,59466,1,0,0:0:0:0:
64,192,59541,1,0,0:0:0:0:
192,192,59616,1,0,0:0:0:0:
64,192,59691,1,0,0:0:0:0:
192,192,59766,1,0,0:0:0:0:
64,192,59841,1,0,0:0:0:0:
448,192,62391,1,0,0:0:0:0:
192,192,62466,1,0,0:0:0:0:
448,192,62541,1,0,0:0:0:0:
64,192,62616,1,0,0:0:0:0:
192,192,62691,1,0,0:0:0:0:
64,192,62766,1,0,0:0:0:0:
448,192,62841,1,0,0:0:0:0:
192,192,62916,1,0,0:0:0:0:
448,192,62991,1,0,0:0:0:0:
64,192,63066,1,0,0:0:0:0:
192,192,63141,1,0,0:0:0:0:
64,192,63216,1,0,0:0:0:0:
448,192,63291,1,0,0:0:0:0:
320,192,63366,1,0,0:0:0:0:
192,192,63441,1,0,0:0:0:0:
64,192,63516,1,0,0:0:0:0:
448,192,63591,1,0,0:0:0:0:
320,192,63666,1,0,0:0:0:0:
448,192,63741,1,0,0:0:0:0:
64,192,63816,1,0,0:0:0:0:
320,192,63891,1,0,0:0:0:0:
64,192,63966,1,0,0:0:0:0:
448,192,64041,1,0,0:0:0:0:
320,192,64116,1,0,0:0:0:0:
448,192,64191,1,0,0:0:0:0:
64,192,64266,1,0,0:0:0:0:
320,192,64341,1,0,0:0:0:0:
64,192,64416,1,0,0:0:0:0:
448,192,64491,1,0,0:0:0:0:
320,192,64566,1,0,0:0:0:0:
192,192,64641,1,0,0:0:0:0:
64,192,64716,1,0,0:0:0:0:
448,192,64791,1,0,0:0:0:0:
192,192,64866,1,0,0:0:0:0:
448,192,64941,1,0,0:0:0:0:
64,192,65016,1,0,0:0:0:0:
192,192,65091,1,0,0:0:0:0:
64,192,65166,1,0,0:0:0:0:
448,192,65241,1,0,0:0:0:0:
192,192,65316,1,0,0:0:0:0:
448,192,65391,1,0,0:0:0:0:
64,192,65466,1,0,0:0:0:0:
192,192,65541,1,0,0:0:0:0:
64,192,65616,1,0,0:0:0:0:
448,192,65691,1,0,0:0:0:0:
320,192,65766,1,0,0:0:0:0:
192,192,65841,1,0,0:0:0:0:
64,192,65916,1,0,0:0:0:0:
448,192,65991,1,0,0:0:0:0:
320,192,66066,1,0,0:0:0:0:
448,192,66141,1,0,0:0:0:0:
64,192,66216,1,0,0:0:0:0:
320,192,66291,1,0,0:0:0:0:
64,192,66366,1,0,0:0:0:0:
448,192,66441,1,0,0:0:0:0:
320,192,66516,1,0,0:0:0:0:
448,192,66591,1,0,0:0:0:0:
64,192,66666,1,0,0:0:0:0:
320,192,66741,1,0,0:0:0:0:
64,192,66816,1,0,0:0:0:0:
448,192,66891,1,0,0:0:0:0:
320,192,66966,1,0,0:0:0:0:
192,192,67041,1,0,0:0:0:0:
64,192,67116,1,0,0:0:0:0:
448,192,67191,1,0,0:0:0:0:
320,192,67266,1,0,0:0:0:0:
448,192,67341,1,0,0:0:0:0:
320,192,67416,1,0,0:0:0:0:
192,192,67491,1,0,0:0:0:0:
64,192,67566,1,0,0:0:0:0:
192,192,67641,1,0,0:0:0:0:
64,192,67716,1,0,0:0:0:0:
448,192,67791,1,0,0:0:0:0:
192,192,67866,1,0,0:0:0:0:
448,192,67941,1,0,0:0:0:0:
192,192,68016,1,0,0:0:0:0:
320,192,68091,1,0,0:0:0:0:
64,192,68166,1,0,0:0:0:0:
320,192,68241,1,0,0:0:0:0:
64,192,68316,1,0,0:0:0:0:
448,192,68391,1,0,0:0:0:0:
320,192,68466,1,0,0:0:0:0:
192,192,68541,1,0,0:0:0:0:
64,192,68616,1,0,0:0:0:0:
192,192,68691,1,0,0:0:0:0:
320,192,68766,1,0,0:0:0:0:
448,192,68841,1,0,0:0:0:0:
64,192,68916,1,0,0:0:0:0:
192,192,68991,1,0,0:0:0:0:
320,192,69066,1,0,0:0:0:0:
448,192,69141,1,0,0:0:0:0:
320,192,69216,1,0,0:0:0:0:
192,192,69291,1,0,0:0:0:0:
64,192,69366,1,0,0:0:0:0:
448,192,69441,1,0,0:0:0:0:
320,192,69516,1,0,0:0:0:0:
192,192,69591,1,0,0:0:0:0:
64,192,69666,1,0,0:0:0:0:
192,192,69741,1,0,0:0:0:0:
64,192,69816,1,0,0:0:0:0:
448,192,69891,1,0,0:0:0:0:
320,192,69966,1,0,0:0:0:0:
448,192,70041,1,0,0:0:0:0:
320,192,70116,1,0,0:0:0:0:
448,192,70191,1,0,0:0:0:0:
192,192,70266,1,0,0:0:0:0:
448,192,70341,1,0,0:0:0:0:
192,192,70416,1,0,0:0:0:0:
320,192,70491,1,0,0:0:0:0:
64,192,70566,1,0,0:0:0:0:
320,192,70641,1,0,0:0:0:0:
64,192,70716,1,0,0:0:0:0:
448,192,70791,1,0,0:0:0:0:
192,192,70866,1,0,0:0:0:0:
320,192,70941,1,0,0:0:0:0:
64,192,71016,1,0,0:0:0:0:
320,192,71091,1,0,0:0:0:0:
192,192,71166,1,0,0:0:0:0:
448,192,71241,1,0,0:0:0:0:
64,192,71316,1,0,0:0:0:0:
192,192,71391,1,0,0:0:0:0:
320,192,71466,1,0,0:0:0:0:
448,192,71541,1,0,0:0:0:0:
320,192,71616,1,0,0:0:0:0:
192,192,71691,1,0,0:0:0:0:
64,192,71766,1,0,0:0:0:0:
448,192,71841,1,0,0:0:0:0:
192,192,71916,1,0,0:0:0:0:
448,192,71991,1,0,0:0:0:0:
320,192,72066,1,0,0:0:0:0:
192,192,72141,1,0,0:0:0:0:
64,192,72216,1,0,0:0:0:0:
192,192,72291,1,0,0:0:0:0:
320,192,72366,1,0,0:0:0:0:
448,192,72441,1,0,0:0:0:0:
64,192,72516,1,0,0:0:0:0:
192,192,72591,1,0,0:0:0:0:
320,192,72666,1,0,0:0:0:0:
448,192,72741,1,0,0:0:0:0:
320,192,72816,1,0,0:0:0:0:
192,192,72891,1,0,0:0:0:0:
64,192,72966,1,0,0:0:0:0:
448,192,73041,1,0,0:0:0:0:
64,192,73116,1,0,0:0:0:0:
448,192,73191,1,0,0:0:0:0:
192,192,73266,1,0,0:0:0:0:
320,192,73341,1,0,0:0:0:0:
64,192,73416,1,0,0:0:0:0:
320,192,73491,1,0,0:0:0:0:
192,192,73566,1,0,0:0:0:0:
448,192,73641,1,0,0:0:0:0:
64,192,73716,1,0,0:0:0:0:
320,192,73791,1,0,0:0:0:0:
192,192,73866,1,0,0:0:0:0:
448,192,73941,1,0,0:0:0:0:
192,192,74016,1,0,0:0:0:0:
320,192,74091,1,0,0:0:0:0:
64,192,74166,1,0,0:0:0:0:
448,192,74241,1,0,0:0:0:0:
64,192,74316,1,0,0:0:0:0:
448,192,74391,1,0,0:0:0:0:
320,192,74466,1,0,0:0:0:0:
192,192,74541,1,0,0:0:0:0:
320,192,74616,1,0,0:0:0:0:
448,192,74691,1,0,0:0:0:0:
64,192,74766,1,0,0:0:0:0:
192,192,74841,1,0,0:0:0:0:
320,192,74916,1,0,0:0:0:0:
192,192,74991,1,0,0:0:0:0:
64,192,75066,1,0,0:0:0:0:
448,192,75141,1,0,0:0:0:0:
320,192,75216,1,0,0:0:0:0:
192,192,75291,1,0,0:0:0:0:
64,192,75366,1,0,0:0:0:0:
448,192,75441,1,0,0:0:0:0:
64,192,75516,1,0,0:0:0:0:
448,192,75591,1,0,0:0:0:0:
192,192,75666,1,0,0:0:0:0:
320,192,75741,1,0,0:0:0:0:
192,192,75816,1,0,0:0:0:0:
448,192,75891,1,0,0:0:0:0:
64,192,75966,1,0,0:0:0:0:
320,192,76041,1,0,0:0:0:0:
192,192,76116,1,0,0:0:0:0:
320,192,76191,1,0,0:0:0:0:
64,192,76266,1,0,0:0:0:0:
448,192,76341,1,0,0:0:0:0:
192,192,76416,1,0,0:0:0:0:
320,192,76491,1,0,0:0:0:0:
64,192,76566,1,0,0:0:0:0:
448,192,76641,1,0,0:0:0:0:
64,192,76716,1,0,0:0:0:0:
448,192,76791,1,0,0:0:0:0:
320,192,76866,1,0,0:0:0:0:
192,192,76941,1,0,0:0:0:0:
64,192,77016,1,0,0:0:0:0:
192,192,77091,1,0,0:0:0:0:
320,192,77166,1,0,0:0:0:0:
448,192,77241,1,0,0:0:0:0:
64,192,77316,1,0,0:0:0:0:
320,192,77391,1,0,0:0:0:0:
64,192,77466,1,0,0:0:0:0:
320,192,77541,1,0,0:0:0:0:
192,192,77616,1,0,0:0:0:0:
448,192,77691,1,0,0:0:0:0:
192,192,77766,1,0,0:0:0:0:
448,192,77841,1,0,0:0:0:0:
64,192,77916,1,0,0:0:0:0:
192,192,77991,1,0,0:0:0:0:
320,192,78066,1,0,0:0:0:0:
448,192,78141,1,0,0:0:0:0:
320,192,78216,1,0,0:0:0:0:
192,192,78291,1,0,0:0:0:0:
64,192,78366,1,0,0:0:0:0:
448,192,78441,1,0,0:0:0:0:
192,192,78516,1,0,0:0:0:0:
448,192,78591,1,0,0:0:0:0:
192,192,78666,1,0,0:0:0:0:
320,192,78741,1,0,0:0:0:0:
64,192,78816,1,0,0:0:0:0:
320,192,78891,1,0,0:0:0:0:
64,192,78966,1,0,0:0:0:0:
448,192,79041,1,0,0:0:0:0:
64,192,79116,1,0,0:0:0:0:
448,192,79191,1,0,0:0:0:0:
64,192,79266,1,0,0:0:0:0:
320,192,79341,1,0,0:0:0:0:
192,192,79416,1,0,0:0:0:0:
448,192,79491,1,0,0:0:0:0:
192,192,79566,1,0,0:0:0:0:
448,192,79641,1,0,0:0:0:0:
64,192,79716,1,0,0:0:0:0:
192,192,79791,1,0,0:0:0:0:
320,192,79866,1,0,0:0:0:0:
448,192,79941,1,0,0:0:0:0:
320,192,80016,1,0,0:0:0:0:
192,192,80091,1,0,0:0:0:0:
64,192,80166,1,0,0:0:0:0:
448,192,80241,1,0,0:0:0:0:
192,192,80316,1,0,0:0:0:0:
448,192,80391,1,0,0:0:0:0:
192,192,80466,1,0,0:0:0:0:
320,192,80541,1,0,0:0:0:0:
64,192,80616,1,0,0:0:0:0:
320,192,80691,1,0,0:0:0:0:
64,192,80766,1,0,0:0:0:0:
448,192,80841,1,0,0:0:0:0:
320,192,80916,1,0,0:0:0:0:
192,192,80991,1,0,0:0:0:0:
64,192,81066,1,0,0:0:0:0:
192,192,81141,1,0,0:0:0:0:
320,192,81216,1,0,0:0:0:0:
448,192,81291,1,0,0:0:0:0:
192,192,81366,1,0,0:0:0:0:
448,192,81441,1,0,0:0:0:0:
192,192,81516,1,0,0:0:0:0:
320,192,81591,1,0,0:0:0:0:
64,192,81666,1,0,0:0:0:0:
320,192,81741,1,0,0:0:0:0:
64,192,81816,1,0,0:0:0:0:
192,192,81891,1,0,0:0:0:0:
320,192,81966,1,0,0:0:0:0:
448,192,82041,1,0,0:0:0:0:
320,192,82116,1,0,0:0:0:0:
192,192,82191,1,0,0:0:0:0:
64,192,82266,1,0,0:0:0:0:
448,192,82341,1,0,0:0:0:0:
320,192,82416,1,0,0:0:0:0:
448,192,82491,1,0,0:0:0:0:
64,192,82566,1,0,0:0:0:0:
192,192,82641,1,0,0:0:0:0:
64,192,82716,1,0,0:0:0:0:
448,192,82791,1,0,0:0:0:0:
320,192,82866,1,0,0:0:0:0:
448,192,82941,1,0,0:0:0:0:
64,192,83016,1,0,0:0:0:0:
320,192,83091,1,0,0:0:0:0:
64,192,83166,1,0,0:0:0:0:
448,192,83241,1,0,0:0:0:0:
192,192,83316,1,0,0:0:0:0:
448,192,83391,1,0,0:0:0:0:
64,192,83466,1,0,0:0:0:0:
192,192,83541,1,0,0:0:0:0:
320,192,83616,1,0,0:0:0:0:
448,192,83691,1,0,0:0:0:0:
192,192,83766,1,0,0:0:0:0:
320,192,83841,1,0,0:0:0:0:
64,192,83916,1,0,0:0:0:0:
64,192,83991,128,0,86391:0:0:0:0:
448,192,83991,128,0,86391:0:0:0:0:
192,192,86391,1,0,0:0:0:0:
320,192,86391,1,0,0:0:0:0:
64,192,88791,1,0,0:0:0:0:
448,192,88791,1,0,0:0:0:0:
448,192,89191,1,0,0:0:0:0:
192,192,89391,1,0,0:0:0:0:
64,192,89791,1,0,0:0:0:0:
448,192,89791,1,0,0:0:0:0:
64,192,90191,1,0,0:0:0:0:
192,192,90191,1,0,0:0:0:0:
448,192,90791,1,0,0:0:0:0:
320,192,90991,1,0,0:0:0:0:
192,192,91391,1,0,0:0:0:0:
64,192,91591,1,0,0:0:0:0:
448,192,91791,1,0,0:0:0:0:
192,192,91991,1,0,0:0:0:0:
320,192,92391,1,0,0:0:0:0:
192,192,92591,1,0,0:0:0:0:
192,192,92991,1,0,0:0:0:0:
448,192,92991,1,0,0:0:0:0:
64,192,93391,1,0,0:0:0:0:
320,192,93391,1,0,0:0:0:0:
64,192,93791,1,0,0:0:0:0:
448,192,93791,1,0,0:0:0:0:
64,192,94191,1,0,0:0:0:0:
192,192,94191,1,0,0:0:0:0:
320,192,94591,1,0,0:0:0:0:
448,192,94591,1,0,0:0:0:0:
448,192,94991,1,0,0:0:0:0:
320,192,95191,1,0,0:0:0:0:
192,192,95591,1,0,0:0:0:0:
64,192,95791,1,0,0:0:0:0:
320,192,95991,1,0,0:0:0:0:
448,192,96191,1,0,0:0:0:0:
320,192,96391,1,0,0:0:0:0:
192,192,96591,1,0,0:0:0:0:
192,192,96991,1,0,0:0:0:0:
448,192,96991,1,0,0:0:0:0:
64,192,97391,1,0,0:0:0:0:
320,192,97591,1,0,0:0:0:0:
192,192,97791,1,0,0:0:0:0:
448,192,97991,1,0,0:0:0:0:
64,192,98391,1,0,0:0:0:0:
448,192,98391,1,0,0:0:0:0:
448,192,99191,1,0,0:0:0:0:
320,192,99291,1,0,0:0:0:0:
192,192,99391,1,0,0:0:0:0:
64,192,99491,1,0,0:0:0:0:
192,192,99591,1,0,0:0:0:0:
320,192,99691,1,0,0:0:0:0:
448,192,99791,1,0,0:0:0:0:
64,192,99891,1,0,0:0:0:0:
64,192,99991,1,0,0:0:0:0:
448,192,99991,1,0,0:0:0:0:
