osu file format v14

[General]
AudioFilename: audio.mp3
AudioLeadIn: 0
PreviewTime: 25593
Countdown: 0
SampleSet: None
StackLeniency: 0.7
Mode: 3
LetterboxInBreaks: 0
SpecialStyle: 0
WidescreenStoryboard: 0

[Editor]
Bookmarks: 6393,12793,19193,22393,25593,31993,38393,44793,51150,57529,63907
DistanceSpacing: 1.1
BeatDivisor: 2
GridSize: 4
TimelineZoom: 3.749999

[Metadata]
Title:Dash Hopes 3
TitleUnicode:Dash Hopes 3
Artist:Renard
ArtistUnicode:Renard
Creator:JustinNF
Version:DASH-HOPES (for the best)
Source:Mungyodance 3
Tags:Speedcore
BeatmapID:1496261
BeatmapSetID:707624

[Difficulty]
HPDrainRate:8
CircleSize:4
OverallDifficulty:8
ApproachRate:5
SliderMultiplier:1.4
SliderTickRate:1

[Events]
//Background and Video events
0,0,"BG-01.jpg",0,0
//Break Periods
//Storyboard Layer 0 (Background)
//Storyboard Layer 1 (Fail)
//Storyboard Layer 2 (Pass)
//Storyboard Layer 3 (Foreground)
//Storyboard Sound Samples

[TimingPoints]
11,199.667221297837,4,1,0,25,1,0
25573,100,4,1,0,25,1,0
25573,-200,4,1,0,25,0,1
31973,199.667221297837,4,1,0,25,1,0
31973,-100,4,1,0,25,0,0
57530,99.6677740863787,4,1,0,25,1,0
57530,-200,4,1,0,25,0,1
63908,199.335548172757,4,1,0,25,1,0
63908,-100,4,1,0,25,0,0

[HitObjects]
448,192,11,5,0,0:0:0:0:
64,192,11,1,0,0:0:0:0:
192,192,11,128,0,3006:0:0:0:0:
448,192,1059,1,0,0:0:0:0:
64,192,1059,1,0,0:0:0:0:
448,192,3006,1,0,0:0:0:0:
320,192,3055,1,0,0:0:0:0:
192,192,3105,1,0,0:0:0:0:
64,192,3155,1,0,0:0:0:0:
448,192,3405,128,0,3605:0:0:0:0:
64,192,3605,128,0,3804:0:0:0:0:
192,192,3804,128,0,4303:0:0:0:0:
320,192,4603,1,0,0:0:0:0:
64,192,4653,1,0,0:0:0:0:
448,192,4753,128,0,5002:0:0:0:0:
192,192,5202,1,0,0:0:0:0:
320,192,5302,1,0,0:0:0:0:
448,192,5402,128,0,5601:0:0:0:0:
192,192,5801,128,0,6001:0:0:0:0:
448,192,6400,1,0,0:0:0:0:
192,192,6400,1,0,0:0:0:0:
64,192,6400,1,0,0:0:0:0:
320,192,6400,1,0,0:0:0:0:
192,192,6450,1,0,0:0:0:0:
320,192,6500,1,0,0:0:0:0:
64,192,6550,1,0,0:0:0:0:
320,192,6600,1,0,0:0:0:0:
192,192,6600,1,0,0:0:0:0:
448,192,6600,1,0,0:0:0:0:
64,192,6649,1,0,0:0:0:0:
192,192,6699,1,0,0:0:0:0:
320,192,6749,1,0,0:0:0:0:
448,192,6799,1,0,0:0:0:0:
192,192,6799,1,0,0:0:0:0:
64,192,6799,1,0,0:0:0:0:
320,192,6849,1,0,0:0:0:0:
64,192,6899,1,0,0:0:0:0:
448,192,6949,1,0,0:0:0:0:
64,192,6999,1,0,0:0:0:0:
192,192,6999,1,0,0:0:0:0:
320,192,6999,1,0,0:0:0:0:
448,192,7049,1,0,0:0:0:0:
320,192,7099,1,0,0:0:0:0:
192,192,7149,1,0,0:0:0:0:
448,192,7199,1,0,0:0:0:0:
320,192,7199,1,0,0:0:0:0:
64,192,7199,1,0,0:0:0:0:
192,192,7248,1,0,0:0:0:0:
320,192,7298,1,0,0:0:0:0:
64,192,7348,1,0,0:0:0:0:
192,192,7398,1,0,0:0:0:0:
320,192,7398,1,0,0:0:0:0:
448,192,7398,1,0,0:0:0:0:
64,192,7448,1,0,0:0:0:0:
320,192,7498,1,0,0:0:0:0:
448,192,7548,1,0,0:0:0:0:
320,192,7598,1,0,0:0:0:0:
192,192,7598,1,0,0:0:0:0:
64,192,7598,1,0,0:0:0:0:
448,192,7648,1,0,0:0:0:0:
192,192,7698,1,0,0:0:0:0:
320,192,7748,1,0,0:0:0:0:
448,192,7798,1,0,0:0:0:0:
192,192,7798,1,0,0:0:0:0:
64,192,7798,1,0,0:0:0:0:
320,192,7847,1,0,0:0:0:0:
64,192,7897,1,0,0:0:0:0:
192,192,7947,1,0,0:0:0:0:
320,192,7997,1,0,0:0:0:0:
448,192,7997,1,0,0:0:0:0:
64,192,7997,1,0,0:0:0:0:
192,192,8047,1,0,0:0:0:0:
320,192,8097,1,0,0:0:0:0:
448,192,8147,1,0,0:0:0:0:
320,192,8197,1,0,0:0:0:0:
192,192,8197,1,0,0:0:0:0:
64,192,8197,1,0,0:0:0:0:
448,192,8247,1,0,0:0:0:0:
192,192,8297,1,0,0:0:0:0:
64,192,8347,1,0,0:0:0:0:
192,192,8397,1,0,0:0:0:0:
320,192,8397,1,0,0:0:0:0:
448,192,8397,1,0,0:0:0:0:
64,192,8446,1,0,0:0:0:0:
320,192,8496,1,0,0:0:0:0:
192,192,8546,1,0,0:0:0:0:
64,192,8596,1,0,0:0:0:0:
320,192,8596,1,0,0:0:0:0:
448,192,8596,1,0,0:0:0:0:
192,192,8646,1,0,0:0:0:0:
320,192,8696,1,0,0:0:0:0:
448,192,8746,1,0,0:0:0:0:
320,192,8796,1,0,0:0:0:0:
192,192,8796,1,0,0:0:0:0:
64,192,8796,1,0,0:0:0:0:
448,192,8846,1,0,0:0:0:0:
192,192,8896,1,0,0:0:0:0:
64,192,8946,1,0,0:0:0:0:
192,192,8996,1,0,0:0:0:0:
320,192,8996,1,0,0:0:0:0:
448,192,8996,1,0,0:0:0:0:
64,192,9045,1,0,0:0:0:0:
320,192,9095,1,0,0:0:0:0:
192,192,9145,1,0,0:0:0:0:
64,192,9195,1,0,0:0:0:0:
320,192,9195,1,0,0:0:0:0:
448,192,9195,1,0,0:0:0:0:
192,192,9245,1,0,0:0:0:0:
320,192,9295,1,0,0:0:0:0:
448,192,9345,1,0,0:0:0:0:
64,192,9395,1,0,0:0:0:0:
192,192,9395,1,0,0:0:0:0:
320,192,9395,1,0,0:0:0:0:
448,192,9445,1,0,0:0:0:0:
192,192,9495,1,0,0:0:0:0:
320,192,9545,1,0,0:0:0:0:
448,192,9595,1,0,0:0:0:0:
320,192,9595,1,0,0:0:0:0:
192,192,9595,1,0,0:0:0:0:
64,192,9595,1,0,0:0:0:0:
64,192,9644,1,0,0:0:0:0:
448,192,9694,1,0,0:0:0:0:
192,192,9744,1,0,0:0:0:0:
320,192,9794,1,0,0:0:0:0:
448,192,9794,1,0,0:0:0:0:
64,192,9794,1,0,0:0:0:0:
192,192,9844,1,0,0:0:0:0:
320,192,9894,1,0,0:0:0:0:
448,192,9944,1,0,0:0:0:0:
320,192,9994,1,0,0:0:0:0:
192,192,9994,1,0,0:0:0:0:
64,192,9994,1,0,0:0:0:0:
448,192,10044,1,0,0:0:0:0:
192,192,10094,1,0,0:0:0:0:
64,192,10144,1,0,0:0:0:0:
192,192,10194,1,0,0:0:0:0:
320,192,10194,1,0,0:0:0:0:
448,192,10194,1,0,0:0:0:0:
64,192,10243,1,0,0:0:0:0:
320,192,10293,1,0,0:0:0:0:
192,192,10343,1,0,0:0:0:0:
64,192,10393,1,0,0:0:0:0:
320,192,10393,1,0,0:0:0:0:
448,192,10393,1,0,0:0:0:0:
192,192,10443,1,0,0:0:0:0:
320,192,10493,1,0,0:0:0:0:
64,192,10543,1,0,0:0:0:0:
192,192,10593,1,0,0:0:0:0:
320,192,10593,1,0,0:0:0:0:
448,192,10593,1,0,0:0:0:0:
64,192,10643,1,0,0:0:0:0:
192,192,10693,1,0,0:0:0:0:
448,192,10743,1,0,0:0:0:0:
320,192,10793,1,0,0:0:0:0:
192,192,10793,1,0,0:0:0:0:
64,192,10793,1,0,0:0:0:0:
448,192,10842,1,0,0:0:0:0:
320,192,10892,1,0,0:0:0:0:
64,192,10942,1,0,0:0:0:0:
192,192,10992,1,0,0:0:0:0:
320,192,10992,1,0,0:0:0:0:
448,192,10992,1,0,0:0:0:0:
64,192,11042,1,0,0:0:0:0:
320,192,11092,1,0,0:0:0:0:
192,192,11142,1,0,0:0:0:0:
64,192,11192,1,0,0:0:0:0:
320,192,11192,1,0,0:0:0:0:
448,192,11192,1,0,0:0:0:0:
192,192,11242,1,0,0:0:0:0:
320,192,11292,1,0,0:0:0:0:
448,192,11342,1,0,0:0:0:0:
320,192,11392,1,0,0:0:0:0:
192,192,11392,1,0,0:0:0:0:
64,192,11392,1,0,0:0:0:0:
448,192,11441,1,0,0:0:0:0:
192,192,11491,1,0,0:0:0:0:
320,192,11541,1,0,0:0:0:0:
448,192,11591,1,0,0:0:0:0:
192,192,11591,1,0,0:0:0:0:
64,192,11591,1,0,0:0:0:0:
320,192,11641,1,0,0:0:0:0:
192,192,11691,1,0,0:0:0:0:
64,192,11741,1,0,0:0:0:0:
192,192,11791,1,0,0:0:0:0:
320,192,11791,1,0,0:0:0:0:
448,192,11791,1,0,0:0:0:0:
64,192,11841,1,0,0:0:0:0:
448,192,11891,1,0,0:0:0:0:
192,192,11941,1,0,0:0:0:0:
64,192,11991,1,0,0:0:0:0:
320,192,11991,1,0,0:0:0:0:
448,192,11991,1,0,0:0:0:0:
192,192,12040,1,0,0:0:0:0:
320,192,12090,1,0,0:0:0:0:
64,192,12140,1,0,0:0:0:0:
192,192,12190,1,0,0:0:0:0:
320,192,12190,1,0,0:0:0:0:
448,192,12190,1,0,0:0:0:0:
64,192,12240,1,0,0:0:0:0:
192,192,12290,1,0,0:0:0:0:
448,192,12340,1,0,0:0:0:0:
320,192,12390,1,0,0:0:0:0:
192,192,12390,1,0,0:0:0:0:
64,192,12390,1,0,0:0:0:0:
448,192,12440,1,0,0:0:0:0:
320,192,12490,1,0,0:0:0:0:
64,192,12540,1,0,0:0:0:0:
192,192,12590,1,0,0:0:0:0:
320,192,12590,1,0,0:0:0:0:
448,192,12590,1,0,0:0:0:0:
64,192,12639,1,0,0:0:0:0:
192,192,12689,1,0,0:0:0:0:
320,192,12739,1,0,0:0:0:0:
448,192,12789,1,0,0:0:0:0:
320,192,12789,1,0,0:0:0:0:
192,192,12789,1,0,0:0:0:0:
64,192,12789,1,0,0:0:0:0:
448,192,12839,1,0,0:0:0:0:
320,192,12889,1,0,0:0:0:0:
192,192,12889,1,0,0:0:0:0:
64,192,12939,1,0,0:0:0:0:
320,192,12989,1,0,0:0:0:0:
448,192,12989,1,0,0:0:0:0:
192,192,12989,1,0,0:0:0:0:
64,192,13039,1,0,0:0:0:0:
448,192,13089,1,0,0:0:0:0:
192,192,13089,1,0,0:0:0:0:
320,192,13139,1,0,0:0:0:0:
448,192,13189,1,0,0:0:0:0:
64,192,13189,1,0,0:0:0:0:
192,192,13189,1,0,0:0:0:0:
320,192,13238,1,0,0:0:0:0:
448,192,13288,1,0,0:0:0:0:
64,192,13288,1,0,0:0:0:0:
192,192,13338,1,0,0:0:0:0:
448,192,13388,1,0,0:0:0:0:
320,192,13388,1,0,0:0:0:0:
64,192,13388,1,0,0:0:0:0:
192,192,13438,1,0,0:0:0:0:
320,192,13488,1,0,0:0:0:0:
448,192,13488,1,0,0:0:0:0:
64,192,13538,1,0,0:0:0:0:
448,192,13588,1,0,0:0:0:0:
320,192,13588,1,0,0:0:0:0:
192,192,13588,1,0,0:0:0:0:
64,192,13638,1,0,0:0:0:0:
448,192,13688,1,0,0:0:0:0:
192,192,13688,1,0,0:0:0:0:
320,192,13738,1,0,0:0:0:0:
64,192,13788,1,0,0:0:0:0:
192,192,13788,1,0,0:0:0:0:
448,192,13788,1,0,0:0:0:0:
320,192,13837,1,0,0:0:0:0:
64,192,13887,1,0,0:0:0:0:
192,192,13887,1,0,0:0:0:0:
448,192,13937,1,0,0:0:0:0:
64,192,13987,1,0,0:0:0:0:
192,192,13987,1,0,0:0:0:0:
320,192,13987,1,0,0:0:0:0:
448,192,14037,1,0,0:0:0:0:
192,192,14087,1,0,0:0:0:0:
320,192,14087,1,0,0:0:0:0:
64,192,14137,1,0,0:0:0:0:
448,192,14187,1,0,0:0:0:0:
320,192,14187,1,0,0:0:0:0:
192,192,14187,1,0,0:0:0:0:
64,192,14237,1,0,0:0:0:0:
192,192,14287,1,0,0:0:0:0:
448,192,14287,1,0,0:0:0:0:
320,192,14337,1,0,0:0:0:0:
64,192,14387,1,0,0:0:0:0:
192,192,14387,1,0,0:0:0:0:
448,192,14387,1,0,0:0:0:0:
320,192,14436,1,0,0:0:0:0:
64,192,14486,1,0,0:0:0:0:
448,192,14486,1,0,0:0:0:0:
192,192,14536,1,0,0:0:0:0:
448,192,14586,1,0,0:0:0:0:
64,192,14586,1,0,0:0:0:0:
320,192,14586,1,0,0:0:0:0:
192,192,14636,1,0,0:0:0:0:
320,192,14686,1,0,0:0:0:0:
64,192,14686,1,0,0:0:0:0:
448,192,14736,1,0,0:0:0:0:
320,192,14786,1,0,0:0:0:0:
192,192,14786,1,0,0:0:0:0:
64,192,14786,1,0,0:0:0:0:
448,192,14836,1,0,0:0:0:0:
320,192,14886,1,0,0:0:0:0:
192,192,14886,1,0,0:0:0:0:
64,192,14936,1,0,0:0:0:0:
192,192,14986,1,0,0:0:0:0:
320,192,14986,1,0,0:0:0:0:
448,192,14986,1,0,0:0:0:0:
64,192,15035,1,0,0:0:0:0:
192,192,15085,1,0,0:0:0:0:
448,192,15085,1,0,0:0:0:0:
320,192,15135,1,0,0:0:0:0:
448,192,15185,1,0,0:0:0:0:
192,192,15185,1,0,0:0:0:0:
64,192,15185,1,0,0:0:0:0:
320,192,15235,1,0,0:0:0:0:
192,192,15285,1,0,0:0:0:0:
64,192,15285,1,0,0:0:0:0:
320,192,15335,1,0,0:0:0:0:
448,192,15385,1,0,0:0:0:0:
192,192,15385,1,0,0:0:0:0:
64,192,15385,1,0,0:0:0:0:
320,192,15435,1,0,0:0:0:0:
192,192,15485,1,0,0:0:0:0:
448,192,15485,1,0,0:0:0:0:
64,192,15535,1,0,0:0:0:0:
192,192,15585,1,0,0:0:0:0:
320,192,15585,1,0,0:0:0:0:
448,192,15585,1,0,0:0:0:0:
64,192,15634,1,0,0:0:0:0:
320,192,15684,1,0,0:0:0:0:
448,192,15684,1,0,0:0:0:0:
192,192,15734,1,0,0:0:0:0:
64,192,15784,1,0,0:0:0:0:
320,192,15784,1,0,0:0:0:0:
448,192,15784,1,0,0:0:0:0:
192,192,15834,1,0,0:0:0:0:
64,192,15884,1,0,0:0:0:0:
320,192,15884,1,0,0:0:0:0:
448,192,15934,1,0,0:0:0:0:
448,192,15984,1,0,0:0:0:0:
320,192,15984,1,0,0:0:0:0:
192,192,15984,1,0,0:0:0:0:
64,192,15984,1,0,0:0:0:0:
192,192,16034,1,0,0:0:0:0:
64,192,16084,1,0,0:0:0:0:
448,192,16084,1,0,0:0:0:0:
320,192,16134,1,0,0:0:0:0:
448,192,16184,1,0,0:0:0:0:
192,192,16184,1,0,0:0:0:0:
64,192,16184,1,0,0:0:0:0:
320,192,16233,1,0,0:0:0:0:
192,192,16283,1,0,0:0:0:0:
64,192,16283,1,0,0:0:0:0:
448,192,16333,1,0,0:0:0:0:
320,192,16383,1,0,0:0:0:0:
192,192,16383,1,0,0:0:0:0:
64,192,16383,1,0,0:0:0:0:
448,192,16433,1,0,0:0:0:0:
320,192,16483,1,0,0:0:0:0:
192,192,16483,1,0,0:0:0:0:
64,192,16533,1,0,0:0:0:0:
192,192,16583,1,0,0:0:0:0:
320,192,16583,1,0,0:0:0:0:
448,192,16583,1,0,0:0:0:0:
64,192,16633,1,0,0:0:0:0:
192,192,16683,1,0,0:0:0:0:
448,192,16683,1,0,0:0:0:0:
320,192,16733,1,0,0:0:0:0:
448,192,16783,1,0,0:0:0:0:
192,192,16783,1,0,0:0:0:0:
64,192,16783,1,0,0:0:0:0:
320,192,16832,1,0,0:0:0:0:
448,192,16882,1,0,0:0:0:0:
64,192,16882,1,0,0:0:0:0:
192,192,16932,1,0,0:0:0:0:
64,192,16982,1,0,0:0:0:0:
320,192,16982,1,0,0:0:0:0:
448,192,16982,1,0,0:0:0:0:
192,192,17032,1,0,0:0:0:0:
320,192,17082,1,0,0:0:0:0:
64,192,17082,1,0,0:0:0:0:
448,192,17132,1,0,0:0:0:0:
320,192,17182,1,0,0:0:0:0:
192,192,17182,1,0,0:0:0:0:
64,192,17182,1,0,0:0:0:0:
448,192,17232,1,0,0:0:0:0:
320,192,17282,1,0,0:0:0:0:
192,192,17282,1,0,0:0:0:0:
64,192,17332,1,0,0:0:0:0:
192,192,17382,1,0,0:0:0:0:
320,192,17382,1,0,0:0:0:0:
448,192,17382,1,0,0:0:0:0:
64,192,17431,1,0,0:0:0:0:
192,192,17481,1,0,0:0:0:0:
448,192,17481,1,0,0:0:0:0:
320,192,17531,1,0,0:0:0:0:
448,192,17581,1,0,0:0:0:0:
192,192,17581,1,0,0:0:0:0:
64,192,17581,1,0,0:0:0:0:
320,192,17631,1,0,0:0:0:0:
448,192,17681,1,0,0:0:0:0:
64,192,17681,1,0,0:0:0:0:
192,192,17731,1,0,0:0:0:0:
448,192,17781,1,0,0:0:0:0:
320,192,17781,1,0,0:0:0:0:
64,192,17781,1,0,0:0:0:0:
192,192,17831,1,0,0:0:0:0:
64,192,17881,1,0,0:0:0:0:
320,192,17881,1,0,0:0:0:0:
448,192,17931,1,0,0:0:0:0:
64,192,17981,1,0,0:0:0:0:
192,192,17981,1,0,0:0:0:0:
320,192,17981,1,0,0:0:0:0:
448,192,18030,1,0,0:0:0:0:
192,192,18080,1,0,0:0:0:0:
320,192,18080,1,0,0:0:0:0:
64,192,18130,1,0,0:0:0:0:
448,192,18180,1,0,0:0:0:0:
320,192,18180,1,0,0:0:0:0:
192,192,18180,1,0,0:0:0:0:
64,192,18230,1,0,0:0:0:0:
448,192,18280,1,0,0:0:0:0:
320,192,18280,1,0,0:0:0:0:
192,192,18330,1,0,0:0:0:0:
320,192,18380,1,0,0:0:0:0:
448,192,18380,1,0,0:0:0:0:
64,192,18380,1,0,0:0:0:0:
192,192,18430,1,0,0:0:0:0:
320,192,18480,1,0,0:0:0:0:
64,192,18480,1,0,0:0:0:0:
448,192,18530,1,0,0:0:0:0:
64,192,18580,1,0,0:0:0:0:
192,192,18580,1,0,0:0:0:0:
320,192,18580,1,0,0:0:0:0:
448,192,18629,1,0,0:0:0:0:
192,192,18679,1,0,0:0:0:0:
64,192,18679,1,0,0:0:0:0:
320,192,18729,1,0,0:0:0:0:
448,192,18779,1,0,0:0:0:0:
192,192,18779,1,0,0:0:0:0:
64,192,18779,1,0,0:0:0:0:
320,192,18829,1,0,0:0:0:0:
192,192,18879,1,0,0:0:0:0:
448,192,18879,1,0,0:0:0:0:
64,192,18929,1,0,0:0:0:0:
192,192,18979,1,0,0:0:0:0:
320,192,18979,1,0,0:0:0:0:
448,192,18979,1,0,0:0:0:0:
64,192,19029,1,0,0:0:0:0:
448,192,19079,1,0,0:0:0:0:
320,192,19079,1,0,0:0:0:0:
192,192,19129,1,0,0:0:0:0:
320,192,19179,1,0,0:0:0:0:
448,192,19179,1,0,0:0:0:0:
192,192,19179,1,0,0:0:0:0:
64,192,19179,128,0,19228:0:0:0:0:
320,192,19278,128,0,19328:0:0:0:0:
448,192,19378,128,0,19428:0:0:0:0:
192,192,19478,128,0,19528:0:0:0:0:
64,192,19578,128,0,19628:0:0:0:0:
320,192,19678,128,0,19728:0:0:0:0:
64,192,19778,128,0,19827:0:0:0:0:
192,192,19877,128,0,19927:0:0:0:0:
448,192,19977,128,0,20027:0:0:0:0:
320,192,20077,128,0,20127:0:0:0:0:
64,192,20177,128,0,20227:0:0:0:0:
320,192,20277,128,0,20327:0:0:0:0:
192,192,20377,128,0,20426:0:0:0:0:
448,192,20476,128,0,20526:0:0:0:0:
64,192,20576,128,0,20626:0:0:0:0:
448,192,20676,128,0,20726:0:0:0:0:
192,192,20776,128,0,20826:0:0:0:0:
64,192,20876,128,0,20926:0:0:0:0:
320,192,20976,128,0,21025:0:0:0:0:
448,192,21075,128,0,21125:0:0:0:0:
320,192,21175,128,0,21225:0:0:0:0:
192,192,21275,128,0,21325:0:0:0:0:
320,192,21375,128,0,21425:0:0:0:0:
64,192,21475,128,0,21525:0:0:0:0:
448,192,21575,128,0,21624:0:0:0:0:
192,192,21674,128,0,21724:0:0:0:0:
64,192,21774,128,0,21824:0:0:0:0:
320,192,21874,128,0,21924:0:0:0:0:
64,192,21974,128,0,22024:0:0:0:0:
448,192,22074,128,0,22124:0:0:0:0:
192,192,22174,128,0,22223:0:0:0:0:
64,192,22273,128,0,22323:0:0:0:0:
192,192,22373,1,0,0:0:0:0:
448,192,22373,128,0,22423:0:0:0:0:
64,192,22473,128,0,22523:0:0:0:0:
192,192,22573,128,0,22623:0:0:0:0:
320,192,22573,1,0,0:0:0:0:
448,192,22673,128,0,22723:0:0:0:0:
192,192,22773,1,0,0:0:0:0:
64,192,22773,128,0,22822:0:0:0:0:
320,192,22872,128,0,22922:0:0:0:0:
448,192,22972,128,0,23022:0:0:0:0:
64,192,22972,1,0,0:0:0:0:
192,192,23072,128,0,23122:0:0:0:0:
320,192,23172,1,0,0:0:0:0:
448,192,23172,128,0,23222:0:0:0:0:
64,192,23272,128,0,23322:0:0:0:0:
192,192,23372,1,0,0:0:0:0:
320,192,23372,128,0,23421:0:0:0:0:
448,192,23471,128,0,23521:0:0:0:0:
64,192,23571,128,0,23621:0:0:0:0:
192,192,23571,1,0,0:0:0:0:
320,192,23671,128,0,23721:0:0:0:0:
448,192,23771,128,0,23821:0:0:0:0:
192,192,23771,1,0,0:0:0:0:
64,192,23871,128,0,23921:0:0:0:0:
320,192,23971,1,0,0:0:0:0:
448,192,23971,128,0,24020:0:0:0:0:
192,192,24070,128,0,24120:0:0:0:0:
64,192,24170,1,0,0:0:0:0:
320,192,24170,128,0,24220:0:0:0:0:
448,192,24270,128,0,24320:0:0:0:0:
192,192,24370,1,0,0:0:0:0:
64,192,24370,128,0,24420:0:0:0:0:
320,192,24470,128,0,24520:0:0:0:0:
192,192,24570,128,0,24619:0:0:0:0:
448,192,24570,1,0,0:0:0:0:
320,192,24669,128,0,24719:0:0:0:0:
448,192,24769,1,0,0:0:0:0:
64,192,24769,128,0,24819:0:0:0:0:
192,192,24869,128,0,24919:0:0:0:0:
320,192,24969,1,0,0:0:0:0:
448,192,24969,128,0,25019:0:0:0:0:
64,192,25069,128,0,25119:0:0:0:0:
320,192,25169,1,0,0:0:0:0:
448,192,25169,128,0,25218:0:0:0:0:
192,192,25268,128,0,25318:0:0:0:0:
320,192,25368,128,0,25418:0:0:0:0:
64,192,25368,1,0,0:0:0:0:
192,192,25468,128,0,25518:0:0:0:0:
64,192,25573,1,0,0:0:0:0:
448,192,25573,1,0,0:0:0:0:
192,192,25598,1,0,0:0:0:0:
320,192,25623,1,0,0:0:0:0:
448,192,25623,1,0,0:0:0:0:
64,192,25648,1,0,0:0:0:0:
192,192,25673,1,0,0:0:0:0:
320,192,25673,1,0,0:0:0:0:
448,192,25698,1,0,0:0:0:0:
64,192,25723,1,0,0:0:0:0:
192,192,25723,1,0,0:0:0:0:
320,192,25748,1,0,0:0:0:0:
448,192,25773,1,0,0:0:0:0:
64,192,25773,1,0,0:0:0:0:
192,192,25798,1,0,0:0:0:0:
320,192,25823,1,0,0:0:0:0:
448,192,25823,1,0,0:0:0:0:
64,192,25848,1,0,0:0:0:0:
192,192,25873,1,0,0:0:0:0:
320,192,25873,1,0,0:0:0:0:
448,192,25898,1,0,0:0:0:0:
192,192,25923,1,0,0:0:0:0:
64,192,25923,1,0,0:0:0:0:
320,192,25948,1,0,0:0:0:0:
448,192,25973,1,0,0:0:0:0:
64,192,25973,1,0,0:0:0:0:
192,192,25998,1,0,0:0:0:0:
320,192,26023,1,0,0:0:0:0:
448,192,26023,1,0,0:0:0:0:
192,192,26048,1,0,0:0:0:0:
64,192,26073,1,0,0:0:0:0:
320,192,26073,1,0,0:0:0:0:
448,192,26098,1,0,0:0:0:0:
192,192,26123,1,0,0:0:0:0:
64,192,26123,1,0,0:0:0:0:
320,192,26148,1,0,0:0:0:0:
448,192,26173,1,0,0:0:0:0:
192,192,26173,1,0,0:0:0:0:
64,192,26198,1,0,0:0:0:0:
320,192,26223,1,0,0:0:0:0:
448,192,26223,1,0,0:0:0:0:
192,192,26248,1,0,0:0:0:0:
64,192,26273,1,0,0:0:0:0:
320,192,26273,1,0,0:0:0:0:
448,192,26298,1,0,0:0:0:0:
192,192,26323,1,0,0:0:0:0:
64,192,26323,1,0,0:0:0:0:
320,192,26348,1,0,0:0:0:0:
448,192,26373,1,0,0:0:0:0:
192,192,26373,1,0,0:0:0:0:
64,192,26398,1,0,0:0:0:0:
320,192,26423,1,0,0:0:0:0:
448,192,26423,1,0,0:0:0:0:
192,192,26448,1,0,0:0:0:0:
64,192,26473,1,0,0:0:0:0:
320,192,26473,1,0,0:0:0:0:
448,192,26498,1,0,0:0:0:0:
192,192,26523,1,0,0:0:0:0:
64,192,26523,1,0,0:0:0:0:
320,192,26548,1,0,0:0:0:0:
448,192,26573,1,0,0:0:0:0:
192,192,26573,1,0,0:0:0:0:
320,192,26598,1,0,0:0:0:0:
448,192,26623,1,0,0:0:0:0:
64,192,26623,1,0,0:0:0:0:
192,192,26648,1,0,0:0:0:0:
64,192,26673,1,0,0:0:0:0:
320,192,26673,1,0,0:0:0:0:
448,192,26698,1,0,0:0:0:0:
320,192,26723,1,0,0:0:0:0:
192,192,26723,1,0,0:0:0:0:
64,192,26748,1,0,0:0:0:0:
192,192,26773,1,0,0:0:0:0:
448,192,26773,1,0,0:0:0:0:
320,192,26798,1,0,0:0:0:0:
448,192,26823,1,0,0:0:0:0:
64,192,26823,1,0,0:0:0:0:
192,192,26848,1,0,0:0:0:0:
64,192,26873,1,0,0:0:0:0:
320,192,26873,1,0,0:0:0:0:
448,192,26898,1,0,0:0:0:0:
320,192,26923,1,0,0:0:0:0:
192,192,26923,1,0,0:0:0:0:
64,192,26948,1,0,0:0:0:0:
192,192,26973,1,0,0:0:0:0:
448,192,26973,1,0,0:0:0:0:
320,192,26998,1,0,0:0:0:0:
448,192,27023,1,0,0:0:0:0:
64,192,27023,1,0,0:0:0:0:
192,192,27048,1,0,0:0:0:0:
64,192,27073,1,0,0:0:0:0:
320,192,27073,1,0,0:0:0:0:
448,192,27098,1,0,0:0:0:0:
320,192,27123,1,0,0:0:0:0:
192,192,27123,1,0,0:0:0:0:
64,192,27148,1,0,0:0:0:0:
448,192,27173,1,0,0:0:0:0:
192,192,27173,1,0,0:0:0:0:
320,192,27198,1,0,0:0:0:0:
64,192,27223,1,0,0:0:0:0:
448,192,27223,1,0,0:0:0:0:
192,192,27248,1,0,0:0:0:0:
320,192,27273,1,0,0:0:0:0:
448,192,27273,1,0,0:0:0:0:
64,192,27298,1,0,0:0:0:0:
192,192,27323,1,0,0:0:0:0:
320,192,27323,1,0,0:0:0:0:
448,192,27348,1,0,0:0:0:0:
192,192,27373,1,0,0:0:0:0:
64,192,27373,1,0,0:0:0:0:
320,192,27398,1,0,0:0:0:0:
448,192,27423,1,0,0:0:0:0:
64,192,27423,1,0,0:0:0:0:
192,192,27448,1,0,0:0:0:0:
320,192,27473,1,0,0:0:0:0:
448,192,27473,1,0,0:0:0:0:
64,192,27498,1,0,0:0:0:0:
192,192,27523,1,0,0:0:0:0:
320,192,27523,1,0,0:0:0:0:
448,192,27548,1,0,0:0:0:0:
192,192,27573,1,0,0:0:0:0:
64,192,27573,1,0,0:0:0:0:
320,192,27598,1,0,0:0:0:0:
448,192,27623,1,0,0:0:0:0:
64,192,27623,1,0,0:0:0:0:
192,192,27648,1,0,0:0:0:0:
320,192,27673,1,0,0:0:0:0:
448,192,27673,1,0,0:0:0:0:
64,192,27698,1,0,0:0:0:0:
320,192,27723,1,0,0:0:0:0:
192,192,27723,1,0,0:0:0:0:
448,192,27748,1,0,0:0:0:0:
192,192,27773,1,0,0:0:0:0:
64,192,27773,1,0,0:0:0:0:
320,192,27798,1,0,0:0:0:0:
448,192,27823,1,0,0:0:0:0:
64,192,27823,1,0,0:0:0:0:
192,192,27848,1,0,0:0:0:0:
320,192,27873,1,0,0:0:0:0:
448,192,27873,1,0,0:0:0:0:
64,192,27898,1,0,0:0:0:0:
192,192,27923,1,0,0:0:0:0:
320,192,27923,1,0,0:0:0:0:
448,192,27948,1,0,0:0:0:0:
192,192,27973,1,0,0:0:0:0:
64,192,27973,1,0,0:0:0:0:
320,192,27998,1,0,0:0:0:0:
448,192,28023,1,0,0:0:0:0:
64,192,28023,1,0,0:0:0:0:
320,192,28048,1,0,0:0:0:0:
192,192,28073,1,0,0:0:0:0:
448,192,28073,1,0,0:0:0:0:
64,192,28098,1,0,0:0:0:0:
192,192,28123,1,0,0:0:0:0:
320,192,28123,1,0,0:0:0:0:
448,192,28148,1,0,0:0:0:0:
320,192,28173,1,0,0:0:0:0:
64,192,28173,1,0,0:0:0:0:
192,192,28198,1,0,0:0:0:0:
448,192,28223,1,0,0:0:0:0:
320,192,28223,1,0,0:0:0:0:
64,192,28248,1,0,0:0:0:0:
192,192,28273,1,0,0:0:0:0:
448,192,28273,1,0,0:0:0:0:
320,192,28298,1,0,0:0:0:0:
448,192,28323,1,0,0:0:0:0:
64,192,28323,1,0,0:0:0:0:
192,192,28348,1,0,0:0:0:0:
64,192,28373,1,0,0:0:0:0:
320,192,28373,1,0,0:0:0:0:
448,192,28398,1,0,0:0:0:0:
192,192,28423,1,0,0:0:0:0:
320,192,28423,1,0,0:0:0:0:
64,192,28448,1,0,0:0:0:0:
192,192,28473,1,0,0:0:0:0:
448,192,28473,1,0,0:0:0:0:
320,192,28498,1,0,0:0:0:0:
192,192,28523,1,0,0:0:0:0:
64,192,28523,1,0,0:0:0:0:
448,192,28548,1,0,0:0:0:0:
320,192,28573,1,0,0:0:0:0:
64,192,28573,1,0,0:0:0:0:
448,192,28598,1,0,0:0:0:0:
320,192,28623,1,0,0:0:0:0:
192,192,28623,1,0,0:0:0:0:
64,192,28648,1,0,0:0:0:0:
192,192,28673,1,0,0:0:0:0:
448,192,28673,1,0,0:0:0:0:
320,192,28698,1,0,0:0:0:0:
448,192,28723,1,0,0:0:0:0:
64,192,28723,1,0,0:0:0:0:
192,192,28748,1,0,0:0:0:0:
320,192,28773,1,0,0:0:0:0:
64,192,28773,1,0,0:0:0:0:
448,192,28798,1,0,0:0:0:0:
320,192,28823,1,0,0:0:0:0:
192,192,28823,1,0,0:0:0:0:
64,192,28848,1,0,0:0:0:0:
192,192,28873,1,0,0:0:0:0:
448,192,28873,1,0,0:0:0:0:
320,192,28898,1,0,0:0:0:0:
448,192,28923,1,0,0:0:0:0:
64,192,28923,1,0,0:0:0:0:
192,192,28948,1,0,0:0:0:0:
64,192,28973,1,0,0:0:0:0:
320,192,28973,1,0,0:0:0:0:
448,192,28998,1,0,0:0:0:0:
320,192,29023,1,0,0:0:0:0:
192,192,29023,1,0,0:0:0:0:
64,192,29048,1,0,0:0:0:0:
192,192,29073,1,0,0:0:0:0:
448,192,29073,1,0,0:0:0:0:
320,192,29098,1,0,0:0:0:0:
448,192,29123,1,0,0:0:0:0:
64,192,29123,1,0,0:0:0:0:
192,192,29148,1,0,0:0:0:0:
64,192,29173,1,0,0:0:0:0:
320,192,29173,1,0,0:0:0:0:
448,192,29198,1,0,0:0:0:0:
320,192,29223,1,0,0:0:0:0:
192,192,29223,1,0,0:0:0:0:
64,192,29248,1,0,0:0:0:0:
448,192,29273,1,0,0:0:0:0:
192,192,29273,1,0,0:0:0:0:
320,192,29298,1,0,0:0:0:0:
448,192,29323,1,0,0:0:0:0:
64,192,29323,1,0,0:0:0:0:
320,192,29348,1,0,0:0:0:0:
192,192,29373,1,0,0:0:0:0:
64,192,29373,1,0,0:0:0:0:
448,192,29398,1,0,0:0:0:0:
320,192,29423,1,0,0:0:0:0:
192,192,29423,1,0,0:0:0:0:
64,192,29448,1,0,0:0:0:0:
448,192,29473,1,0,0:0:0:0:
320,192,29473,1,0,0:0:0:0:
192,192,29498,1,0,0:0:0:0:
64,192,29523,1,0,0:0:0:0:
448,192,29523,1,0,0:0:0:0:
320,192,29548,1,0,0:0:0:0:
448,192,29573,1,0,0:0:0:0:
192,192,29573,1,0,0:0:0:0:
64,192,29598,1,0,0:0:0:0:
320,192,29623,1,0,0:0:0:0:
192,192,29623,1,0,0:0:0:0:
448,192,29648,1,0,0:0:0:0:
320,192,29673,1,0,0:0:0:0:
64,192,29673,1,0,0:0:0:0:
448,192,29698,1,0,0:0:0:0:
192,192,29723,1,0,0:0:0:0:
64,192,29723,1,0,0:0:0:0:
320,192,29748,1,0,0:0:0:0:
448,192,29773,1,0,0:0:0:0:
192,192,29773,1,0,0:0:0:0:
64,192,29798,1,0,0:0:0:0:
320,192,29823,1,0,0:0:0:0:
448,192,29823,1,0,0:0:0:0:
192,192,29848,1,0,0:0:0:0:
64,192,29873,1,0,0:0:0:0:
320,192,29873,1,0,0:0:0:0:
448,192,29898,1,0,0:0:0:0:
192,192,29923,1,0,0:0:0:0:
64,192,29923,1,0,0:0:0:0:
320,192,29948,1,0,0:0:0:0:
192,192,29973,1,0,0:0:0:0:
448,192,29973,1,0,0:0:0:0:
64,192,29998,1,0,0:0:0:0:
320,192,30023,1,0,0:0:0:0:
448,192,30023,1,0,0:0:0:0:
64,192,30048,1,0,0:0:0:0:
320,192,30073,1,0,0:0:0:0:
192,192,30073,1,0,0:0:0:0:
448,192,30098,1,0,0:0:0:0:
192,192,30123,1,0,0:0:0:0:
64,192,30123,1,0,0:0:0:0:
320,192,30148,1,0,0:0:0:0:
448,192,30173,1,0,0:0:0:0:
64,192,30173,1,0,0:0:0:0:
192,192,30198,1,0,0:0:0:0:
320,192,30223,1,0,0:0:0:0:
448,192,30223,1,0,0:0:0:0:
64,192,30248,1,0,0:0:0:0:
192,192,30273,1,0,0:0:0:0:
320,192,30273,1,0,0:0:0:0:
448,192,30298,1,0,0:0:0:0:
192,192,30323,1,0,0:0:0:0:
64,192,30323,1,0,0:0:0:0:
320,192,30348,1,0,0:0:0:0:
448,192,30373,1,0,0:0:0:0:
64,192,30373,1,0,0:0:0:0:
192,192,30398,1,0,0:0:0:0:
320,192,30423,1,0,0:0:0:0:
448,192,30423,1,0,0:0:0:0:
64,192,30448,1,0,0:0:0:0:
192,192,30473,1,0,0:0:0:0:
320,192,30473,1,0,0:0:0:0:
448,192,30498,1,0,0:0:0:0:
192,192,30523,1,0,0:0:0:0:
64,192,30523,1,0,0:0:0:0:
448,192,30548,1,0,0:0:0:0:
320,192,30573,1,0,0:0:0:0:
64,192,30573,1,0,0:0:0:0:
192,192,30598,1,0,0:0:0:0:
320,192,30623,1,0,0:0:0:0:
448,192,30623,1,0,0:0:0:0:
64,192,30648,1,0,0:0:0:0:
192,192,30673,1,0,0:0:0:0:
448,192,30673,1,0,0:0:0:0:
320,192,30698,1,0,0:0:0:0:
192,192,30723,1,0,0:0:0:0:
64,192,30723,1,0,0:0:0:0:
448,192,30748,1,0,0:0:0:0:
320,192,30773,1,0,0:0:0:0:
64,192,30773,1,0,0:0:0:0:
192,192,30798,1,0,0:0:0:0:
320,192,30823,1,0,0:0:0:0:
448,192,30823,1,0,0:0:0:0:
64,192,30848,1,0,0:0:0:0:
192,192,30873,1,0,0:0:0:0:
448,192,30873,1,0,0:0:0:0:
320,192,30898,1,0,0:0:0:0:
192,192,30923,1,0,0:0:0:0:
64,192,30923,1,0,0:0:0:0:
448,192,30948,1,0,0:0:0:0:
320,192,30973,1,0,0:0:0:0:
64,192,30973,1,0,0:0:0:0:
448,192,30998,1,0,0:0:0:0:
320,192,31023,1,0,0:0:0:0:
192,192,31023,1,0,0:0:0:0:
64,192,31048,1,0,0:0:0:0:
192,192,31073,1,0,0:0:0:0:
448,192,31073,1,0,0:0:0:0:
320,192,31098,1,0,0:0:0:0:
448,192,31123,1,0,0:0:0:0:
64,192,31123,1,0,0:0:0:0:
192,192,31148,1,0,0:0:0:0:
64,192,31173,1,0,0:0:0:0:
320,192,31173,1,0,0:0:0:0:
448,192,31198,1,0,0:0:0:0:
320,192,31223,1,0,0:0:0:0:
192,192,31223,1,0,0:0:0:0:
64,192,31248,1,0,0:0:0:0:
192,192,31273,1,0,0:0:0:0:
448,192,31273,1,0,0:0:0:0:
320,192,31298,1,0,0:0:0:0:
448,192,31323,1,0,0:0:0:0:
64,192,31323,1,0,0:0:0:0:
192,192,31348,1,0,0:0:0:0:
320,192,31373,1,0,0:0:0:0:
64,192,31373,1,0,0:0:0:0:
448,192,31398,1,0,0:0:0:0:
320,192,31423,1,0,0:0:0:0:
192,192,31423,1,0,0:0:0:0:
64,192,31448,1,0,0:0:0:0:
192,192,31473,1,0,0:0:0:0:
448,192,31473,1,0,0:0:0:0:
320,192,31498,1,0,0:0:0:0:
64,192,31523,1,0,0:0:0:0:
448,192,31523,1,0,0:0:0:0:
192,192,31548,1,0,0:0:0:0:
64,192,31573,1,0,0:0:0:0:
320,192,31573,1,0,0:0:0:0:
448,192,31598,1,0,0:0:0:0:
320,192,31623,1,0,0:0:0:0:
192,192,31623,1,0,0:0:0:0:
64,192,31648,1,0,0:0:0:0:
192,192,31673,1,0,0:0:0:0:
448,192,31673,1,0,0:0:0:0:
320,192,31698,1,0,0:0:0:0:
64,192,31723,1,0,0:0:0:0:
448,192,31723,1,0,0:0:0:0:
192,192,31748,1,0,0:0:0:0:
64,192,31773,1,0,0:0:0:0:
320,192,31773,1,0,0:0:0:0:
448,192,31798,1,0,0:0:0:0:
192,192,31823,1,0,0:0:0:0:
320,192,31823,1,0,0:0:0:0:
64,192,31848,1,0,0:0:0:0:
192,192,31873,1,0,0:0:0:0:
448,192,31873,1,0,0:0:0:0:
320,192,31898,1,0,0:0:0:0:
448,192,31923,1,0,0:0:0:0:
64,192,31923,1,0,0:0:0:0:
192,192,31948,1,0,0:0:0:0:
448,192,31973,1,0,0:0:0:0:
320,192,31973,128,0,32372:0:0:0:0:
64,192,31973,128,0,32372:0:0:0:0:
192,192,32572,128,0,32971:0:0:0:0:
448,192,32572,128,0,32971:0:0:0:0:
64,192,32572,1,0,0:0:0:0:
192,192,33171,128,0,33570:0:0:0:0:
320,192,33171,128,0,33570:0:0:0:0:
64,192,33171,1,0,0:0:0:0:
64,192,33770,128,0,34169:0:0:0:0:
448,192,33770,128,0,34169:0:0:0:0:
320,192,33770,1,0,0:0:0:0:
448,192,34369,128,0,34768:0:0:0:0:
320,192,34369,128,0,34768:0:0:0:0:
64,192,34369,128,0,35167:0:0:0:0:
448,192,35167,128,0,35567:0:0:0:0:
192,192,35167,128,0,35567:0:0:0:0:
320,192,35167,1,0,0:0:0:0:
448,192,35766,1,0,0:0:0:0:
64,192,35766,128,0,36166:0:0:0:0:
320,192,35766,128,0,36166:0:0:0:0:
320,192,36365,128,0,36765:0:0:0:0:
448,192,36365,128,0,36765:0:0:0:0:
192,192,36365,1,0,0:0:0:0:
64,192,36964,128,0,37364:0:0:0:0:
192,192,36964,128,0,37364:0:0:0:0:
448,192,36964,1,0,0:0:0:0:
192,192,37563,128,0,37963:0:0:0:0:
320,192,37563,128,0,37963:0:0:0:0:
448,192,37563,128,0,38362:0:0:0:0:
192,192,38362,128,0,38761:0:0:0:0:
64,192,38362,1,0,0:0:0:0:
320,192,38362,1,0,0:0:0:0:
448,192,38562,1,0,0:0:0:0:
64,192,38562,1,0,0:0:0:0:
320,192,38861,1,0,0:0:0:0:
448,192,38894,1,0,0:0:0:0:
64,192,38928,1,0,0:0:0:0:
320,192,38961,128,0,39360:0:0:0:0:
448,192,38961,1,0,0:0:0:0:
192,192,38961,1,0,0:0:0:0:
448,192,39161,1,0,0:0:0:0:
64,192,39161,1,0,0:0:0:0:
64,192,39460,1,0,0:0:0:0:
320,192,39493,1,0,0:0:0:0:
448,192,39527,1,0,0:0:0:0:
64,192,39560,128,0,39959:0:0:0:0:
192,192,39560,1,0,0:0:0:0:
320,192,39560,1,0,0:0:0:0:
448,192,39760,1,0,0:0:0:0:
192,192,39760,1,0,0:0:0:0:
320,192,40059,1,0,0:0:0:0:
448,192,40092,1,0,0:0:0:0:
192,192,40126,1,0,0:0:0:0:
320,192,40159,128,0,40558:0:0:0:0:
64,192,40159,1,0,0:0:0:0:
448,192,40159,1,0,0:0:0:0:
192,192,40359,1,0,0:0:0:0:
64,192,40359,1,0,0:0:0:0:
64,192,40658,1,0,0:0:0:0:
320,192,40691,1,0,0:0:0:0:
192,192,40725,1,0,0:0:0:0:
448,192,40758,128,0,41557:0:0:0:0:
320,192,40758,1,0,0:0:0:0:
64,192,40758,1,0,0:0:0:0:
320,192,40958,1,0,0:0:0:0:
192,192,40958,1,0,0:0:0:0:
64,192,41257,1,0,0:0:0:0:
192,192,41290,1,0,0:0:0:0:
320,192,41324,1,0,0:0:0:0:
64,192,41357,1,0,0:0:0:0:
192,192,41357,1,0,0:0:0:0:
192,192,41557,128,0,41956:0:0:0:0:
64,192,41557,1,0,0:0:0:0:
320,192,41557,1,0,0:0:0:0:
448,192,41756,1,0,0:0:0:0:
320,192,41756,1,0,0:0:0:0:
448,192,42056,1,0,0:0:0:0:
192,192,42089,1,0,0:0:0:0:
320,192,42122,1,0,0:0:0:0:
64,192,42156,128,0,42555:0:0:0:0:
448,192,42156,1,0,0:0:0:0:
192,192,42156,1,0,0:0:0:0:
320,192,42355,1,0,0:0:0:0:
192,192,42355,1,0,0:0:0:0:
192,192,42655,1,0,0:0:0:0:
448,192,42688,1,0,0:0:0:0:
64,192,42721,1,0,0:0:0:0:
320,192,42755,128,0,43154:0:0:0:0:
448,192,42755,1,0,0:0:0:0:
192,192,42755,1,0,0:0:0:0:
448,192,42954,1,0,0:0:0:0:
64,192,42954,1,0,0:0:0:0:
64,192,43254,1,0,0:0:0:0:
192,192,43287,1,0,0:0:0:0:
448,192,43320,1,0,0:0:0:0:
64,192,43354,128,0,43753:0:0:0:0:
320,192,43354,1,0,0:0:0:0:
192,192,43354,1,0,0:0:0:0:
448,192,43553,1,0,0:0:0:0:
320,192,43553,1,0,0:0:0:0:
448,192,43853,1,0,0:0:0:0:
192,192,43886,1,0,0:0:0:0:
320,192,43919,1,0,0:0:0:0:
448,192,43953,128,0,44751:0:0:0:0:
64,192,43953,1,0,0:0:0:0:
192,192,43953,1,0,0:0:0:0:
64,192,44152,1,0,0:0:0:0:
320,192,44152,1,0,0:0:0:0:
64,192,44352,1,0,0:0:0:0:
320,192,44385,1,0,0:0:0:0:
192,192,44418,1,0,0:0:0:0:
64,192,44452,1,0,0:0:0:0:
320,192,44452,1,0,0:0:0:0:
192,192,44751,128,0,44851:0:0:0:0:
320,192,44751,1,0,0:0:0:0:
64,192,44751,1,0,0:0:0:0:
320,192,44851,1,0,0:0:0:0:
64,192,44901,1,0,0:0:0:0:
448,192,44951,128,0,45051:0:0:0:0:
64,192,45051,128,0,45151:0:0:0:0:
320,192,45151,1,0,0:0:0:0:
192,192,45200,1,0,0:0:0:0:
320,192,45250,128,0,45350:0:0:0:0:
448,192,45350,1,0,0:0:0:0:
192,192,45350,128,0,45450:0:0:0:0:
64,192,45350,1,0,0:0:0:0:
448,192,45450,1,0,0:0:0:0:
64,192,45500,1,0,0:0:0:0:
320,192,45550,128,0,45650:0:0:0:0:
64,192,45650,128,0,45750:0:0:0:0:
192,192,45750,1,0,0:0:0:0:
320,192,45799,1,0,0:0:0:0:
448,192,45849,128,0,45949:0:0:0:0:
192,192,45949,1,0,0:0:0:0:
64,192,45949,1,0,0:0:0:0:
320,192,45949,128,0,46049:0:0:0:0:
64,192,46049,1,0,0:0:0:0:
192,192,46099,1,0,0:0:0:0:
448,192,46149,128,0,46249:0:0:0:0:
64,192,46249,128,0,46349:0:0:0:0:
320,192,46349,1,0,0:0:0:0:
192,192,46398,1,0,0:0:0:0:
320,192,46448,128,0,46548:0:0:0:0:
192,192,46548,1,0,0:0:0:0:
64,192,46548,128,0,46648:0:0:0:0:
448,192,46548,1,0,0:0:0:0:
320,192,46648,1,0,0:0:0:0:
192,192,46698,1,0,0:0:0:0:
448,192,46748,128,0,46848:0:0:0:0:
64,192,46848,128,0,46948:0:0:0:0:
192,192,46948,1,0,0:0:0:0:
320,192,46997,1,0,0:0:0:0:
448,192,47047,128,0,47147:0:0:0:0:
64,192,47147,128,0,47946:0:0:0:0:
320,192,47147,1,0,0:0:0:0:
192,192,47247,1,0,0:0:0:0:
320,192,47297,1,0,0:0:0:0:
448,192,47347,1,0,0:0:0:0:
192,192,47397,1,0,0:0:0:0:
320,192,47447,1,0,0:0:0:0:
448,192,47497,1,0,0:0:0:0:
192,192,47547,1,0,0:0:0:0:
320,192,47596,1,0,0:0:0:0:
448,192,47646,1,0,0:0:0:0:
192,192,47696,1,0,0:0:0:0:
320,192,47746,1,0,0:0:0:0:
448,192,47796,1,0,0:0:0:0:
320,192,47846,1,0,0:0:0:0:
192,192,47896,1,0,0:0:0:0:
448,192,47946,128,0,48046:0:0:0:0:
192,192,47946,1,0,0:0:0:0:
320,192,47946,1,0,0:0:0:0:
64,192,48046,1,0,0:0:0:0:
192,192,48096,1,0,0:0:0:0:
320,192,48146,128,0,48245:0:0:0:0:
64,192,48245,128,0,48345:0:0:0:0:
448,192,48345,1,0,0:0:0:0:
192,192,48395,1,0,0:0:0:0:
320,192,48445,128,0,48545:0:0:0:0:
448,192,48545,1,0,0:0:0:0:
192,192,48545,1,0,0:0:0:0:
64,192,48545,128,0,48645:0:0:0:0:
448,192,48645,1,0,0:0:0:0:
320,192,48695,1,0,0:0:0:0:
192,192,48745,128,0,48844:0:0:0:0:
448,192,48844,128,0,48944:0:0:0:0:
64,192,48944,1,0,0:0:0:0:
192,192,48994,1,0,0:0:0:0:
320,192,49044,128,0,49144:0:0:0:0:
448,192,49144,1,0,0:0:0:0:
64,192,49144,1,0,0:0:0:0:
192,192,49144,128,0,49244:0:0:0:0:
448,192,49244,1,0,0:0:0:0:
64,192,49294,1,0,0:0:0:0:
320,192,49344,128,0,49443:0:0:0:0:
64,192,49443,128,0,49543:0:0:0:0:
192,192,49543,1,0,0:0:0:0:
320,192,49593,1,0,0:0:0:0:
448,192,49643,128,0,49743:0:0:0:0:
320,192,49743,1,0,0:0:0:0:
192,192,49743,1,0,0:0:0:0:
64,192,49743,128,0,49843:0:0:0:0:
320,192,49843,1,0,0:0:0:0:
192,192,49893,1,0,0:0:0:0:
320,192,49943,128,0,50042:0:0:0:0:
64,192,50042,128,0,50142:0:0:0:0:
448,192,50142,1,0,0:0:0:0:
192,192,50192,1,0,0:0:0:0:
320,192,50242,128,0,50342:0:0:0:0:
448,192,50342,128,0,51141:0:0:0:0:
192,192,50342,1,0,0:0:0:0:
64,192,50342,1,0,0:0:0:0:
320,192,50442,1,0,0:0:0:0:
192,192,50492,1,0,0:0:0:0:
320,192,50542,1,0,0:0:0:0:
64,192,50591,1,0,0:0:0:0:
192,192,50641,1,0,0:0:0:0:
320,192,50691,1,0,0:0:0:0:
64,192,50741,1,0,0:0:0:0:
192,192,50791,1,0,0:0:0:0:
64,192,50841,1,0,0:0:0:0:
320,192,50891,1,0,0:0:0:0:
192,192,50941,1,0,0:0:0:0:
64,192,50991,1,0,0:0:0:0:
192,192,51041,1,0,0:0:0:0:
320,192,51091,1,0,0:0:0:0:
192,192,51141,1,0,0:0:0:0:
320,192,51141,1,0,0:0:0:0:
64,192,51141,1,0,0:0:0:0:
448,192,51190,1,0,0:0:0:0:
64,192,51240,1,0,0:0:0:0:
320,192,51290,1,0,0:0:0:0:
192,192,51340,128,0,51540:0:0:0:0:
64,192,51540,1,0,0:0:0:0:
448,192,51540,1,0,0:0:0:0:
320,192,51540,1,0,0:0:0:0:
192,192,51590,1,0,0:0:0:0:
320,192,51640,1,0,0:0:0:0:
448,192,51690,1,0,0:0:0:0:
64,192,51740,128,0,51939:0:0:0:0:
320,192,51939,1,0,0:0:0:0:
448,192,51939,1,0,0:0:0:0:
192,192,51939,1,0,0:0:0:0:
64,192,51989,1,0,0:0:0:0:
448,192,52039,1,0,0:0:0:0:
192,192,52089,1,0,0:0:0:0:
320,192,52139,128,0,52339:0:0:0:0:
448,192,52339,1,0,0:0:0:0:
192,192,52339,1,0,0:0:0:0:
64,192,52339,1,0,0:0:0:0:
320,192,52388,1,0,0:0:0:0:
64,192,52438,1,0,0:0:0:0:
320,192,52488,1,0,0:0:0:0:
192,192,52538,128,0,52738:0:0:0:0:
64,192,52738,1,0,0:0:0:0:
448,192,52738,1,0,0:0:0:0:
320,192,52738,1,0,0:0:0:0:
192,192,52788,1,0,0:0:0:0:
448,192,52838,1,0,0:0:0:0:
64,192,52888,1,0,0:0:0:0:
320,192,52938,128,0,53137:0:0:0:0:
192,192,53137,1,0,0:0:0:0:
64,192,53137,1,0,0:0:0:0:
448,192,53137,1,0,0:0:0:0:
320,192,53187,1,0,0:0:0:0:
64,192,53237,1,0,0:0:0:0:
192,192,53287,1,0,0:0:0:0:
448,192,53337,128,0,53537:0:0:0:0:
320,192,53537,1,0,0:0:0:0:
192,192,53537,1,0,0:0:0:0:
64,192,53537,1,0,0:0:0:0:
448,192,53586,1,0,0:0:0:0:
192,192,53636,1,0,0:0:0:0:
320,192,53686,1,0,0:0:0:0:
64,192,53736,128,0,53936:0:0:0:0:
192,192,53936,1,0,0:0:0:0:
320,192,53936,1,0,0:0:0:0:
448,192,53936,1,0,0:0:0:0:
64,192,53986,1,0,0:0:0:0:
320,192,54036,1,0,0:0:0:0:
448,192,54086,1,0,0:0:0:0:
192,192,54136,128,0,54335:0:0:0:0:
64,192,54335,1,0,0:0:0:0:
320,192,54335,1,0,0:0:0:0:
448,192,54335,1,0,0:0:0:0:
192,192,54385,1,0,0:0:0:0:
448,192,54435,1,0,0:0:0:0:
64,192,54485,1,0,0:0:0:0:
320,192,54535,128,0,54735:0:0:0:0:
448,192,54735,1,0,0:0:0:0:
192,192,54735,1,0,0:0:0:0:
64,192,54735,1,0,0:0:0:0:
320,192,54784,1,0,0:0:0:0:
192,192,54834,1,0,0:0:0:0:
448,192,54884,1,0,0:0:0:0:
64,192,54934,128,0,55134:0:0:0:0:
192,192,55134,1,0,0:0:0:0:
320,192,55134,1,0,0:0:0:0:
448,192,55134,1,0,0:0:0:0:
64,192,55184,1,0,0:0:0:0:
320,192,55234,1,0,0:0:0:0:
448,192,55284,1,0,0:0:0:0:
192,192,55334,128,0,55533:0:0:0:0:
320,192,55533,1,0,0:0:0:0:
448,192,55533,1,0,0:0:0:0:
64,192,55533,1,0,0:0:0:0:
192,192,55583,1,0,0:0:0:0:
320,192,55633,1,0,0:0:0:0:
448,192,55683,1,0,0:0:0:0:
64,192,55733,128,0,55933:0:0:0:0:
192,192,55933,1,0,0:0:0:0:
320,192,55933,1,0,0:0:0:0:
448,192,55933,1,0,0:0:0:0:
64,192,55982,1,0,0:0:0:0:
320,192,56032,1,0,0:0:0:0:
448,192,56082,1,0,0:0:0:0:
192,192,56132,128,0,56332:0:0:0:0:
64,192,56332,1,0,0:0:0:0:
448,192,56332,1,0,0:0:0:0:
320,192,56332,1,0,0:0:0:0:
192,192,56382,1,0,0:0:0:0:
320,192,56432,1,0,0:0:0:0:
64,192,56482,1,0,0:0:0:0:
448,192,56532,128,0,56731:0:0:0:0:
320,192,56731,1,0,0:0:0:0:
192,192,56731,1,0,0:0:0:0:
64,192,56731,1,0,0:0:0:0:
448,192,56781,1,0,0:0:0:0:
192,192,56831,1,0,0:0:0:0:
64,192,56881,1,0,0:0:0:0:
320,192,56931,128,0,57131:0:0:0:0:
192,192,57131,1,0,0:0:0:0:
64,192,57131,1,0,0:0:0:0:
448,192,57131,1,0,0:0:0:0:
320,192,57180,1,0,0:0:0:0:
64,192,57230,1,0,0:0:0:0:
192,192,57280,1,0,0:0:0:0:
448,192,57330,128,0,57530:0:0:0:0:
320,192,57530,1,0,0:0:0:0:
192,192,57530,1,0,0:0:0:0:
64,192,57530,1,0,0:0:0:0:
64,192,57579,1,0,0:0:0:0:
320,192,57629,1,0,0:0:0:0:
192,192,57629,1,0,0:0:0:0:
448,192,57629,1,0,0:0:0:0:
320,192,57679,1,0,0:0:0:0:
192,192,57729,1,0,0:0:0:0:
448,192,57729,1,0,0:0:0:0:
64,192,57729,1,0,0:0:0:0:
448,192,57779,1,0,0:0:0:0:
192,192,57829,1,0,0:0:0:0:
64,192,57829,1,0,0:0:0:0:
320,192,57829,1,0,0:0:0:0:
192,192,57878,1,0,0:0:0:0:
320,192,57928,1,0,0:0:0:0:
64,192,57928,1,0,0:0:0:0:
448,192,57928,1,0,0:0:0:0:
64,192,57978,1,0,0:0:0:0:
320,192,58028,1,0,0:0:0:0:
448,192,58028,1,0,0:0:0:0:
192,192,58028,1,0,0:0:0:0:
192,192,58078,1,0,0:0:0:0:
320,192,58128,1,0,0:0:0:0:
64,192,58128,1,0,0:0:0:0:
448,192,58128,1,0,0:0:0:0:
448,192,58177,1,0,0:0:0:0:
64,192,58227,1,0,0:0:0:0:
192,192,58227,1,0,0:0:0:0:
320,192,58227,1,0,0:0:0:0:
320,192,58277,1,0,0:0:0:0:
448,192,58327,1,0,0:0:0:0:
64,192,58327,1,0,0:0:0:0:
192,192,58327,1,0,0:0:0:0:
192,192,58377,1,0,0:0:0:0:
320,192,58427,1,0,0:0:0:0:
448,192,58427,1,0,0:0:0:0:
64,192,58427,1,0,0:0:0:0:
64,192,58476,1,0,0:0:0:0:
192,192,58526,1,0,0:0:0:0:
320,192,58526,1,0,0:0:0:0:
448,192,58526,1,0,0:0:0:0:
448,192,58576,1,0,0:0:0:0:
64,192,58626,1,0,0:0:0:0:
192,192,58626,1,0,0:0:0:0:
320,192,58626,1,0,0:0:0:0:
320,192,58676,1,0,0:0:0:0:
448,192,58726,1,0,0:0:0:0:
64,192,58726,1,0,0:0:0:0:
192,192,58726,1,0,0:0:0:0:
192,192,58775,1,0,0:0:0:0:
448,192,58825,1,0,0:0:0:0:
320,192,58825,1,0,0:0:0:0:
64,192,58825,1,0,0:0:0:0:
64,192,58875,1,0,0:0:0:0:
192,192,58925,1,0,0:0:0:0:
320,192,58925,1,0,0:0:0:0:
448,192,58925,1,0,0:0:0:0:
448,192,58975,1,0,0:0:0:0:
192,192,59025,1,0,0:0:0:0:
64,192,59025,1,0,0:0:0:0:
320,192,59025,1,0,0:0:0:0:
320,192,59074,1,0,0:0:0:0:
448,192,59124,1,0,0:0:0:0:
64,192,59124,1,0,0:0:0:0:
192,192,59124,1,0,0:0:0:0:
192,192,59174,1,0,0:0:0:0:
320,192,59224,1,0,0:0:0:0:
448,192,59224,1,0,0:0:0:0:
64,192,59224,1,0,0:0:0:0:
448,192,59274,1,0,0:0:0:0:
64,192,59324,1,0,0:0:0:0:
192,192,59324,1,0,0:0:0:0:
320,192,59324,1,0,0:0:0:0:
64,192,59373,1,0,0:0:0:0:
192,192,59423,1,0,0:0:0:0:
320,192,59423,1,0,0:0:0:0:
448,192,59423,1,0,0:0:0:0:
320,192,59473,1,0,0:0:0:0:
448,192,59523,1,0,0:0:0:0:
64,192,59523,1,0,0:0:0:0:
192,192,59523,1,0,0:0:0:0:
192,192,59573,1,0,0:0:0:0:
320,192,59623,1,0,0:0:0:0:
448,192,59623,1,0,0:0:0:0:
64,192,59623,1,0,0:0:0:0:
448,192,59672,1,0,0:0:0:0:
192,192,59722,1,0,0:0:0:0:
64,192,59722,1,0,0:0:0:0:
320,192,59722,1,0,0:0:0:0:
192,192,59772,1,0,0:0:0:0:
64,192,59822,1,0,0:0:0:0:
320,192,59822,1,0,0:0:0:0:
448,192,59822,1,0,0:0:0:0:
320,192,59872,1,0,0:0:0:0:
448,192,59922,1,0,0:0:0:0:
64,192,59922,1,0,0:0:0:0:
192,192,59922,1,0,0:0:0:0:
192,192,59971,1,0,0:0:0:0:
320,192,60021,1,0,0:0:0:0:
448,192,60021,1,0,0:0:0:0:
64,192,60021,1,0,0:0:0:0:
64,192,60071,1,0,0:0:0:0:
192,192,60121,1,0,0:0:0:0:
320,192,60121,1,0,0:0:0:0:
448,192,60121,1,0,0:0:0:0:
320,192,60171,1,0,0:0:0:0:
192,192,60221,1,0,0:0:0:0:
64,192,60221,1,0,0:0:0:0:
448,192,60221,1,0,0:0:0:0:
448,192,60270,1,0,0:0:0:0:
64,192,60320,1,0,0:0:0:0:
320,192,60320,1,0,0:0:0:0:
192,192,60320,1,0,0:0:0:0:
192,192,60370,1,0,0:0:0:0:
320,192,60420,1,0,0:0:0:0:
64,192,60420,1,0,0:0:0:0:
448,192,60420,1,0,0:0:0:0:
448,192,60470,1,0,0:0:0:0:
320,192,60520,1,0,0:0:0:0:
192,192,60520,1,0,0:0:0:0:
64,192,60520,1,0,0:0:0:0:
64,192,60569,1,0,0:0:0:0:
192,192,60619,1,0,0:0:0:0:
448,192,60619,1,0,0:0:0:0:
320,192,60619,1,0,0:0:0:0:
320,192,60669,1,0,0:0:0:0:
448,192,60719,1,0,0:0:0:0:
192,192,60719,1,0,0:0:0:0:
64,192,60719,1,0,0:0:0:0:
320,192,60719,1,0,0:0:0:0:
192,192,60769,1,0,0:0:0:0:
448,192,60819,1,0,0:0:0:0:
64,192,60819,1,0,0:0:0:0:
320,192,60819,1,0,0:0:0:0:
64,192,60868,1,0,0:0:0:0:
320,192,60918,1,0,0:0:0:0:
448,192,60918,1,0,0:0:0:0:
192,192,60918,1,0,0:0:0:0:
448,192,60968,1,0,0:0:0:0:
192,192,61018,1,0,0:0:0:0:
320,192,61018,1,0,0:0:0:0:
64,192,61018,1,0,0:0:0:0:
192,192,61068,1,0,0:0:0:0:
64,192,61118,1,0,0:0:0:0:
448,192,61118,1,0,0:0:0:0:
320,192,61118,1,0,0:0:0:0:
320,192,61167,1,0,0:0:0:0:
448,192,61217,1,0,0:0:0:0:
64,192,61217,1,0,0:0:0:0:
192,192,61217,1,0,0:0:0:0:
192,192,61267,1,0,0:0:0:0:
320,192,61317,1,0,0:0:0:0:
448,192,61317,1,0,0:0:0:0:
64,192,61317,1,0,0:0:0:0:
64,192,61367,1,0,0:0:0:0:
192,192,61417,1,0,0:0:0:0:
320,192,61417,1,0,0:0:0:0:
448,192,61417,1,0,0:0:0:0:
448,192,61466,1,0,0:0:0:0:
192,192,61516,1,0,0:0:0:0:
64,192,61516,1,0,0:0:0:0:
320,192,61516,1,0,0:0:0:0:
192,192,61566,1,0,0:0:0:0:
448,192,61616,1,0,0:0:0:0:
64,192,61616,1,0,0:0:0:0:
320,192,61616,1,0,0:0:0:0:
448,192,61666,1,0,0:0:0:0:
320,192,61716,1,0,0:0:0:0:
192,192,61716,1,0,0:0:0:0:
64,192,61716,1,0,0:0:0:0:
192,192,61765,1,0,0:0:0:0:
320,192,61815,1,0,0:0:0:0:
64,192,61815,1,0,0:0:0:0:
448,192,61815,1,0,0:0:0:0:
320,192,61865,1,0,0:0:0:0:
192,192,61915,1,0,0:0:0:0:
64,192,61915,1,0,0:0:0:0:
448,192,61915,1,0,0:0:0:0:
64,192,61965,1,0,0:0:0:0:
448,192,62015,1,0,0:0:0:0:
192,192,62015,1,0,0:0:0:0:
320,192,62015,1,0,0:0:0:0:
320,192,62064,1,0,0:0:0:0:
192,192,62114,1,0,0:0:0:0:
448,192,62114,1,0,0:0:0:0:
64,192,62114,1,0,0:0:0:0:
192,192,62164,1,0,0:0:0:0:
320,192,62214,1,0,0:0:0:0:
64,192,62214,1,0,0:0:0:0:
448,192,62214,1,0,0:0:0:0:
448,192,62264,1,0,0:0:0:0:
320,192,62314,1,0,0:0:0:0:
192,192,62314,1,0,0:0:0:0:
64,192,62314,1,0,0:0:0:0:
64,192,62363,1,0,0:0:0:0:
192,192,62413,1,0,0:0:0:0:
320,192,62413,1,0,0:0:0:0:
448,192,62413,1,0,0:0:0:0:
320,192,62463,1,0,0:0:0:0:
64,192,62513,1,0,0:0:0:0:
448,192,62513,1,0,0:0:0:0:
192,192,62513,1,0,0:0:0:0:
192,192,62563,1,0,0:0:0:0:
320,192,62613,1,0,0:0:0:0:
448,192,62613,1,0,0:0:0:0:
64,192,62613,1,0,0:0:0:0:
448,192,62662,1,0,0:0:0:0:
192,192,62712,1,0,0:0:0:0:
64,192,62712,1,0,0:0:0:0:
320,192,62712,1,0,0:0:0:0:
320,192,62762,1,0,0:0:0:0:
64,192,62812,1,0,0:0:0:0:
192,192,62812,1,0,0:0:0:0:
448,192,62812,1,0,0:0:0:0:
192,192,62862,1,0,0:0:0:0:
320,192,62912,1,0,0:0:0:0:
64,192,62912,1,0,0:0:0:0:
448,192,62912,1,0,0:0:0:0:
64,192,62961,1,0,0:0:0:0:
320,192,63011,1,0,0:0:0:0:
448,192,63011,1,0,0:0:0:0:
192,192,63011,1,0,0:0:0:0:
320,192,63061,1,0,0:0:0:0:
192,192,63111,1,0,0:0:0:0:
448,192,63111,1,0,0:0:0:0:
64,192,63111,1,0,0:0:0:0:
192,192,63161,1,0,0:0:0:0:
64,192,63211,1,0,0:0:0:0:
448,192,63211,1,0,0:0:0:0:
320,192,63211,1,0,0:0:0:0:
64,192,63260,1,0,0:0:0:0:
320,192,63310,1,0,0:0:0:0:
448,192,63310,1,0,0:0:0:0:
192,192,63310,1,0,0:0:0:0:
448,192,63360,1,0,0:0:0:0:
192,192,63410,1,0,0:0:0:0:
320,192,63410,1,0,0:0:0:0:
64,192,63410,1,0,0:0:0:0:
192,192,63460,1,0,0:0:0:0:
64,192,63510,1,0,0:0:0:0:
320,192,63510,1,0,0:0:0:0:
448,192,63510,1,0,0:0:0:0:
320,192,63559,1,0,0:0:0:0:
448,192,63609,1,0,0:0:0:0:
64,192,63609,1,0,0:0:0:0:
192,192,63609,1,0,0:0:0:0:
64,192,63659,1,0,0:0:0:0:
320,192,63709,1,0,0:0:0:0:
448,192,63709,1,0,0:0:0:0:
192,192,63709,1,0,0:0:0:0:
448,192,63759,1,0,0:0:0:0:
192,192,63809,1,0,0:0:0:0:
320,192,63809,1,0,0:0:0:0:
64,192,63809,1,0,0:0:0:0:
320,192,63858,1,0,0:0:0:0:
64,192,63908,128,0,64306:0:0:0:0:
192,192,63908,128,0,64306:0:0:0:0:
320,192,63908,1,0,0:0:0:0:
448,192,63908,128,0,64306:0:0:0:0:
