osu file format v14

[General]
AudioFilename: audio.mp3
AudioLeadIn: 0
PreviewTime: 51115
Countdown: 1
SampleSet: Normal
StackLeniency: 0.7
Mode: 1
LetterboxInBreaks: 0
EpilepsyWarning: 1
WidescreenStoryboard: 0

[Editor]
DistanceSpacing: 0.5
BeatDivisor: 2
GridSize: 32
TimelineZoom: 4.099998

[Metadata]
Title:Dash Hopes 3
TitleUnicode:Dash Hopes 3
Artist:Renard
ArtistUnicode:Renard
Creator:0floor0
Version:Kantan
Source:Mungyodance 3: The Third Rave
Tags:speedcore lapfox joke
BeatmapID:1970071
BeatmapSetID:943374

[Difficulty]
HPDrainRate:8
CircleSize:2
OverallDifficulty:5
ApproachRate:10
SliderMultiplier:1.4
SliderTickRate:1

[Events]
//Background and Video events
0,0,"maxresdefault.jpg",0,0
Video,0,"GOPE.mp4"
//Break Periods
//Storyboard Layer 0 (Background)
//Storyboard Layer 1 (Fail)
//Storyboard Layer 2 (Pass)
//Storyboard Layer 3 (Foreground)
//Storyboard Sound Samples

[TimingPoints]
5991,99.8336106489185,4,1,1,100,1,0
6390,-333.333333333333,4,1,1,100,0,0
19269,-500,4,1,1,100,0,0
25561,-333.333333333333,4,1,1,100,0,0
31948,-500,4,1,1,100,0,0
38337,-333.333333333332,4,1,1,100,0,0
44727,-285.714285714286,4,1,1,100,0,0
51116,-277.777777777778,4,1,1,100,0,1
57505,-250,4,1,1,100,0,0
63895,-33.3333333333333,4,1,1,100,0,0

[HitObjects]
136,157,6391,5,0,0:0:0:0:
315,142,6490,1,0,0:0:0:0:
309,162,6590,1,8,0:0:0:0:
303,206,6690,1,0,0:0:0:0:
303,206,6790,1,8,0:0:0:0:
303,206,6890,1,8,0:0:0:0:
303,206,6990,1,0,0:0:0:0:
303,206,7089,1,0,0:0:0:0:
272,205,7189,1,8,0:0:0:0:
272,205,7289,1,8,0:0:0:0:
320,125,7389,1,0,0:0:0:0:
315,142,7489,1,0,0:0:0:0:
309,162,7589,1,8,0:0:0:0:
303,206,7689,1,8,0:0:0:0:
303,206,7788,1,0,0:0:0:0:
303,206,7889,1,0,0:0:0:0:
303,206,7989,1,0,0:0:0:0:
303,206,8088,1,0,0:0:0:0:
272,205,8188,1,8,0:0:0:0:
272,205,8288,1,0,0:0:0:0:
320,125,8387,1,8,0:0:0:0:
315,142,8487,1,0,0:0:0:0:
309,162,8587,1,0,0:0:0:0:
303,206,8687,1,8,0:0:0:0:
303,206,8787,1,8,0:0:0:0:
303,206,8886,1,8,0:0:0:0:
303,206,8987,1,0,0:0:0:0:
303,206,9086,1,0,0:0:0:0:
272,205,9186,1,8,0:0:0:0:
272,205,9286,1,8,0:0:0:0:
320,125,9386,1,8,0:0:0:0:
315,142,9485,1,8,0:0:0:0:
309,162,9585,1,0,0:0:0:0:
303,206,9686,1,0,0:0:0:0:
303,206,9786,1,0,0:0:0:0:
303,206,9885,1,8,0:0:0:0:
303,206,9985,1,8,0:0:0:0:
303,206,10085,1,8,0:0:0:0:
272,205,10185,1,0,0:0:0:0:
272,205,10285,1,0,0:0:0:0:
320,125,10384,1,0,0:0:0:0:
315,142,10484,1,8,0:0:0:0:
309,162,10584,1,8,0:0:0:0:
303,206,10684,1,0,0:0:0:0:
303,206,10784,1,8,0:0:0:0:
303,206,10884,1,0,0:0:0:0:
303,206,10984,1,0,0:0:0:0:
303,206,11083,1,0,0:0:0:0:
272,205,11183,1,8,0:0:0:0:
272,205,11283,1,0,0:0:0:0:
320,125,11382,1,8,0:0:0:0:
315,142,11482,1,8,0:0:0:0:
309,162,11582,1,8,0:0:0:0:
303,206,11682,1,8,0:0:0:0:
303,206,11782,1,0,0:0:0:0:
303,206,11882,1,0,0:0:0:0:
303,206,11982,1,0,0:0:0:0:
303,206,12081,1,0,0:0:0:0:
272,205,12181,1,0,0:0:0:0:
272,205,12281,1,0,0:0:0:0:
320,125,12381,1,8,0:0:0:0:
315,142,12481,1,8,0:0:0:0:
309,162,12581,1,8,0:0:0:0:
303,206,12681,1,0,0:0:0:0:
303,206,12781,1,0,0:0:0:0:
303,206,12880,1,8,0:0:0:0:
285,109,12930,1,8,0:0:0:0:
285,109,12980,1,0,0:0:0:0:
285,109,13029,1,0,0:0:0:0:
286,170,13079,1,8,0:0:0:0:
272,205,13180,1,0,0:0:0:0:
272,205,13280,1,0,0:0:0:0:
214,246,13379,1,8,0:0:0:0:
216,264,13479,1,0,0:0:0:0:
213,263,13579,1,8,0:0:0:0:
115,227,13678,1,0,0:0:0:0:
115,227,13778,1,0,0:0:0:0:
115,227,13878,1,8,0:0:0:0:
115,227,13978,1,8,0:0:0:0:
156,164,14078,1,0,0:0:0:0:
320,125,14178,1,8,0:0:0:0:
315,142,14278,1,0,0:0:0:0:
309,162,14378,1,0,0:0:0:0:
303,206,14477,1,8,0:0:0:0:
303,206,14577,1,8,0:0:0:0:
303,206,14677,1,0,0:0:0:0:
303,206,14778,1,8,0:0:0:0:
303,206,14877,1,0,0:0:0:0:
272,205,14976,1,8,0:0:0:0:
272,205,15076,1,8,0:0:0:0:
320,125,15176,1,0,0:0:0:0:
315,142,15276,1,0,0:0:0:0:
309,162,15376,1,0,0:0:0:0:
303,206,15476,1,0,0:0:0:0:
303,206,15575,1,8,0:0:0:0:
303,206,15676,1,8,0:0:0:0:
303,206,15776,1,0,0:0:0:0:
303,206,15875,1,0,0:0:0:0:
272,205,15975,1,8,0:0:0:0:
210,158,16024,1,8,0:0:0:0:
210,158,16074,1,0,0:0:0:0:
272,205,16075,1,0,0:0:0:0:
210,158,16124,1,0,0:0:0:0:
210,158,16174,1,0,0:0:0:0:
320,125,16274,1,0,0:0:0:0:
315,142,16374,1,0,0:0:0:0:
309,162,16474,1,8,0:0:0:0:
303,206,16574,1,0,0:0:0:0:
303,206,16674,1,8,0:0:0:0:
303,206,16774,1,0,0:0:0:0:
303,206,16874,1,0,0:0:0:0:
303,206,16973,1,0,0:0:0:0:
272,205,17073,1,8,0:0:0:0:
272,205,17173,1,0,0:0:0:0:
320,125,17272,1,0,0:0:0:0:
315,142,17372,1,8,0:0:0:0:
309,162,17472,1,0,0:0:0:0:
303,206,17572,1,0,0:0:0:0:
303,206,17672,1,8,0:0:0:0:
303,206,17772,1,0,0:0:0:0:
303,206,17871,1,8,0:0:0:0:
303,206,17971,1,0,0:0:0:0:
272,205,18071,1,8,0:0:0:0:
272,205,18171,1,0,0:0:0:0:
320,125,18271,1,8,0:0:0:0:
315,142,18371,1,8,0:0:0:0:
309,162,18470,1,0,0:0:0:0:
303,206,18571,1,0,0:0:0:0:
303,206,18671,1,0,0:0:0:0:
303,206,18771,1,0,0:0:0:0:
303,206,18871,1,8,0:0:0:0:
303,206,18970,1,0,0:0:0:0:
272,205,19070,1,8,0:0:0:0:
89,139,19119,1,8,0:0:0:0:
272,205,19170,1,8,0:0:0:0:
166,165,22364,1,0,0:0:0:0:
166,165,22564,1,0,0:0:0:0:
203,130,22763,1,8,0:0:0:0:
163,148,22863,1,0,0:0:0:0:
284,161,22963,1,8,0:0:0:0:
308,264,23163,1,0,0:0:0:0:
140,227,23362,1,0,0:0:0:0:
140,227,23562,1,8,0:0:0:0:
140,227,23762,1,8,0:0:0:0:
147,250,23961,1,0,0:0:0:0:
147,250,24061,1,0,0:0:0:0:
147,250,24161,1,8,0:0:0:0:
147,250,24361,1,0,0:0:0:0:
147,248,24560,1,0,0:0:0:0:
147,250,24760,1,8,0:0:0:0:
147,250,24960,1,0,0:0:0:0:
147,250,25159,1,0,0:0:0:0:
147,248,25259,1,0,0:0:0:0:
147,248,25359,1,8,0:0:0:0:
147,250,25459,1,0,0:0:0:0:
147,250,25559,1,0,0:0:0:0:
197,149,25608,1,8,0:0:0:0:
320,125,25658,1,0,0:0:0:0:
202,172,25708,1,8,0:0:0:0:
315,142,25758,1,8,0:0:0:0:
309,162,25858,1,0,0:0:0:0:
303,206,25958,1,0,0:0:0:0:
303,206,26058,1,0,0:0:0:0:
303,206,26158,1,0,0:0:0:0:
303,206,26257,1,0,0:0:0:0:
303,206,26357,1,0,0:0:0:0:
211,192,26407,1,0,0:0:0:0:
272,205,26457,1,8,0:0:0:0:
256,177,26507,1,0,0:0:0:0:
272,205,26557,1,0,0:0:0:0:
320,125,26657,1,0,0:0:0:0:
315,142,26757,1,0,0:0:0:0:
309,162,26857,1,0,0:0:0:0:
303,206,26956,1,0,0:0:0:0:
303,206,27057,1,0,0:0:0:0:
303,206,27157,1,8,0:0:0:0:
259,187,27206,1,8,0:0:0:0:
303,206,27257,1,0,0:0:0:0:
216,102,27306,1,0,0:0:0:0:
209,52,27356,1,8,0:0:0:0:
272,205,27456,1,0,0:0:0:0:
272,205,27556,1,0,0:0:0:0:
320,125,27655,1,0,0:0:0:0:
315,142,27755,1,0,0:0:0:0:
309,162,27855,1,0,0:0:0:0:
303,206,27955,1,0,0:0:0:0:
209,189,28004,1,0,0:0:0:0:
303,206,28055,1,8,0:0:0:0:
216,184,28104,1,8,0:0:0:0:
303,206,28155,1,0,0:0:0:0:
303,206,28255,1,0,0:0:0:0:
303,206,28354,1,0,0:0:0:0:
272,205,28454,1,0,0:0:0:0:
272,205,28554,1,0,0:0:0:0:
320,125,28653,1,0,0:0:0:0:
315,142,28753,1,0,0:0:0:0:
249,130,28803,1,0,0:0:0:0:
309,162,28853,1,8,0:0:0:0:
216,184,28903,1,8,0:0:0:0:
216,184,28953,1,8,0:0:0:0:
303,206,29053,1,0,0:0:0:0:
303,206,29153,1,0,0:0:0:0:
303,206,29252,1,0,0:0:0:0:
303,206,29352,1,8,0:0:0:0:
272,205,29452,1,8,0:0:0:0:
272,205,29552,1,0,0:0:0:0:
216,184,29602,1,0,0:0:0:0:
216,184,29652,1,8,0:0:0:0:
216,184,29702,1,8,0:0:0:0:
315,142,29752,1,8,0:0:0:0:
216,184,29801,1,0,0:0:0:0:
309,162,29852,1,8,0:0:0:0:
303,206,29952,1,0,0:0:0:0:
303,206,30052,1,0,0:0:0:0:
303,206,30152,1,8,0:0:0:0:
303,206,30252,1,0,0:0:0:0:
303,206,30351,1,8,0:0:0:0:
272,205,30451,1,0,0:0:0:0:
215,200,30500,1,0,0:0:0:0:
272,205,30551,1,8,0:0:0:0:
215,200,30600,1,8,0:0:0:0:
320,125,30650,1,0,0:0:0:0:
215,200,30750,1,0,0:0:0:0:
309,162,30850,1,0,0:0:0:0:
303,206,30950,1,8,0:0:0:0:
303,206,31050,1,0,0:0:0:0:
215,200,31099,1,0,0:0:0:0:
303,206,31150,1,0,0:0:0:0:
215,200,31199,1,8,0:0:0:0:
303,206,31250,1,8,0:0:0:0:
215,200,31299,1,0,0:0:0:0:
303,206,31349,1,0,0:0:0:0:
215,200,31399,1,8,0:0:0:0:
272,205,31449,1,0,0:0:0:0:
215,200,31499,1,0,0:0:0:0:
215,200,31549,1,8,0:0:0:0:
215,200,31598,1,8,0:0:0:0:
320,125,31648,1,8,0:0:0:0:
217,227,31698,1,0,0:0:0:0:
217,227,31748,1,0,0:0:0:0:
217,227,31798,1,0,0:0:0:0:
217,227,31848,1,8,0:0:0:0:
217,227,31898,1,8,0:0:0:0:
303,206,31948,1,12,0:0:0:0:
246,84,32547,1,4,0:0:0:0:
207,158,33146,1,4,0:0:0:0:
207,158,33745,1,4,0:0:0:0:
207,158,34344,1,0,0:0:0:0:
73,215,34444,2,0,L|160:216,1,84
265,167,35143,1,4,0:0:0:0:
265,167,35742,1,4,0:0:0:0:
265,167,36341,1,4,0:0:0:0:
265,167,36940,1,4,0:0:0:0:
156,172,37539,1,4,0:0:0:0:
39,224,37638,2,0,L|125:232,1,84
240,185,38337,1,4,0:0:0:0:
242,191,38537,1,12,0:0:0:0:
391,119,38737,1,0,0:0:0:0:
391,119,38787,1,0,0:0:0:0:
246,126,38836,1,0,0:0:0:0:
95,133,38886,1,8,0:0:0:0:
246,126,38936,1,0,0:0:0:0:
236,177,39136,1,0,0:0:0:0:
288,112,39435,1,8,0:0:0:0:
288,112,39485,1,8,0:0:0:0:
336,154,39535,1,0,0:0:0:0:
288,112,39585,1,0,0:0:0:0:
288,112,39635,1,8,0:0:0:0:
91,72,39735,1,0,0:0:0:0:
217,55,40034,1,8,0:0:0:0:
217,55,40084,1,8,0:0:0:0:
272,104,40134,1,8,0:0:0:0:
272,104,40184,1,0,0:0:0:0:
272,104,40234,1,0,0:0:0:0:
63,127,40334,1,0,0:0:0:0:
292,120,40633,1,0,0:0:0:0:
291,117,40683,1,0,0:0:0:0:
292,120,40733,1,8,0:0:0:0:
146,217,40833,2,0,L|236:220,1,84
228,141,41232,1,0,0:0:0:0:
228,141,41282,1,0,0:0:0:0:
228,141,41332,1,0,0:0:0:0:
193,133,41432,1,0,0:0:0:0:
198,142,41532,1,0,0:0:0:0:
190,137,41632,1,0,0:0:0:0:
193,133,41732,1,8,0:0:0:0:
193,133,41831,1,8,0:0:0:0:
193,133,41931,1,0,0:0:0:0:
193,133,41981,1,0,0:0:0:0:
193,133,42031,1,0,0:0:0:0:
193,133,42081,1,8,0:0:0:0:
193,133,42131,1,8,0:0:0:0:
181,130,42231,1,0,0:0:0:0:
271,42,42331,1,8,0:0:0:0:
271,42,42430,1,0,0:0:0:0:
271,42,42530,1,0,0:0:0:0:
271,89,42630,1,8,0:0:0:0:
271,89,42730,1,0,0:0:0:0:
184,117,42780,1,0,0:0:0:0:
271,89,42830,1,8,0:0:0:0:
184,117,42880,1,8,0:0:0:0:
271,89,42930,1,0,0:0:0:0:
271,89,43029,1,0,0:0:0:0:
271,89,43129,1,0,0:0:0:0:
271,89,43229,1,8,0:0:0:0:
271,89,43329,1,8,0:0:0:0:
320,125,43429,1,0,0:0:0:0:
315,142,43529,1,0,0:0:0:0:
184,117,43579,1,0,0:0:0:0:
309,162,43628,1,8,0:0:0:0:
303,206,43729,1,0,0:0:0:0:
303,206,43829,1,0,0:0:0:0:
303,206,43929,1,0,0:0:0:0:
303,206,44028,1,8,0:0:0:0:
303,206,44128,1,0,0:0:0:0:
272,205,44228,1,8,0:0:0:0:
272,205,44328,1,0,0:0:0:0:
320,125,44427,1,8,0:0:0:0:
154,168,44527,2,0,L|187:180,1,28
303,206,44727,1,4,0:0:0:0:
303,206,44826,1,8,0:0:0:0:
303,206,44926,1,8,0:0:0:0:
303,206,45027,1,0,0:0:0:0:
303,206,45126,1,8,0:0:0:0:
272,205,45226,1,8,0:0:0:0:
272,205,45326,1,4,0:0:0:0:
320,125,45425,1,8,0:0:0:0:
315,142,45525,1,8,0:0:0:0:
309,162,45625,1,0,0:0:0:0:
303,206,45725,1,8,0:0:0:0:
303,206,45825,1,8,0:0:0:0:
303,206,45925,1,4,0:0:0:0:
303,206,46025,1,0,0:0:0:0:
303,206,46124,1,8,0:0:0:0:
272,205,46224,1,8,0:0:0:0:
272,205,46324,1,8,0:0:0:0:
320,125,46423,1,0,0:0:0:0:
315,142,46524,1,12,0:0:0:0:
309,162,46624,1,0,0:0:0:0:
303,206,46724,1,0,0:0:0:0:
303,206,46822,1,8,0:0:0:0:
303,206,46924,1,8,0:0:0:0:
303,206,47024,1,0,0:0:0:0:
303,206,47123,1,12,0:0:0:0:
272,205,47223,1,8,0:0:0:0:
272,205,47322,1,8,0:0:0:0:
320,125,47421,1,0,0:0:0:0:
315,142,47522,1,0,0:0:0:0:
309,162,47622,1,0,0:0:0:0:
303,206,47722,1,0,0:0:0:0:
303,206,47822,1,0,0:0:0:0:
303,206,47921,1,4,0:0:0:0:
303,206,48022,1,8,0:0:0:0:
303,206,48121,1,0,0:0:0:0:
272,205,48221,1,0,0:0:0:0:
272,205,48321,1,8,0:0:0:0:
320,125,48420,1,0,0:0:0:0:
315,142,48520,1,4,0:0:0:0:
309,162,48620,1,8,0:0:0:0:
303,206,48720,1,0,0:0:0:0:
303,206,48820,1,0,0:0:0:0:
303,206,48920,1,8,0:0:0:0:
303,206,49020,1,0,0:0:0:0:
303,206,49119,1,4,0:0:0:0:
272,205,49219,1,0,0:0:0:0:
272,205,49319,1,8,0:0:0:0:
320,125,49419,1,8,0:0:0:0:
315,142,49519,1,8,0:0:0:0:
309,162,49618,1,8,0:0:0:0:
303,206,49718,1,12,0:0:0:0:
303,206,49819,1,0,0:0:0:0:
303,206,49919,1,8,0:0:0:0:
303,206,50019,1,0,0:0:0:0:
303,206,50118,1,0,0:0:0:0:
272,205,50218,1,0,0:0:0:0:
272,205,50317,1,12,0:0:0:0:
320,125,50417,1,8,0:0:0:0:
315,142,50517,1,0,0:0:0:0:
309,162,50617,1,8,0:0:0:0:
303,206,50717,1,4,0:0:0:0:
303,206,50817,1,12,0:0:0:0:
303,206,50917,1,4,0:0:0:0:
116,155,51115,1,0,0:0:0:0:
177,144,51165,1,0,0:0:0:0:
181,160,51315,1,8,0:0:0:0:
52,142,51365,1,8,0:0:0:0:
289,147,51515,1,0,0:0:0:0:
289,147,51565,1,0,0:0:0:0:
116,155,51714,1,0,0:0:0:0:
177,144,51764,1,0,0:0:0:0:
181,160,51914,1,8,0:0:0:0:
52,142,51964,1,8,0:0:0:0:
289,147,52114,1,8,0:0:0:0:
289,147,52164,1,8,0:0:0:0:
116,155,52313,1,0,0:0:0:0:
177,144,52363,1,0,0:0:0:0:
181,160,52513,1,0,0:0:0:0:
52,142,52563,1,0,0:0:0:0:
289,147,52713,1,8,0:0:0:0:
289,147,52763,1,8,0:0:0:0:
116,155,52912,1,8,0:0:0:0:
177,144,52962,1,8,0:0:0:0:
181,160,53112,1,0,0:0:0:0:
52,142,53162,1,0,0:0:0:0:
289,147,53312,1,8,0:0:0:0:
289,147,53362,1,8,0:0:0:0:
116,155,53511,1,0,0:0:0:0:
177,144,53561,1,0,0:0:0:0:
181,160,53711,1,8,0:0:0:0:
52,142,53761,1,8,0:0:0:0:
289,147,53911,1,0,0:0:0:0:
289,147,53961,1,0,0:0:0:0:
293,137,54010,1,0,0:0:0:0:
291,168,54060,1,0,0:0:0:0:
295,139,54110,1,0,0:0:0:0:
116,155,54310,1,8,0:0:0:0:
177,144,54360,1,8,0:0:0:0:
181,160,54510,1,8,0:0:0:0:
52,142,54560,1,8,0:0:0:0:
289,147,54710,1,0,0:0:0:0:
289,147,54760,1,0,0:0:0:0:
116,155,54908,1,0,0:0:0:0:
177,144,54958,1,0,0:0:0:0:
181,160,55108,1,8,0:0:0:0:
52,142,55158,1,8,0:0:0:0:
289,147,55308,1,8,0:0:0:0:
289,147,55358,1,8,0:0:0:0:
116,155,55508,1,0,0:0:0:0:
177,144,55558,1,0,0:0:0:0:
181,160,55708,1,0,0:0:0:0:
52,142,55758,1,0,0:0:0:0:
289,147,55908,1,8,0:0:0:0:
289,147,55958,1,8,0:0:0:0:
116,155,56107,1,0,0:0:0:0:
177,144,56157,1,0,0:0:0:0:
181,160,56307,1,8,0:0:0:0:
52,142,56357,1,8,0:0:0:0:
289,147,56507,1,0,0:0:0:0:
289,147,56557,1,0,0:0:0:0:
116,155,56706,1,0,0:0:0:0:
177,144,56756,1,0,0:0:0:0:
181,160,56906,1,0,0:0:0:0:
52,142,56956,1,0,0:0:0:0:
289,147,57106,1,8,0:0:0:0:
289,147,57156,1,8,0:0:0:0:
139,155,57205,1,8,0:0:0:0:
132,151,57255,1,8,0:0:0:0:
96,151,57305,1,8,0:0:0:0:
149,157,57355,1,8,0:0:0:0:
224,39,57405,1,8,0:0:0:0:
182,167,57555,5,0,0:0:0:0:
182,166,57605,1,0,0:0:0:0:
182,166,57655,1,0,0:0:0:0:
182,167,57705,1,0,0:0:0:0:
182,167,57755,1,0,0:0:0:0:
182,166,57805,1,0,0:0:0:0:
182,166,57855,1,0,0:0:0:0:
182,166,57905,1,0,0:0:0:0:
182,167,57955,1,0,0:0:0:0:
182,167,58005,1,0,0:0:0:0:
182,166,58055,1,0,0:0:0:0:
182,166,58105,1,0,0:0:0:0:
182,167,58155,1,0,0:0:0:0:
182,167,58205,1,0,0:0:0:0:
182,166,58255,1,0,0:0:0:0:
182,166,58305,1,0,0:0:0:0:
182,166,58355,1,0,0:0:0:0:
182,167,58404,1,0,0:0:0:0:
182,167,58454,1,0,0:0:0:0:
182,166,58504,1,0,0:0:0:0:
182,166,58554,1,0,0:0:0:0:
182,167,58604,1,0,0:0:0:0:
182,167,58654,1,0,0:0:0:0:
182,166,58704,1,0,0:0:0:0:
182,166,58754,1,0,0:0:0:0:
182,166,58804,1,0,0:0:0:0:
182,167,58854,1,0,0:0:0:0:
182,167,58904,1,0,0:0:0:0:
182,166,58954,1,0,0:0:0:0:
182,166,59004,1,0,0:0:0:0:
182,167,59054,1,0,0:0:0:0:
182,167,59104,1,8,0:0:0:0:
182,166,59154,1,8,0:0:0:0:
182,166,59204,1,8,0:0:0:0:
182,166,59254,1,8,0:0:0:0:
182,167,59302,1,8,0:0:0:0:
182,167,59352,1,8,0:0:0:0:
182,166,59402,1,8,0:0:0:0:
182,166,59452,1,8,0:0:0:0:
182,167,59502,1,8,0:0:0:0:
182,167,59552,1,8,0:0:0:0:
182,166,59602,1,8,0:0:0:0:
182,166,59652,1,8,0:0:0:0:
182,166,59702,1,8,0:0:0:0:
182,167,59752,1,8,0:0:0:0:
182,167,59802,1,8,0:0:0:0:
182,166,59852,1,8,0:0:0:0:
182,166,59902,1,8,0:0:0:0:
182,167,59952,1,8,0:0:0:0:
182,167,60002,1,8,0:0:0:0:
182,166,60052,1,8,0:0:0:0:
182,166,60102,1,8,0:0:0:0:
182,167,60151,1,8,0:0:0:0:
182,166,60152,1,8,0:0:0:0:
182,167,60201,1,8,0:0:0:0:
182,166,60251,1,8,0:0:0:0:
182,166,60301,1,8,0:0:0:0:
182,167,60351,1,8,0:0:0:0:
182,167,60401,1,8,0:0:0:0:
182,166,60451,1,8,0:0:0:0:
182,166,60501,1,8,0:0:0:0:
182,166,60551,1,8,0:0:0:0:
182,167,60601,1,8,0:0:0:0:
182,167,60651,1,8,0:0:0:0:
182,166,60701,1,8,0:0:0:0:
182,166,60751,1,0,0:0:0:0:
182,167,60801,1,0,0:0:0:0:
182,167,60851,1,0,0:0:0:0:
182,166,60901,1,0,0:0:0:0:
182,166,60951,1,0,0:0:0:0:
182,166,61001,1,0,0:0:0:0:
182,167,61049,1,0,0:0:0:0:
182,167,61099,1,0,0:0:0:0:
182,166,61149,1,0,0:0:0:0:
182,166,61199,1,0,0:0:0:0:
182,167,61249,1,0,0:0:0:0:
182,167,61299,1,0,0:0:0:0:
182,166,61349,1,0,0:0:0:0:
182,166,61399,1,0,0:0:0:0:
182,166,61449,1,0,0:0:0:0:
182,167,61499,1,0,0:0:0:0:
182,167,61549,1,0,0:0:0:0:
182,166,61599,1,0,0:0:0:0:
182,166,61649,1,0,0:0:0:0:
182,167,61699,1,0,0:0:0:0:
182,167,61749,1,0,0:0:0:0:
182,166,61799,1,0,0:0:0:0:
182,166,61849,1,0,0:0:0:0:
182,166,61899,1,0,0:0:0:0:
182,167,61948,1,0,0:0:0:0:
182,167,61998,1,0,0:0:0:0:
182,166,62048,1,0,0:0:0:0:
182,166,62098,1,0,0:0:0:0:
182,167,62148,1,0,0:0:0:0:
182,167,62198,1,0,0:0:0:0:
182,166,62248,1,0,0:0:0:0:
182,166,62298,1,8,0:0:0:0:
182,166,62348,1,8,0:0:0:0:
182,167,62398,1,8,0:0:0:0:
182,167,62448,1,8,0:0:0:0:
182,166,62498,1,8,0:0:0:0:
182,166,62548,1,8,0:0:0:0:
182,167,62598,1,8,0:0:0:0:
182,167,62648,1,8,0:0:0:0:
182,166,62698,1,8,0:0:0:0:
182,166,62748,1,8,0:0:0:0:
182,167,62796,1,8,0:0:0:0:
182,166,62798,1,8,0:0:0:0:
182,167,62846,1,8,0:0:0:0:
182,166,62896,1,8,0:0:0:0:
182,166,62946,1,8,0:0:0:0:
182,167,62996,1,8,0:0:0:0:
182,167,63046,1,8,0:0:0:0:
182,166,63096,1,8,0:0:0:0:
182,166,63146,1,8,0:0:0:0:
182,166,63196,1,8,0:0:0:0:
182,167,63246,1,8,0:0:0:0:
182,167,63296,1,8,0:0:0:0:
182,166,63346,1,8,0:0:0:0:
182,166,63396,1,8,0:0:0:0:
182,167,63446,1,8,0:0:0:0:
182,167,63496,1,8,0:0:0:0:
182,166,63546,1,8,0:0:0:0:
182,166,63596,1,8,0:0:0:0:
182,166,63646,1,8,0:0:0:0:
182,167,63695,1,8,0:0:0:0:
182,167,63745,1,8,0:0:0:0:
182,166,63795,1,8,0:0:0:0:
257,57,63895,1,4,0:0:0:0:
