osu file format v14

[General]
AudioFilename: Dash_Hopes_II_-_Renard.mp3
AudioLeadIn: 0
PreviewTime: 64440
Countdown: 0
SampleSet: Normal
StackLeniency: 0
Mode: 0
LetterboxInBreaks: 1
WidescreenStoryboard: 1

[Editor]
DistanceSpacing: 1.1
BeatDivisor: 4
GridSize: 4
TimelineZoom: 2.8

[Metadata]
Title:Dash Hopes 2
TitleUnicode:Dash Hopes 2
Artist:Renard
ArtistUnicode:Renard
Creator:Ackane-
Version:For Syfou
Source:Mungyodance 3
Tags:the third rave deathstreams streams
BeatmapID:1166448
BeatmapSetID:287773

[Difficulty]
HPDrainRate:5
CircleSize:4
OverallDifficulty:10
ApproachRate:10
SliderMultiplier:1.50000000596046
SliderTickRate:1

[Events]
//Background and Video events
0,0,"Dash Hopes II-bg Osu.png",0,0
//Break Periods
2,35360,39990
2,48320,51120
//Storyboard Layer 0 (Background)
//Storyboard Layer 1 (Fail)
//Storyboard Layer 2 (Pass)
//Storyboard Layer 3 (Foreground)
//Storyboard Sound Samples

[TimingPoints]
4920,240,4,1,0,80,1,0
4920,-200,4,1,0,80,0,0
6840,-100,4,1,0,70,0,0
8760,-151.515151515152,4,1,0,80,0,0
10680,-100,4,1,0,70,0,0
12600,-125,4,1,0,80,0,0
14520,-100,4,1,0,70,0,0
16440,-111.111111111111,4,1,0,80,0,0
18360,-100,4,1,0,70,0,0
20280,-100,4,1,0,90,0,1
24120,-58.8235294117647,4,2,0,75,0,1
24600,-50,4,2,0,75,0,1
25080,-76.9230769230769,4,2,0,75,0,1
25560,-50,4,2,0,75,0,1
26040,-58.8235294117647,4,2,0,75,0,1
26520,-100,4,2,0,75,0,1
27000,-125,4,2,0,75,0,1
27480,-200,4,2,0,75,0,1
27960,-100,4,1,0,90,0,1
31800,-133.333333333333,4,1,0,80,0,1
35160,-100,4,1,0,100,0,0
40440,-66.6666666666667,4,1,0,80,0,0
42360,-100,4,1,0,80,0,0
44280,-50,4,1,0,80,0,0
44760,-40,4,1,0,80,0,0
45240,-33,4,1,0,80,0,0
45720,-25,4,1,0,80,0,0
47160,-200,4,1,0,100,0,0
48120,-100,4,1,0,80,0,0
52920,-50,4,2,0,70,0,0
66360,-200,4,2,0,100,0,0
66720,-142.857142857143,4,2,0,100,0,0
67080,-142.857142857143,4,2,0,100,0,0
67440,-100,4,2,0,100,0,0
67800,-66.6666666666667,4,2,0,100,0,0
68040,-50,4,2,0,100,0,0
68280,-111.111111111111,4,1,0,85,0,1
70200,-90.9090909090909,4,1,0,75,0,1
72120,-111.111111111111,4,1,0,85,0,1
74040,-90.9090909090909,4,1,0,75,0,1
75960,-90.9090909090909,4,2,0,0,0,0
80760,-66.6666666666667,4,1,0,100,0,1
84600,-100,4,1,0,95,0,1
85080,-100,4,1,0,90,0,1
85560,-100,4,1,0,85,0,1
86040,-100,4,1,0,80,0,1
86520,-100,4,1,0,75,0,1
87000,-100,4,1,0,70,0,1
87480,-100,4,1,0,65,0,1
87960,-100,4,1,0,100,0,0

[Colours]
Combo1 : 211,211,211
Combo2 : 244,0,0
Combo3 : 255,255,255
Combo4 : 206,0,0

[HitObjects]
164,240,4920,5,8,0:0:0:0:
177,253,4980,1,0,0:0:0:0:
192,264,5040,1,0,0:0:0:0:
208,273,5100,1,0,0:0:0:0:
226,278,5160,1,0,0:0:0:0:
245,281,5220,1,0,0:0:0:0:
263,281,5280,1,0,0:0:0:0:
282,277,5340,1,0,0:0:0:0:
296,272,5400,5,2,0:0:0:0:
305,249,5460,1,0,0:0:0:0:
311,225,5520,1,0,0:0:0:0:
312,200,5580,1,0,0:0:0:0:
308,176,5640,1,0,0:0:0:0:
300,152,5700,1,0,0:0:0:0:
288,131,5760,1,0,0:0:0:0:
272,112,5820,1,0,0:0:0:0:
252,92,5880,5,2,0:0:0:0:
222,100,5940,1,0,0:0:0:0:
195,115,6000,1,0,0:0:0:0:
172,137,6060,1,0,0:0:0:0:
156,164,6120,1,0,0:0:0:0:
147,193,6180,1,0,0:0:0:0:
146,224,6240,1,0,0:0:0:0:
152,255,6300,1,0,0:0:0:0:
168,280,6360,5,2,0:0:0:0:
205,284,6420,1,0,0:0:0:0:
242,285,6480,1,0,0:0:0:0:
279,282,6540,1,0,0:0:0:0:
320,272,6600,1,0,0:0:0:0:
348,253,6660,1,0,0:0:0:0:
374,226,6720,1,0,0:0:0:0:
392,192,6780,1,0,0:0:0:0:
292,192,6840,5,8,0:0:0:0:
259,210,6900,1,0,0:0:0:0:
226,228,6960,1,0,0:0:0:0:
193,246,7020,1,0,0:0:0:0:
160,264,7080,1,0,0:0:0:0:
128,283,7140,1,0,0:0:0:0:
95,301,7200,1,0,0:0:0:0:
62,319,7260,1,0,0:0:0:0:
80,340,7320,5,2,0:0:0:0:
91,298,7380,1,0,0:0:0:0:
103,257,7440,1,0,0:0:0:0:
115,216,7500,1,0,0:0:0:0:
126,175,7560,1,0,0:0:0:0:
138,133,7620,1,0,0:0:0:0:
150,92,7680,1,0,0:0:0:0:
161,51,7740,1,0,0:0:0:0:
120,56,7800,5,2,0:0:0:0:
153,90,7860,1,0,0:0:0:0:
186,125,7920,1,0,0:0:0:0:
219,160,7980,1,0,0:0:0:0:
253,195,8040,1,0,0:0:0:0:
286,230,8100,1,0,0:0:0:0:
319,265,8160,1,0,0:0:0:0:
353,300,8220,1,0,0:0:0:0:
304,312,8280,5,2,0:0:0:0:
333,267,8340,1,0,0:0:0:0:
363,222,8400,1,0,0:0:0:0:
393,178,8460,1,0,0:0:0:0:
422,133,8520,1,0,0:0:0:0:
452,89,8580,1,0,0:0:0:0:
482,44,8640,1,0,0:0:0:0:
512,0,8700,1,0,0:0:0:0:
412,28,8760,5,8,0:0:0:0:
395,46,8820,1,0,0:0:0:0:
383,67,8880,1,0,0:0:0:0:
374,90,8940,1,0,0:0:0:0:
369,115,9000,1,0,0:0:0:0:
368,139,9060,1,0,0:0:0:0:
371,164,9120,1,0,0:0:0:0:
378,187,9180,1,0,0:0:0:0:
388,208,9240,5,2,0:0:0:0:
379,235,9300,1,0,0:0:0:0:
365,259,9360,1,0,0:0:0:0:
346,279,9420,1,0,0:0:0:0:
322,294,9480,1,0,0:0:0:0:
295,303,9540,1,0,0:0:0:0:
267,306,9600,1,0,0:0:0:0:
239,301,9660,1,0,0:0:0:0:
212,288,9720,5,2,0:0:0:0:
207,256,9780,1,0,0:0:0:0:
196,226,9840,1,0,0:0:0:0:
180,199,9900,1,0,0:0:0:0:
159,175,9960,1,0,0:0:0:0:
134,156,10020,1,0,0:0:0:0:
106,141,10080,1,0,0:0:0:0:
75,133,10140,1,0,0:0:0:0:
44,124,10200,5,2,0:0:0:0:
42,159,10260,1,0,0:0:0:0:
47,194,10320,1,0,0:0:0:0:
58,227,10380,1,0,0:0:0:0:
76,258,10440,1,0,0:0:0:0:
98,285,10500,1,0,0:0:0:0:
125,307,10560,1,0,0:0:0:0:
156,324,10620,1,0,0:0:0:0:
176,232,10680,5,8,0:0:0:0:
211,219,10740,1,0,0:0:0:0:
246,207,10800,1,0,0:0:0:0:
282,194,10860,1,0,0:0:0:0:
317,182,10920,1,0,0:0:0:0:
353,170,10980,1,0,0:0:0:0:
388,157,11040,1,0,0:0:0:0:
423,145,11100,1,0,0:0:0:0:
432,176,11160,5,2,0:0:0:0:
391,160,11220,1,0,0:0:0:0:
351,145,11280,1,0,0:0:0:0:
311,130,11340,1,0,0:0:0:0:
271,115,11400,1,0,0:0:0:0:
231,100,11460,1,0,0:0:0:0:
191,84,11520,1,0,0:0:0:0:
151,69,11580,1,0,0:0:0:0:
188,40,11640,5,2,0:0:0:0:
170,84,11700,1,0,0:0:0:0:
152,129,11760,1,0,0:0:0:0:
134,174,11820,1,0,0:0:0:0:
116,219,11880,1,0,0:0:0:0:
98,263,11940,1,0,0:0:0:0:
80,308,12000,1,0,0:0:0:0:
62,353,12060,1,0,0:0:0:0:
32,312,12120,5,2,0:0:0:0:
85,312,12180,1,0,0:0:0:0:
139,312,12240,1,0,0:0:0:0:
192,312,12300,1,0,0:0:0:0:
246,312,12360,1,0,0:0:0:0:
299,312,12420,1,0,0:0:0:0:
353,312,12480,1,0,0:0:0:0:
407,312,12540,1,0,0:0:0:0:
380,228,12600,5,8,0:0:0:0:
351,236,12660,1,0,0:0:0:0:
321,240,12720,1,0,0:0:0:0:
291,240,12780,1,0,0:0:0:0:
261,235,12840,1,0,0:0:0:0:
233,226,12900,1,0,0:0:0:0:
206,213,12960,1,0,0:0:0:0:
181,196,13020,1,0,0:0:0:0:
156,176,13080,5,2,0:0:0:0:
167,143,13140,1,0,0:0:0:0:
186,115,13200,1,0,0:0:0:0:
210,91,13260,1,0,0:0:0:0:
239,72,13320,1,0,0:0:0:0:
271,61,13380,1,0,0:0:0:0:
305,58,13440,1,0,0:0:0:0:
339,61,13500,1,0,0:0:0:0:
372,76,13560,5,2,0:0:0:0:
389,110,13620,1,0,0:0:0:0:
398,147,13680,1,0,0:0:0:0:
396,185,13740,1,0,0:0:0:0:
385,222,13800,1,0,0:0:0:0:
364,254,13860,1,0,0:0:0:0:
335,280,13920,1,0,0:0:0:0:
301,298,13980,1,0,0:0:0:0:
264,296,14040,5,2,0:0:0:0:
223,282,14100,1,0,0:0:0:0:
188,257,14160,1,0,0:0:0:0:
163,223,14220,1,0,0:0:0:0:
150,182,14280,1,0,0:0:0:0:
151,140,14340,1,0,0:0:0:0:
164,99,14400,1,0,0:0:0:0:
190,65,14460,1,0,0:0:0:0:
236,124,14520,5,8,0:0:0:0:
272,114,14580,1,0,0:0:0:0:
308,104,14640,1,0,0:0:0:0:
344,95,14700,1,0,0:0:0:0:
380,85,14760,1,0,0:0:0:0:
417,75,14820,1,0,0:0:0:0:
453,66,14880,1,0,0:0:0:0:
489,56,14940,1,0,0:0:0:0:
456,28,15000,5,2,0:0:0:0:
437,66,15060,1,0,0:0:0:0:
418,104,15120,1,0,0:0:0:0:
399,143,15180,1,0,0:0:0:0:
380,181,15240,1,0,0:0:0:0:
361,220,15300,1,0,0:0:0:0:
342,258,15360,1,0,0:0:0:0:
323,297,15420,1,0,0:0:0:0:
368,292,15480,5,2,0:0:0:0:
340,252,15540,1,0,0:0:0:0:
312,213,15600,1,0,0:0:0:0:
285,173,15660,1,0,0:0:0:0:
257,134,15720,1,0,0:0:0:0:
229,94,15780,1,0,0:0:0:0:
202,55,15840,1,0,0:0:0:0:
174,15,15900,1,0,0:0:0:0:
224,12,15960,5,2,0:0:0:0:
206,62,16020,1,0,0:0:0:0:
188,113,16080,1,0,0:0:0:0:
172,164,16140,1,0,0:0:0:0:
153,214,16200,1,0,0:0:0:0:
135,264,16260,1,0,0:0:0:0:
118,315,16320,1,0,0:0:0:0:
100,366,16380,1,0,0:0:0:0:
196,336,16440,5,8,0:0:0:0:
208,304,16500,1,0,0:0:0:0:
227,276,16560,1,0,0:0:0:0:
252,254,16620,1,0,0:0:0:0:
281,237,16680,1,0,0:0:0:0:
313,227,16740,1,0,0:0:0:0:
347,225,16800,1,0,0:0:0:0:
380,231,16860,1,0,0:0:0:0:
368,200,16920,5,2,0:0:0:0:
353,164,16980,1,0,0:0:0:0:
331,132,17040,1,0,0:0:0:0:
303,107,17100,1,0,0:0:0:0:
269,88,17160,1,0,0:0:0:0:
232,78,17220,1,0,0:0:0:0:
193,77,17280,1,0,0:0:0:0:
155,85,17340,1,0,0:0:0:0:
180,116,17400,5,2,0:0:0:0:
214,142,17460,1,0,0:0:0:0:
237,178,17520,1,0,0:0:0:0:
247,220,17580,1,0,0:0:0:0:
241,263,17640,1,0,0:0:0:0:
221,301,17700,1,0,0:0:0:0:
189,330,17760,1,0,0:0:0:0:
149,346,17820,1,0,0:0:0:0:
108,348,17880,5,2,0:0:0:0:
144,315,17940,1,0,0:0:0:0:
171,275,18000,1,0,0:0:0:0:
186,229,18060,1,0,0:0:0:0:
189,181,18120,1,0,0:0:0:0:
179,134,18180,1,0,0:0:0:0:
158,92,18240,1,0,0:0:0:0:
127,56,18300,1,0,0:0:0:0:
84,144,18360,5,8,0:0:0:0:
117,161,18420,1,0,0:0:0:0:
150,178,18480,1,0,0:0:0:0:
183,196,18540,1,0,0:0:0:0:
216,213,18600,1,0,0:0:0:0:
249,231,18660,1,0,0:0:0:0:
283,248,18720,1,0,0:0:0:0:
316,266,18780,1,0,0:0:0:0:
332,240,18840,5,2,0:0:0:0:
293,220,18900,1,0,0:0:0:0:
255,200,18960,1,0,0:0:0:0:
217,181,19020,1,0,0:0:0:0:
179,161,19080,1,0,0:0:0:0:
141,141,19140,1,0,0:0:0:0:
103,122,19200,1,0,0:0:0:0:
65,102,19260,1,0,0:0:0:0:
80,80,19320,5,2,0:0:0:0:
123,101,19380,1,0,0:0:0:0:
166,123,19440,1,0,0:0:0:0:
209,144,19500,1,0,0:0:0:0:
252,166,19560,1,0,0:0:0:0:
295,187,19620,1,0,0:0:0:0:
338,209,19680,1,0,0:0:0:0:
381,230,19740,1,0,0:0:0:0:
396,200,19800,5,2,0:0:0:0:
347,176,19860,1,0,0:0:0:0:
299,153,19920,1,0,0:0:0:0:
251,130,19980,1,0,0:0:0:0:
203,106,20040,1,0,0:0:0:0:
154,83,20100,1,0,0:0:0:0:
106,60,20160,1,0,0:0:0:0:
58,36,20220,1,0,0:0:0:0:
44,128,20280,5,8,0:0:0:0:
46,165,20340,1,0,0:0:0:0:
54,201,20400,1,0,0:0:0:0:
68,236,20460,1,0,0:0:0:0:
87,268,20520,1,0,0:0:0:0:
112,296,20580,1,0,0:0:0:0:
141,320,20640,1,0,0:0:0:0:
174,339,20700,1,0,0:0:0:0:
200,256,20760,5,8,0:0:0:0:
237,260,20820,1,0,0:0:0:0:
274,258,20880,1,0,0:0:0:0:
311,250,20940,1,0,0:0:0:0:
346,237,21000,1,0,0:0:0:0:
378,217,21060,1,0,0:0:0:0:
406,193,21120,1,0,0:0:0:0:
430,164,21180,1,0,0:0:0:0:
344,116,21240,5,8,0:0:0:0:
317,89,21300,1,0,0:0:0:0:
286,67,21360,1,0,0:0:0:0:
253,51,21420,1,0,0:0:0:0:
217,40,21480,1,0,0:0:0:0:
180,36,21540,1,0,0:0:0:0:
142,38,21600,1,0,0:0:0:0:
106,46,21660,1,0,0:0:0:0:
156,124,21720,5,8,0:0:0:0:
125,145,21780,1,0,0:0:0:0:
98,171,21840,1,0,0:0:0:0:
76,202,21900,1,0,0:0:0:0:
60,235,21960,1,0,0:0:0:0:
49,271,22020,1,0,0:0:0:0:
44,308,22080,1,0,0:0:0:0:
45,346,22140,1,0,0:0:0:0:
128,328,22200,5,8,0:0:0:0:
161,344,22260,1,0,0:0:0:0:
197,354,22320,1,0,0:0:0:0:
234,359,22380,1,0,0:0:0:0:
272,357,22440,1,0,0:0:0:0:
308,349,22500,1,0,0:0:0:0:
343,335,22560,1,0,0:0:0:0:
375,316,22620,1,0,0:0:0:0:
320,248,22680,5,8,0:0:0:0:
354,232,22740,1,0,0:0:0:0:
385,211,22800,1,0,0:0:0:0:
412,186,22860,1,0,0:0:0:0:
435,156,22920,1,0,0:0:0:0:
452,123,22980,1,0,0:0:0:0:
464,87,23040,1,0,0:0:0:0:
470,50,23100,1,0,0:0:0:0:
388,68,23160,5,8,0:0:0:0:
353,54,23220,1,0,0:0:0:0:
316,47,23280,1,0,0:0:0:0:
278,45,23340,1,0,0:0:0:0:
241,50,23400,1,0,0:0:0:0:
205,62,23460,1,0,0:0:0:0:
172,78,23520,1,0,0:0:0:0:
142,100,23580,1,0,0:0:0:0:
216,144,23640,5,8,0:0:0:0:
229,176,23700,1,0,0:0:0:0:
256,206,23760,1,0,0:0:0:0:
284,232,23820,1,0,0:0:0:0:
315,252,23880,1,0,0:0:0:0:
349,267,23940,1,0,0:0:0:0:
385,277,24000,1,0,0:0:0:0:
423,280,24060,1,0,0:0:0:0:
407,190,24120,6,0,L|358:141,7,63.7500014692543,8|0|0|0|0|0|0|0,0:0|0:0|0:0|0:0|0:0|0:0|0:0|0:0,0:0:0:0:
466,125,24600,6,0,L|405:64,7,75.000000298023,8|0|0|0|0|0|0|0,0:0|0:0|0:0|0:0|0:0|0:0|0:0|0:0,0:0:0:0:
385,167,25080,6,0,L|329:111,7,48.7499979621171,8|0|0|0|0|0|0|0,0:0|0:0|0:0|0:0|0:0|0:0|0:0|0:0,0:0:0:0:
307,215,25560,6,0,L|253:161,7,75.000000298023,8|0|0|0|0|0|0|0,0:0|0:0|0:0|0:0|0:0|0:0|0:0|0:0,0:0:0:0:
364,146,26040,6,0,L|317:99,7,63.7500014692543,8|0|0|0|0|0|0|0,0:0|0:0|0:0|0:0|0:0|0:0|0:0|0:0,0:0:0:0:
272,180,26520,6,0,L|235:143,7,37.5000001490115,8|0|0|0|0|0|0|0,0:0|0:0|0:0|0:0|0:0|0:0|0:0|0:0,0:0:0:0:
336,117,27000,6,0,L|314:95,7,30.0000001192092,8|0|0|0|0|0|0|0,0:0|0:0|0:0|0:0|0:0|0:0|0:0|0:0,0:0:0:0:
254,164,27480,6,0,L|241:151,7,18.7500000745057,8|0|0|0|0|0|0|0,0:0|0:0|0:0|0:0|0:0|0:0|0:0|0:0,0:0:0:0:
204,64,27960,5,8,0:0:0:0:
240,56,28020,1,0,0:0:0:0:
278,55,28080,1,0,0:0:0:0:
315,60,28140,1,0,0:0:0:0:
351,72,28200,1,0,0:0:0:0:
384,89,28260,1,0,0:0:0:0:
414,111,28320,1,0,0:0:0:0:
440,138,28380,1,0,0:0:0:0:
468,56,28440,5,8,0:0:0:0:
453,90,28500,1,0,0:0:0:0:
433,122,28560,1,0,0:0:0:0:
408,150,28620,1,0,0:0:0:0:
379,173,28680,1,0,0:0:0:0:
346,191,28740,1,0,0:0:0:0:
310,203,28800,1,0,0:0:0:0:
274,210,28860,1,0,0:0:0:0:
276,128,28920,5,8,0:0:0:0:
310,143,28980,1,0,0:0:0:0:
341,163,29040,1,0,0:0:0:0:
368,189,29100,1,0,0:0:0:0:
391,218,29160,1,0,0:0:0:0:
409,252,29220,1,0,0:0:0:0:
421,287,29280,1,0,0:0:0:0:
426,324,29340,1,0,0:0:0:0:
496,280,29400,5,8,0:0:0:0:
462,295,29460,1,0,0:0:0:0:
426,305,29520,1,0,0:0:0:0:
388,309,29580,1,0,0:0:0:0:
351,307,29640,1,0,0:0:0:0:
314,299,29700,1,0,0:0:0:0:
280,284,29760,1,0,0:0:0:0:
248,264,29820,1,0,0:0:0:0:
244,352,29880,5,8,0:0:0:0:
265,321,29940,1,0,0:0:0:0:
281,287,30000,1,0,0:0:0:0:
291,251,30060,1,0,0:0:0:0:
296,214,30120,1,0,0:0:0:0:
294,176,30180,1,0,0:0:0:0:
286,140,30240,1,0,0:0:0:0:
271,105,30300,1,0,0:0:0:0:
360,108,30360,5,8,0:0:0:0:
336,137,30420,1,0,0:0:0:0:
309,162,30480,1,0,0:0:0:0:
278,183,30540,1,0,0:0:0:0:
243,198,30600,1,0,0:0:0:0:
207,207,30660,1,0,0:0:0:0:
170,210,30720,1,0,0:0:0:0:
132,206,30780,1,0,0:0:0:0:
144,288,30840,5,8,0:0:0:0:
147,250,30900,1,0,0:0:0:0:
157,214,30960,1,0,0:0:0:0:
173,180,31020,1,0,0:0:0:0:
194,149,31080,1,0,0:0:0:0:
220,122,31140,1,0,0:0:0:0:
250,100,31200,1,0,0:0:0:0:
284,83,31260,1,0,0:0:0:0:
192,44,31320,5,8,0:0:0:0:
218,70,31380,1,0,0:0:0:0:
239,101,31440,1,0,0:0:0:0:
255,135,31500,1,0,0:0:0:0:
265,171,31560,1,0,0:0:0:0:
269,208,31620,1,0,0:0:0:0:
266,246,31680,1,0,0:0:0:0:
258,282,31740,1,0,0:0:0:0:
184,236,31800,5,8,0:0:0:0:
162,246,31860,1,0,0:0:0:0:
138,249,31920,1,0,0:0:0:0:
114,245,31980,1,0,0:0:0:0:
93,235,32040,1,0,0:0:0:0:
75,218,32100,1,0,0:0:0:0:
63,197,32160,1,0,0:0:0:0:
58,174,32220,1,0,0:0:0:0:
136,168,32280,5,8,0:0:0:0:
163,161,32340,1,0,0:0:0:0:
186,146,32400,1,0,0:0:0:0:
203,123,32460,1,0,0:0:0:0:
210,96,32520,1,0,0:0:0:0:
207,69,32580,1,0,0:0:0:0:
194,44,32640,1,0,0:0:0:0:
174,25,32700,1,0,0:0:0:0:
136,92,32760,5,8,0:0:0:0:
120,95,32820,1,0,0:0:0:0:
105,101,32880,1,0,0:0:0:0:
91,109,32940,1,0,0:0:0:0:
79,120,33000,1,0,0:0:0:0:
69,133,33060,1,0,0:0:0:0:
62,147,33120,1,0,0:0:0:0:
57,162,33180,1,0,0:0:0:0:
132,168,33240,5,8,0:0:0:0:
151,188,33300,1,0,0:0:0:0:
175,203,33360,1,0,0:0:0:0:
202,210,33420,1,0,0:0:0:0:
230,211,33480,1,0,0:0:0:0:
257,204,33540,1,0,0:0:0:0:
281,190,33600,1,0,0:0:0:0:
301,170,33660,1,0,0:0:0:0:
232,132,33720,5,8,0:0:0:0:
245,112,33780,1,0,0:0:0:0:
264,97,33840,1,0,0:0:0:0:
287,89,33900,1,0,0:0:0:0:
311,88,33960,1,0,0:0:0:0:
334,94,34020,1,0,0:0:0:0:
354,107,34080,1,0,0:0:0:0:
369,126,34140,1,0,0:0:0:0:
304,168,34200,5,8,0:0:0:0:
309,178,34260,1,0,0:0:0:0:
316,188,34320,1,0,0:0:0:0:
325,196,34380,1,0,0:0:0:0:
335,203,34440,1,0,0:0:0:0:
345,208,34500,1,0,0:0:0:0:
357,211,34560,1,0,0:0:0:0:
369,212,34620,1,0,0:0:0:0:
384,132,34680,5,8,0:0:0:0:
388,136,34740,1,0,0:0:0:0:
392,140,34800,1,0,0:0:0:0:
396,144,34860,1,0,0:0:0:0:
400,148,34920,1,0,0:0:0:0:
404,152,34980,1,0,0:0:0:0:
408,156,35040,1,0,0:0:0:0:
412,160,35100,1,0,0:0:0:0:
416,164,35160,5,4,0:0:0:0:
236,172,40440,5,8,0:0:0:0:
276,212,40560,1,0,0:0:0:0:
232,168,40680,1,0,0:0:0:0:
280,216,40800,1,0,0:0:0:0:
296,152,40920,5,8,0:0:0:0:
216,232,41040,1,0,0:0:0:0:
300,148,41160,1,0,0:0:0:0:
212,236,41280,1,0,0:0:0:0:
196,136,41400,5,8,0:0:0:0:
316,248,41520,1,0,0:0:0:0:
192,132,41640,1,0,0:0:0:0:
320,252,41760,1,0,0:0:0:0:
336,116,41880,5,8,0:0:0:0:
172,272,42000,1,0,0:0:0:0:
340,112,42120,1,0,0:0:0:0:
168,276,42240,1,0,0:0:0:0:
164,104,42360,5,8,0:0:0:0:
348,280,42480,1,0,0:0:0:0:
160,100,42600,1,0,0:0:0:0:
352,284,42720,1,0,0:0:0:0:
372,88,42840,5,8,0:0:0:0:
140,300,42960,1,0,0:0:0:0:
376,84,43080,1,0,0:0:0:0:
136,304,43200,1,0,0:0:0:0:
380,79,43320,5,8,0:0:0:0:
136,187,43440,1,0,0:0:0:0:
397,243,43560,1,0,0:0:0:0:
219,45,43680,1,0,0:0:0:0:
246,310,43800,1,0,0:0:0:0:
384,84,43920,1,0,0:0:0:0:
140,192,44040,1,2,0:0:0:0:
72,112,44280,6,0,B|64:120|64:120|76:124|76:124|64:132|64:132|76:136|76:136|60:120|60:120|80:124|80:124|60:132|60:132|80:136|80:136|68:144|68:144|48:316,1,300.000001192092
164,64,44760,6,0,B|156:72|156:72|168:76|168:76|156:84|156:84|168:88|168:88|152:72|152:72|172:76|172:76|152:84|152:84|172:88|172:88|160:96|160:96|132:328,1,375.000001490115
260,32,45240,6,0,B|252:40|252:40|264:44|264:44|252:52|252:52|264:56|264:56|248:40|248:40|268:44|268:44|248:52|248:52|268:56|268:56|256:64|256:64|216:372,1,454.545456351654
376,32,45720,6,0,L|328:372,2,300.000001192092
368,40,46020,1,0,0:0:0:0:
360,48,46080,1,0,0:0:0:0:
352,56,46140,1,0,0:0:0:0:
343,66,46200,5,8,0:0:0:0:
111,241,46320,1,0,0:0:0:0:
402,236,46440,1,0,0:0:0:0:
163,69,46560,1,0,0:0:0:0:
258,345,46680,5,8,0:0:0:0:
336,76,46800,1,0,0:0:0:0:
104,248,46920,1,0,0:0:0:0:
396,244,47040,1,0,0:0:0:0:
151,67,47160,5,10,0:0:0:0:
177,71,47220,1,0,0:0:0:0:
161,95,47280,1,0,0:0:0:0:
188,101,47340,1,0,0:0:0:0:
170,125,47400,1,2,0:0:0:0:
199,131,47460,1,0,0:0:0:0:
182,154,47520,1,0,0:0:0:0:
211,163,47580,1,0,0:0:0:0:
192,185,47640,1,2,0:0:0:0:
221,192,47700,1,0,0:0:0:0:
204,215,47760,1,0,0:0:0:0:
232,222,47820,1,0,0:0:0:0:
214,246,47880,1,2,0:0:0:0:
241,249,47940,1,0,0:0:0:0:
226,276,48000,1,0,0:0:0:0:
254,282,48060,1,0,0:0:0:0:
245,306,48120,5,4,0:0:0:0:
80,168,52920,6,0,L|152:368,1,150.000000596046,8|0,0:0|0:0,0:0:0:0:
136,312,53100,1,0,0:0:0:0:
140,316,53160,1,0,0:0:0:0:
256,192,53280,1,8,0:0:0:0:
426,201,53400,6,0,L|354:1,1,150.000000596046,8|0,0:0|0:0,0:0:0:0:
370,57,53580,1,0,0:0:0:0:
366,53,53640,1,0,0:0:0:0:
256,192,53760,1,8,0:0:0:0:
80,168,53880,6,0,L|152:368,1,150.000000596046,8|0,0:0|0:0,0:0:0:0:
136,312,54060,1,0,0:0:0:0:
140,316,54120,1,0,0:0:0:0:
432,208,54240,5,8,0:0:0:0:
376,60,54360,1,8,0:0:0:0:
88,176,54480,1,8,0:0:0:0:
148,324,54600,1,2,0:0:0:0:
218,18,54840,6,0,L|55:154,1,150.000000596046,8|0,0:0|0:0,0:0:0:0:
102,120,55020,1,0,0:0:0:0:
99,125,55080,1,0,0:0:0:0:
256,192,55200,1,8,0:0:0:0:
305,354,55320,6,0,L|468:218,1,150.000000596046,8|0,0:0|0:0,0:0:0:0:
421,252,55500,1,0,0:0:0:0:
424,247,55560,1,0,0:0:0:0:
256,192,55680,1,8,0:0:0:0:
218,18,55800,6,0,L|55:154,1,150.000000596046,8|0,0:0|0:0,0:0:0:0:
102,120,55980,1,0,0:0:0:0:
99,125,56040,1,0,0:0:0:0:
301,362,56160,5,8,0:0:0:0:
421,259,56280,1,8,0:0:0:0:
217,27,56400,1,8,0:0:0:0:
95,135,56520,1,2,0:0:0:0:
140,192,56760,5,8,0:0:0:0:
256,192,56880,1,0,0:0:0:0:
260,196,56940,1,0,0:0:0:0:
264,200,57000,1,0,0:0:0:0:
144,192,57120,5,8,0:0:0:0:
256,72,57240,1,8,0:0:0:0:
256,192,57360,1,0,0:0:0:0:
260,196,57420,1,0,0:0:0:0:
264,200,57480,1,0,0:0:0:0:
256,78,57600,5,8,0:0:0:0:
382,193,57720,1,8,0:0:0:0:
256,192,57840,1,0,0:0:0:0:
260,196,57900,1,0,0:0:0:0:
264,200,57960,1,0,0:0:0:0:
377,192,58080,1,8,0:0:0:0:
255,313,58200,1,8,0:0:0:0:
134,192,58320,1,8,0:0:0:0:
256,70,58440,1,2,0:0:0:0:
338,109,58680,5,8,0:0:0:0:
256,192,58800,1,0,0:0:0:0:
260,196,58860,1,0,0:0:0:0:
264,200,58920,1,0,0:0:0:0:
335,112,59040,5,8,0:0:0:0:
336,272,59160,1,8,0:0:0:0:
256,192,59280,1,0,0:0:0:0:
260,196,59340,1,0,0:0:0:0:
264,200,59400,1,0,0:0:0:0:
332,268,59520,5,8,0:0:0:0:
164,268,59640,1,8,0:0:0:0:
256,192,59760,1,0,0:0:0:0:
260,196,59820,1,0,0:0:0:0:
264,200,59880,1,0,0:0:0:0:
168,272,60000,1,8,0:0:0:0:
169,105,60120,1,8,0:0:0:0:
342,105,60240,1,8,0:0:0:0:
342,278,60360,1,2,0:0:0:0:
158,82,60600,6,0,B|206:114|206:114|238:174|238:174|282:218,1,150.000000596046,8|0,0:0|0:0,0:0:0:0:
260,196,60780,1,0,0:0:0:0:
264,200,60840,1,0,0:0:0:0:
354,82,60960,5,8,0:0:0:0:
357,305,61080,2,0,B|309:273|309:273|277:213|277:213|233:169,1,150.000000596046,8|0,0:0|0:0,0:0:0:0:
260,200,61260,1,0,0:0:0:0:
256,204,61320,1,0,0:0:0:0:
155,305,61440,5,8,0:0:0:0:
158,82,61560,6,0,B|206:114|206:114|238:174|238:174|282:218,1,150.000000596046,8|0,0:0|0:0,0:0:0:0:
260,196,61740,1,0,0:0:0:0:
264,200,61800,1,0,0:0:0:0:
384,60,61920,5,8,0:0:0:0:
126,327,62040,1,8,0:0:0:0:
379,57,62160,1,8,0:0:0:0:
131,330,62280,1,2,0:0:0:0:
354,82,62520,6,0,B|306:114|306:114|274:174|274:174|230:218,1,150.000000596046,8|0,0:0|0:0,0:0:0:0:
252,196,62700,1,0,0:0:0:0:
248,200,62760,1,0,0:0:0:0:
158,82,62880,5,8,0:0:0:0:
155,305,63000,2,0,B|203:273|203:273|235:213|235:213|279:169,1,150.000000596046,8|0,0:0|0:0,0:0:0:0:
252,200,63180,1,0,0:0:0:0:
256,204,63240,1,0,0:0:0:0:
357,305,63360,5,8,0:0:0:0:
354,82,63480,6,0,B|306:114|306:114|274:174|274:174|230:218,1,150.000000596046,8|0,0:0|0:0,0:0:0:0:
252,196,63660,1,0,0:0:0:0:
248,200,63720,1,0,0:0:0:0:
128,60,63840,5,8,0:0:0:0:
386,327,63960,1,8,0:0:0:0:
133,57,64080,1,8,0:0:0:0:
381,330,64200,1,2,0:0:0:0:
158,82,64440,6,0,B|206:114|206:114|238:174|238:174|282:218,1,150.000000596046,8|0,0:0|0:0,0:0:0:0:
260,196,64620,1,0,0:0:0:0:
264,200,64680,1,0,0:0:0:0:
155,305,64800,5,8,0:0:0:0:
357,305,64920,2,0,B|309:273|309:273|277:213|277:213|233:169,1,150.000000596046,8|0,0:0|0:0,0:0:0:0:
260,200,65100,1,0,0:0:0:0:
256,204,65160,1,0,0:0:0:0:
354,82,65280,5,8,0:0:0:0:
158,82,65400,6,0,B|206:114|206:114|238:174|238:174|282:218,1,150.000000596046,8|0,0:0|0:0,0:0:0:0:
260,196,65580,1,0,0:0:0:0:
264,200,65640,1,0,0:0:0:0:
72,192,65760,5,8,0:0:0:0:
443,192,65880,1,8,0:0:0:0:
73,186,66000,1,8,0:0:0:0:
442,197,66120,1,2,0:0:0:0:
252,127,66360,6,0,P|220:107|248:131,1,112.500000447034
252,127,66720,6,0,P|312:104|288:168,1,157.49999581933
298,166,67080,6,0,P|312:104|252:140,1,157.49999581933
252,127,67440,6,0,P|250:222|354:202,1,225.000000894069
351,206,67800,6,0,P|246:218|278:113,1,225.000009477138
252,127,68040,6,0,P|361:78|327:212,1,300.000001192092,0|8,0:0|0:0,0:0:0:0:
323,221,68340,1,0,0:0:0:0:
293,237,68400,1,0,0:0:0:0:
262,251,68460,1,0,0:0:0:0:
230,262,68520,1,0,0:0:0:0:
197,269,68580,1,0,0:0:0:0:
164,273,68640,1,0,0:0:0:0:
130,273,68700,1,0,0:0:0:0:
124,185,68760,5,8,0:0:0:0:
162,181,68820,1,0,0:0:0:0:
200,173,68880,1,0,0:0:0:0:
237,162,68940,1,0,0:0:0:0:
272,147,69000,1,0,0:0:0:0:
306,129,69060,1,0,0:0:0:0:
338,108,69120,1,0,0:0:0:0:
368,84,69180,1,0,0:0:0:0:
413,159,69240,5,8,0:0:0:0:
379,186,69300,1,0,0:0:0:0:
342,209,69360,1,0,0:0:0:0:
304,229,69420,1,0,0:0:0:0:
264,246,69480,1,0,0:0:0:0:
222,259,69540,1,0,0:0:0:0:
180,267,69600,1,0,0:0:0:0:
137,272,69660,1,0,0:0:0:0:
124,185,69720,5,8,0:0:0:0:
171,179,69780,1,0,0:0:0:0:
218,168,69840,1,0,0:0:0:0:
263,151,69900,1,0,0:0:0:0:
306,128,69960,1,0,0:0:0:0:
345,101,70020,1,0,0:0:0:0:
381,69,70080,1,0,0:0:0:0:
413,32,70140,1,0,0:0:0:0:
344,4,70200,5,8,0:0:0:0:
302,8,70260,1,0,0:0:0:0:
261,12,70320,1,0,0:0:0:0:
220,16,70380,1,0,0:0:0:0:
179,21,70440,1,0,0:0:0:0:
138,25,70500,1,0,0:0:0:0:
97,29,70560,1,0,0:0:0:0:
56,33,70620,1,0,0:0:0:0:
100,96,70680,5,8,0:0:0:0:
146,100,70740,1,0,0:0:0:0:
193,105,70800,1,0,0:0:0:0:
240,110,70860,1,0,0:0:0:0:
287,115,70920,1,0,0:0:0:0:
334,120,70980,1,0,0:0:0:0:
381,125,71040,1,0,0:0:0:0:
428,130,71100,1,0,0:0:0:0:
452,204,71160,5,8,0:0:0:0:
399,209,71220,1,0,0:0:0:0:
346,215,71280,1,0,0:0:0:0:
293,220,71340,1,0,0:0:0:0:
241,226,71400,1,0,0:0:0:0:
188,231,71460,1,0,0:0:0:0:
135,237,71520,1,0,0:0:0:0:
82,242,71580,1,0,0:0:0:0:
40,308,71640,5,8,0:0:0:0:
98,314,71700,1,0,0:0:0:0:
157,320,71760,1,0,0:0:0:0:
215,326,71820,1,0,0:0:0:0:
274,332,71880,1,0,0:0:0:0:
333,338,71940,1,0,0:0:0:0:
391,344,72000,1,0,0:0:0:0:
450,351,72060,1,0,0:0:0:0:
456,272,72120,5,8,0:0:0:0:
456,238,72180,1,0,0:0:0:0:
456,204,72240,1,0,0:0:0:0:
456,170,72300,1,0,0:0:0:0:
456,137,72360,1,0,0:0:0:0:
456,103,72420,1,0,0:0:0:0:
456,69,72480,1,0,0:0:0:0:
456,35,72540,1,0,0:0:0:0:
380,36,72600,5,8,0:0:0:0:
341,36,72660,1,0,0:0:0:0:
302,36,72720,1,0,0:0:0:0:
264,36,72780,1,0,0:0:0:0:
225,36,72840,1,0,0:0:0:0:
187,36,72900,1,0,0:0:0:0:
148,36,72960,1,0,0:0:0:0:
110,36,73020,1,0,0:0:0:0:
37,36,73080,5,8,0:0:0:0:
36,79,73140,1,0,0:0:0:0:
36,122,73200,1,0,0:0:0:0:
36,166,73260,1,0,0:0:0:0:
36,209,73320,1,0,0:0:0:0:
36,252,73380,1,0,0:0:0:0:
36,296,73440,1,0,0:0:0:0:
36,339,73500,1,0,0:0:0:0:
112,340,73560,5,8,0:0:0:0:
160,340,73620,1,0,0:0:0:0:
208,340,73680,1,0,0:0:0:0:
256,340,73740,1,0,0:0:0:0:
304,340,73800,1,0,0:0:0:0:
353,340,73860,1,0,0:0:0:0:
401,340,73920,1,0,0:0:0:0:
449,340,73980,1,0,0:0:0:0:
483,277,74040,5,8,0:0:0:0:
489,236,74100,1,0,0:0:0:0:
496,196,74160,1,0,0:0:0:0:
481,157,74220,1,0,0:0:0:0:
450,132,74280,1,0,0:0:0:0:
410,125,74340,1,0,0:0:0:0:
371,139,74400,1,0,0:0:0:0:
346,171,74460,1,0,0:0:0:0:
416,204,74520,5,8,0:0:0:0:
385,239,74580,1,0,0:0:0:0:
341,253,74640,1,0,0:0:0:0:
296,241,74700,1,0,0:0:0:0:
264,207,74760,1,0,0:0:0:0:
255,162,74820,1,0,0:0:0:0:
271,118,74880,1,0,0:0:0:0:
308,90,74940,1,0,0:0:0:0:
344,164,75000,5,8,0:0:0:0:
376,122,75060,1,0,0:0:0:0:
382,70,75120,1,0,0:0:0:0:
352,28,75180,1,0,0:0:0:0:
302,12,75240,1,0,0:0:0:0:
250,24,75300,1,0,0:0:0:0:
213,60,75360,1,0,0:0:0:0:
194,110,75420,1,0,0:0:0:0:
292,100,75480,5,8,0:0:0:0:
270,154,75540,1,0,0:0:0:0:
232,198,75600,1,0,0:0:0:0:
177,215,75660,1,0,0:0:0:0:
125,190,75720,1,0,0:0:0:0:
101,137,75780,1,0,0:0:0:0:
107,79,75840,1,0,0:0:0:0:
135,28,75900,1,0,0:0:0:0:
256,192,75960,12,0,80520,0:0:0:0:
37,50,80760,5,8,0:0:0:0:
42,115,80820,1,0,0:0:0:0:
63,174,80880,1,0,0:0:0:0:
96,229,80940,1,0,0:0:0:0:
140,276,81000,1,0,0:0:0:0:
194,311,81060,1,0,0:0:0:0:
254,334,81120,1,0,0:0:0:0:
317,343,81180,1,0,0:0:0:0:
431,322,81240,5,8,0:0:0:0:
416,250,81300,1,0,0:0:0:0:
387,184,81360,1,0,0:0:0:0:
343,127,81420,1,0,0:0:0:0:
286,82,81480,1,0,0:0:0:0:
221,51,81540,1,0,0:0:0:0:
151,36,81600,1,0,0:0:0:0:
79,38,81660,1,0,0:0:0:0:
57,131,81720,5,8,0:0:0:0:
109,151,81780,1,0,0:0:0:0:
164,164,81840,1,0,0:0:0:0:
219,169,81900,1,0,0:0:0:0:
276,167,81960,1,0,0:0:0:0:
331,158,82020,1,0,0:0:0:0:
385,140,82080,1,0,0:0:0:0:
435,116,82140,1,0,0:0:0:0:
479,26,82200,5,8,0:0:0:0:
407,35,82260,1,0,0:0:0:0:
337,54,82320,1,0,0:0:0:0:
272,84,82380,1,0,0:0:0:0:
211,124,82440,1,0,0:0:0:0:
157,172,82500,1,0,0:0:0:0:
111,228,82560,1,0,0:0:0:0:
74,290,82620,1,0,0:0:0:0:
63,377,82680,5,8,0:0:0:0:
126,368,82740,1,0,0:0:0:0:
188,351,82800,1,0,0:0:0:0:
246,324,82860,1,0,0:0:0:0:
300,289,82920,1,0,0:0:0:0:
348,246,82980,1,0,0:0:0:0:
389,196,83040,1,0,0:0:0:0:
421,141,83100,1,0,0:0:0:0:
370,64,83160,5,8,0:0:0:0:
343,94,83220,1,0,0:0:0:0:
325,129,83280,1,0,0:0:0:0:
317,169,83340,1,0,0:0:0:0:
320,209,83400,1,0,0:0:0:0:
333,247,83460,1,0,0:0:0:0:
356,280,83520,1,0,0:0:0:0:
386,306,83580,1,0,0:0:0:0:
471,320,83640,5,8,0:0:0:0:
472,287,83700,1,0,0:0:0:0:
468,255,83760,1,0,0:0:0:0:
460,224,83820,1,0,0:0:0:0:
447,195,83880,1,0,0:0:0:0:
430,168,83940,1,0,0:0:0:0:
409,144,84000,1,0,0:0:0:0:
385,123,84060,1,0,0:0:0:0:
305,85,84120,5,8,0:0:0:0:
295,107,84180,1,0,0:0:0:0:
289,130,84240,1,0,0:0:0:0:
287,154,84300,1,0,0:0:0:0:
288,178,84360,1,0,0:0:0:0:
294,201,84420,1,0,0:0:0:0:
303,224,84480,1,0,0:0:0:0:
316,244,84540,1,0,0:0:0:0:
396,285,84600,5,8,0:0:0:0:
366,254,84660,1,0,0:0:0:0:
330,230,84720,1,0,0:0:0:0:
290,214,84780,1,0,0:0:0:0:
248,208,84840,1,0,0:0:0:0:
205,211,84900,1,0,0:0:0:0:
165,224,84960,1,0,0:0:0:0:
127,244,85020,1,0,0:0:0:0:
81,316,85080,5,8,0:0:0:0:
129,319,85140,1,0,0:0:0:0:
176,313,85200,1,0,0:0:0:0:
222,297,85260,1,0,0:0:0:0:
263,272,85320,1,0,0:0:0:0:
299,240,85380,1,0,0:0:0:0:
327,201,85440,1,0,0:0:0:0:
347,157,85500,1,0,0:0:0:0:
319,72,85560,5,8,0:0:0:0:
283,84,85620,1,0,0:0:0:0:
249,98,85680,1,0,0:0:0:0:
215,115,85740,1,0,0:0:0:0:
183,134,85800,1,0,0:0:0:0:
152,156,85860,1,0,0:0:0:0:
122,179,85920,1,0,0:0:0:0:
94,204,85980,1,0,0:0:0:0:
105,301,86040,5,8,0:0:0:0:
143,271,86100,1,0,0:0:0:0:
170,232,86160,1,0,0:0:0:0:
186,186,86220,1,0,0:0:0:0:
187,138,86280,1,0,0:0:0:0:
175,92,86340,1,0,0:0:0:0:
149,51,86400,1,0,0:0:0:0:
113,20,86460,1,0,0:0:0:0:
24,7,86520,5,8,0:0:0:0:
37,47,86580,1,0,0:0:0:0:
56,86,86640,1,0,0:0:0:0:
80,121,86700,1,0,0:0:0:0:
110,151,86760,1,0,0:0:0:0:
144,178,86820,1,0,0:0:0:0:
181,198,86880,1,0,0:0:0:0:
222,213,86940,1,0,0:0:0:0:
323,223,87000,5,8,0:0:0:0:
316,197,87060,1,0,0:0:0:0:
306,172,87120,1,0,0:0:0:0:
294,148,87180,1,0,0:0:0:0:
279,126,87240,1,0,0:0:0:0:
261,106,87300,1,0,0:0:0:0:
241,87,87360,1,0,0:0:0:0:
220,72,87420,1,0,0:0:0:0:
128,48,87480,5,8,0:0:0:0:
124,52,87540,1,0,0:0:0:0:
120,56,87600,1,0,0:0:0:0:
116,60,87660,1,0,0:0:0:0:
112,64,87720,1,0,0:0:0:0:
108,68,87780,1,0,0:0:0:0:
104,72,87840,1,0,0:0:0:0:
100,76,87900,1,0,0:0:0:0:
96,80,87960,5,4,0:0:0:0:
