osu file format v14

[General]
AudioFilename: Renard - BEST OF LAPFOX VOL 1- Because Maybe! - 17 Chelsea Smile.mp3
AudioLeadIn: 0
PreviewTime: -1
Countdown: 1
SampleSet: None
StackLeniency: 0.7
Mode: 3
LetterboxInBreaks: 1
SpecialStyle: 1
WidescreenStoryboard: 0

[Editor]
DistanceSpacing: 1.1
BeatDivisor: 4
GridSize: 4
TimelineZoom: 1

[Metadata]
Title:Chelsea Smile
TitleUnicode:Chelsea Smile
Artist:Renard
ArtistUnicode:Renard
Creator:- Anima -
Version:Fuzzy [remade]
Source:BEST OF LAPFOX VOL 1- Because Maybe!
Tags:renard because maybe chelsea smile
BeatmapID:1875384
BeatmapSetID:897687

[Difficulty]
HPDrainRate:7.3
CircleSize:4
OverallDifficulty:6.6
ApproachRate:6.7
SliderMultiplier:1.4
SliderTickRate:1

[Events]
//Background and Video events
0,0,"UntitledYY.png",0,0
//Break Periods
//Storyboard Layer 0 (Background)
//Storyboard Layer 1 (Fail)
//Storyboard Layer 2 (Pass)
//Storyboard Layer 3 (Foreground)
//Storyboard Sound Samples

[TimingPoints]
0,250,4,1,0,100,1,0

[HitObjects]
320,192,16687,128,0,17625:0:0:0:0:
192,192,18562,128,0,19562:0:0:0:0:
64,192,20625,128,0,21562:0:0:0:0:
448,192,24125,1,0,0:0:0:0:
320,192,24625,1,0,0:0:0:0:
320,192,25125,1,0,0:0:0:0:
192,192,25625,1,0,0:0:0:0:
320,192,26125,1,0,0:0:0:0:
320,192,26750,1,0,0:0:0:0:
320,192,27562,1,0,0:0:0:0:
448,192,28062,1,0,0:0:0:0:
320,192,28562,1,0,0:0:0:0:
192,192,29062,1,0,0:0:0:0:
64,192,29562,1,0,0:0:0:0:
192,192,30062,1,0,0:0:0:0:
320,192,30500,1,0,0:0:0:0:
448,192,31062,1,0,0:0:0:0:
448,192,32000,1,0,0:0:0:0:
448,192,32562,1,0,0:0:0:0:
448,192,33312,1,0,0:0:0:0:
448,192,33562,1,0,0:0:0:0:
320,192,34375,1,0,0:0:0:0:
320,192,34625,1,0,0:0:0:0:
320,192,35312,1,0,0:0:0:0:
320,192,35625,1,0,0:0:0:0:
192,192,36375,1,0,0:0:0:0:
192,192,36562,1,0,0:0:0:0:
192,192,37312,1,0,0:0:0:0:
192,192,37562,1,0,0:0:0:0:
64,192,38375,1,0,0:0:0:0:
64,192,38625,1,0,0:0:0:0:
64,192,39125,1,0,0:0:0:0:
64,192,39562,1,0,0:0:0:0:
192,192,40062,1,0,0:0:0:0:
320,192,41000,1,0,0:0:0:0:
448,192,42250,1,0,0:0:0:0:
320,192,43062,1,0,0:0:0:0:
192,192,44062,1,0,0:0:0:0:
64,192,45062,1,0,0:0:0:0:
448,192,46062,1,0,0:0:0:0:
320,192,46625,1,0,0:0:0:0:
192,192,47062,1,0,0:0:0:0:
64,192,47562,1,0,0:0:0:0:
64,192,48125,1,0,0:0:0:0:
192,192,49062,1,0,0:0:0:0:
320,192,49500,1,0,0:0:0:0:
448,192,49937,1,0,0:0:0:0:
448,192,51062,1,0,0:0:0:0:
320,192,51625,1,0,0:0:0:0:
192,192,52187,1,0,0:0:0:0:
64,192,53062,1,0,0:0:0:0:
64,192,53687,1,0,0:0:0:0:
320,192,54125,1,0,0:0:0:0:
192,192,54625,1,0,0:0:0:0:
448,192,55125,1,0,0:0:0:0:
448,192,57187,128,0,58062:0:0:0:0:
320,192,59187,128,0,60250:0:0:0:0:
192,192,61250,128,0,62125:0:0:0:0:
192,192,63437,1,0,0:0:0:0:
320,192,64000,1,0,0:0:0:0:
448,192,64562,1,0,0:0:0:0:
320,192,65187,1,0,0:0:0:0:
192,192,65562,1,0,0:0:0:0:
64,192,66062,1,0,0:0:0:0:
192,192,66562,1,0,0:0:0:0:
320,192,67062,1,0,0:0:0:0:
448,192,67687,1,0,0:0:0:0:
320,192,68125,1,0,0:0:0:0:
192,192,68625,1,0,0:0:0:0:
64,192,69062,1,0,0:0:0:0:
192,192,69562,1,0,0:0:0:0:
320,192,70062,1,0,0:0:0:0:
448,192,71125,1,0,0:0:0:0:
448,192,71562,1,0,0:0:0:0:
448,192,72125,1,0,0:0:0:0:
320,192,72625,1,0,0:0:0:0:
192,192,73000,1,0,0:0:0:0:
64,192,73500,1,0,0:0:0:0:
192,192,74062,1,0,0:0:0:0:
320,192,74500,1,0,0:0:0:0:
448,192,75187,1,0,0:0:0:0:
448,192,76125,1,0,0:0:0:0:
320,192,76562,1,0,0:0:0:0:
192,192,77062,1,0,0:0:0:0:
