osu file format v14

[General]
AudioFilename: audio.mp3
AudioLeadIn: 0
PreviewTime: 40206
Countdown: 0
SampleSet: Soft
StackLeniency: 0.7
Mode: 2
LetterboxInBreaks: 0
WidescreenStoryboard: 0

[Editor]
DistanceSpacing: 1.3
BeatDivisor: 4
GridSize: 8
TimelineZoom: 2.999999

[Metadata]
Title:Break
TitleUnicode:Break
Artist:Renard
ArtistUnicode:Renard
Creator:Emiru
Version:BREAK YOUR FUCKING FACE TONIGHT!
Source:The Quick Brown Fox
Tags:break maniac
BeatmapID:1378019
BeatmapSetID:650280

[Difficulty]
HPDrainRate:3.7
CircleSize:4.2
OverallDifficulty:9.7
ApproachRate:9.7
SliderMultiplier:1.8
SliderTickRate:2

[Events]
//Background and Video events
0,0,"RENARD.png",0,0
//Break Periods
//Storyboard Layer 0 (Background)
//Storyboard Layer 1 (Fail)
//Storyboard Layer 2 (Pass)
//Storyboard Layer 3 (Foreground)
//Storyboard Sound Samples

[TimingPoints]
818,209.790181818182,4,2,0,15,1,0
922,-125,4,2,0,15,0,0
3335,-125,4,2,0,15,0,0
8370,-100,4,2,0,35,0,0
15083,-100,4,2,0,75,0,1
28090,-100,4,2,0,35,0,0
28510,-100,4,2,0,45,0,0
40206,-100,4,2,0,95,0,0
41936,-100,4,2,0,85,0,1
54524,-100,4,2,0,45,0,0
68370,-50,4,2,0,45,0,0
68790,-100,4,2,0,75,0,1
81797,-100,4,2,0,45,0,0
82426,-125,4,2,0,25,0,0
85153,-100,4,2,0,55,0,0

[Colours]
Combo1 : 255,255,0
Combo2 : 128,255,0
Combo3 : 255,128,0
Combo4 : 255,128,128

[HitObjects]
256,88,1657,6,0,L|424:88,2,144
112,88,2286,1,0,0:0:0:0:
256,192,2496,1,0,0:0:0:0:
400,88,2706,1,0,0:0:0:0:
112,192,2915,5,0,0:0:0:0:
360,192,3335,6,0,L|216:192,2,144
512,192,3964,1,0,0:0:0:0:
152,248,4174,6,0,L|296:248,2,144
0,192,4803,1,0,0:0:0:0:
328,64,5013,6,0,L|184:64,1,144
368,192,5433,2,0,L|368:360,1,144
184,64,5852,2,0,L|336:64,1,144
32,192,6272,6,0,L|192:192,2,144
328,312,6901,2,0,L|184:312,1,144
328,240,7321,1,0,0:0:0:0:
32,192,7531,5,0,0:0:0:0:
392,64,7741,1,0,0:0:0:0:
120,64,7950,1,0,0:0:0:0:
480,192,8160,1,0,0:0:0:0:
168,56,8370,6,0,L|48:56,2,90
168,128,8685,1,0,0:0:0:0:
256,128,8790,1,0,0:0:0:0:
344,128,8894,1,0,0:0:0:0:
344,56,8999,6,0,L|464:56,2,90
256,192,9314,2,0,L|360:192,3,90
256,256,9734,2,0,L|256:352,1,90
168,128,9943,2,0,L|264:128,1,90
256,192,10153,6,0,L|152:192,3,90
256,256,10573,2,0,L|256:352,1,90
344,128,10783,6,0,L|240:128,1,90
164,128,10992,2,0,L|260:128,1,90
344,128,11202,2,0,L|240:128,1,90
164,128,11411,2,0,L|260:128,1,90
344,192,11622,6,0,L|344:288,1,90
256,344,11831,2,0,L|360:344,1,90
256,272,12041,2,0,L|152:272,1,90
168,192,12251,2,0,L|168:288,1,90
256,144,12461,6,0,L|360:144,3,90
168,112,12880,2,0,L|64:112,1,90
256,224,13090,2,0,L|368:224,1,90
168,224,13300,6,0,L|64:224,3,90
256,96,13720,2,0,L|376:96,1,90
256,144,13929,2,0,L|152:144,1,90
440,192,14139,6,0,L|448:288,1,90
256,96,14349,2,0,L|136:96,1,90
256,144,14558,2,0,L|360:144,1,90
72,192,14769,2,0,L|64:288,1,90
448,40,15083,5,0,0:0:0:0:
368,40,15188,1,0,0:0:0:0:
456,96,15293,1,0,0:0:0:0:
360,96,15398,1,0,0:0:0:0:
160,144,15503,6,0,L|144:40,1,90
344,296,15713,2,0,L|224:296,1,90
56,192,15922,6,0,L|72:296,1,90
256,128,16132,2,0,L|136:128,1,90
456,192,16342,2,0,L|440:296,1,90
256,128,16552,2,0,L|376:128,1,90
64,40,16762,5,0,0:0:0:0:
144,40,16867,1,0,0:0:0:0:
56,96,16972,1,0,0:0:0:0:
152,96,17077,1,0,0:0:0:0:
352,144,17181,6,0,L|368:40,1,90
168,296,17391,2,0,L|288:296,1,90
456,192,17601,6,0,L|440:296,1,90
256,128,17811,2,0,L|376:128,1,90
56,192,18021,2,0,L|72:296,1,90
256,128,18231,2,0,L|136:128,1,90
344,216,18440,2,0,L|232:216,1,90
448,40,18650,5,0,0:0:0:0:
368,40,18755,1,0,0:0:0:0:
456,96,18860,1,0,0:0:0:0:
360,96,18965,1,0,0:0:0:0:
112,192,19069,6,0,L|128:288,1,90
304,144,19279,2,0,L|200:144,1,90
400,192,19489,2,0,L|384:288,1,90
128,352,19699,6,0,L|24:352,1,90
128,288,19908,2,0,L|32:288,1,90
256,256,20118,2,0,L|152:256,1,90
256,192,20327,2,0,L|160:192,1,90
448,88,20538,6,0,L|464:192,1,90
208,88,20748,2,0,L|312:88,1,90
64,88,20957,2,0,L|48:192,1,90
298,88,21167,2,0,L|194:88,1,90
408,88,21377,5,4,0:0:0:0:
208,144,21482,1,4,0:0:0:0:
408,144,21587,1,4,0:0:0:0:
208,224,21692,2,0,L|80:224,1,90
384,352,21901,6,0,L|488:352,1,90
384,288,22110,2,0,L|480:288,1,90
256,256,22320,2,0,L|360:256,1,90
256,192,22531,2,0,L|352:192,1,90
64,88,22741,6,0,L|48:192,1,90
304,88,22951,2,0,L|200:88,1,90
448,88,23160,2,0,L|464:192,1,90
214,88,23370,2,0,L|318:88,1,90
104,88,23580,6,0,L|0:88,2,90
408,144,23894,2,0,L|424:240,1,90
256,288,24104,2,0,L|360:288,1,90
104,136,24314,2,0,L|88:232,1,90
256,288,24524,6,0,L|152:288,1,90
256,192,24734,2,0,L|144:192,1,90
424,152,24943,2,0,L|440:48,1,90
256,288,25153,6,0,L|360:288,1,90
256,192,25363,2,0,L|368:192,1,90
88,152,25573,2,0,L|72:48,1,90
256,248,25783,6,0,L|160:248,1,90
344,320,25992,2,0,L|240:320,1,90
424,152,26202,2,0,L|440:48,1,90
256,248,26412,6,0,L|352:248,1,90
168,320,26621,2,0,L|272:320,1,90
88,152,26831,6,0,L|72:48,1,90
256,192,27041,2,0,L|160:192,1,90
256,120,27251,2,0,L|360:120,1,90
74,63,27461,6,0,L|88:152,1,90
256,192,27671,2,0,L|352:192,1,90
256,120,27881,2,0,L|152:120,1,90
464,24,28090,6,0,P|480:104|464:360,1,315
72,56,28510,6,0,L|72:152,1,90
162,146,28720,2,0,L|34:146,1,90
162,146,28929,2,0,L|162:242,1,90
252,236,29139,2,0,L|124:236,1,90
252,146,29349,6,0,L|252:242,1,90
342,236,29559,2,0,L|214:236,1,90
342,236,29768,2,0,L|342:332,1,90
432,326,29978,2,0,L|304:326,1,90
440,56,30188,6,0,L|440:152,1,90
350,146,30398,2,0,L|478:146,1,90
350,146,30607,2,0,L|350:242,1,90
260,236,30817,2,0,L|388:236,1,90
260,146,31027,6,0,L|260:242,1,90
170,236,31237,2,0,L|298:236,1,90
170,236,31446,2,0,L|170:332,1,90
80,326,31657,2,0,L|208:326,1,90
256,120,31866,6,0,L|368:120,2,90
346,120,32181,2,0,L|346:232,1,90
256,120,32391,6,0,L|144:120,2,90
166,120,32706,2,0,L|166:232,1,90
256,120,32915,6,0,L|368:120,2,90
166,120,33230,2,0,L|166:232,1,90
256,192,33440,1,0,0:0:0:0:
344,288,33545,6,0,L|456:288,3,90
256,224,33964,2,0,L|128:224,1,90
256,224,34174,2,0,L|360:224,1,90
168,288,34384,6,0,L|56:288,3,90
256,224,34804,2,0,L|384:224,1,90
256,224,35013,2,0,L|152:224,1,90
400,48,35223,6,0,L|504:48,1,90
400,112,35433,2,0,L|400:208,1,90
310,202,35643,2,0,L|422:202,3,90
112,48,36062,6,0,L|8:48,1,90
112,112,36272,2,0,L|112:208,1,90
202,202,36482,2,0,L|90:202,3,90
408,48,36901,6,0,L|504:48,1,90
498,48,37111,2,0,L|370:48,1,90
320,104,37321,2,0,L|424:104,2,90
192,104,37636,6,0,L|88:104,2,90
104,48,37950,2,0,L|14:48,1,90
14,48,38160,2,0,L|104:48,1,90
208,192,38370,6,0,L|298:192,2,90
16,192,38790,5,0,0:0:0:0:
416,56,38999,2,0,L|440:152,2,90
96,56,39419,2,0,L|72:152,2,90
504,112,39839,1,0,0:0:0:0:
168,80,40206,5,0,0:0:0:0:
344,80,40468,1,0,0:0:0:0:
120,152,40678,1,0,0:0:0:0:
392,152,40887,1,0,0:0:0:0:
120,240,41097,1,0,0:0:0:0:
392,72,41412,5,0,0:0:0:0:
120,72,41517,1,0,0:0:0:0:
256,48,41727,6,0,L|256:64,8,11.25
480,40,41936,6,0,L|488:144,1,90
208,144,42146,2,0,L|320:144,1,90
32,40,42356,2,0,L|24:144,1,90
208,144,42566,2,0,L|320:144,1,90
32,40,42776,6,0,L|24:144,1,90
298,144,42985,2,0,L|186:144,1,90
480,40,43195,2,0,L|488:144,1,90
120,192,43405,6,0,L|0:192,1,90
208,80,43615,2,0,L|96:80,1,90
392,192,43824,2,0,L|512:192,1,90
304,80,44034,2,0,L|416:80,1,90
32,40,44244,6,0,L|24:144,1,90
216,192,44454,2,0,L|96:192,1,90
480,40,44664,2,0,L|488:144,1,90
288,192,44874,2,0,L|408:192,1,90
56,192,45083,6,0,L|40:288,1,90
256,104,45293,2,0,L|152:104,1,90
456,192,45503,2,0,L|472:288,1,90
256,104,45713,2,0,L|360:104,1,90
120,192,45922,6,0,L|16:192,1,90
256,264,46132,2,0,L|368:264,1,90
160,344,46342,2,0,L|264:344,1,90
512,192,46552,6,0,L|422:192,1,90
256,192,46762,1,0,0:0:0:0:
424,256,46866,1,0,0:0:0:0:
256,120,46971,6,0,L|166:120,1,90
0,120,47181,1,0,0:0:0:0:
168,192,47286,1,0,0:0:0:0:
344,248,47391,6,0,L|440:248,1,90
256,320,47601,2,0,L|368:320,1,90
168,248,47811,2,0,L|72:248,1,90
256,320,48021,2,0,L|144:320,1,90
344,56,48230,5,4,0:0:0:0:
168,56,48335,1,4,0:0:0:0:
344,120,48440,1,4,0:0:0:0:
168,120,48545,1,4,0:0:0:0:
344,192,48650,1,4,0:0:0:0:
168,192,48755,6,0,L|48:192,2,90
344,192,49069,2,0,L|464:192,1,90
256,192,49279,1,0,0:0:0:0:
432,224,49384,1,0,0:0:0:0:
168,264,49489,6,0,L|48:264,1,90
256,264,49699,1,0,0:0:0:0:
80,296,49804,1,0,0:0:0:0:
344,192,49908,6,0,L|464:192,2,90
96,192,50223,2,0,L|0:192,1,90
168,192,50433,1,0,0:0:0:0:
416,192,50538,6,0,L|512:192,1,90
344,192,50748,1,0,0:0:0:0:
168,56,50852,6,0,L|64:56,1,90
344,80,51062,2,0,L|360:176,1,90
78,128,51272,2,0,L|168:128,1,90
344,56,51482,6,0,L|448:56,1,90
168,80,51692,2,0,L|152:176,1,90
434,128,51902,2,0,L|344:128,1,90
168,128,52111,6,0,L|78:128,1,90
256,224,52321,2,0,L|152:224,1,90
344,128,52531,2,0,L|434:128,1,90
256,224,52741,2,0,L|360:224,1,90
80,56,52950,6,0,L|64:160,1,90
306,72,53160,2,0,L|194:72,1,90
432,56,53370,2,0,L|448:160,1,90
216,72,53580,6,0,L|328:72,1,90
120,128,53790,2,0,L|16:128,1,90
296,72,53999,2,0,L|184:72,1,90
392,128,54209,2,0,L|496:128,2,90
120,192,54524,5,0,0:0:0:0:
472,64,54734,1,0,0:0:0:0:
472,136,54943,6,0,L|472:152,11,11.25
32,40,55153,5,0,0:0:0:0:
104,40,55363,5,0,0:0:0:0:
32,40,55468,1,0,0:0:0:0:
120,96,55573,1,0,0:0:0:0:
24,96,55678,1,0,0:0:0:0:
112,144,55783,1,0,0:0:0:0:
32,144,55888,1,0,0:0:0:0:
120,192,55992,5,0,0:0:0:0:
24,192,56097,1,0,0:0:0:0:
112,248,56202,1,0,0:0:0:0:
32,248,56307,1,0,0:0:0:0:
120,296,56412,1,0,0:0:0:0:
32,296,56517,1,0,0:0:0:0:
120,192,56622,5,0,0:0:0:0:
24,192,56727,1,0,0:0:0:0:
112,248,56832,1,0,0:0:0:0:
32,248,56937,1,0,0:0:0:0:
408,40,57041,5,0,0:0:0:0:
480,40,57146,1,0,0:0:0:0:
392,96,57251,1,0,0:0:0:0:
488,96,57356,1,0,0:0:0:0:
400,144,57461,1,0,0:0:0:0:
480,144,57566,1,0,0:0:0:0:
392,192,57670,5,0,0:0:0:0:
488,192,57775,1,0,0:0:0:0:
400,248,57880,1,0,0:0:0:0:
480,248,57985,1,0,0:0:0:0:
392,296,58090,1,0,0:0:0:0:
480,296,58195,1,0,0:0:0:0:
392,192,58300,5,0,0:0:0:0:
488,192,58405,1,0,0:0:0:0:
400,248,58510,1,0,0:0:0:0:
480,248,58615,1,0,0:0:0:0:
104,40,58720,5,0,0:0:0:0:
32,40,58825,1,0,0:0:0:0:
120,96,58930,1,0,0:0:0:0:
24,96,59035,1,0,0:0:0:0:
112,144,59140,1,0,0:0:0:0:
32,144,59245,1,0,0:0:0:0:
120,192,59349,5,0,0:0:0:0:
24,192,59454,1,0,0:0:0:0:
112,248,59559,1,0,0:0:0:0:
32,248,59664,1,0,0:0:0:0:
120,296,59769,1,0,0:0:0:0:
32,296,59874,1,0,0:0:0:0:
120,192,59979,5,0,0:0:0:0:
24,192,60084,1,0,0:0:0:0:
112,248,60189,1,0,0:0:0:0:
32,248,60294,1,0,0:0:0:0:
408,40,60398,5,0,0:0:0:0:
480,40,60503,1,0,0:0:0:0:
392,96,60608,1,0,0:0:0:0:
488,96,60713,1,0,0:0:0:0:
400,144,60818,1,0,0:0:0:0:
480,144,60923,1,0,0:0:0:0:
392,192,61027,5,0,0:0:0:0:
488,192,61132,1,0,0:0:0:0:
400,248,61237,1,0,0:0:0:0:
480,248,61342,1,0,0:0:0:0:
392,296,61447,1,0,0:0:0:0:
480,296,61552,1,0,0:0:0:0:
392,192,61657,5,0,0:0:0:0:
488,192,61762,1,0,0:0:0:0:
400,248,61867,1,0,0:0:0:0:
480,248,61972,1,0,0:0:0:0:
256,192,62076,6,0,L|144:192,3,90
256,136,62496,6,0,L|368:136,3,90
256,264,62915,6,0,L|152:264,1,90
168,328,63125,2,0,L|272:328,1,90
346,264,63335,2,0,L|436:264,1,90
436,264,63545,2,0,L|346:264,1,90
256,192,63755,6,0,L|368:192,3,90
256,136,64174,6,0,L|144:136,3,90
256,264,64593,6,0,L|360:264,1,90
344,328,64804,2,0,L|240:328,1,90
166,264,65014,2,0,L|76:264,1,90
76,264,65224,2,0,L|166:264,1,90
392,72,65433,5,0,0:0:0:0:
415,73,65459,1,0,0:0:0:0:
436,80,65485,1,0,0:0:0:0:
455,93,65511,1,0,0:0:0:0:
469,110,65537,1,0,0:0:0:0:
478,131,65564,1,0,0:0:0:0:
256,192,65590,1,0,0:0:0:0:
120,72,65748,5,0,0:0:0:0:
97,73,65774,1,0,0:0:0:0:
76,80,65800,1,0,0:0:0:0:
57,93,65826,1,0,0:0:0:0:
43,110,65852,1,0,0:0:0:0:
34,131,65879,1,0,0:0:0:0:
256,192,65905,1,0,0:0:0:0:
392,72,66062,5,0,0:0:0:0:
415,73,66088,1,0,0:0:0:0:
436,80,66114,1,0,0:0:0:0:
455,93,66140,1,0,0:0:0:0:
469,110,66166,1,0,0:0:0:0:
478,131,66193,1,0,0:0:0:0:
256,192,66220,1,0,0:0:0:0:
144,128,66377,6,0,L|128:128,2,11.25
368,128,66482,6,0,L|384:128,2,11.25
144,192,66587,6,0,L|128:192,2,11.25
368,192,66692,6,0,L|384:192,2,11.25
192,256,66901,1,0,0:0:0:0:
368,264,67111,6,0,L|384:264,2,11.25
192,320,67321,1,0,0:0:0:0:
464,336,67531,6,0,L|480:336,2,11.25
168,64,67741,5,0,0:0:0:0:
146,66,67767,1,0,0:0:0:0:
125,73,67793,1,0,0:0:0:0:
105,84,67819,1,0,0:0:0:0:
88,98,67845,1,0,0:0:0:0:
74,116,67872,1,0,0:0:0:0:
63,136,67898,1,0,0:0:0:0:
57,157,67924,1,0,0:0:0:0:
368,192,67950,5,0,0:0:0:0:
256,48,68160,1,0,0:0:0:0:
168,272,68370,6,4,L|352:272,3,180
168,192,68790,6,0,L|72:192,1,90
344,48,68999,2,0,L|360:144,1,90
168,120,69209,2,0,L|272:120,1,90
72,48,69419,2,0,L|168:48,1,90
344,192,69629,6,0,L|440:192,1,90
168,48,69838,2,0,L|152:144,1,90
344,120,70048,2,0,L|240:120,1,90
440,48,70258,2,0,L|344:48,1,90
168,48,70468,6,0,L|184:144,1,90
344,192,70678,2,0,L|240:192,1,90
448,192,70887,2,0,L|464:288,1,90
256,256,71097,2,0,L|360:256,1,90
168,48,71307,6,0,L|152:144,1,90
344,192,71517,2,0,L|248:192,1,90
434,192,71727,2,0,L|314:192,1,90
168,192,71936,2,0,L|264:192,1,90
78,192,72146,2,0,L|198:192,1,90
344,256,72356,6,0,L|448:256,1,90
72,40,72566,2,0,L|56:136,1,90
304,72,72776,2,0,L|200:72,1,90
440,40,72985,2,0,L|456:136,1,90
214,72,73195,2,0,L|318:72,1,90
72,40,73405,6,0,L|88:136,1,90
304,192,73615,2,0,L|192:192,1,90
440,40,73824,2,0,L|424:136,1,90
216,264,74034,6,0,L|320:264,1,90
120,192,74244,2,0,L|16:192,1,90
216,328,74454,2,0,L|112:328,1,90
296,264,74664,6,0,L|192:264,1,90
392,192,74874,2,0,L|496:192,1,90
296,328,75083,5,4,0:0:0:0:
480,328,75188,1,4,0:0:0:0:
296,328,75293,1,4,0:0:0:0:
480,328,75398,1,4,0:0:0:0:
256,192,75503,6,0,L|152:192,1,90
440,192,75713,2,0,L|456:88,1,90
256,88,75922,2,0,L|360:88,1,90
256,144,76132,2,0,L|360:144,1,90
72,192,76342,2,0,L|56:88,1,90
256,192,76552,6,0,L|360:192,1,90
72,192,76762,2,0,L|56:88,1,90
256,88,76971,2,0,L|152:88,1,90
256,144,77181,2,0,L|152:144,1,90
440,192,77391,2,0,L|456:88,1,90
168,232,77601,6,0,L|272:232,1,90
440,296,77810,2,0,L|328:296,1,90
162,296,78020,2,0,L|58:296,1,90
256,352,78230,2,0,L|152:352,1,90
350,192,78440,6,0,L|470:192,1,90
256,128,78650,2,0,L|360:128,1,90
48,72,78859,6,0,L|32:176,1,90
256,232,79069,2,0,L|152:232,1,90
464,72,79279,2,0,L|478:160,1,90
256,232,79489,2,0,L|360:232,1,90
168,128,79699,6,0,L|64:128,1,90
344,128,79908,2,0,L|360:24,1,90
30,192,80118,2,0,L|120:192,1,90
358,39,80328,2,0,L|344:128,1,90
30,264,80538,2,0,L|120:264,1,90
344,128,80748,6,0,L|448:128,1,90
168,128,80957,2,0,L|152:24,1,90
482,192,81167,2,0,L|392:192,1,90
155,39,81377,2,0,L|168:128,1,90
482,264,81587,2,0,L|392:264,1,90
216,48,81797,5,0,0:0:0:0:
193,48,81823,1,0,0:0:0:0:
171,53,81849,1,0,0:0:0:0:
151,64,81875,1,0,0:0:0:0:
135,79,81901,1,0,0:0:0:0:
122,97,81928,1,0,0:0:0:0:
114,118,81954,1,0,0:0:0:0:
112,140,81980,1,0,0:0:0:0:
296,48,82006,5,0,0:0:0:0:
318,48,82032,1,0,0:0:0:0:
340,53,82058,1,0,0:0:0:0:
360,64,82084,1,0,0:0:0:0:
376,79,82110,1,0,0:0:0:0:
389,97,82137,1,0,0:0:0:0:
397,118,82163,1,0,0:0:0:0:
399,140,82189,1,0,0:0:0:0:
168,192,82216,5,0,0:0:0:0:
296,192,82426,6,0,L|464:192,2,144
8,72,83055,2,0,L|176:72,2,144
328,192,83685,2,0,L|176:192,1,144
504,72,84104,2,0,L|336:72,2,144
216,192,84734,6,0,L|368:192,2,144
504,48,85363,5,0,0:0:0:0:
400,48,85468,1,0,0:0:0:0:
504,48,85573,6,0,B|496:160|496:160|16:160|16:160|8:328,1,720
