osu file format v14

[General]
AudioFilename: audio.mp3
AudioLeadIn: 0
PreviewTime: 225057
Countdown: 0
SampleSet: Soft
StackLeniency: 0.5
Mode: 0
LetterboxInBreaks: 0
WidescreenStoryboard: 0

[Editor]
Bookmarks: 9354,35536,52990,70445,87899,122808,123081,140248,157702,175157,192611,201338,225338,260248,268975,292975,316985,332985,348985,364985,380985,388985,396985,404985,412985,420985,428985,444985,452985,460985,468985,476992,492992,524992,540992,556992,564992,572992,588992,604992,620992,636992,652992,668992,688314,705314,713314,721314,737314,757314,773314,789314,805314,821314,830314,846314,862314,878314,886314,902314,918314,934314,942314,958314,968314,980314,996314,1012314,1028314
DistanceSpacing: 0.1
BeatDivisor: 8
GridSize: 4
TimelineZoom: 1.8

[Metadata]
Title:Because Maybe! pt. 3
TitleUnicode:Because Maybe! pt. 3
Artist:Renard
ArtistUnicode:Renard
Creator:Mismagius
Version:Marathon
Source:
Tags:lapfox trax vulpvibe queenston breakcore raggacore nogard blue dragon fuck your rails too dear spark chelsea smile let's move tu4ar the entire world best of vol 1 3.1
BeatmapID:2049467
BeatmapSetID:979274

[Difficulty]
HPDrainRate:4
CircleSize:4
OverallDifficulty:9
ApproachRate:9.5
SliderMultiplier:2
SliderTickRate:1

[Events]
//Background and Video events
0,0,"DFT1e.jpg",0,0
//Break Periods
2,70621,87350
2,175348,192078
2,260439,266259
2,314984,316445
2,397170,403445
2,557170,564445
2,589170,603445
2,653170,668445
2,685170,686820
2,753547,755547
2,787499,788774
2,830249,845774
2,878499,882899
2,958499,967774
2,980297,992899
//Storyboard Layer 0 (Background)
//Storyboard Layer 1 (Fail)
//Storyboard Layer 2 (Pass)
//Storyboard Layer 3 (Foreground)
//Storyboard Layer 4 (Overlay)
//Storyboard Sound Samples

[TimingPoints]
603,272.727272727273,4,2,0,75,1,0
603,-133.333333333333,4,2,0,75,0,0
9330,-100,4,2,0,75,0,0
26784,-133.333333333333,4,2,0,75,0,0
31148,-100,4,2,0,75,0,0
121693,-181.818181818182,4,2,0,75,0,0
122239,-100,4,2,0,75,0,0
140239,-133.333333333333,4,2,0,75,0,0
157693,-100,4,2,0,75,0,0
175148,-200,4,2,0,75,0,0
195329,-250,4,2,0,55,0,0
196966,-333.333333333333,4,2,0,35,0,0
199148,-333.333333333333,4,2,0,75,0,0
201329,-100,4,2,0,75,0,0
268966,-200,4,2,0,75,0,0
292966,-100,4,2,0,75,0,0
314852,-100,4,2,0,5,0,0
316970,250,4,2,0,75,1,0
316970,-200,4,2,0,75,0,0
348720,-100,4,2,0,75,0,0
363970,-200,4,2,0,75,0,0
364720,-100,4,2,0,75,0,0
372720,-76.9230769230769,4,2,0,75,0,0
372970,-100,4,2,0,75,0,0
380970,-200,4,2,0,75,0,0
388970,-133.333333333333,4,2,0,75,0,0
396720,-100,4,2,0,75,0,0
412970,-200,4,2,0,75,0,0
420970,-100,4,2,0,75,0,0
453845,-200,4,2,0,75,0,0
468970,-133.333333333333,4,2,0,75,0,0
476720,-100,4,2,0,75,0,0
476970,-133.333333333333,4,2,0,75,0,0
486970,-100,4,2,0,75,0,0
564970,-133.333333333333,4,3,0,75,0,0
572970,-100,4,2,0,75,0,0
668970,-133.333333333333,4,2,0,75,0,0
688299,250,4,2,0,75,1,0
705299,-133.333333333333,4,2,0,75,0,0
721299,-100,4,2,0,75,0,0
737174,-100,4,2,0,25,0,0
737299,-133.333333333333,4,2,0,75,0,0
756299,-100,4,2,0,75,0,0
789299,-83.3333333333333,4,2,0,75,0,1
821299,-277.777777777778,4,2,0,75,0,0
821361,-555.555555555556,4,2,0,5,0,0
830049,-555.555555555556,4,2,0,45,0,0
846299,-100,4,2,0,75,0,0
862299,-200,4,2,0,60,0,0
886174,-200,4,2,0,5,0,0
886299,-100,4,2,0,75,0,0
901049,-133.333333333333,4,2,0,75,0,0
902299,-200,4,2,0,60,0,0
918299,-100,4,2,0,75,0,0
932299,-200,4,2,0,75,0,0
942299,-100,4,2,0,75,0,0
968299,-200,4,2,0,75,0,0
978299,-200,4,2,0,15,0,0
993299,-100,4,2,0,75,0,0
996174,-100,4,2,0,5,0,0
996299,-100,4,2,0,75,0,0
1010299,-200,4,2,0,75,0,0
1012299,-83.3333333333333,4,2,0,75,0,1
1028299,-100,4,2,0,75,0,0

[Colours]
Combo1 : 118,147,245
Combo2 : 255,130,130
Combo3 : 251,225,47
Combo4 : 248,54,54

[HitObjects]
64,60,57,6,0,P|52:108|64:168,1,100,0|0,1:0|0:0,0:0:0:0:
220,212,330,2,0,P|232:164|220:104,1,100,0|0,1:0|0:0,0:0:0:0:
64,60,603,5,4,0:0:0:0:
64,60,739,1,0,0:0:0:0:
320,8,1012,1,2,0:0:0:0:
64,60,1284,1,0,0:0:0:0:
64,60,1353,1,0,0:0:0:0:
64,60,1421,1,2,0:0:0:0:
440,144,1693,6,0,P|458:196|440:289,1,150,2|2,0:0|0:0,0:0:0:0:
282,286,2103,2,0,P|263:233|282:140,1,150,2|2,0:0|0:0,0:0:0:0:
300,112,2443,1,0,0:0:0:0:
300,112,2512,2,0,L|272:32,1,75.0000028610231,2|0,0:0|0:0,0:0:0:0:
160,8,2784,5,2,0:0:0:0:
112,128,2921,1,0,0:0:0:0:
196,368,3193,1,2,0:0:0:0:
112,128,3466,1,0,0:0:0:0:
112,128,3534,1,0,0:0:0:0:
112,128,3603,1,2,0:0:0:0:
332,260,3875,6,0,L|420:248,1,75.0000028610231,2|0,0:0|0:0,0:0:0:0:
484,148,4148,1,2,0:0:0:0:
396,56,4284,1,0,0:0:0:0:
276,104,4421,2,0,P|241:108|204:96,1,75.0000028610231,2|0,0:0|0:0,0:0:0:0:
180,84,4625,2,0,P|145:79|108:91,1,75.0000028610231,2|0,0:0|0:0,0:0:0:0:
84,108,4830,1,2,0:0:0:0:
24,244,4966,5,2,0:0:0:0:
24,244,5103,1,0,0:0:0:0:
304,352,5375,1,2,0:0:0:0:
24,244,5648,1,0,0:0:0:0:
24,244,5716,1,0,0:0:0:0:
24,244,5784,1,2,0:0:0:0:
312,160,6057,6,0,P|330:108|312:15,1,150,2|2,0:0|0:0,0:0:0:0:
162,16,6466,2,0,P|144:68|162:161,1,150,2|2,0:0|0:0,0:0:0:0:
180,192,6807,1,0,0:0:0:0:
180,192,6875,2,0,L|160:268,1,75.0000028610231,2|0,0:0|0:0,0:0:0:0:
68,364,7148,5,2,0:0:0:0:
40,232,7284,1,0,0:0:0:0:
284,352,7557,1,2,0:0:0:0:
40,232,7830,1,0,0:0:0:0:
40,232,7898,1,0,0:0:0:0:
40,232,7966,1,2,0:0:0:0:
160,168,8103,1,0,0:0:0:0:
272,240,8239,6,0,L|364:220,1,75.0000028610231,2|0,0:0|0:0,0:0:0:0:
444,52,8512,1,2,0:0:0:0:
500,280,8648,1,0,0:0:0:0:
284,156,8784,5,2,3:0:0:0:
512,100,8920,1,2,3:0:0:0:
252,24,9057,1,2,3:0:0:0:
216,32,9125,1,2,3:0:0:0:
180,40,9193,1,2,3:0:0:0:
144,48,9262,1,2,3:0:0:0:
108,56,9330,6,0,L|88:156,1,100,2|0,1:2|0:0,0:0:0:0:
60,312,9603,1,0,0:0:0:0:
240,128,9739,2,0,L|220:228,1,100,2|0,1:2|0:0,0:0:0:0:
192,384,10012,1,0,0:0:0:0:
89,154,10148,1,2,1:2:0:0:
184,368,10284,1,0,0:0:0:0:
396,272,10421,6,0,L|492:246,1,100,2|0,1:2|0:0,0:0:0:0:
396,120,10693,1,2,0:0:0:0:
260,324,10830,2,0,L|163:298,1,100,2|0,1:2|0:0,0:0:0:0:
260,172,11102,1,2,0:0:0:0:
396,376,11239,2,0,L|492:350,1,100,2|0,1:2|0:0,0:0:0:0:
260,172,11512,6,0,L|163:197,1,100,2|0,1:2|0:0,0:0:0:0:
8,236,11784,1,0,0:0:0:0:
40,52,11921,2,0,L|65:148,1,100,2|0,1:2|0:0,0:0:0:0:
104,304,12193,1,0,0:0:0:0:
234,75,12330,2,0,L|259:171,1,100,2|0,1:2|0:0,0:0:0:0:
456,328,12603,6,0,L|476:228,1,100,2|0,1:2|0:0,0:0:0:0:
504,72,12876,1,2,0:0:0:0:
324,256,13012,2,0,L|344:156,1,100,0|2,1:0|0:0,0:0:0:0:
372,0,13285,1,0,0:0:0:0:
475,230,13421,1,2,1:2:0:0:
380,16,13557,1,0,0:0:0:0:
188,152,13693,6,0,P|140:160|88:144,1,100,2|0,1:2|0:0,0:0:0:0:
12,8,13966,1,0,0:0:0:0:
188,152,14103,2,0,P|218:189|231:242,1,100,2|0,1:2|0:0,0:0:0:0:
151,376,14376,1,0,0:0:0:0:
188,152,14512,2,0,P|205:106|244:69,1,100,2|0,1:2|0:0,0:0:0:0:
448,24,14784,6,0,L|476:128,1,100,2|0,1:2|0:0,0:0:0:0:
420,272,15057,1,2,0:0:0:0:
320,28,15193,2,0,L|348:132,1,100,2|0,1:2|0:0,0:0:0:0:
292,276,15466,1,2,0:0:0:0:
192,32,15603,2,0,L|220:136,1,100,2|0,1:2|0:0,0:0:0:0:
152,328,15875,6,0,P|104:336|36:308,1,100,2|0,1:2|0:0,0:0:0:0:
0,172,16148,1,0,0:0:0:0:
218,129,16284,2,0,P|266:121|334:149,1,100,2|0,1:2|0:0,0:0:0:0:
370,285,16557,1,0,0:0:0:0:
152,328,16693,2,0,P|104:336|36:308,1,100,2|0,1:2|0:0,0:0:0:0:
8,88,16966,5,2,0:0:0:0:
48,80,17034,1,0,0:0:0:0:
88,72,17103,1,0,0:0:0:0:
128,64,17171,1,0,0:0:0:0:
168,56,17239,1,2,0:0:0:0:
408,160,17375,1,0,0:0:0:0:
124,264,17512,1,2,0:0:0:0:
300,28,17648,1,2,0:0:0:0:
338,330,17784,1,2,0:0:0:0:
124,264,17921,1,2,0:0:0:0:
124,264,17989,1,0,0:0:0:0:
124,264,18057,6,0,P|100:224|100:160,1,100,6|0,1:2|0:0,0:0:0:0:
216,12,18330,1,0,0:0:0:0:
388,120,18466,2,0,P|412:160|412:224,1,100,2|0,1:2|0:0,0:0:0:0:
296,372,18739,1,0,0:0:0:0:
124,264,18875,2,0,P|100:224|100:160,1,100,2|0,1:2|0:0,0:0:0:0:
336,48,19148,6,0,L|444:60,1,100,2|0,1:2|0:0,0:0:0:0:
504,248,19421,1,2,0:0:0:0:
316,180,19557,2,0,L|208:192,1,100,2|0,1:2|0:0,0:0:0:0:
148,380,19830,1,2,0:0:0:0:
32,156,19966,2,0,P|16:104|24:56,1,100,2|0,1:2|0:0,0:0:0:0:
264,0,20239,6,0,P|280:52|272:100,1,100,2|0,1:2|0:0,0:0:0:0:
128,236,20512,1,0,0:0:0:0:
272,372,20648,2,0,P|256:320|264:272,1,100,2|0,1:2|0:0,0:0:0:0:
408,136,20921,1,0,0:0:0:0:
156,68,21057,2,0,L|40:88,1,100,2|0,1:2|0:0,0:0:0:0:
263,276,21330,6,0,L|379:256,1,100,2|0,1:2|0:0,0:0:0:0:
432,72,21603,1,2,0:0:0:0:
504,312,21739,1,0,1:0:0:0:
272,180,21875,2,0,L|156:200,1,100,2|0,0:0|0:0,0:0:0:0:
0,48,22148,2,0,L|116:28,1,100,2|0,1:2|0:0,0:0:0:0:
296,4,22421,6,0,P|320:48|320:96,1,100,2|0,1:2|0:0,0:0:0:0:
244,280,22693,1,0,0:0:0:0:
60,108,22830,2,0,P|36:152|36:200,1,100,2|0,1:2|0:0,0:0:0:0:
112,384,23102,1,0,0:0:0:0:
308,344,23239,2,0,L|412:360,1,100,2|0,1:2|0:0,0:0:0:0:
412,108,23512,6,0,P|368:84|320:84,1,100,2|0,1:2|0:0,0:0:0:0:
136,160,23784,1,2,0:2:0:0:
308,344,23921,2,0,P|264:368|216:368,1,100,2|0,1:2|0:0,0:0:0:0:
32,292,24193,1,2,0:0:0:0:
88,100,24330,2,0,L|72:-4,1,100,2|0,1:2|0:0,0:0:0:0:
360,48,24603,6,0,L|344:152,1,100,2|0,1:2|0:0,0:0:0:0:
308,344,24875,1,0,0:0:0:0:
152,48,25012,2,0,L|168:152,1,100,2|0,1:2|0:0,0:0:0:0:
204,344,25284,1,0,0:0:0:0:
424,192,25421,1,2,1:2:0:0:
88,192,25557,1,0,0:0:0:0:
308,344,25693,6,0,L|428:324,1,100,2|0,1:2|0:0,0:0:0:0:
336,140,25966,1,0,0:0:0:0:
204,344,26103,2,0,L|84:324,1,100,2|0,1:2|0:0,0:0:0:0:
176,140,26376,1,0,0:0:0:0:
396,236,26512,1,2,0:0:0:0:
116,236,26648,1,0,0:0:0:0:
256,68,26784,5,4,0:0:0:0:
256,68,26921,1,0,0:0:0:0:
256,68,27057,1,2,0:0:0:0:
460,200,27330,2,0,L|448:288,1,75.0000028610231
246,350,27739,1,2,0:0:0:0:
256,360,28012,1,0,0:0:0:0:
256,360,28080,1,0,0:0:0:0:
256,360,28148,2,0,L|244:272,1,75.0000028610231,2|0,0:0|0:0,0:0:0:0:
220,136,28421,1,2,0:0:0:0:
220,136,28557,1,2,0:0:0:0:
112,240,28693,5,0,0:0:0:0:
116,268,28762,1,0,0:0:0:0:
121,296,28830,1,0,0:0:0:0:
124,325,28898,1,0,0:0:0:0:
129,355,28966,2,0,L|48:344,1,75.0000028610231,2|0,0:0|0:0,0:0:0:0:
28,196,29239,1,2,0:0:0:0:
284,44,29512,2,0,L|365:55,1,75.0000028610231
420,348,29921,1,2,0:0:0:0:
132,264,30193,5,0,0:0:0:0:
132,264,30262,1,0,0:0:0:0:
132,264,30330,1,2,0:0:0:0:
268,204,30466,1,0,0:0:0:0:
240,352,30603,1,2,0:0:0:0:
240,352,30739,1,2,0:0:0:0:
168,156,30875,1,2,0:0:0:0:
172,128,30943,1,0,0:0:0:0:
176,100,31012,1,2,0:0:0:0:
180,72,31080,1,0,0:0:0:0:
183,46,31148,6,0,L|300:36,1,100,2|0,0:0|0:0,0:0:0:0:
365,125,31421,2,0,L|482:115,1,100,2|0,0:0|0:0,0:0:0:0:
266,204,31693,1,2,0:0:0:0:
266,204,31830,2,0,P|252:257|262:314,1,100,2|0,0:0|0:0,0:0:0:0:
59,384,32103,2,0,P|73:331|63:274,1,100,2|0,0:0|0:0,0:0:0:0:
10,117,32375,5,2,0:0:0:0:
10,117,32443,1,0,0:0:0:0:
10,117,32512,2,2,L|35:7,1,100,2|0,0:0|0:0,0:0:0:0:
228,65,32784,1,2,0:0:0:0:
90,209,32921,1,2,0:0:0:0:
276,267,33057,1,2,0:0:0:0:
310,262,33125,1,0,0:0:0:0:
344,258,33193,1,2,0:0:0:0:
379,254,33262,1,0,0:0:0:0:
413,250,33330,6,0,L|516:239,1,100,2|0,0:0|0:0,0:0:0:0:
327,54,33603,2,0,L|224:65,1,100,2|0,0:0|0:0,0:0:0:0:
327,342,33875,1,2,0:0:0:0:
327,342,34012,2,0,P|336:269|321:228,1,100,2|0,0:0|0:0,0:0:0:0:
152,13,34284,2,0,P|143:86|158:127,1,100,2|0,0:0|0:0,0:0:0:0:
42,302,34557,5,2,0:0:0:0:
42,302,34625,1,0,0:0:0:0:
42,302,34693,1,2,0:0:0:0:
152,13,34966,5,2,0:0:0:0:
216,208,35103,1,0,0:0:0:0:
216,208,35171,1,0,0:0:0:0:
216,208,35239,1,2,0:0:0:0:
98,135,35375,1,2,0:0:0:0:
282,79,35512,6,0,L|392:96,1,100,4|0,3:2|0:0,0:0:0:0:
484,204,35784,1,0,0:0:0:0:
364,292,35921,1,4,3:0:0:0:
385,69,36057,1,2,0:0:0:0:
479,175,36193,1,0,0:0:0:0:
304,208,36330,2,0,L|194:191,1,100,2|0,3:2|0:0,0:0:0:0:
108,67,36603,5,4,3:0:0:0:
68,200,36739,1,0,0:0:0:0:
28,333,36875,1,2,0:0:0:0:
28,333,37148,6,0,P|91:333|128:313,1,100,0|2,0:0|0:0,0:0:0:0:
388,316,37421,2,0,P|434:336|484:333,1,100,2|0,3:2|0:0,0:0:0:0:
292,371,37693,6,0,P|280:306|323:226,1,150,2|0,3:2|0:0,0:0:0:0:
347,219,37966,2,0,L|321:104,1,100,2|4,0:0|3:0,0:0:0:0:
500,131,38239,1,2,0:0:0:0:
375,17,38375,1,2,0:0:0:0:
431,191,38512,2,0,L|457:306,1,100,4|0,3:0|0:0,0:0:0:0:
439,319,38716,1,0,0:0:0:0:
414,342,38784,6,0,P|365:349|319:320,1,100,4|0,3:0|0:0,0:0:0:0:
254,142,39057,1,2,0:0:0:0:
254,142,39330,5,0,0:0:0:0:
96,80,39466,1,2,0:0:0:0:
328,34,39603,1,2,3:2:0:0:
251,257,39739,1,0,0:0:0:0:
96,80,39875,6,0,L|61:231,1,150,2|0,3:2|0:0,0:0:0:0:
48,261,40148,2,0,L|166:237,1,100,2|4,0:0|3:0,0:0:0:0:
288,111,40421,1,2,0:0:0:0:
321,302,40557,1,0,0:0:0:0:
477,126,40693,1,2,3:2:0:0:
308,210,40830,5,0,0:0:0:0:
308,210,40898,1,0,0:0:0:0:
308,210,40966,2,0,P|249:210|213:180,1,100,4|0,3:0|0:0,0:0:0:0:
136,17,41239,1,2,0:0:0:0:
136,17,41512,5,2,0:0:0:0:
8,73,41648,1,0,0:0:0:0:
236,97,41784,1,4,3:0:0:0:
108,153,41920,1,2,0:0:0:0:
308,210,42057,6,0,L|279:370,1,150,2|0,3:2|0:0,0:0:0:0:
244,375,42330,2,0,L|263:266,1,100,2|4,0:0|3:0,0:0:0:0:
473,358,42603,5,2,0:0:0:0:
394,146,42739,1,0,0:0:0:0:
473,358,42875,1,2,3:2:0:0:
394,146,43011,1,0,0:0:0:0:
256,192,43148,12,4,44239,0:0:0:0:
117,114,44512,5,2,0:0:0:0:
199,237,44648,1,4,3:0:0:0:
304,124,44784,1,2,0:0:0:0:
53,200,44921,1,0,0:0:0:0:
304,124,45057,2,0,P|314:185|302:235,1,100,4|0,3:0|0:0,0:0:0:0:
351,366,45330,6,0,L|504:348,1,150,2|0,3:2|0:0,0:0:0:0:
510,314,45603,2,0,P|512:268|488:216,1,100,2|4,0:0|3:0,0:0:0:0:
384,58,45875,1,0,0:0:0:0:
375,250,46012,1,0,0:0:0:0:
495,99,46148,1,2,3:2:0:0:
311,152,46284,5,0,3:0:0:0:
311,152,46353,1,0,0:0:0:0:
311,152,46421,2,0,L|190:138,1,100,4|0,3:0|0:0,0:0:0:0:
119,35,46693,1,2,0:0:0:0:
119,35,46966,5,0,0:0:0:0:
92,173,47103,1,2,0:0:0:0:
65,310,47239,1,2,3:2:0:0:
92,173,47375,1,0,0:0:0:0:
239,297,47512,6,0,L|410:271,1,150,2|0,3:2|0:0,0:0:0:0:
420,254,47784,2,0,L|409:357,1,100,2|0,0:0|0:0,0:0:0:0:
475,137,48057,1,2,0:0:0:0:
506,317,48193,1,2,0:0:0:0:
342,208,48330,2,0,P|284:203|238:225,1,100,4|0,3:0|0:0,0:0:0:0:
475,137,48603,5,4,3:0:0:0:
339,104,48739,1,0,0:0:0:0:
203,71,48875,2,0,L|90:98,1,100,2|4,0:0|3:0,0:0:0:0:
123,346,49148,5,2,0:0:0:0:
315,378,49284,1,0,0:0:0:0:
347,186,49421,1,2,3:2:0:0:
155,154,49557,1,0,0:0:0:0:
315,378,49693,6,0,P|363:382|419:357,1,100,2|0,3:2|0:0,0:0:0:0:
244,262,49966,1,2,0:0:0:0:
447,173,50103,1,4,3:0:0:0:
222,272,50239,6,0,L|111:254,1,100,2|0,0:0|0:0,0:0:0:0:
332,113,50512,2,0,L|221:95,1,100,2|0,3:2|0:0,0:0:0:0:
63,38,50784,5,0,0:0:0:0:
37,176,50921,1,0,0:0:0:0:
12,313,51057,2,0,P|55:344|117:344,1,100,2|4,0:0|3:0,0:0:0:0:
225,182,51330,5,2,0:0:0:0:
308,366,51466,1,0,0:0:0:0:
492,283,51603,1,2,3:2:0:0:
409,99,51739,1,0,0:0:0:0:
308,366,51875,6,0,L|291:256,1,100,2|0,3:2|0:0,0:0:0:0:
250,47,52148,1,2,0:0:0:0:
390,182,52284,1,4,3:0:0:0:
145,136,52421,5,2,0:0:0:0:
358,35,52557,1,0,0:0:0:0:
139,161,52693,1,2,0:0:0:0:
352,60,52829,1,0,0:0:0:0:
75,24,52966,6,0,L|40:16,2,25,2|2|2,0:0|0:0|0:0,0:0:0:0:
139,161,53239,2,0,L|104:153,2,25,2|2|2,0:0|0:0|0:0,0:0:0:0:
280,151,53512,2,0,L|288:186,2,25
350,106,53648,2,0,L|358:141,2,25,2|2|2,0:0|0:0|0:0,0:0:0:0:
477,26,53921,2,0,L|485:-9,2,25,2|2|2,0:0|0:0|0:0,0:0:0:0:
446,176,54193,6,0,L|411:184,2,25,2|2|2,0:0|0:0|0:0,0:0:0:0:
491,246,54329,2,0,L|456:254,2,25,2|2|2,0:0|0:0|0:0,0:0:0:0:
345,351,54603,2,0,L|337:386,2,25
306,278,54739,2,0,L|314:243,2,25
237,325,54875,2,0,L|229:360,2,25,2|2|2,0:0|0:0|0:0,0:0:0:0:
278,124,55148,6,0,L|286:89,2,25,2|2|2,0:0|0:0|0:0,0:0:0:0:
147,57,55421,2,0,L|155:22,2,25,2|2|2,0:0|0:0|0:0,0:0:0:0:
23,141,55693,2,0,L|15:176,2,25
177,181,55966,2,0,L|212:189,2,25,2|2|2,0:0|0:0|0:0,0:0:0:0:
119,242,56103,2,0,L|84:234,2,25,2|2|2,0:0|0:0|0:0,0:0:0:0:
287,363,56375,6,0,L|322:371,2,25,2|2|2,0:0|0:0|0:0,0:0:0:0:
337,290,56512,2,0,L|372:298,2,25,2|2|2,0:0|0:0|0:0,0:0:0:0:
289,138,56784,2,0,L|281:103,2,25
369,168,56921,2,0,L|377:203,2,25
425,105,57057,2,0,L|417:70,2,25,2|2|2,0:0|0:0|0:0,0:0:0:0:
491,294,57330,6,0,L|483:329,2,25,2|2|2,0:0|0:0|0:0,0:0:0:0:
348,333,57603,2,0,L|340:368,2,25,2|2|2,0:0|0:0|0:0,0:0:0:0:
283,162,57875,2,0,L|291:127,2,25
220,218,58012,2,0,L|212:253,2,25,2|2|2,0:0|0:0|0:0,0:0:0:0:
44,271,58284,2,0,L|36:306,2,25,2|2|2,0:0|0:0|0:0,0:0:0:0:
9,85,58557,6,0,L|17:50,2,25,2|2|2,0:0|0:0|0:0,0:0:0:0:
92,68,58693,2,0,L|100:33,2,25,2|2|2,0:0|0:0|0:0,0:0:0:0:
178,203,58966,2,0,L|143:211,2,25
256,226,59103,2,0,L|291:218,2,25
211,292,59239,2,0,L|176:300,2,25,2|2|2,0:0|0:0|0:0,0:0:0:0:
419,352,59512,6,0,L|411:387,2,25,2|2|2,0:0|0:0|0:0,0:0:0:0:
483,217,59784,2,0,L|475:252,2,25,2|2|2,0:0|0:0|0:0,0:0:0:0:
457,39,60057,2,0,L|465:4,2,25
273,12,60330,2,0,L|238:20,2,25,2|2|2,0:0|0:0|0:0,0:0:0:0:
335,61,60466,2,0,L|370:53,2,25,2|2|2,0:0|0:0|0:0,0:0:0:0:
159,96,60739,6,0,L|124:88,2,25,2|2|2,0:0|0:0|0:0,0:0:0:0:
113,164,60875,2,0,L|78:156,2,25,2|2|2,0:0|0:0|0:0,0:0:0:0:
304,211,61148,2,0,L|339:203,2,25
278,286,61284,2,0,L|243:294,2,25
337,341,61421,2,0,L|372:333,2,25,2|2|2,0:0|0:0|0:0,0:0:0:0:
466,70,61693,5,4,0:0:0:0:
446,66,61762,1,0,0:0:0:0:
426,62,61830,1,0,0:0:0:0:
406,58,61898,1,0,0:0:0:0:
386,54,61966,1,2,0:0:0:0:
386,54,62239,2,0,L|414:161,1,100,2|0,0:0|0:0,0:0:0:0:
411,150,62648,2,0,L|304:122,1,100,2|0,0:0|0:0,0:0:0:0:
312,123,62921,1,2,0:0:0:0:
321,147,62990,1,0,0:0:0:0:
325,168,63058,1,0,0:0:0:0:
325,168,63330,2,0,L|353:275,1,100,2|0,0:0|0:0,0:0:0:0:
350,264,63603,2,0,L|243:236,1,100,2|0,0:0|0:0,0:0:0:0:
136,205,63875,6,0,L|101:213,2,25,2|2|2,0:0|0:0|0:0,0:0:0:0:
185,59,64148,2,0,L|220:51,2,25,2|2|2,0:0|0:0|0:0,0:0:0:0:
136,205,64421,2,0,L|128:240,2,25
292,122,64693,2,0,L|300:87,2,25,2|2|2,0:0|0:0|0:0,0:0:0:0:
324,196,64830,2,0,L|316:231,2,25,2|2|2,0:0|0:0|0:0,0:0:0:0:
446,324,65103,6,0,L|454:359,2,25,2|2|2,0:0|0:0|0:0,0:0:0:0:
478,250,65240,2,0,L|470:215,2,25,2|2|2,0:0|0:0|0:0,0:0:0:0:
282,339,65512,2,0,L|274:374,2,25
246,267,65648,2,0,L|254:232,2,25
185,319,65784,2,0,L|177:354,2,25,2|2|2,0:0|0:0|0:0,0:0:0:0:
37,87,66057,5,4,0:0:0:0:
56,81,66125,1,0,0:0:0:0:
75,79,66193,1,0,0:0:0:0:
95,81,66262,1,0,0:0:0:0:
114,86,66330,1,2,0:0:0:0:
114,86,66603,2,0,P|165:87|211:57,1,100,2|0,0:0|0:0,0:0:0:0:
206,62,67012,2,0,L|225:167,1,100,2|0,0:0|0:0,0:0:0:0:
223,160,67284,1,2,0:0:0:0:
244,160,67353,1,0,0:0:0:0:
263,154,67421,1,0,0:0:0:0:
263,154,67693,2,0,P|272:213|261:264,1,100,2|0,0:0|0:0,0:0:0:0:
265,252,67966,2,0,P|324:243|375:254,1,100,2|0,0:0|0:0,0:0:0:0:
465,349,68239,6,0,L|500:357,2,25,2|2|2,0:0|0:0|0:0,0:0:0:0:
459,191,68512,2,0,L|424:183,2,25,2|2|2,0:0|0:0|0:0,0:0:0:0:
453,33,68784,2,0,L|488:41,2,25
304,15,69057,2,0,L|269:23,2,25,2|2|2,0:0|0:0|0:0,0:0:0:0:
348,81,69193,2,0,L|383:73,2,25,2|2|2,0:0|0:0|0:0,0:0:0:0:
199,118,69466,6,0,L|191:83,2,25,2|2|2,0:0|0:0|0:0,0:0:0:0:
133,162,69602,2,0,L|141:197,2,25,2|2|2,0:0|0:0|0:0,0:0:0:0:
30,261,69875,2,0,L|22:296,2,25
101,297,70012,2,0,L|93:332,2,25
172,333,70148,2,0,L|164:368,2,25,2|2|2,0:0|0:0|0:0,0:0:0:0:
256,192,70421,5,4,0:0:0:0:
220,81,87875,5,4,1:2:0:0:
438,34,88012,1,0,0:0:0:0:
220,81,88148,1,0,0:0:0:0:
389,217,88284,5,2,1:2:0:0:
171,170,88421,1,0,0:0:0:0:
389,217,88557,1,0,0:0:0:0:
220,353,88693,5,2,1:2:0:0:
438,306,88830,1,0,0:0:0:0:
171,170,88966,6,0,P|150:229|165:280,1,100,2|0,1:2|0:0,0:0:0:0:
256,0,89239,1,2,0:0:0:0:
341,170,89375,2,0,P|362:229|347:280,1,100,2|0,1:2|0:0,0:0:0:0:
155,72,89648,1,2,0:0:0:0:
256,294,89784,1,2,1:2:0:0:
357,72,89921,1,0,0:0:0:0:
100,222,90057,6,0,L|-1:198,1,100,2|0,1:2|0:0,0:0:0:0:
155,72,90330,1,0,0:0:0:0:
192,371,90466,2,0,L|91:347,1,100,2|0,1:2|0:0,0:0:0:0:
247,221,90739,1,0,0:0:0:0:
418,331,90875,1,2,1:2:0:0:
228,210,91012,1,0,0:0:0:0:
495,134,91148,6,0,P|505:76|491:20,1,100,2|0,1:2|0:0,0:0:0:0:
366,244,91421,1,2,0:0:0:0:
233,36,91557,1,0,1:0:0:0:
497,36,91693,2,0,P|505:85|495:134,1,100,2|0,0:0|0:0,0:0:0:0:
226,308,91966,2,0,P|218:258|228:210,1,100,2|0,1:2|0:0,0:0:0:0:
462,367,92239,5,2,1:2:0:0:
398,134,92375,1,0,0:0:0:0:
462,367,92512,1,0,0:0:0:0:
292,96,92648,5,2,1:2:0:0:
228,329,92784,1,0,0:0:0:0:
292,96,92921,1,0,0:0:0:0:
122,367,93057,5,2,1:2:0:0:
58,134,93193,1,0,0:0:0:0:
281,260,93330,6,0,L|410:244,1,100,2|0,1:2|0:0,0:0:0:0:
483,71,93603,1,2,0:0:0:0:
310,361,93739,2,0,L|439:345,1,100,2|0,1:2|0:0,0:0:0:0:
512,172,94012,1,2,0:0:0:0:
298,73,94148,1,2,1:2:0:0:
512,0,94284,1,0,0:0:0:0:
306,219,94421,6,0,P|254:219|210:192,1,100,2|0,1:2|0:0,0:0:0:0:
135,22,94693,1,0,0:0:0:0:
108,298,94830,2,0,P|71:261|59:211,1,100,2|0,1:2|0:0,0:0:0:0:
126,38,95102,1,0,0:0:0:0:
306,219,95239,2,0,L|292:336,1,100,2|0,1:2|0:0,0:0:0:0:
312,54,95512,6,0,P|364:54|408:81,1,100,2|0,1:2|0:0,0:0:0:0:
483,251,95784,1,2,0:0:0:0:
226,175,95921,1,0,1:0:0:0:
482,102,96057,1,2,0:0:0:0:
297,296,96194,1,0,0:0:0:0:
473,111,96330,1,2,1:2:0:0:
288,305,96467,1,0,0:0:0:0:
217,68,96603,6,0,L|335:78,1,100,2|0,1:2|0:0,0:0:0:0:
397,289,96875,1,0,0:0:0:0:
117,59,97012,2,0,L|235:69,1,100,2|0,1:2|0:0,0:0:0:0:
297,280,97284,1,0,0:0:0:0:
17,50,97421,2,0,L|135:60,1,100,2|0,1:2|0:0,0:0:0:0:
297,280,97693,6,0,L|179:270,1,100,2|0,1:2|0:0,0:0:0:0:
117,59,97965,1,2,0:0:0:0:
397,289,98102,2,0,L|279:279,1,100,2|0,1:2|0:0,0:0:0:0:
217,68,98374,1,2,0:0:0:0:
497,298,98511,2,0,L|379:288,1,100,2|0,1:2|0:0,0:0:0:0:
365,29,98784,6,0,P|389:89|377:133,1,100,2|0,1:2|0:0,0:0:0:0:
256,332,99057,1,0,0:0:0:0:
129,121,99193,2,0,P|124:72|147:29,1,100,2|0,1:2|0:0,0:0:0:0:
378,209,99466,1,0,0:0:0:0:
134,209,99603,1,2,1:2:0:0:
256,9,99739,1,0,0:0:0:0:
392,237,99875,6,0,L|376:349,1,100,2|0,1:2|0:0,0:0:0:0:
256,105,100148,1,2,0:0:0:0:
134,335,100284,1,0,1:0:0:0:
0,139,100421,2,0,L|104:117,1,100,2|0,0:0|0:0,0:0:0:0:
414,118,100693,2,0,L|512:139,1,100,2|0,1:2|0:0,0:0:0:0:
334,349,100966,5,2,1:2:0:0:
278,127,101103,1,0,0:0:0:0:
448,279,101239,1,0,0:0:0:0:
307,47,101375,5,2,1:2:0:0:
363,269,101512,1,0,0:0:0:0:
193,117,101648,1,0,0:0:0:0:
363,269,101784,5,2,1:2:0:0:
278,127,101921,1,0,0:0:0:0:
61,242,102057,5,2,1:2:0:0:
283,298,102194,1,0,0:0:0:0:
131,128,102330,1,2,0:0:0:0:
363,269,102466,5,2,1:2:0:0:
141,213,102603,1,0,0:0:0:0:
293,383,102739,1,2,0:0:0:0:
141,213,102875,5,2,1:2:0:0:
283,298,103012,1,0,0:0:0:0:
231,98,103148,6,0,P|221:46|234:-2,1,100,2|0,1:2|0:0,0:0:0:0:
362,189,103421,1,0,0:0:0:0:
491,1,103557,2,0,P|503:49|493:98,1,100,2|0,1:2|0:0,0:0:0:0:
231,98,103830,1,0,0:0:0:0:
445,254,103966,2,0,L|427:362,1,100,2|0,1:2|0:0,0:0:0:0:
196,242,104239,5,2,0:0:0:0:
147,231,104307,1,0,0:0:0:0:
97,239,104375,1,2,0:0:0:0:
59,271,104443,1,0,0:0:0:0:
39,317,104512,1,2,0:0:0:0:
301,375,104648,1,2,0:0:0:0:
233,129,104784,1,0,0:0:0:0:
161,327,104921,1,2,0:0:0:0:
383,203,105057,2,0,P|402:138|390:84,1,100,2|0,0:0|0:0,0:0:0:0:
367,39,105262,1,0,0:0:0:0:
367,39,105330,6,0,L|481:13,1,100,6|0,1:2|0:0,0:0:0:0:
307,148,105603,1,0,0:0:0:0:
367,345,105739,2,0,L|481:371,1,100,2|0,1:2|0:0,0:0:0:0:
307,236,106012,1,0,0:0:0:0:
512,74,106148,1,2,1:2:0:0:
512,310,106284,1,0,0:0:0:0:
336,74,106421,6,0,P|291:55|206:60,1,100,2|0,1:2|0:0,0:0:0:0:
154,284,106693,1,2,0:0:0:0:
35,28,106830,2,0,P|80:9|165:14,1,100,2|0,1:2|0:0,0:0:0:0:
217,238,107102,1,2,0:0:0:0:
1,133,107239,1,2,1:2:0:0:
240,51,107375,1,0,0:0:0:0:
74,269,107512,6,0,L|94:380,1,100,2|0,1:2|0:0,0:0:0:0:
116,118,107784,1,0,0:0:0:0:
311,232,107921,2,0,L|291:121,1,100,2|0,1:2|0:0,0:0:0:0:
269,383,108193,1,0,0:0:0:0:
74,269,108330,1,2,1:2:0:0:
295,306,108466,1,0,0:0:0:0:
49,263,108603,6,0,P|28:205|38:153,1,100,2|0,1:2|0:0,0:0:0:0:
92,6,108875,1,2,0:0:0:0:
159,232,109012,1,0,1:0:0:0:
242,51,109148,2,0,L|344:42,1,100,2|0,0:0|0:0,0:0:0:0:
500,177,109421,2,0,L|398:186,1,100,2|0,1:2|0:0,0:0:0:0:
225,329,109693,5,2,1:2:0:0:
296,129,109830,1,0,0:0:0:0:
306,344,109966,1,0,0:0:0:0:
215,114,110103,5,2,1:2:0:0:
144,314,110240,1,0,0:0:0:0:
134,99,110376,1,0,0:0:0:0:
225,329,110512,5,2,1:2:0:0:
296,129,110649,1,0,0:0:0:0:
450,260,110784,6,0,L|338:269,1,100,2|0,1:2|0:0,0:0:0:0:
192,158,111057,1,2,0:0:0:0:
436,353,111193,2,0,L|324:362,1,100,2|0,1:2|0:0,0:0:0:0:
178,251,111466,1,2,0:0:0:0:
387,126,111603,2,0,P|396:74|382:20,1,100,2|0,1:2|0:0,0:0:0:0:
126,28,111875,6,0,P|115:77|125:126,1,100,2|0,1:2|0:0,0:0:0:0:
213,325,112148,1,0,0:0:0:0:
274,116,112284,1,2,1:2:0:0:
101,249,112421,1,0,0:0:0:0:
305,249,112557,1,0,0:0:0:0:
124,125,112693,2,0,L|12:142,1,100,2|0,1:2|0:0,0:0:0:0:
213,325,112966,5,2,1:2:0:0:
283,104,113103,1,0,0:0:0:0:
83,224,113239,1,2,0:0:0:0:
189,90,113375,5,0,1:2:0:0:
119,311,113512,1,2,0:0:0:0:
319,191,113648,1,0,0:0:0:0:
72,122,113784,2,0,P|57:61|66:17,1,100,2|0,1:2|0:0,0:0:0:0:
285,3,114057,5,2,1:2:0:0:
235,192,114193,1,0,0:0:0:0:
423,140,114330,1,0,0:0:0:0:
285,381,114466,5,2,1:2:0:0:
235,192,114602,1,0,0:0:0:0:
423,244,114739,1,0,0:0:0:0:
209,186,114875,2,0,L|97:159,1,100,2|0,1:2|0:0,0:0:0:0:
227,381,115148,5,2,1:2:0:0:
277,192,115284,1,0,0:0:0:0:
89,244,115421,1,2,0:0:0:0:
227,3,115557,5,2,1:2:0:0:
277,192,115693,1,0,0:0:0:0:
89,140,115830,1,2,0:0:0:0:
349,64,115966,2,0,L|469:80,1,100,2|0,1:2|0:0,0:0:0:0:
486,344,116239,5,2,1:2:0:0:
363,162,116375,1,0,0:0:0:0:
393,383,116512,1,0,0:0:0:0:
178,167,116648,5,2,1:2:0:0:
301,349,116784,1,0,0:0:0:0:
271,128,116921,1,0,0:0:0:0:
94,264,117057,2,0,P|88:321|99:368,1,100,2|0,1:2|0:0,0:0:0:0:
415,362,117330,6,0,P|424:313|418:264,1,100,2|0,1:2|0:0,0:0:0:0:
271,128,117603,1,2,0:0:0:0:
483,73,117739,1,0,1:0:0:0:
247,134,117875,2,0,L|122:108,1,100,2|0,0:0|0:0,0:0:0:0:
0,321,118148,2,0,L|125:347,1,100,0|0,1:2|0:0,0:0:0:0:
309,297,118421,5,2,1:2:0:0:
138,185,118557,1,0,0:0:0:0:
320,93,118693,1,0,0:0:0:0:
185,300,118830,5,2,1:2:0:0:
197,76,118966,1,0,0:0:0:0:
385,199,119102,1,0,0:0:0:0:
138,185,119239,2,0,L|23:180,1,100,2|0,1:2|0:0,0:0:0:0:
326,83,119512,5,2,1:2:0:0:
314,307,119648,1,0,0:0:0:0:
126,184,119784,1,2,0:0:0:0:
398,199,119921,5,2,1:2:0:0:
178,311,120057,1,0,0:0:0:0:
191,64,120193,1,2,0:0:0:0:
314,307,120330,2,0,P|363:328|417:318,1,100,2|0,1:2|0:0,0:0:0:0:
512,113,120603,6,0,L|409:101,1,100,2|0,1:2|0:0,0:0:0:0:
256,271,120875,1,0,0:0:0:0:
99,101,121012,2,0,L|0:113,1,100,2|0,1:2|0:0,0:0:0:0:
123,286,121284,1,0,0:0:0:0:
256,53,121421,1,2,1:2:0:0:
389,286,121557,1,0,0:0:0:0:
206,112,121693,6,0,P|255:131|305:112,2,110.000003356934,2|0|2,0:0|0:0|0:0,0:0:0:0:
256,53,122375,1,2,0:0:0:0:
256,282,122512,1,2,0:0:0:0:
256,311,122580,1,0,0:0:0:0:
256,340,122648,1,0,0:0:0:0:
57,333,122784,6,0,P|33:265|48:219,1,100,4|0,0:0|0:0,0:0:0:0:
164,157,123057,2,0,P|188:225|173:271,1,100,2|0,0:0|0:0,0:0:0:0:
35,102,123330,1,2,0:0:0:0:
178,59,123466,1,2,0:0:0:0:
322,16,123603,2,0,L|437:37,1,100,0|2,0:0|0:0,0:0:0:0:
470,174,123875,5,0,0:0:0:0:
324,135,124012,1,2,0:0:0:0:
383,272,124148,1,2,0:0:0:0:
383,272,124216,1,0,0:0:0:0:
383,272,124284,1,2,0:0:0:0:
245,334,124421,2,0,L|146:317,1,100,2|0,0:0|0:0,0:0:0:0:
66,190,124693,1,2,0:0:0:0:
66,190,124762,1,0,0:0:0:0:
66,190,124830,1,2,0:0:0:0:
182,95,124966,6,0,P|197:37|186:-4,1,100
66,190,125239,2,0,L|187:225,1,100,2|0,0:0|0:0,0:0:0:0:
256,384,125512,1,2,0:0:0:0:
349,217,125648,2,0,L|446:190,1,100,2|0,0:0|0:0,0:0:0:0:
324,0,125921,2,0,P|315:47|329:94,1,100,2|0,0:0|0:0,0:0:0:0:
436,288,126193,5,2,0:0:0:0:
436,288,126262,1,0,0:0:0:0:
436,288,126330,2,0,L|339:315,1,100,2|0,0:0|0:0,0:0:0:0:
172,315,126603,1,2,0:0:0:0:
172,315,126671,1,0,0:0:0:0:
172,315,126739,1,2,0:0:0:0:
256,192,126875,1,2,0:0:0:0:
256,192,126943,1,0,0:0:0:0:
256,192,127012,1,2,0:0:0:0:
123,121,127148,6,0,L|15:136,1,100
114,14,127421,2,0,L|222:-1,1,100,2|0,0:0|0:0,0:0:0:0:
348,62,127693,1,2,0:0:0:0:
484,124,127830,1,2,0:0:0:0:
357,204,127966,2,0,P|350:266|365:308,1,100,0|2,0:0|0:0,0:0:0:0:
500,112,128239,6,0,P|507:50|492:8,1,100,0|2,0:0|0:0,0:0:0:0:
348,62,128512,1,2,0:0:0:0:
313,58,128580,1,0,0:0:0:0:
278,54,128648,1,2,0:0:0:0:
154,137,128784,2,0,P|93:141|57:115,1,100,2|0,0:0|0:0,0:0:0:0:
62,263,129057,1,2,0:0:0:0:
62,263,129125,1,0,0:0:0:0:
62,263,129193,1,2,0:0:0:0:
207,223,129330,6,0,L|310:248,1,100
284,97,129603,2,0,L|387:122,1,100,2|0,0:0|0:0,0:0:0:0:
408,267,129875,1,2,0:0:0:0:
503,150,130012,1,2,0:0:0:0:
304,247,130148,2,0,P|293:307|307:349,1,100,0|2,0:0|0:0,0:0:0:0:
124,275,130421,6,0,P|135:215|121:173,1,100
38,56,130693,1,2,0:0:0:0:
38,56,130830,1,0,0:0:0:0:
186,40,130966,1,2,0:0:0:0:
225,48,131034,1,0,0:0:0:0:
264,55,131103,1,2,0:0:0:0:
361,169,131239,1,2,0:0:0:0:
400,161,131307,1,0,0:0:0:0:
439,154,131376,1,2,0:0:0:0:
297,252,131512,6,0,P|288:306|299:358,1,100
163,281,131784,2,0,P|172:227|161:175,1,100,2|0,0:0|0:0,0:0:0:0:
14,164,132057,1,2,0:0:0:0:
44,17,132193,1,2,0:0:0:0:
174,92,132330,2,0,L|295:77,1,100,0|2,0:0|0:0,0:0:0:0:
407,10,132603,5,0,0:0:0:0:
342,145,132739,1,0,0:0:0:0:
279,280,132875,1,2,0:0:0:0:
279,280,132943,1,0,0:0:0:0:
279,280,133012,1,2,0:0:0:0:
416,221,133148,2,0,L|445:332,1,100
249,186,133421,1,2,0:0:0:0:
249,186,133489,1,0,0:0:0:0:
249,186,133557,1,2,0:0:0:0:
118,367,133693,6,0,P|60:369|14:338,1,100
156,168,133966,2,0,P|214:166|260:197,1,100,2|0,0:0|0:0,0:0:0:0:
357,291,134239,1,2,0:0:0:0:
496,238,134375,1,2,0:0:0:0:
337,368,134512,1,0,0:0:0:0:
250,186,134648,1,2,0:0:0:0:
250,186,134784,6,0,P|242:124|261:77,1,100
382,10,135057,1,2,0:0:0:0:
352,156,135193,1,0,0:0:0:0:
185,16,135330,1,2,0:0:0:0:
150,20,135398,1,0,0:0:0:0:
115,25,135466,1,2,0:0:0:0:
5,150,135603,1,2,0:0:0:0:
40,154,135671,1,0,0:0:0:0:
75,159,135739,1,2,0:0:0:0:
170,274,135875,6,0,L|283:255,1,100
376,362,136148,2,0,L|489:343,1,100,2|0,0:0|0:0,0:0:0:0:
507,198,136421,1,2,0:0:0:0:
507,198,136557,1,2,0:0:0:0:
372,132,136693,2,0,P|351:72|363:23,1,100,0|2,0:0|0:0,0:0:0:0:
155,37,136966,6,0,P|159:86|140:132,1,100
25,230,137239,1,2,0:0:0:0:
18,264,137307,1,0,0:0:0:0:
12,298,137375,1,2,0:0:0:0:
138,379,137512,2,0,L|248:364,1,100
368,293,137784,1,2,0:0:0:0:
401,304,137853,1,0,0:0:0:0:
434,314,137921,1,2,0:0:0:0:
483,164,138057,6,0,L|472:106,3,50,2|0|0|0,0:0|0:0|0:0|0:0,0:0:0:0:
404,150,138330,2,0,L|393:92,3,50,2|0|0|0,0:0|0:0|0:0|0:0,0:0:0:0:
325,136,138603,2,0,L|314:78,3,50,2|0|0|0,0:0|0:0|0:0|0:0,0:0:0:0:
246,122,138875,2,0,L|235:64,3,50,2|0|0|0,0:0|0:0|0:0|0:0,0:0:0:0:
166,35,139148,6,0,P|137:37|110:46,3,50,2|0|0|0,0:0|0:0|0:0|0:0,0:0:0:0:
61,92,139421,2,0,P|48:118|42:145,3,50,2|0|0|0,0:0|0:0|0:0|0:0,0:0:0:0:
57,211,139693,2,0,P|73:235|94:253,3,50,2|0|0|0,0:0|0:0|0:0|0:0,0:0:0:0:
158,273,139966,2,0,P|187:271|214:262,3,50,2|0|0|0,0:0|0:0|0:0|0:0,0:0:0:0:
271,222,140239,6,0,P|305:219|357:238,1,75.0000028610231,4|0,0:0|0:0,0:0:0:0:
425,266,140512,1,2,0:0:0:0:
271,222,140648,2,0,P|268:188|287:136,1,75.0000028610231
315,68,140921,1,2,0:0:0:0:
271,222,141057,2,0,P|237:225|185:206,1,75.0000028610231
117,178,141330,1,2,0:0:0:0:
271,222,141466,2,0,P|274:256|255:308,1,75.0000028610231
227,376,141739,1,2,0:0:0:0:
271,222,141875,2,0,P|268:188|287:136,1,75.0000028610231
437,129,142148,2,0,P|440:163|421:215,1,75.0000028610231,2|0,0:0|0:0,0:0:0:0:
374,76,142421,6,0,L|388:-5,2,75.0000028610231,0|0|2,0:0|0:0|0:0,0:0:0:0:
297,159,142830,2,0,L|283:240,2,75.0000028610231,0|0|2,0:0|0:0|0:0,0:0:0:0:
219,76,143239,2,0,L|233:-5,2,75.0000028610231,0|0|2,0:0|0:0|0:0,0:0:0:0:
142,159,143648,2,0,L|128:240,2,75.0000028610231,0|0|2,0:0|0:0|0:0,0:0:0:0:
64,76,144057,2,0,L|78:-5,1,75.0000028610231,0|2,0:0|0:0,0:0:0:0:
148,165,144330,2,0,L|134:246,1,75.0000028610231,0|2,0:0|0:0,0:0:0:0:
85,314,144603,6,0,P|136:329|174:320,1,75.0000028610231
225,267,144875,1,2,0:0:0:0:
280,337,145012,2,0,P|331:322|369:331,1,75.0000028610231
420,384,145284,1,2,0:0:0:0:
480,318,145421,2,0,L|492:228,1,75.0000028610231
411,198,145693,1,2,0:0:0:0:
469,129,145830,2,0,L|481:39,1,75.0000028610231
400,9,146103,1,2,0:0:0:0:
345,81,146239,2,0,B|308:87|308:87|271:73,1,75.0000028610231
139,151,146512,2,0,B|176:145|176:145|213:159,1,75.0000028610231,2|0,0:0|0:0,0:0:0:0:
300,251,146784,6,0,P|307:291|301:324,1,75.0000028610231
231,383,147057,1,2,0:0:0:0:
204,234,147193,2,0,P|211:274|205:307,1,75.0000028610231
135,366,147466,1,2,0:0:0:0:
32,255,147603,2,0,P|25:215|31:182,1,75.0000028610231
101,123,147875,1,2,0:0:0:0:
128,272,148012,2,0,P|121:232|127:199,1,75.0000028610231
197,140,148284,1,2,0:0:0:0:
286,128,148421,2,0,L|365:137,1,75.0000028610231,0|2,0:0|0:0,0:0:0:0:
512,69,148693,2,0,L|433:60,1,75.0000028610231,0|2,0:0|0:0,0:0:0:0:
292,24,148966,5,0,0:0:0:0:
206,52,149103,1,0,0:0:0:0:
120,80,149239,1,2,0:0:0:0:
288,39,149375,5,0,0:0:0:0:
202,67,149512,1,0,0:0:0:0:
116,95,149648,1,2,0:0:0:0:
284,54,149784,5,0,0:0:0:0:
198,82,149921,1,0,0:0:0:0:
112,110,150057,1,2,0:0:0:0:
280,69,150193,5,0,0:0:0:0:
194,97,150330,1,0,0:0:0:0:
108,125,150466,1,2,0:0:0:0:
276,84,150603,5,0,0:0:0:0:
190,112,150739,1,0,0:0:0:0:
104,140,150875,1,2,0:0:0:0:
190,112,151012,1,0,0:0:0:0:
281,203,151148,6,0,P|285:242|272:284,1,75.0000028610231
209,336,151421,1,2,0:0:0:0:
137,203,151557,2,0,P|133:242|146:284,1,75.0000028610231
209,336,151830,1,2,0:0:0:0:
349,281,151966,2,0,P|310:285|268:272,1,75.0000028610231
209,336,152239,1,2,0:0:0:0:
69,281,152375,2,0,P|108:285|150:272,1,75.0000028610231
209,336,152648,1,2,0:0:0:0:
281,203,152784,2,0,L|257:128,1,75.0000028610231,0|2,0:0|0:0,0:0:0:0:
137,203,153057,2,0,L|161:128,1,75.0000028610231,0|2,0:0|0:0,0:0:0:0:
212,59,153330,5,0,0:0:0:0:
292,16,153466,1,0,0:0:0:0:
370,59,153603,1,2,0:0:0:0:
292,103,153739,5,0,0:0:0:0:
370,146,153875,1,0,0:0:0:0:
450,103,154012,1,2,0:0:0:0:
450,193,154148,5,0,0:0:0:0:
370,236,154284,1,0,0:0:0:0:
290,193,154421,1,2,0:0:0:0:
370,146,154557,5,0,0:0:0:0:
292,103,154693,1,0,0:0:0:0:
214,146,154830,1,2,0:0:0:0:
290,193,154966,2,0,L|290:275,1,75.0000028610231
214,146,155239,2,0,L|214:64,1,75.0000028610231,2|0,0:0|0:0,0:0:0:0:
140,19,155512,5,0,0:0:0:0:
59,59,155648,1,0,0:0:0:0:
140,19,155784,1,2,0:0:0:0:
39,160,155921,1,0,0:0:0:0:
120,120,156057,1,0,0:0:0:0:
39,160,156193,1,2,0:0:0:0:
157,201,156330,1,0,0:0:0:0:
76,241,156466,1,0,0:0:0:0:
157,201,156603,1,2,0:0:0:0:
56,342,156739,1,0,0:0:0:0:
137,302,156875,1,0,0:0:0:0:
56,342,157012,1,2,0:0:0:0:
312,348,157148,5,2,1:2:0:0:
76,241,157284,1,2,1:2:0:0:
183,5,157421,1,2,1:2:0:0:
419,112,157557,1,2,1:2:0:0:
76,241,157693,5,4,1:2:0:0:
120,119,157830,1,0,0:0:0:0:
160,113,157898,1,0,0:0:0:0:
199,107,157966,1,2,0:0:0:0:
238,101,158034,1,0,0:0:0:0:
277,95,158103,1,0,1:0:0:0:
363,195,158239,1,0,0:0:0:0:
323,201,158307,1,0,0:0:0:0:
284,207,158375,1,2,0:0:0:0:
245,213,158443,1,0,0:0:0:0:
206,219,158512,1,0,1:0:0:0:
131,325,158648,1,0,0:0:0:0:
131,325,158716,1,0,0:0:0:0:
131,325,158784,5,0,1:0:0:0:
38,234,158921,1,0,0:0:0:0:
21,196,158989,1,0,0:0:0:0:
21,156,159057,1,2,0:0:0:0:
33,118,159125,1,0,0:0:0:0:
59,88,159193,1,0,1:0:0:0:
178,138,159330,1,0,0:0:0:0:
217,147,159398,1,0,0:0:0:0:
257,139,159466,1,2,0:0:0:0:
292,120,159534,1,0,0:0:0:0:
317,89,159603,1,0,1:0:0:0:
145,25,159739,1,0,0:0:0:0:
187,229,159875,6,0,P|243:233|299:208,1,100,0|0,1:0|0:0,0:0:0:0:
317,197,160080,1,0,0:0:0:0:
353,180,160148,2,0,P|380:178|415:185,1,50,2|0,0:0|0:0,0:0:0:0:
466,218,160284,1,0,1:0:0:0:
417,31,160421,1,0,0:0:0:0:
377,38,160489,1,0,0:0:0:0:
337,45,160557,1,2,0:0:0:0:
297,52,160625,1,0,0:0:0:0:
257,58,160693,1,0,1:0:0:0:
145,146,160830,2,0,L|88:136,1,50
40,82,160966,5,0,1:0:0:0:
152,233,161103,1,0,0:0:0:0:
166,270,161171,1,0,0:0:0:0:
161,310,161239,2,0,P|154:344|146:370,2,50,2|0|0,0:0|0:0|1:0,0:0:0:0:
274,195,161512,1,0,0:0:0:0:
313,188,161580,1,0,0:0:0:0:
353,191,161648,1,2,0:0:0:0:
389,205,161716,1,0,0:0:0:0:
418,231,161784,1,0,1:0:0:0:
470,60,161921,1,0,0:0:0:0:
504,323,162057,5,0,1:0:0:0:
274,195,162193,1,0,0:0:0:0:
235,205,162262,1,0,0:0:0:0:
196,215,162330,2,0,L|127:204,1,50,2|0,0:0|0:0,0:0:0:0:
76,193,162466,1,0,1:0:0:0:
153,8,162603,1,0,0:0:0:0:
190,21,162671,1,0,0:0:0:0:
213,53,162739,1,2,0:0:0:0:
221,91,162807,1,0,0:0:0:0:
217,130,162875,1,0,1:0:0:0:
26,73,163012,1,0,0:0:0:0:
288,7,163148,6,0,L|388:16,1,100,0|0,1:0|0:0,0:0:0:0:
427,18,163353,1,0,0:0:0:0:
466,22,163421,2,0,L|528:12,2,50,2|0|0,0:0|0:0|1:0,0:0:0:0:
359,140,163693,1,0,0:0:0:0:
350,179,163762,1,0,0:0:0:0:
354,218,163830,1,2,0:0:0:0:
370,254,163898,1,0,0:0:0:0:
397,283,163966,1,0,1:0:0:0:
492,105,164103,1,0,0:0:0:0:
266,189,164239,6,0,P|215:194|158:171,1,100,0|0,1:0|0:0,0:0:0:0:
140,151,164443,1,0,0:0:0:0:
126,113,164512,2,0,P|119:62|119:53,1,50,2|0,0:0|0:0,0:0:0:0:
163,2,164648,1,0,1:0:0:0:
13,135,164784,1,0,0:0:0:0:
23,173,164853,1,0,0:0:0:0:
33,211,164921,1,2,0:0:0:0:
44,249,164989,1,0,0:0:0:0:
55,287,165057,1,0,1:0:0:0:
218,113,165193,1,0,0:0:0:0:
218,113,165262,1,0,0:0:0:0:
218,113,165330,6,0,L|332:89,1,100,0|0,1:0|0:0,0:0:0:0:
381,46,165534,1,0,0:0:0:0:
381,46,165603,2,0,P|410:43|450:51,2,50,2|0|0,0:0|0:0|1:0,0:0:0:0:
332,192,165875,1,0,0:0:0:0:
328,231,165943,1,0,0:0:0:0:
332,270,166012,1,2,0:0:0:0:
349,305,166080,1,0,0:0:0:0:
378,333,166148,1,0,1:0:0:0:
471,144,166284,1,0,1:0:0:0:
229,240,166421,5,4,1:2:0:0:
296,37,166557,1,0,0:0:0:0:
296,37,166625,1,0,0:0:0:0:
296,37,166693,2,0,P|337:30|352:33,2,50,2|0|0,0:0|0:0|1:0,0:0:0:0:
174,128,166966,1,0,0:0:0:0:
135,139,167034,1,0,0:0:0:0:
95,131,167103,1,2,0:0:0:0:
62,107,167171,1,0,0:0:0:0:
44,70,167239,1,0,1:0:0:0:
84,248,167375,1,0,0:0:0:0:
84,248,167443,1,0,0:0:0:0:
84,248,167512,5,0,1:0:0:0:
130,51,167648,1,0,0:0:0:0:
169,40,167716,1,0,0:0:0:0:
209,48,167784,1,2,0:0:0:0:
242,72,167853,1,0,0:0:0:0:
260,109,167921,1,0,1:0:0:0:
296,282,168057,1,0,0:0:0:0:
334,271,168125,1,0,0:0:0:0:
372,260,168193,1,2,0:0:0:0:
410,249,168262,1,0,0:0:0:0:
448,238,168330,1,0,1:0:0:0:
223,196,168466,1,0,0:0:0:0:
385,347,168603,6,0,L|490:313,1,100,0|0,1:0|0:0,0:0:0:0:
448,238,168807,1,0,0:0:0:0:
448,238,168875,2,0,P|444:209|454:182,1,50,2|0,0:0|0:0,0:0:0:0:
490,122,169012,1,0,1:0:0:0:
343,23,169148,1,0,0:0:0:0:
303,19,169216,1,0,0:0:0:0:
263,24,169284,1,2,0:0:0:0:
227,42,169353,1,0,0:0:0:0:
202,73,169421,1,0,1:0:0:0:
374,152,169557,1,0,0:0:0:0:
145,218,169693,5,0,1:0:0:0:
263,24,169830,1,0,0:0:0:0:
263,24,169898,1,0,0:0:0:0:
263,24,169966,1,2,0:0:0:0:
264,261,170103,1,0,1:0:0:0:
303,256,170171,1,0,0:0:0:0:
343,251,170239,1,0,0:0:0:0:
382,247,170307,1,0,0:0:0:0:
421,243,170375,1,2,0:0:0:0:
486,72,170512,1,0,1:0:0:0:
510,309,170648,1,0,0:0:0:0:
313,168,170784,6,0,L|197:186,1,100,0|0,1:0|0:0,0:0:0:0:
140,157,170989,1,0,0:0:0:0:
140,157,171057,2,0,P|91:157|73:165,2,50,2|0|0,0:0|0:0|1:0,0:0:0:0:
230,348,171330,1,0,0:0:0:0:
269,357,171398,1,0,0:0:0:0:
308,352,171466,1,2,0:0:0:0:
341,330,171534,1,0,0:0:0:0:
362,296,171603,1,0,1:0:0:0:
401,108,171739,1,0,0:0:0:0:
401,108,171807,1,0,0:0:0:0:
401,108,171875,5,0,1:0:0:0:
274,268,172012,1,0,0:0:0:0:
274,268,172080,1,0,0:0:0:0:
274,268,172148,2,0,L|212:249,1,50,2|0,0:0|0:0,0:0:0:0:
154,229,172284,1,0,1:0:0:0:
214,30,172421,1,0,0:0:0:0:
176,14,172489,1,0,0:0:0:0:
136,13,172557,1,2,0:0:0:0:
98,26,172625,1,0,0:0:0:0:
66,50,172693,1,0,1:0:0:0:
6,255,172830,1,0,0:0:0:0:
246,130,172966,6,0,P|291:116|365:125,1,100,0|0,1:0|0:0,0:0:0:0:
417,149,173171,1,0,0:0:0:0:
417,149,173239,2,0,P|454:150|476:144,2,50,2|0|0,0:0|0:0|1:0,0:0:0:0:
300,275,173512,1,0,0:0:0:0:
260,280,173580,1,0,0:0:0:0:
219,285,173648,1,2,0:0:0:0:
179,290,173716,1,0,0:0:0:0:
139,295,173784,1,0,1:0:0:0:
17,150,173921,2,0,L|82:158,1,50
143,164,174057,5,0,1:0:0:0:
297,13,174193,1,0,0:0:0:0:
297,13,174262,1,0,0:0:0:0:
297,13,174330,1,2,0:0:0:0:
300,275,174466,1,0,1:0:0:0:
169,43,174603,5,2,1:2:0:0:
405,105,174739,1,2,1:2:0:0:
343,341,174875,1,2,1:2:0:0:
107,279,175012,1,2,1:2:0:0:
256,192,175148,5,4,0:0:0:0:
256,192,192603,5,4,0:0:0:0:
256,192,193148,2,0,L|239:87,1,100,2|0,0:0|0:0,0:0:0:0:
177,232,193557,2,0,L|151:71,1,150,2|0,0:0|0:0,0:0:0:0:
87,180,194103,1,2,0:0:0:0:
256,192,194784,5,0,0:0:0:0:
256,192,195330,2,0,L|271:99,1,80,2|0,0:0|0:0,0:0:0:0:
332,222,195739,2,0,L|351:100,1,120,2|0,0:0|0:0,0:0:0:0:
414,183,196284,1,2,0:0:0:0:
256,192,196966,5,0,0:0:0:0:
256,192,197512,2,0,L|246:130,1,59.9999981689454,2|0,0:0|0:0,0:0:0:0:
181,222,197921,2,0,L|166:131,2,89.9999972534181,2|0|0,0:0|0:0|0:0,0:0:0:0:
256,192,199148,5,4,0:0:0:0:
256,192,199966,12,2,201057,0:0:0:0:
387,10,201330,5,4,1:2:0:0:
450,200,201466,1,0,0:0:0:0:
253,159,201603,1,2,1:2:0:0:
473,86,201739,1,0,0:0:0:0:
339,236,201875,1,0,1:0:0:0:
276,45,202012,1,2,0:0:0:0:
450,200,202148,2,0,P|454:249|437:297,1,100,0|0,1:0|0:0,0:0:0:0:
198,304,202421,5,2,1:2:0:0:
313,141,202557,1,0,0:0:0:0:
276,337,202693,1,0,1:0:0:0:
235,108,202830,1,2,0:2:0:0:
120,271,202966,1,0,1:0:0:0:
157,75,203103,1,0,0:0:0:0:
276,337,203239,2,0,P|336:339|391:321,1,100,2|0,1:2|0:0,0:0:0:0:
491,142,203512,5,0,1:0:0:0:
312,230,203648,1,0,0:0:0:0:
224,51,203784,1,2,1:2:0:0:
474,170,203921,1,0,0:0:0:0:
294,257,204057,1,0,1:0:0:0:
206,78,204193,1,2,0:2:0:0:
457,197,204330,2,0,P|462:245|450:297,1,100,0|0,1:0|0:0,0:0:0:0:
186,295,204603,5,2,1:2:0:0:
359,192,204739,1,0,0:0:0:0:
256,19,204875,1,0,1:0:0:0:
83,122,205012,1,2,0:2:0:0:
333,82,205148,2,0,L|455:72,1,100,0|0,1:0|0:0,0:0:0:0:
195,87,205421,1,0,1:2:0:0:
372,2,205557,1,2,0:2:0:0:
304,206,205693,6,0,P|301:273|314:313,1,100,0|0,1:0|0:0,0:0:0:0:
461,155,205966,1,2,1:2:0:0:
208,206,206103,2,0,P|211:273|198:313,1,100,0|0,0:0|1:0,0:0:0:0:
51,155,206375,1,2,0:2:0:0:
256,30,206512,2,0,L|256:130,1,100,0|0,1:0|0:0,0:0:0:0:
256,354,206784,5,2,1:2:0:0:
176,139,206921,1,0,0:0:0:0:
418,192,207057,1,0,1:0:0:0:
203,272,207193,1,2,0:2:0:0:
256,30,207330,1,0,1:0:0:0:
336,245,207466,1,0,0:0:0:0:
94,192,207603,1,2,1:2:0:0:
309,112,207739,1,0,0:0:0:0:
203,272,207875,6,0,P|192:317|198:371,1,100,2|0,1:2|0:0,0:0:0:0:
336,245,208148,1,0,1:0:0:0:
176,139,208284,2,0,P|131:128|77:134,1,100,2|0,0:2|1:0,0:0:0:0:
203,272,208557,1,0,0:0:0:0:
309,112,208693,2,0,P|320:67|314:13,1,100,2|0,1:2|0:0,0:0:0:0:
176,139,208966,5,0,1:0:0:0:
336,245,209103,2,0,P|381:256|435:250,1,100,2|0,0:2|1:0,0:0:0:0:
309,112,209375,1,0,0:0:0:0:
268,301,209512,1,2,1:2:0:0:
457,342,209648,1,0,0:0:0:0:
498,153,209784,1,0,1:0:0:0:
309,112,209921,1,0,0:0:0:0:
457,342,210057,6,0,L|442:230,1,100,4|0,1:2|0:0,0:0:0:0:
415,45,210330,1,2,1:2:0:0:
319,304,210466,2,0,L|304:192,1,100,0|0,0:0|1:0,0:0:0:0:
277,7,210739,1,2,0:2:0:0:
193,337,210875,2,0,L|178:225,1,100,0|0,1:0|0:0,0:0:0:0:
151,40,211148,5,2,1:2:0:0:
55,299,211284,2,0,L|40:187,1,100,0|0,0:0|1:0,0:0:0:0:
13,2,211557,1,2,0:2:0:0:
180,237,211693,2,0,P|226:243|274:220,1,100,0|0,1:0|0:0,0:0:0:0:
458,30,211966,2,0,P|412:24|364:47,1,100,2|0,1:2|0:0,0:0:0:0:
445,285,212239,5,0,1:0:0:0:
506,95,212375,1,0,0:0:0:0:
310,137,212512,1,2,1:2:0:0:
414,363,212648,1,0,0:0:0:0:
475,173,212784,1,0,1:0:0:0:
279,215,212921,1,2,0:2:0:0:
414,363,213057,2,0,L|514:344,1,100,0|0,1:0|0:0,0:0:0:0:
279,215,213330,5,2,1:2:0:0:
471,271,213466,1,0,0:0:0:0:
371,97,213603,1,0,1:0:0:0:
341,295,213739,1,2,0:2:0:0:
241,121,213875,2,0,L|126:145,1,100,0|0,1:0|0:0,0:0:0:0:
9,354,214148,2,0,L|124:330,1,100,2|0,1:2|0:0,0:0:0:0:
341,295,214421,5,0,1:0:0:0:
144,250,214557,1,0,0:0:0:0:
341,295,214693,1,2,1:2:0:0:
241,121,214830,1,0,0:0:0:0:
438,166,214966,1,0,1:0:0:0:
241,121,215103,1,2,0:2:0:0:
341,295,215239,2,0,P|390:300|452:273,1,100,0|0,1:0|0:0,0:0:0:0:
478,35,215512,5,2,1:2:0:0:
355,194,215648,1,0,0:0:0:0:
157,194,215784,1,0,1:0:0:0:
34,35,215921,1,2,0:2:0:0:
17,235,216057,1,0,1:0:0:0:
152,88,216193,1,0,0:0:0:0:
258,256,216330,1,2,1:2:0:0:
360,88,216466,1,0,0:0:0:0:
495,235,216603,6,0,P|504:295|491:344,1,100,2|0,1:2|0:0,0:0:0:0:
373,188,216875,1,0,1:0:0:0:
189,308,217012,2,0,P|180:248|193:199,1,100,2|0,0:2|1:0,0:0:0:0:
311,355,217284,1,0,0:0:0:0:
373,188,217421,2,0,L|358:77,1,100,2|0,1:2|0:0,0:0:0:0:
159,10,217693,6,0,L|144:121,1,100,0|2,1:0|0:2,0:0:0:0:
110,306,217966,1,0,1:0:0:0:
21,127,218103,1,0,0:2:0:0:
188,238,218239,2,0,P|237:240|289:215,1,100,2|0,1:2|0:0,0:0:0:0:
381,31,218512,2,0,P|430:29|482:54,1,100,0|0,1:0|0:0,0:0:0:0:
479,304,218784,5,6,1:2:0:0:
400,120,218921,1,0,0:0:0:0:
479,304,219057,1,0,1:0:0:0:
262,77,219193,5,2,0:2:0:0:
341,261,219330,1,0,1:0:0:0:
262,77,219466,1,0,0:0:0:0:
232,352,219603,5,2,1:2:0:0:
153,168,219739,1,0,0:0:0:0:
232,352,219875,1,0,1:0:0:0:
15,125,220012,5,2,0:2:0:0:
94,309,220148,1,0,1:0:0:0:
15,125,220284,1,0,0:0:0:0:
180,14,220421,6,0,L|283:17,1,100,2|0,1:2|0:0,0:0:0:0:
479,174,220693,2,0,L|376:171,1,100,0|2,1:0|0:2,0:0:0:0:
179,333,220966,5,6,1:2:0:0:
198,131,221103,1,0,0:0:0:0:
363,249,221239,1,0,1:0:0:0:
152,255,221375,5,2,0:2:0:0:
171,53,221512,1,0,1:0:0:0:
336,171,221648,1,0,0:0:0:0:
156,15,221784,1,2,1:2:0:0:
152,255,221921,1,0,0:0:0:0:
305,64,222057,6,0,P|363:63|408:85,1,100,4|0,1:2|0:2,0:0:0:0:
355,321,222330,2,0,P|297:322|252:300,1,100,2|0,1:2|0:0,0:0:0:0:
130,120,222603,1,2,1:2:0:0:
336,171,222739,1,0,0:0:0:0:
53,254,222875,1,0,1:0:0:0:
259,305,223012,1,2,0:2:0:0:
202,49,223148,5,4,1:0:0:0:
202,49,224239,5,0,1:0:0:0:
240,37,224307,1,0,0:0:0:0:
279,34,224375,2,0,L|344:39,1,50,2|0,0:0|0:0,0:0:0:0:
429,169,224512,2,0,L|364:164,1,50,2|0,0:0|0:0,0:0:0:0:
217,158,224648,1,0,1:0:0:0:
199,193,224716,1,0,0:0:0:0:
195,232,224784,2,0,P|194:262|198:289,1,50,2|0,0:0|0:0,0:0:0:0:
335,341,224921,2,0,P|336:311|332:284,1,50,2|0,0:0|0:0,0:0:0:0:
139,373,225057,1,0,1:0:0:0:
139,373,225330,6,0,L|32:363,1,100,4|0,0:0|0:0,0:0:0:0:
13,293,225534,1,0,0:0:0:0:
13,293,225603,2,0,P|8:238|17:222,1,50,2|0,0:0|0:0,0:0:0:0:
28,173,225739,1,0,1:0:0:0:
195,232,225875,1,0,0:0:0:0:
232,245,225943,1,0,0:0:0:0:
271,245,226012,1,2,0:0:0:0:
308,231,226080,1,0,0:0:0:0:
337,202,226148,1,0,1:0:0:0:
390,31,226284,1,2,0:0:0:0:
390,31,226353,1,0,0:0:0:0:
390,31,226421,6,0,P|424:30|469:43,1,50,0|0,1:0|0:0,0:0:0:0:
485,109,226557,1,0,0:0:0:0:
497,147,226625,1,0,0:0:0:0:
502,186,226693,1,2,0:0:0:0:
498,225,226762,1,0,0:0:0:0:
486,263,226830,2,0,L|503:323,1,50,0|0,1:0|0:0,0:0:0:0:
433,364,226966,1,0,0:0:0:0:
394,354,227034,1,0,0:0:0:0:
355,344,227103,1,2,0:0:0:0:
316,334,227171,1,0,0:0:0:0:
276,324,227239,2,0,L|207:338,1,50,0|0,1:0|0:0,0:0:0:0:
166,288,227375,2,0,L|97:302,1,50,2|0,0:0|0:0,0:0:0:0:
41,252,227512,5,0,1:0:0:0:
221,141,227648,1,0,0:0:0:0:
230,102,227716,1,0,0:0:0:0:
224,62,227784,1,2,0:0:0:0:
203,27,227853,1,0,0:0:0:0:
170,3,227921,1,0,1:0:0:0:
121,184,228057,1,0,0:0:0:0:
145,217,228125,1,0,0:0:0:0:
180,238,228193,1,2,0:0:0:0:
220,244,228262,1,0,0:0:0:0:
259,235,228330,2,0,P|289:214|304:196,1,50,0|0,1:0|0:0,0:0:0:0:
337,129,228466,1,2,0:0:0:0:
337,129,228534,1,0,0:0:0:0:
337,129,228603,6,0,L|456:134,1,100,0|0,1:0|0:0,0:0:0:0:
492,191,228807,1,0,0:0:0:0:
492,191,228875,2,0,P|501:237|496:258,1,50,2|0,0:0|0:0,0:0:0:0:
469,305,229012,1,0,1:0:0:0:
298,204,229148,6,0,L|216:213,1,50,8|0,0:0|0:0,0:0:0:0:
112,373,229284,2,0,L|194:364,1,50,8|0,0:0|0:0,0:0:0:0:
119,183,229421,2,0,L|124:232,1,50,8|0,1:2|0:0,0:0:0:0:
288,369,229557,2,0,L|282:319,1,50,8|0,0:0|0:0,0:0:0:0:
298,204,229693,5,0,1:0:0:0:
363,22,229830,1,0,0:0:0:0:
404,16,229898,1,0,0:0:0:0:
444,20,229966,1,2,0:0:0:0:
482,35,230034,1,0,0:0:0:0:
511,64,230103,1,0,1:0:0:0:
433,202,230239,1,0,0:0:0:0:
444,240,230307,1,0,0:0:0:0:
455,278,230375,1,2,0:0:0:0:
467,315,230443,1,0,0:0:0:0:
479,352,230512,1,0,1:0:0:0:
304,271,230648,1,2,0:0:0:0:
304,271,230716,1,0,0:0:0:0:
304,271,230784,6,0,P|248:270|199:288,1,100,0|0,1:0|0:0,0:0:0:0:
140,329,230989,1,0,0:0:0:0:
104,346,231057,2,0,P|77:350|50:344,1,50,2|0,0:0|0:0,0:0:0:0:
17,234,231193,2,0,P|44:230|71:236,1,50,0|0,1:0|0:0,0:0:0:0:
159,221,231330,1,0,0:0:0:0:
169,181,231398,1,0,0:0:0:0:
166,141,231466,1,2,0:0:0:0:
147,105,231534,1,0,0:0:0:0:
113,83,231603,2,0,P|95:62|85:38,1,50,0|0,1:0|0:0,0:0:0:0:
241,19,231739,2,0,P|259:40|269:64,1,50,2|0,0:0|0:0,0:0:0:0:
256,161,231875,5,0,1:0:0:0:
364,284,232012,1,0,0:0:0:0:
402,294,232080,1,0,0:0:0:0:
442,291,232148,1,2,0:0:0:0:
478,273,232216,1,0,0:0:0:0:
500,240,232284,1,0,1:0:0:0:
505,67,232421,1,0,0:0:0:0:
467,57,232489,1,0,0:0:0:0:
427,60,232557,1,2,0:0:0:0:
391,78,232625,1,0,0:0:0:0:
369,111,232693,2,0,P|368:149|375:168,1,50,0|0,1:0|0:0,0:0:0:0:
266,242,232830,1,2,0:0:0:0:
266,242,232898,1,0,0:0:0:0:
266,242,232966,6,0,P|267:204|260:185,1,50,0|0,1:0|0:0,0:0:0:0:
186,65,233103,1,0,0:0:0:0:
146,72,233171,1,0,0:0:0:0:
106,79,233239,1,2,0:0:0:0:
66,86,233307,1,0,0:0:0:0:
27,95,233375,1,0,1:0:0:0:
125,319,233512,6,0,L|140:256,1,50,8|0,0:0|0:0,0:0:0:0:
186,65,233648,2,0,L|171:128,1,50,8|0,0:0|0:0,0:0:0:0:
314,356,233784,2,0,L|329:293,1,50,8|0,1:2|0:0,0:0:0:0:
375,102,233921,2,0,L|360:165,1,50,8|0,0:0|0:0,0:0:0:0:
125,319,234057,6,0,P|65:325|30:298,1,100,4|0,1:2|0:0,0:0:0:0:
14,268,234262,1,0,0:0:0:0:
9,228,234330,2,0,L|25:165,1,50,2|0,0:0|0:0,0:0:0:0:
47,109,234466,1,0,1:0:0:0:
184,206,234603,1,0,0:0:0:0:
222,217,234671,1,0,0:0:0:0:
262,215,234739,1,2,0:0:0:0:
298,198,234807,1,0,0:0:0:0:
325,169,234875,1,0,1:0:0:0:
387,15,235012,1,2,0:0:0:0:
387,15,235080,1,0,0:0:0:0:
387,15,235148,6,0,P|412:7|438:5,1,50,0|0,1:0|0:0,0:0:0:0:
486,77,235284,1,0,0:0:0:0:
504,113,235353,1,0,0:0:0:0:
506,152,235421,1,2,0:0:0:0:
491,189,235489,1,0,0:0:0:0:
455,207,235557,2,0,L|392:198,1,50,0|0,1:0|0:0,0:0:0:0:
325,169,235693,1,0,0:0:0:0:
285,164,235762,1,0,0:0:0:0:
246,173,235830,1,2,0:0:0:0:
212,196,235898,1,0,0:0:0:0:
190,229,235966,2,0,P|185:267|191:291,1,50,0|0,1:0|0:0,0:0:0:0:
59,327,236103,2,0,P|64:289|58:265,1,50,2|0,0:0|0:0,0:0:0:0:
17,186,236239,5,0,1:0:0:0:
145,89,236375,1,0,0:0:0:0:
184,80,236443,1,0,0:0:0:0:
223,71,236512,1,2,0:0:0:0:
262,63,236580,1,0,0:0:0:0:
301,55,236648,1,0,1:0:0:0:
249,212,236784,1,0,0:0:0:0:
288,203,236853,1,0,0:0:0:0:
327,194,236921,1,2,0:0:0:0:
366,186,236989,1,0,0:0:0:0:
405,178,237057,2,0,L|476:192,1,50,0|0,1:0|0:0,0:0:0:0:
496,306,237193,1,2,0:0:0:0:
496,306,237262,1,0,0:0:0:0:
496,306,237330,6,0,L|425:320,1,50,0|0,1:0|0:0,0:0:0:0:
350,282,237466,1,0,0:0:0:0:
326,313,237534,1,0,0:0:0:0:
293,336,237603,1,2,0:0:0:0:
254,346,237671,1,0,0:0:0:0:
213,341,237739,1,0,1:0:0:0:
95,189,237875,6,0,P|86:152|89:133,1,50,8|0,0:0|0:0,0:0:0:0:
259,31,238012,2,0,P|296:22|315:25,1,50,8|0,0:0|0:0,0:0:0:0:
417,195,238148,2,0,P|426:232|423:251,1,50,8|0,1:2|0:0,0:0:0:0:
253,353,238284,2,0,P|216:362|197:359,1,50,8|0,0:0|0:0,0:0:0:0:
95,189,238421,5,0,1:0:0:0:
283,109,238557,1,0,0:0:0:0:
322,111,238625,1,0,0:0:0:0:
361,113,238693,1,2,0:0:0:0:
400,115,238762,1,0,0:0:0:0:
439,117,238830,1,0,1:0:0:0:
289,3,238966,1,0,0:0:0:0:
250,5,239034,1,0,0:0:0:0:
211,7,239103,1,2,0:0:0:0:
172,9,239171,1,0,0:0:0:0:
133,11,239239,2,0,P|123:41|123:59,1,50,0|0,1:0|0:0,0:0:0:0:
178,142,239375,1,2,0:0:0:0:
178,142,239443,1,0,0:0:0:0:
178,142,239512,6,0,P|176:166|168:190,1,50,0|0,1:0|0:0,0:0:0:0:
71,232,239648,1,0,0:0:0:0:
52,267,239716,1,0,0:0:0:0:
46,306,239784,1,2,0:0:0:0:
54,344,239853,1,0,0:0:0:0:
74,378,239921,2,0,L|134:368,1,50,0|0,1:0|0:0,0:0:0:0:
206,309,240057,1,0,0:0:0:0:
244,298,240125,1,0,0:0:0:0:
283,300,240193,1,2,0:0:0:0:
321,311,240262,1,0,0:0:0:0:
345,342,240330,2,0,P|361:373|363:389,1,50,0|0,1:0|0:0,0:0:0:0:
406,258,240466,2,0,P|390:227|388:211,1,50,2|0,0:0|0:0,0:0:0:0:
441,133,240603,6,0,P|452:79|435:37,1,100,0|0,1:0|0:0,0:0:0:0:
402,15,240807,1,0,0:0:0:0:
363,3,240875,2,0,L|308:16,1,50,2|0,0:0|0:0,0:0:0:0:
260,76,241012,2,0,L|205:63,1,50,0|0,1:0|0:0,0:0:0:0:
130,40,241148,1,0,0:0:0:0:
90,37,241216,1,0,0:0:0:0:
53,53,241284,1,2,0:0:0:0:
28,84,241353,1,0,0:0:0:0:
21,123,241421,2,0,P|25:151|37:175,1,50,0|0,1:0|0:0,0:0:0:0:
96,229,241557,1,2,0:0:0:0:
96,229,241625,1,0,0:0:0:0:
96,229,241693,6,0,P|106:251|109:276,1,50,0|0,1:0|0:0,0:0:0:0:
89,361,241830,1,0,0:0:0:0:
127,370,241898,1,0,0:0:0:0:
167,365,241966,1,2,0:0:0:0:
201,346,242034,1,0,0:0:0:0:
227,316,242103,1,2,1:2:0:0:
240,278,242171,1,0,0:0:0:0:
240,237,242239,6,0,P|237:194|242:176,1,50,2|0,1:2|0:0,0:0:0:0:
385,10,242375,2,0,P|388:53|383:71,1,50,2|0,1:2|0:0,0:0:0:0:
356,356,242512,2,0,P|353:313|358:295,1,50,2|0,1:2|0:0,0:0:0:0:
501,129,242648,2,0,P|504:172|499:190,1,50,2|0,1:2|0:0,0:0:0:0:
240,237,242784,5,4,1:2:0:0:
174,66,242921,1,0,0:0:0:0:
133,60,242989,1,0,0:0:0:0:
94,68,243057,1,2,0:0:0:0:
62,93,243125,1,0,0:0:0:0:
41,127,243193,1,0,1:0:0:0:
107,298,243330,1,0,0:0:0:0:
148,304,243398,1,0,0:0:0:0:
187,296,243466,1,2,0:0:0:0:
219,271,243534,1,0,0:0:0:0:
240,237,243603,1,0,1:0:0:0:
280,58,243739,1,2,0:0:0:0:
280,58,243807,1,0,0:0:0:0:
280,58,243875,6,0,L|396:66,1,100,0|0,1:0|0:0,0:0:0:0:
446,31,244080,1,0,0:0:0:0:
446,31,244148,2,0,P|453:81|446:95,1,50,2|0,0:0|0:0,0:0:0:0:
429,150,244284,1,0,1:0:0:0:
291,224,244421,1,0,0:0:0:0:
326,243,244489,1,0,0:0:0:0:
360,262,244557,1,2,0:0:0:0:
394,281,244625,1,0,0:0:0:0:
428,300,244693,2,0,L|485:289,1,50,0|0,1:0|0:0,0:0:0:0:
371,370,244830,2,0,L|314:381,1,50,2|0,0:0|0:0,0:0:0:0:
241,340,244966,5,0,1:0:0:0:
154,235,245103,1,0,0:0:0:0:
114,227,245171,1,0,0:0:0:0:
73,231,245239,1,2,0:0:0:0:
40,253,245307,1,0,0:0:0:0:
16,285,245375,1,0,1:0:0:0:
244,285,245512,1,0,0:0:0:0:
252,245,245580,1,0,0:0:0:0:
248,204,245648,1,2,0:0:0:0:
226,171,245716,1,0,0:0:0:0:
194,147,245784,2,0,P|181:118|177:91,1,50,0|0,1:0|0:0,0:0:0:0:
285,13,245921,1,2,0:0:0:0:
285,13,245989,1,0,0:0:0:0:
285,13,246057,6,0,P|298:42|302:69,1,50,0|0,1:0|0:0,0:0:0:0:
248,204,246193,1,0,0:0:0:0:
287,197,246262,1,0,0:0:0:0:
326,190,246330,1,2,0:0:0:0:
366,183,246398,1,0,0:0:0:0:
405,177,246466,1,0,1:0:0:0:
294,311,246603,6,0,L|235:323,1,50,8|0,0:0|0:0,0:0:0:0:
3,276,246739,2,0,L|62:264,1,50,8|0,0:0|0:0,0:0:0:0:
291,126,246875,2,0,L|232:138,1,50,8|0,1:2|0:0,0:0:0:0:
0,91,247012,2,0,L|59:79,1,50,8|0,0:0|0:0,0:0:0:0:
285,13,247148,6,0,P|336:6|389:25,1,100,0|0,1:0|0:0,0:0:0:0:
411,49,247353,1,0,0:0:0:0:
446,66,247421,2,0,P|479:70|498:67,1,50,2|0,0:0|0:0,0:0:0:0:
492,191,247557,1,0,1:0:0:0:
492,191,247625,1,0,0:0:0:0:
492,191,247693,2,0,P|459:187|440:190,1,50
378,240,247830,2,0,P|345:244|326:241,1,50,2|0,0:0|0:0,0:0:0:0:
256,206,247966,1,0,1:0:0:0:
201,346,248103,1,2,0:0:0:0:
201,346,248171,1,0,0:0:0:0:
201,346,248239,6,0,P|139:348|97:326,1,100,0|0,1:0|0:0,0:0:0:0:
64,266,248443,1,0,0:0:0:0:
64,266,248512,2,0,P|55:224|56:204,1,50,2|0,0:0|0:0,0:0:0:0:
66,141,248648,1,0,1:0:0:0:
183,54,248784,1,0,0:0:0:0:
222,60,248853,1,0,0:0:0:0:
261,58,248921,1,2,0:0:0:0:
299,45,248989,1,0,0:0:0:0:
330,20,249057,2,0,L|348:81,1,50,0|0,1:0|0:0,0:0:0:0:
419,44,249193,2,0,L|437:105,1,50,2|0,0:0|0:0,0:0:0:0:
508,68,249330,5,0,1:0:0:0:
470,226,249466,1,0,0:0:0:0:
430,220,249534,1,0,0:0:0:0:
390,226,249603,1,2,0:0:0:0:
355,246,249671,1,0,0:0:0:0:
329,277,249739,2,0,P|325:316|328:343,1,50,0|0,1:0|0:0,0:0:0:0:
260,230,249875,1,0,0:0:0:0:
220,237,249943,1,0,0:0:0:0:
180,231,250012,1,2,0:0:0:0:
145,211,250080,1,0,0:0:0:0:
119,180,250148,2,0,P|115:141|118:114,1,50,0|0,1:0|0:0,0:0:0:0:
12,44,250284,1,2,0:0:0:0:
12,44,250353,1,0,0:0:0:0:
12,44,250421,6,0,P|16:83|13:110,1,50,0|0,1:0|0:0,0:0:0:0:
35,178,250557,1,0,0:0:0:0:
35,178,250625,1,0,0:0:0:0:
35,178,250693,2,0,P|31:217|34:244,1,50,2|0,0:0|0:0,0:0:0:0:
87,291,250830,1,0,1:0:0:0:
398,370,250966,6,0,L|341:354,1,50,8|0,0:0|0:0,0:0:0:0:
110,284,251103,2,0,L|167:268,1,50,8|0,0:0|0:0,0:0:0:0:
411,221,251239,2,0,L|354:205,1,50,8|0,1:2|0:0,0:0:0:0:
122,154,251375,2,0,L|179:138,1,50,8|0,0:0|0:0,0:0:0:0:
342,0,251512,5,4,1:2:0:0:
103,57,251648,1,0,0:0:0:0:
103,57,251716,1,0,0:0:0:0:
103,57,251784,1,2,0:0:0:0:
256,96,251921,1,0,1:0:0:0:
256,96,251989,1,0,0:0:0:0:
256,96,252057,2,0,L|270:157,1,50
221,206,252193,2,0,L|235:267,1,50,2|0,0:0|0:0,0:0:0:0:
212,333,252330,2,0,P|266:331|325:351,1,100,0|2,1:0|0:0,0:0:0:0:
370,297,252534,1,0,0:0:0:0:
370,297,252603,6,0,P|419:299|467:286,1,100,0|0,1:0|0:0,0:0:0:0:
499,216,252807,1,0,0:0:0:0:
499,216,252875,2,0,L|505:163,1,50,2|0,0:0|0:0,0:0:0:0:
481,92,253012,1,0,1:0:0:0:
344,17,253148,1,0,0:0:0:0:
312,41,253216,1,0,0:0:0:0:
273,51,253284,1,2,0:0:0:0:
233,49,253353,1,0,0:0:0:0:
193,42,253421,2,0,L|120:59,1,50,0|0,1:0|0:0,0:0:0:0:
171,127,253557,2,0,L|98:144,1,50,2|0,0:0|0:0,0:0:0:0:
45,155,253693,6,0,B|38:207|38:207|58:259,1,100,0|0,1:0|0:0,0:0:0:0:
82,324,253898,1,0,0:0:0:0:
82,324,253966,2,0,L|158:314,1,50,2|0,0:0|0:0,0:0:0:0:
199,356,254103,1,0,1:0:0:0:
276,249,254239,1,0,0:0:0:0:
315,252,254307,1,0,0:0:0:0:
354,255,254375,1,2,0:0:0:0:
393,258,254443,1,0,0:0:0:0:
432,262,254512,2,0,L|489:247,1,50,0|0,1:0|0:0,0:0:0:0:
505,113,254648,2,0,L|448:128,1,50,2|0,0:0|0:0,0:0:0:0:
343,151,254784,6,0,P|328:101|340:52,1,100,0|0,1:0|0:0,0:0:0:0:
279,3,254989,1,0,0:0:0:0:
279,3,255057,2,0,L|220:13,1,50,2|0,0:0|0:0,0:0:0:0:
155,25,255193,1,0,1:0:0:0:
42,193,255330,6,0,L|57:270,1,50,8|0,0:0|0:0,0:0:0:0:
326,237,255466,2,0,L|311:314,1,50,8|0,0:0|0:0,0:0:0:0:
155,25,255603,2,0,L|170:102,1,50,8|0,1:2|0:0,0:0:0:0:
439,69,255739,2,0,L|424:146,1,50,8|0,0:0|0:0,0:0:0:0:
220,273,255875,6,0,L|241:384,1,100,0|0,1:0|0:0,0:0:0:0:
158,353,256080,1,0,0:0:0:0:
158,353,256148,2,0,P|122:353|104:359,1,50,2|0,0:0|0:0,0:0:0:0:
41,323,256284,1,0,1:0:0:0:
154,204,256421,1,0,0:0:0:0:
163,164,256489,1,0,0:0:0:0:
158,124,256557,1,2,0:0:0:0:
140,87,256625,1,0,0:0:0:0:
109,61,256693,1,0,1:0:0:0:
274,13,256830,1,2,0:0:0:0:
274,13,256898,1,0,0:0:0:0:
274,13,256966,5,0,1:0:0:0:
330,163,257103,1,0,0:0:0:0:
370,172,257171,1,0,0:0:0:0:
410,167,257239,1,2,0:0:0:0:
447,149,257307,1,0,0:0:0:0:
473,118,257375,1,0,1:0:0:0:
387,281,257512,1,0,0:0:0:0:
347,272,257580,1,0,0:0:0:0:
307,277,257648,1,2,0:0:0:0:
270,295,257716,1,0,0:0:0:0:
244,326,257784,2,0,P|238:360|241:381,1,50,0|0,1:0|0:0,0:0:0:0:
154,280,257921,2,0,P|160:246|157:225,1,50,2|0,0:0|0:0,0:0:0:0:
112,145,258057,5,0,1:0:0:0:
256,0,258193,1,0,0:0:0:0:
256,0,258262,1,0,0:0:0:0:
256,0,258330,1,2,0:0:0:0:
400,145,258466,1,0,1:0:0:0:
119,51,258603,1,0,0:0:0:0:
79,57,258671,1,0,0:0:0:0:
46,78,258739,1,2,0:0:0:0:
25,112,258807,1,0,0:0:0:0:
19,151,258875,1,0,1:0:0:0:
30,189,258943,1,0,0:0:0:0:
56,219,259012,2,0,P|81:237|106:238,1,50,2|0,0:0|0:0,0:0:0:0:
174,209,259148,6,0,P|227:206|279:229,1,100,0|0,1:0|0:0,0:0:0:0:
311,284,259353,1,0,0:0:0:0:
311,284,259421,2,0,L|378:269,1,50,2|0,0:0|0:0,0:0:0:0:
436,250,259557,1,0,1:0:0:0:
314,12,259693,6,0,P|305:41|301:73,1,50,2|0,1:2|0:0,0:0:0:0:
76,134,259830,2,0,P|105:143|137:147,1,50,2|0,1:2|0:0,0:0:0:0:
198,372,259966,2,0,P|207:343|211:311,1,50,2|0,1:2|0:0,0:0:0:0:
436,250,260103,2,0,P|407:241|375:237,1,50,2|0,1:2|0:0,0:0:0:0:
256,192,260239,5,4,0:0:0:0:
256,192,266784,5,4,0:0:0:0:
256,192,267603,12,2,268694,0:0:0:0:
55,80,268966,6,0,L|44:26,2,50,4|0|2,0:0|0:0|0:0,0:0:0:0:
114,148,269375,2,0,L|125:202,2,50,0|0|2,0:0|0:0|0:0,0:0:0:0:
172,78,269784,2,0,L|161:24,2,50,0|0|2,0:0|0:0|0:0,0:0:0:0:
231,146,270193,2,0,L|242:200,2,50,0|0|2,0:0|0:0|0:0,0:0:0:0:
277,68,270603,2,0,P|311:57|338:60,1,50
394,157,270875,2,0,P|360:168|333:165,1,50,2|0,0:0|0:0,0:0:0:0:
475,87,271148,5,0,0:0:0:0:
475,87,271284,1,0,0:0:0:0:
475,87,271421,2,0,L|495:154,1,50,2|0,0:0|0:0,0:0:0:0:
464,221,271693,1,0,0:0:0:0:
380,109,271830,2,0,L|400:176,1,50,2|0,0:0|0:0,0:0:0:0:
369,243,272103,1,0,0:0:0:0:
285,131,272239,6,0,L|305:198,1,50,2|0,0:0|0:0,0:0:0:0:
274,265,272512,1,0,0:0:0:0:
190,153,272648,1,2,0:0:0:0:
190,153,272784,2,0,L|210:220,1,50
70,141,273057,2,0,L|50:74,1,50,0|2,0:0|0:0,0:0:0:0:
111,22,273330,5,0,0:0:0:0:
111,22,273466,1,0,0:0:0:0:
111,22,273603,2,0,P|152:17|182:25,1,50,2|0,0:0|0:0,0:0:0:0:
236,67,273875,1,0,0:0:0:0:
236,67,274012,2,0,P|260:68|285:63,1,50,2|0,0:0|0:0,0:0:0:0:
361,14,274284,1,0,0:0:0:0:
361,14,274421,6,0,P|385:12|410:17,1,50,2|0,0:0|0:0,0:0:0:0:
471,84,274693,2,0,P|472:108|467:133,1,50,0|2,0:0|0:0,0:0:0:0:
401,194,274966,2,0,P|376:195|351:190,1,50
291,124,275239,2,0,P|289:99|294:74,1,50,2|0,0:0|0:0,0:0:0:0:
219,25,275512,5,2,0:0:0:0:
219,25,275648,1,0,0:0:0:0:
219,25,275784,1,0,0:0:0:0:
167,98,275921,1,2,0:0:0:0:
167,98,276057,1,0,0:0:0:0:
167,98,276193,1,0,0:0:0:0:
114,25,276330,1,2,0:0:0:0:
114,25,276466,1,0,0:0:0:0:
62,98,276603,6,0,L|79:169,1,50,0|2,0:0|0:0,0:0:0:0:
31,226,276875,2,0,L|48:297,1,50
29,364,277148,1,2,0:0:0:0:
29,364,277284,1,0,0:0:0:0:
111,328,277421,2,0,P|137:328|159:339,1,50,0|2,0:0|0:0,0:0:0:0:
243,366,277693,5,0,0:0:0:0:
332,376,277830,1,0,0:0:0:0:
410,330,277966,1,2,0:0:0:0:
240,343,278102,5,0,0:0:0:0:
329,353,278239,1,0,0:0:0:0:
407,307,278375,1,2,0:0:0:0:
237,320,278512,5,0,0:0:0:0:
326,330,278648,1,0,0:0:0:0:
404,284,278784,1,2,0:0:0:0:
234,297,278921,5,0,0:0:0:0:
323,307,279057,1,0,0:0:0:0:
401,261,279193,1,2,0:0:0:0:
231,274,279330,5,0,0:0:0:0:
320,284,279466,1,0,0:0:0:0:
398,238,279603,1,2,0:0:0:0:
320,284,279739,1,0,0:0:0:0:
290,199,279875,6,0,P|283:160|286:139,1,50
322,68,280148,1,2,0:0:0:0:
238,35,280284,2,0,P|245:74|242:95,1,50
206,166,280557,1,2,0:0:0:0:
119,188,280693,2,0,L|52:177,1,50
17,254,280966,6,0,L|84:265,1,50,2|0,0:0|0:0,0:0:0:0:
128,327,281239,1,0,0:0:0:0:
206,284,281375,2,0,L|273:295,1,50,2|0,0:0|0:0,0:0:0:0:
317,357,281648,1,0,0:0:0:0:
396,314,281784,2,0,P|434:320|458:334,1,50,0|2,0:0|0:0,0:0:0:0:
486,244,282057,5,0,0:0:0:0:
470,155,282193,1,0,0:0:0:0:
486,244,282330,1,2,0:0:0:0:
385,125,282466,5,0,0:0:0:0:
401,214,282603,1,0,0:0:0:0:
385,125,282739,1,2,0:0:0:0:
332,273,282875,5,0,0:0:0:0:
316,184,283012,1,0,0:0:0:0:
332,273,283148,1,2,0:0:0:0:
231,154,283284,5,0,0:0:0:0:
247,243,283421,1,0,0:0:0:0:
231,154,283557,1,2,0:0:0:0:
161,212,283693,2,0,P|121:215|95:202,1,50
88,124,283966,2,0,P|63:119|39:124,1,50,2|0,0:0|0:0,0:0:0:0:
161,212,284239,6,0,L|152:283,2,50,2|0|0,0:0|0:0|0:0,0:0:0:0:
245,242,284648,2,0,L|236:313,2,50,2|0|0,0:0|0:0|0:0,0:0:0:0:
329,272,285057,2,0,L|320:343,2,50,2|0|0,0:0|0:0|0:0,0:0:0:0:
413,302,285466,2,0,L|404:373,2,50,2|0|0,0:0|0:0|0:0,0:0:0:0:
497,332,285875,2,0,L|488:403,1,50,2|0,0:0|0:0,0:0:0:0:
481,245,286148,2,0,L|487:195,1,50
438,119,286421,5,2,0:0:0:0:
348,102,286557,1,0,0:0:0:0:
378,187,286693,1,0,0:0:0:0:
348,102,286830,5,2,0:0:0:0:
259,86,286966,1,0,0:0:0:0:
288,171,287103,1,0,0:0:0:0:
259,86,287239,5,2,0:0:0:0:
169,69,287375,1,0,0:0:0:0:
199,154,287512,1,0,0:0:0:0:
169,69,287648,5,2,0:0:0:0:
80,53,287784,1,0,0:0:0:0:
109,138,287921,1,0,0:0:0:0:
138,223,288057,2,0,L|126:293,1,50,2|0,0:0|0:0,0:0:0:0:
203,322,288330,2,0,L|191:392,1,50,0|2,0:0|0:0,0:0:0:0:
263,262,288603,6,0,P|321:239|428:314,1,200,2|0,0:0|0:0,0:0:0:0:
329,343,289421,1,2,0:0:0:0:
469,152,289693,6,0,P|411:175|304:100,1,200,2|2,0:0|0:0,0:0:0:0:
403,71,290512,1,0,0:0:0:0:
223,168,290784,6,0,B|156:212|163:299|163:299|102:246|16:288,1,300,2|2,0:0|0:0,0:0:0:0:
256,192,291671,12,2,292694,0:0:0:0:
60,102,292966,6,0,P|118:108|172:74,1,100,4|0,1:2|0:0,0:0:0:0:
209,33,293171,1,0,0:0:0:0:
209,33,293239,2,0,P|263:28|285:37,1,50,2|0,0:0|0:0,0:0:0:0:
330,59,293375,1,0,1:0:0:0:
483,15,293512,1,0,0:0:0:0:
475,54,293580,1,0,0:0:0:0:
467,93,293648,1,2,0:0:0:0:
460,132,293716,1,0,0:0:0:0:
453,171,293784,2,0,L|468:240,1,50,0|0,1:0|0:0,0:0:0:0:
385,221,293921,1,2,0:0:0:0:
385,221,293989,1,0,0:0:0:0:
385,221,294057,6,0,L|400:290,1,50,0|0,1:0|0:0,0:0:0:0:
337,330,294193,1,0,0:0:0:0:
298,340,294262,1,0,0:0:0:0:
258,339,294330,1,2,0:0:0:0:
218,329,294398,1,0,0:0:0:0:
183,309,294466,2,0,P|166:273|166:251,1,50,0|0,1:0|0:0,0:0:0:0:
176,156,294603,1,0,0:0:0:0:
136,162,294671,1,0,0:0:0:0:
96,168,294739,1,2,0:0:0:0:
56,174,294807,1,0,0:0:0:0:
16,181,294875,2,0,L|28:121,1,50,0|0,1:0|0:0,0:0:0:0:
85,25,295012,2,0,L|94:74,1,50,2|0,0:0|0:0,0:0:0:0:
176,156,295148,6,0,P|232:156|281:129,1,100,0|0,1:0|0:0,0:0:0:0:
293,104,295353,1,0,0:0:0:0:
321,76,295421,2,0,P|377:76|426:103,1,100,2|0,0:0|1:0,0:0:0:0:
489,201,295693,1,0,0:0:0:0:
499,239,295762,1,0,0:0:0:0:
499,278,295830,1,2,0:0:0:0:
486,316,295898,1,0,0:0:0:0:
461,347,295966,1,0,1:0:0:0:
308,277,296103,1,2,0:0:0:0:
188,373,296239,6,0,L|77:357,1,100,0|0,1:0|0:0,0:0:0:0:
20,326,296443,1,0,0:0:0:0:
20,326,296512,2,0,P|12:282|21:262,1,50,2|0,0:0|0:0,0:0:0:0:
35,202,296648,1,0,1:0:0:0:
186,131,296784,1,0,0:0:0:0:
224,139,296853,1,0,0:0:0:0:
263,137,296921,1,2,0:0:0:0:
300,122,296989,1,0,0:0:0:0:
330,96,297057,1,0,1:0:0:0:
153,23,297193,1,2,0:0:0:0:
176,213,297330,6,0,L|152:322,1,100,0|0,1:0|0:0,0:0:0:0:
215,360,297534,1,0,0:0:0:0:
215,360,297603,2,0,P|255:357|272:362,1,50,2|0,0:0|0:0,0:0:0:0:
316,303,297739,1,0,1:0:0:0:
481,325,297875,1,0,0:0:0:0:
473,285,297943,1,0,0:0:0:0:
465,245,298012,1,2,0:0:0:0:
457,205,298080,1,0,0:0:0:0:
449,165,298148,2,0,L|464:93,1,50,0|0,1:0|0:0,0:0:0:0:
394,73,298284,2,0,L|409:1,1,50,2|0,0:0|0:0,0:0:0:0:
325,115,298421,6,0,P|276:121|219:100,1,100,0|0,1:0|0:0,0:0:0:0:
164,61,298625,1,0,0:0:0:0:
164,61,298693,2,0,P|130:62|107:71,1,50,2|0,0:0|0:0,0:0:0:0:
52,109,298830,1,0,1:0:0:0:
12,266,298966,1,0,0:0:0:0:
51,258,299034,1,0,0:0:0:0:
90,251,299103,1,2,0:0:0:0:
129,244,299171,1,0,0:0:0:0:
168,236,299239,1,0,1:0:0:0:
339,360,299375,1,2,0:0:0:0:
246,123,299512,6,0,P|233:66|248:11,1,100,0|0,1:0|0:0,0:0:0:0:
313,1,299716,1,0,0:0:0:0:
313,1,299784,2,0,L|367:9,1,50,2|0,0:0|0:0,0:0:0:0:
438,22,299921,1,0,1:0:0:0:
496,149,300057,1,0,0:0:0:0:
502,188,300125,1,0,0:0:0:0:
498,227,300193,1,2,0:0:0:0:
487,265,300262,1,0,0:0:0:0:
466,299,300330,1,0,1:0:0:0:
331,215,300466,1,2,0:0:0:0:
331,215,300534,1,0,0:0:0:0:
331,215,300603,6,0,L|210:245,1,100,0|0,1:0|0:0,0:0:0:0:
183,304,300807,1,0,0:0:0:0:
183,304,300875,2,0,L|126:289,1,50,2|0,0:0|0:0,0:0:0:0:
57,266,301012,1,0,1:0:0:0:
57,266,301080,1,0,0:0:0:0:
57,266,301148,6,0,P|50:227|52:209,1,50,8|0,0:0|0:0,0:0:0:0:
10,53,301284,2,0,P|49:46|67:48,1,50,8|0,0:0|0:0,0:0:0:0:
223,6,301421,2,0,P|230:45|228:63,1,50,8|0,1:2|0:0,0:0:0:0:
270,219,301557,2,0,P|231:226|213:224,1,50,8|0,0:0|0:0,0:0:0:0:
342,45,301693,5,4,1:2:0:0:
479,146,301830,1,0,0:0:0:0:
488,185,301898,1,0,0:0:0:0:
486,224,301966,1,2,0:0:0:0:
472,261,302034,1,0,0:0:0:0:
449,294,302103,1,0,1:0:0:0:
270,219,302239,1,0,0:0:0:0:
230,217,302307,1,0,0:0:0:0:
193,231,302375,1,2,0:0:0:0:
165,259,302443,1,0,0:0:0:0:
149,295,302512,2,0,P|149:328|159:350,1,50,0|0,1:0|0:0,0:0:0:0:
48,293,302648,2,0,P|48:260|38:238,1,50,2|0,0:0|0:0,0:0:0:0:
1,148,302784,6,0,P|52:146|103:119,1,100,0|0,1:0|0:0,0:0:0:0:
126,99,302989,1,0,0:0:0:0:
155,71,303057,2,0,P|177:69|212:75,1,50,2|0,0:0|0:0,0:0:0:0:
272,119,303193,1,0,1:0:0:0:
377,9,303330,1,0,0:0:0:0:
391,46,303398,1,0,0:0:0:0:
404,83,303466,1,2,0:0:0:0:
417,120,303534,1,0,0:0:0:0:
431,157,303603,2,0,L|422:220,1,50,0|0,1:0|0:0,0:0:0:0:
492,246,303739,2,0,L|483:309,1,50,2|0,0:0|0:0,0:0:0:0:
420,341,303875,6,0,P|366:341|323:367,1,100,0|0,1:0|0:0,0:0:0:0:
257,332,304080,1,0,0:0:0:0:
257,332,304148,2,0,P|214:338|189:333,1,50,2|0,0:0|0:0,0:0:0:0:
137,313,304284,1,0,1:0:0:0:
197,173,304421,1,0,0:0:0:0:
203,133,304489,1,0,0:0:0:0:
192,94,304557,1,2,0:0:0:0:
170,60,304625,1,0,0:0:0:0:
135,40,304693,1,0,1:0:0:0:
19,172,304830,1,2,0:0:0:0:
19,172,304898,1,0,0:0:0:0:
19,172,304966,6,0,L|34:274,1,100,0|0,1:0|0:0,0:0:0:0:
86,335,305171,1,0,0:0:0:0:
86,335,305239,2,0,P|138:333|150:324,1,50,2|0,0:0|0:0,0:0:0:0:
205,290,305375,1,0,1:0:0:0:
443,119,305512,6,0,L|514:129,1,50,8|0,0:0|0:0,0:0:0:0:
253,87,305648,2,0,L|263:16,1,50,10|0,0:0|0:0,0:0:0:0:
221,277,305784,2,0,L|150:267,1,50,8|0,1:2|0:0,0:0:0:0:
411,309,305921,2,0,L|401:380,1,50,10|0,0:0|0:0,0:0:0:0:
263,102,306057,6,0,L|152:117,1,100,0|0,1:0|0:0,0:0:0:0:
127,98,306262,1,0,0:0:0:0:
90,81,306330,2,0,L|34:88,1,50,2|0,0:0|0:0,0:0:0:0:
0,153,306466,1,0,1:0:0:0:
86,326,306603,1,0,0:0:0:0:
124,335,306671,1,0,0:0:0:0:
164,329,306739,1,2,0:0:0:0:
199,310,306807,1,0,0:0:0:0:
221,277,306875,1,0,1:0:0:0:
263,102,307012,1,2,0:0:0:0:
263,102,307080,1,0,0:0:0:0:
263,102,307148,6,0,L|376:115,1,100,0|0,1:0|0:0,0:0:0:0:
401,120,307353,1,0,0:0:0:0:
440,125,307421,2,0,P|447:97|442:60,1,50,2|0,0:0|0:0,0:0:0:0:
417,7,307557,1,0,1:0:0:0:
340,195,307693,1,0,0:0:0:0:
331,233,307762,1,0,0:0:0:0:
332,272,307830,1,2,0:0:0:0:
345,310,307898,1,0,0:0:0:0:
370,340,307966,1,0,1:0:0:0:
494,233,308103,1,2,0:0:0:0:
246,163,308239,6,0,L|126:178,1,100,0|0,1:0|0:0,0:0:0:0:
97,238,308443,1,0,0:0:0:0:
97,238,308512,2,0,P|95:283|103:300,2,50,2|0|0,0:0|0:0|1:0,0:0:0:0:
172,86,308784,1,0,0:0:0:0:
211,81,308853,1,0,0:0:0:0:
250,76,308921,1,2,0:0:0:0:
291,72,308989,1,0,0:0:0:0:
330,67,309057,1,0,1:0:0:0:
469,201,309193,1,2,0:0:0:0:
469,201,309262,1,0,0:0:0:0:
469,201,309330,6,0,B|479:248|479:248|463:300,1,100,0|0,1:0|0:0,0:0:0:0:
426,359,309534,1,0,0:0:0:0:
426,359,309603,2,0,P|388:358|368:348,1,50,2|0,0:0|0:0,0:0:0:0:
323,301,309739,1,0,1:0:0:0:
323,301,309807,1,0,0:0:0:0:
323,301,309875,6,0,P|299:293|274:295,1,50,8|0,0:0|0:0,0:0:0:0:
42,213,310012,2,0,P|65:220|90:218,1,50,8|0,0:0|0:0,0:0:0:0:
384,183,310148,2,0,P|360:175|335:177,1,50,8|0,1:2|0:0,0:0:0:0:
103,95,310284,2,0,P|126:102|151:100,1,50,8|0,0:0|0:0,0:0:0:0:
351,19,310421,6,0,L|473:32,1,100,4|0,1:2|0:0,0:0:0:0:
497,92,310625,1,0,0:0:0:0:
497,92,310693,2,0,P|502:127|495:149,1,50,2|0,0:0|0:0,0:0:0:0:
470,211,310830,1,0,1:0:0:0:
305,163,310966,1,0,0:0:0:0:
265,159,311034,1,0,0:0:0:0:
226,169,311103,1,2,0:0:0:0:
192,190,311171,1,0,0:0:0:0:
168,222,311239,1,0,1:0:0:0:
349,355,311375,1,2,0:0:0:0:
349,355,311443,1,0,0:0:0:0:
349,355,311512,6,0,P|354:297|337:252,1,100,0|0,1:0|0:0,0:0:0:0:
325,220,311716,1,0,0:0:0:0:
316,180,311784,2,0,P|314:153|323:122,1,50,2|0,0:0|0:0,0:0:0:0:
385,93,311921,1,0,1:0:0:0:
248,13,312057,1,0,0:0:0:0:
208,18,312125,1,0,0:0:0:0:
168,23,312193,1,2,0:0:0:0:
128,28,312262,1,0,0:0:0:0:
88,33,312330,1,0,1:0:0:0:
0,208,312466,1,2,0:0:0:0:
184,104,312603,5,4,1:2:0:0:
207,317,312739,1,0,0:0:0:0:
243,333,312807,1,0,0:0:0:0:
282,338,312875,1,2,0:0:0:0:
322,332,312943,1,0,0:0:0:0:
358,316,313012,2,0,L|379:256,1,50,0|0,1:0|0:0,0:0:0:0:
345,156,313148,1,0,0:0:0:0:
381,139,313216,1,0,0:0:0:0:
420,134,313284,1,2,0:0:0:0:
460,140,313353,1,0,0:0:0:0:
496,156,313421,2,0,L|516:216,1,50,0|0,1:0|0:0,0:0:0:0:
512,67,313557,2,0,L|491:6,1,50,2|0,0:0|0:0,0:0:0:0:
399,3,313693,6,0,L|283:21,1,100,4|0,1:2|0:0,0:0:0:0:
273,49,313898,1,0,0:0:0:0:
236,66,313966,2,0,P|202:73|179:68,1,50,2|0,0:0|0:0,0:0:0:0:
118,43,314103,1,0,1:0:0:0:
68,208,314239,6,0,L|54:270,1,50,8|0,0:0|0:0,0:0:0:0:
385,334,314375,2,0,L|371:396,1,50,8|0,0:0|0:0,0:0:0:0:
191,146,314512,2,0,L|177:208,1,50,8|0,1:2|0:0,0:0:0:0:
508,272,314648,2,0,L|494:334,1,50,8|0,0:0|0:0,0:0:0:0:
385,75,314784,5,4,0:0:0:0:
385,75,316970,6,0,L|401:15,2,50,6|0|2,0:0|0:0|0:0,0:0:0:0:
470,211,317470,2,0,L|454:271,1,50,2|0,0:0|0:0,0:0:0:0:
399,315,317720,2,0,P|373:319|348:316,1,50,2|0,0:0|0:0,0:0:0:0:
458,372,317970,2,0,P|484:368|509:371,2,50,2|0|2,0:0|0:0|0:0,0:0:0:0:
317,237,318470,2,0,L|208:254,1,100,2|2,0:0|0:0,0:0:0:0:
218,252,318970,6,0,P|212:279|217:311,2,50,2|0|2,0:0|0:0|0:0,0:0:0:0:
273,101,319470,2,0,P|279:74|274:42,2,50,2|0|2,0:0|0:0|0:0,0:0:0:0:
145,198,319970,2,0,P|83:201|49:173,1,100,2|2,0:0|0:0,0:0:0:0:
218,252,320470,2,0,P|280:249|314:277,1,100,2|2,0:0|0:0,0:0:0:0:
441,359,320970,6,0,L|499:349,2,50,2|0|2,0:0|0:0|0:0,0:0:0:0:
383,209,321470,2,0,P|375:166|379:146,1,50,2|0,0:0|0:0,0:0:0:0:
445,119,321720,2,0,P|453:162|449:182,1,50,2|0,0:0|0:0,0:0:0:0:
370,78,321970,1,2,0:0:0:0:
292,96,322095,1,0,0:0:0:0:
214,114,322220,1,2,0:0:0:0:
214,114,322470,2,0,P|152:118|114:92,1,100,2|2,0:0|0:0,0:0:0:0:
22,226,322970,6,0,L|6:289,1,50,2|0,0:0|0:0,0:0:0:0:
29,351,323220,1,2,0:0:0:0:
128,225,323470,2,0,L|144:162,1,50,2|0,0:0|0:0,0:0:0:0:
121,100,323720,1,2,0:0:0:0:
258,17,323970,2,0,P|307:14|351:36,1,100,2|2,0:0|0:0,0:0:0:0:
429,176,324470,1,2,0:0:0:0:
508,37,324720,1,2,0:0:0:0:
232,271,324970,5,6,1:2:0:0:
316,323,325095,1,0,0:0:0:0:
320,225,325220,1,2,0:0:0:0:
228,369,325345,1,0,1:0:0:0:
228,369,325470,2,0,L|112:359,1,100,2|2,0:0|0:0,0:0:0:0:
72,303,325845,1,0,0:0:0:0:
42,228,325970,2,0,P|37:201|41:177,1,50,2|0,0:0|0:0,0:0:0:0:
98,122,326220,1,2,0:0:0:0:
232,209,326470,2,0,L|345:196,1,100,2|2,0:0|0:0,0:0:0:0:
434,74,326970,6,0,P|467:74|484:82,2,50,2|0|2,0:0|0:0|0:0,0:0:0:0:
283,16,327470,2,0,P|259:24|234:22,1,50,2|0,0:0|0:0,0:0:0:0:
155,8,327720,1,2,0:0:0:0:
31,109,327970,2,0,L|52:227,1,100,2|2,0:0|0:0,0:0:0:0:
180,116,328470,2,0,L|201:234,1,100,2|2,0:0|0:0,0:0:0:0:
463,330,328970,5,6,1:2:0:0:
443,231,329095,1,0,0:0:0:0:
344,251,329220,1,2,0:0:0:0:
463,330,329345,1,0,1:0:0:0:
364,350,329470,2,0,L|261:341,1,100,2|2,0:0|0:0,0:0:0:0:
208,283,329845,1,0,0:0:0:0:
128,285,329970,2,0,P|90:290|74:302,2,50,2|0|2,0:0|0:0|0:0,0:0:0:0:
265,202,330470,2,0,P|275:160|256:99,1,100,2|2,0:0|0:0,0:0:0:0:
8,6,330970,5,6,1:2:0:0:
90,62,331095,1,0,0:0:0:0:
182,23,331220,1,2,0:0:0:0:
81,166,331345,1,0,1:0:0:0:
81,166,331470,2,0,P|79:226|100:267,1,100,2|2,0:0|0:0,0:0:0:0:
478,101,331970,6,0,P|480:41|459:0,1,100,6|2,1:2|0:0,0:0:0:0:
303,106,332345,1,0,1:0:0:0:
348,195,332470,2,0,L|337:305,1,100,2|2,0:0|0:0,0:0:0:0:
338,294,332970,6,0,L|281:301,1,50,6|0,0:0|0:0,0:0:0:0:
204,267,333220,1,0,0:0:0:0:
320,315,333470,2,0,L|263:322,1,50,2|0,0:0|0:0,0:0:0:0:
186,288,333720,1,0,0:0:0:0:
118,347,333845,1,0,0:0:0:0:
34,314,333970,2,0,P|28:274|36:249,1,50,2|0,0:0|0:0,0:0:0:0:
82,191,334220,5,0,0:0:0:0:
82,191,334470,2,0,L|89:137,1,50,2|0,0:0|0:0,0:0:0:0:
84,51,334720,1,0,0:0:0:0:
11,103,334845,1,0,0:0:0:0:
102,42,334970,2,0,P|138:40|157:44,1,50,2|0,0:0|0:0,0:0:0:0:
226,91,335220,5,0,0:0:0:0:
226,91,335470,2,0,L|291:87,1,50,2|0,0:0|0:0,0:0:0:0:
340,23,335720,1,0,0:0:0:0:
426,46,335845,1,0,0:0:0:0:
512,69,335970,1,2,0:0:0:0:
426,46,336095,1,0,0:0:0:0:
450,132,336220,5,0,0:0:0:0:
450,132,336470,2,0,P|446:168|455:200,1,50,2|0,0:0|0:0,0:0:0:0:
476,267,336720,2,0,P|480:303|471:335,1,50
404,369,336970,2,0,L|342:353,1,50,2|0,0:0|0:0,0:0:0:0:
270,328,337220,5,0,0:0:0:0:
270,328,337470,1,2,0:0:0:0:
300,243,337595,1,0,0:0:0:0:
279,155,337720,1,0,0:0:0:0:
218,88,337845,1,0,0:0:0:0:
130,68,337970,2,0,L|70:82,1,50,2|0,0:0|0:0,0:0:0:0:
218,88,338220,5,0,0:0:0:0:
218,88,338470,1,2,0:0:0:0:
297,45,338595,1,0,0:0:0:0:
386,55,338720,1,0,0:0:0:0:
456,111,338845,1,0,0:0:0:0:
476,198,338970,2,0,L|483:260,1,50,2|0,0:0|0:0,0:0:0:0:
456,111,339220,5,0,0:0:0:0:
351,257,339470,2,0,P|323:259|294:248,1,50,2|0,0:0|0:0,0:0:0:0:
209,252,339720,2,0,P|185:259|161:257,1,50
161,348,339970,2,0,P|185:350|209:343,1,50,2|0,0:0|0:0,0:0:0:0:
303,344,340220,2,0,P|326:350|351:348,1,50
479,227,340470,5,2,0:0:0:0:
448,95,340595,1,2,0:0:0:0:
316,126,340720,1,2,0:0:0:0:
347,258,340845,1,2,0:0:0:0:
448,95,340970,6,0,P|450:52|445:32,1,50,4|0,0:0|0:0,0:0:0:0:
316,126,341220,2,0,P|314:169|319:189,1,50
232,40,341470,1,2,0:0:0:0:
133,54,341595,1,0,0:0:0:0:
34,68,341720,2,0,L|17:125,1,50
14,255,341970,2,0,L|29:208,1,50,2|0,0:0|0:0,0:0:0:0:
128,194,342219,5,0,0:0:0:0:
227,180,342344,1,0,0:0:0:0:
326,166,342470,2,0,L|340:118,1,50,2|0,0:0|0:0,0:0:0:0:
407,218,342720,2,0,L|438:179,1,50
461,297,342970,2,0,L|505:273,1,50,2|0,0:0|0:0,0:0:0:0:
363,308,343220,5,0,0:0:0:0:
420,95,343470,2,0,P|424:63|418:32,1,50,2|0,0:0|0:0,0:0:0:0:
323,26,343720,2,0,P|291:22|260:28,1,50
254,123,343970,2,0,P|250:155|256:186,1,50,2|0,0:0|0:0,0:0:0:0:
351,192,344220,5,0,0:0:0:0:
88,95,344470,2,0,P|84:63|90:32,1,50,2|0,0:0|0:0,0:0:0:0:
185,26,344720,2,0,P|217:22|248:28,1,50
254,123,344970,2,0,P|258:155|252:186,1,50,2|0,0:0|0:0,0:0:0:0:
157,192,345220,5,0,0:0:0:0:
157,192,345345,1,0,0:0:0:0:
331,231,345470,2,0,L|386:223,1,50,2|0,0:0|0:0,0:0:0:0:
257,289,345720,2,0,L|202:281,1,50
343,336,345970,2,0,L|398:328,1,50,2|0,0:0|0:0,0:0:0:0:
473,268,346220,5,0,0:0:0:0:
473,268,346345,1,0,0:0:0:0:
417,132,346470,2,0,P|409:89|414:70,1,50,2|0,0:0|0:0,0:0:0:0:
303,17,346720,2,0,P|311:60|306:79,1,50
230,160,346970,2,0,P|222:117|227:98,1,50,2|0,0:0|0:0,0:0:0:0:
303,17,347220,5,0,0:0:0:0:
365,211,347470,2,0,L|354:261,1,50,2|0,0:0|0:0,0:0:0:0:
324,358,347720,1,0,0:0:0:0:
324,358,347845,1,2,0:0:0:0:
324,358,347970,5,0,0:0:0:0:
479,244,348095,1,0,0:0:0:0:
247,189,348220,1,2,0:0:0:0:
247,189,348470,1,0,0:0:0:0:
405,20,348720,6,0,L|417:75,1,50,2|0,0:0|0:0,0:0:0:0:
485,96,348845,2,0,L|479:122,2,25,2|0|2,0:0|0:0|0:0,0:0:0:0:
408,81,348970,6,0,L|295:97,1,100,4|0,1:2|0:0,0:0:0:0:
180,37,349220,1,0,0:0:0:0:
144,172,349345,1,0,1:0:0:0:
272,230,349470,2,0,P|283:286|271:337,1,100,0|0,0:0|1:0,0:0:0:0:
144,379,349720,1,0,0:0:0:0:
144,172,349845,2,0,L|31:156,1,100,0|0,1:0|0:0,0:0:0:0:
274,41,350095,5,4,3:0:0:0:
274,41,350157,1,4,3:0:0:0:
274,41,350220,1,0,1:0:0:0:
337,228,350345,1,0,1:0:0:0:
484,91,350470,1,0,1:0:0:0:
239,153,350595,1,0,1:0:0:0:
450,258,350720,2,0,P|457:317|448:360,1,100,0|2,1:0|0:0,0:0:0:0:
377,375,350907,1,0,0:0:0:0:
377,375,350970,6,0,L|270:364,1,100,0|0,1:0|0:0,0:0:0:0:
202,245,351220,1,0,0:0:0:0:
92,332,351345,1,0,1:0:0:0:
21,210,351470,2,0,P|10:151|21:104,1,100,0|0,0:0|1:0,0:0:0:0:
106,2,351720,1,0,0:0:0:0:
222,147,351845,2,0,L|196:270,1,100,0|0,1:0|0:0,0:0:0:0:
405,120,352095,5,0,1:0:0:0:
405,120,352157,1,0,1:0:0:0:
405,120,352220,1,0,1:0:0:0:
308,18,352345,1,0,0:0:0:0:
279,232,352470,1,0,1:0:0:0:
386,141,352595,1,0,1:0:0:0:
213,89,352720,2,0,L|159:115,1,50,2|0,0:0|0:0,0:0:0:0:
150,36,352845,2,0,L|96:62,1,50,2|0,0:0|0:0,0:0:0:0:
35,93,352970,6,0,P|26:146|39:202,1,100,0|0,1:0|0:0,0:0:0:0:
103,314,353220,1,0,0:0:0:0:
225,246,353345,1,0,1:0:0:0:
321,347,353470,2,0,L|430:329,1,100,0|0,0:0|1:0,0:0:0:0:
504,219,353720,1,0,0:0:0:0:
321,347,353845,2,0,L|212:365,1,100,0|0,1:0|0:0,0:0:0:0:
314,177,354095,5,4,3:0:0:0:
314,177,354157,1,4,3:0:0:0:
314,177,354220,1,0,1:0:0:0:
117,203,354345,1,0,1:0:0:0:
281,29,354470,1,0,1:0:0:0:
233,265,354595,1,0,1:0:0:0:
281,29,354720,1,0,1:0:0:0:
117,203,354845,1,2,0:0:0:0:
117,203,354907,1,0,0:0:0:0:
117,203,354970,6,0,P|61:202|23:173,1,100,0|0,1:0|0:0,0:0:0:0:
115,67,355220,1,0,0:0:0:0:
233,265,355345,1,0,1:0:0:0:
348,186,355470,2,0,L|458:174,1,100,0|0,0:0|1:0,0:0:0:0:
505,367,355720,1,4,3:0:0:0:
465,360,355782,1,4,3:0:0:0:
425,353,355845,1,4,3:0:0:0:
385,346,355907,1,4,3:0:0:0:
345,339,355970,6,0,P|288:335|246:354,1,100,4|0,1:2|0:0,0:0:0:0:
167,45,356220,2,0,P|224:49|266:30,1,100,4|0,0:0|0:0,0:0:0:0:
412,237,356470,1,2,0:0:0:0:
160,173,356595,1,2,1:2:0:0:
382,35,356720,2,0,L|368:137,1,100,2|0,0:0|0:0,0:0:0:0:
339,384,356970,5,2,0:0:0:0:
339,384,357095,1,2,0:0:0:0:
160,173,357220,6,0,P|108:172|55:193,1,100,4|0,1:2|0:0,0:0:0:0:
17,321,357470,1,0,0:0:0:0:
228,277,357595,2,0,L|253:164,1,100,0|0,1:0|0:0,0:0:0:0:
137,380,357845,1,0,1:0:0:0:
275,358,357970,1,0,0:0:0:0:
34,201,358095,5,4,3:0:0:0:
34,201,358157,1,4,3:0:0:0:
34,201,358220,1,0,1:0:0:0:
162,47,358345,1,0,1:0:0:0:
198,290,358470,1,0,1:0:0:0:
296,21,358595,1,0,1:0:0:0:
332,264,358720,1,0,1:0:0:0:
479,148,358845,1,2,0:0:0:0:
479,148,358907,1,0,0:0:0:0:
479,148,358970,6,0,P|481:98|461:54,1,100,0|0,1:0|0:0,0:0:0:0:
348,137,359220,1,0,0:0:0:0:
423,255,359345,1,0,1:0:0:0:
286,284,359470,2,0,L|179:268,1,100,0|0,0:0|1:0,0:0:0:0:
47,246,359720,1,0,0:0:0:0:
224,364,359845,2,0,L|331:380,1,100,0|0,1:0|0:0,0:0:0:0:
427,189,360095,5,0,1:0:0:0:
434,149,360157,1,0,1:0:0:0:
426,109,360220,2,0,L|319:93,1,100,0|0,1:0|0:0,0:0:0:0:
63,55,360470,2,0,L|5:66,1,50,0|0,1:0|0:0,0:0:0:0:
54,143,360595,2,0,L|65:201,1,50,0|0,1:0|0:0,0:0:0:0:
142,152,360720,2,0,L|200:141,1,50,2|0,0:0|0:0,0:0:0:0:
151,64,360845,1,2,0:0:0:0:
151,64,360907,1,0,0:0:0:0:
151,64,360970,6,0,L|250:45,1,100,0|0,1:0|0:0,0:0:0:0:
386,19,361220,1,0,0:0:0:0:
309,135,361345,1,0,1:0:0:0:
446,109,361470,2,0,P|459:169|446:211,1,100,0|0,0:0|1:0,0:0:0:0:
393,333,361720,1,0,0:0:0:0:
259,290,361845,2,0,L|140:307,1,100,0|0,1:0|0:0,0:0:0:0:
309,135,362095,5,4,3:0:0:0:
309,135,362157,1,4,3:0:0:0:
309,135,362220,1,0,1:0:0:0:
393,333,362345,1,0,1:0:0:0:
177,215,362470,1,0,1:0:0:0:
434,142,362595,1,0,1:0:0:0:
156,224,362720,2,0,L|48:213,1,100,0|2,1:0|0:0,0:0:0:0:
18,146,362907,1,0,0:0:0:0:
18,146,362970,6,0,P|8:97|27:42,1,100,0|0,1:0|0:0,0:0:0:0:
268,250,363220,2,0,B|278:299|278:299|259:354,1,100,2|0,0:0|1:0,0:0:0:0:
180,124,363470,1,0,0:0:0:0:
381,177,363595,1,0,1:0:0:0:
143,247,363720,2,0,L|82:264,1,50,2|0,0:0|0:0,0:0:0:0:
180,124,363845,2,0,L|241:107,1,50,2|0,0:0|0:0,0:0:0:0:
65,17,363970,6,0,P|53:50|52:80,1,50,0|0,1:0|0:0,0:0:0:0:
61,142,364220,1,2,0:0:0:0:
447,17,364470,2,0,P|459:50|460:80,1,50,0|0,1:0|0:0,0:0:0:0:
414,171,364720,6,0,L|427:233,1,50,2|0,0:0|0:0,0:0:0:0:
462,283,364845,2,0,L|459:310,2,25,2|0|2,0:0|0:0|0:0,0:0:0:0:
409,229,364970,6,0,L|289:239,1,100,4|0,1:2|0:0,0:0:0:0:
171,153,365220,1,0,0:0:0:0:
101,297,365345,1,0,1:0:0:0:
239,381,365470,2,0,L|338:372,1,100,0|0,0:0|1:0,0:0:0:0:
497,357,365720,1,0,0:0:0:0:
369,260,365845,6,0,P|356:206|370:153,1,100,0|0,1:0|0:0,0:0:0:0:
463,36,366095,1,4,3:0:0:0:
424,28,366157,1,4,3:0:0:0:
384,20,366220,1,0,1:0:0:0:
504,208,366345,1,0,1:0:0:0:
284,166,366470,1,0,1:0:0:0:
478,328,366595,1,0,1:0:0:0:
258,286,366720,1,0,1:0:0:0:
504,208,366845,1,0,0:0:0:0:
504,208,366907,1,0,0:0:0:0:
504,208,366970,6,0,L|485:89,1,100,0|0,1:0|0:0,0:0:0:0:
346,31,367220,1,0,0:0:0:0:
375,188,367345,1,0,1:0:0:0:
222,139,367470,2,0,L|241:258,1,100,0|0,0:0|1:0,0:0:0:0:
84,188,367720,1,0,0:0:0:0:
168,378,367845,5,0,1:0:0:0:
168,378,368095,1,0,1:0:0:0:
206,367,368157,1,0,1:0:0:0:
244,356,368220,1,0,1:0:0:0:
394,302,368345,1,0,0:0:0:0:
222,139,368470,2,0,L|148:127,1,50,0|0,1:0|0:0,0:0:0:0:
292,83,368595,2,0,L|366:71,1,50,0|0,1:0|0:0,0:0:0:0:
222,27,368720,2,0,L|148:15,1,50,2|0,0:0|0:0,0:0:0:0:
99,53,368845,1,2,0:0:0:0:
99,53,368907,1,0,0:0:0:0:
99,53,368970,6,0,P|82:109|89:152,1,100,0|0,1:0|0:0,0:0:0:0:
150,296,369220,1,0,0:0:0:0:
256,176,369345,1,0,1:0:0:0:
362,296,369470,1,0,0:0:0:0:
423,149,369595,1,0,1:0:0:0:
256,280,369720,1,0,0:0:0:0:
87,149,369845,6,0,P|82:99|99:53,1,100,0|0,1:0|0:0,0:0:0:0:
326,2,370095,1,4,3:0:0:0:
318,40,370157,1,4,3:0:0:0:
309,79,370220,1,0,1:0:0:0:
256,280,370345,1,0,1:0:0:0:
419,117,370470,1,0,1:0:0:0:
366,318,370595,1,0,1:0:0:0:
309,79,370720,1,0,1:0:0:0:
146,242,370845,1,2,0:0:0:0:
146,242,370907,1,0,0:0:0:0:
146,242,370970,6,0,P|86:245|41:222,1,100,0|0,1:0|0:0,0:0:0:0:
4,75,371220,1,0,0:0:0:0:
152,135,371345,1,0,1:0:0:0:
268,24,371470,2,0,L|392:35,1,100,0|0,0:0|1:0,0:0:0:0:
493,135,371720,1,4,3:0:0:0:
499,174,371782,1,4,3:0:0:0:
497,214,371845,1,4,3:0:0:0:
485,252,371907,1,4,3:0:0:0:
463,286,371970,6,0,B|452:337|452:337|476:383,1,100,2|0,1:2|0:0,0:0:0:0:
220,51,372470,1,0,0:0:0:0:
181,60,372532,1,0,0:0:0:0:
142,70,372595,1,2,0:0:0:0:
103,80,372657,1,0,0:0:0:0:
64,90,372720,2,0,P|-1:70|56:67,1,194.999991073609,2|0,0:0|0:0,0:0:0:0:
121,147,372970,6,0,L|109:253,1,100,4|0,1:2|0:0,0:0:0:0:
256,182,373220,1,0,0:0:0:0:
402,246,373345,1,0,1:0:0:0:
347,96,373470,2,0,P|339:39|352:-4,1,100,0|0,0:0|1:0,0:0:0:0:
496,67,373720,1,0,0:0:0:0:
431,213,373845,6,0,L|450:328,1,100,0|0,1:0|0:0,0:0:0:0:
256,182,374095,1,4,3:0:0:0:
256,182,374157,1,4,3:0:0:0:
256,182,374220,1,0,1:0:0:0:
64,311,374345,1,0,1:0:0:0:
256,384,374470,1,0,1:0:0:0:
447,311,374595,1,0,1:0:0:0:
256,384,374720,1,0,1:0:0:0:
102,186,374845,1,2,0:0:0:0:
102,186,374907,1,0,0:0:0:0:
102,186,374970,6,0,P|99:124|115:89,1,100,0|0,1:0|0:0,0:0:0:0:
264,35,375220,1,0,0:0:0:0:
319,184,375345,1,0,1:0:0:0:
468,129,375470,1,0,0:0:0:0:
264,35,375595,1,0,1:0:0:0:
285,259,375720,1,0,0:0:0:0:
472,133,375845,5,0,1:0:0:0:
472,133,376095,1,0,1:0:0:0:
480,94,376157,1,0,1:0:0:0:
472,54,376220,1,0,1:0:0:0:
325,192,376345,1,0,0:0:0:0:
468,334,376470,2,0,L|480:280,1,50,0|0,1:0|0:0,0:0:0:0:
377,360,376595,2,0,L|389:306,1,50,0|0,1:0|0:0,0:0:0:0:
295,334,376720,2,0,L|307:280,1,50,2|0,0:0|0:0,0:0:0:0:
204,360,376845,1,2,0:0:0:0:
204,360,376907,1,0,0:0:0:0:
204,360,376970,6,0,P|148:365|95:344,1,100,4|0,1:2|0:0,0:0:0:0:
183,211,377220,1,0,0:0:0:0:
28,254,377345,1,0,1:0:0:0:
87,105,377470,2,0,L|109:2,1,100,0|0,0:0|1:0,0:0:0:0:
256,66,377720,1,0,0:0:0:0:
404,7,377845,6,0,L|425:105,1,100,0|0,1:0|0:0,0:0:0:0:
484,254,378095,1,4,3:0:0:0:
484,254,378157,1,4,3:0:0:0:
484,254,378220,1,0,1:0:0:0:
279,185,378345,1,0,1:0:0:0:
443,367,378470,1,0,1:0:0:0:
238,298,378595,1,0,1:0:0:0:
484,254,378720,1,0,1:0:0:0:
279,185,378845,1,2,0:0:0:0:
279,185,378907,1,0,0:0:0:0:
279,185,378970,6,0,P|268:133|274:77,1,100,0|0,1:0|0:0,0:0:0:0:
413,12,379220,1,0,0:0:0:0:
411,171,379345,1,0,1:0:0:0:
272,86,379470,2,0,L|164:114,1,100,0|0,0:0|1:0,0:0:0:0:
19,332,379720,1,4,3:0:0:0:
57,322,379782,1,4,3:0:0:0:
96,312,379845,1,4,3:0:0:0:
134,303,379907,1,4,3:0:0:0:
173,294,379970,5,2,0:0:0:0:
339,40,380095,1,0,0:0:0:0:
256,328,380220,1,2,0:0:0:0:
256,12,380345,1,0,0:0:0:0:
339,294,380470,1,2,0:0:0:0:
173,40,380595,1,0,0:0:0:0:
256,328,380720,2,0,L|256:364,6,25,2|2|2|2|2|2|2,0:0|0:0|0:0|0:0|0:0|0:0|0:0,0:0:0:0:
256,255,380970,5,4,1:2:0:0:
256,255,381095,2,0,P|269:212|255:156,1,100,2|0,0:0|0:0,0:0:0:0:
189,193,381470,2,0,P|176:150|190:94,1,100,2|0,0:0|0:0,0:0:0:0:
240,42,381845,2,0,L|406:57,1,150,2|0,0:0|0:0,0:0:0:0:
469,182,382470,2,0,L|369:191,1,100,2|0,0:0|0:0,0:0:0:0:
256,289,382970,5,0,0:0:0:0:
256,289,383095,2,0,P|213:276|157:290,1,100,2|0,0:0|0:0,0:0:0:0:
117,226,383470,2,0,P|74:239|18:225,1,100,2|0,0:0|0:0,0:0:0:0:
53,158,383845,2,0,L|26:4,1,150,2|0,0:0|0:0,0:0:0:0:
168,60,384470,2,0,L|185:158,1,100,2|0,0:0|0:0,0:0:0:0:
256,290,384970,5,0,0:0:0:0:
256,290,385095,2,0,P|299:303|355:289,1,100,2|0,0:0|0:0,0:0:0:0:
419,258,385470,2,0,P|451:227|467:171,1,100,2|0,0:0|0:0,0:0:0:0:
463,100,385845,2,0,L|310:84,1,150,2|0,0:0|0:0,0:0:0:0:
174,139,386470,2,0,L|61:127,1,100,2|0,0:0|0:0,0:0:0:0:
34,273,386970,5,0,0:0:0:0:
34,273,387095,2,0,P|74:277|133:241,1,100,2|0,0:0|0:0,0:0:0:0:
177,304,387470,2,0,P|217:300|276:336,1,100,2|0,0:0|0:0,0:0:0:0:
329,238,387845,1,2,0:0:0:0:
329,238,387907,1,0,0:0:0:0:
329,238,387970,1,2,0:0:0:0:
421,299,388095,1,0,0:0:0:0:
380,167,388220,1,2,0:0:0:0:
472,228,388345,1,0,0:0:0:0:
316,346,388470,5,2,0:0:0:0:
262,152,388595,1,2,0:0:0:0:
456,98,388720,1,2,0:0:0:0:
510,292,388845,1,2,0:0:0:0:
262,152,388970,6,0,P|213:152|185:168,1,75.0000028610231,6|2,0:0|0:0,0:0:0:0:
212,273,389220,2,0,P|261:273|289:257,1,75.0000028610231,0|0,1:0|0:0,0:0:0:0:
368,186,389470,1,2,0:0:0:0:
378,74,389595,1,0,1:0:0:0:
462,148,389720,2,0,L|474:235,1,75.0000028610231,0|2,0:0|0:0,0:0:0:0:
378,74,389970,2,0,L|366:-13,1,75.0000028610231
256,19,390220,5,0,1:0:0:0:
144,0,390345,1,0,0:0:0:0:
81,93,390470,2,0,P|77:129|99:179,1,75.0000028610231,2|0,0:0|1:0,0:0:0:0:
190,214,390720,1,0,0:0:0:0:
134,312,390845,1,0,0:0:0:0:
134,312,390907,1,0,0:0:0:0:
134,312,390970,2,0,L|56:302,1,75.0000028610231,0|2,0:0|0:0,0:0:0:0:
215,382,391220,5,0,1:0:0:0:
274,286,391345,1,0,0:0:0:0:
378,326,391470,2,0,P|417:328|461:315,1,75.0000028610231,2|0,0:0|1:0,0:0:0:0:
491,214,391720,2,0,P|493:175|480:131,1,75.0000028610231,0|2,0:0|0:0,0:0:0:0:
415,51,391970,1,0,0:0:0:0:
303,37,392095,1,0,0:0:0:0:
202,88,392220,6,0,L|215:171,1,75.0000028610231,0|0,1:0|0:0,0:0:0:0:
316,208,392470,2,0,L|303:291,1,75.0000028610231,2|0,0:0|1:0,0:0:0:0:
200,326,392720,1,0,0:0:0:0:
329,377,392845,1,0,0:0:0:0:
329,377,392907,1,0,0:0:0:0:
329,377,392970,2,0,P|372:377|405:365,1,75.0000028610231,4|2,0:0|0:0,0:0:0:0:
470,276,393220,5,0,1:0:0:0:
388,198,393345,1,0,0:0:0:0:
499,186,393470,1,2,0:0:0:0:
417,108,393595,1,0,1:0:0:0:
335,30,393720,2,0,L|235:49,1,75.0000028610231,0|2,0:0|0:0,0:0:0:0:
417,108,393970,2,0,L|317:127,1,75.0000028610231
277,210,394220,5,0,1:0:0:0:
173,166,394345,1,0,0:0:0:0:
85,236,394470,2,0,P|77:278|80:320,1,75.0000028610231,2|0,0:0|1:0,0:0:0:0:
175,368,394720,1,0,0:0:0:0:
269,307,394845,1,0,0:0:0:0:
269,307,394907,1,0,0:0:0:0:
269,307,394970,2,0,L|358:318,1,75.0000028610231,0|2,0:0|0:0,0:0:0:0:
455,330,395220,5,0,1:0:0:0:
430,220,395345,1,0,0:0:0:0:
405,110,395470,2,0,P|405:65|417:30,1,75.0000028610231,2|0,0:0|1:0,0:0:0:0:
286,14,395720,2,0,P|286:59|274:94,1,75.0000028610231,0|2,0:0|0:0,0:0:0:0:
150,164,395970,5,0,0:0:0:0:
334,209,396095,1,0,0:0:0:0:
112,268,396220,1,2,0:0:0:0:
286,14,396470,2,0,L|379:22,1,75.0000028610231,2|0,0:0|0:0,0:0:0:0:
405,110,396720,6,0,L|454:105,1,50,2|0,0:0|0:0,0:0:0:0:
487,174,396845,2,0,L|533:177,2,25,2|0|2,0:0|0:0|0:0,0:0:0:0:
452,241,396970,5,4,1:2:0:0:
452,241,403970,6,0,L|350:241,1,100,0|2,0:0|0:0,0:0:0:0:
412,83,404220,2,0,L|514:83,1,100,2|0,0:0|0:0,0:0:0:0:
376,7,404407,1,0,0:0:0:0:
376,7,404470,6,0,L|310:15,1,50,2|0,0:0|0:0,0:0:0:0:
136,7,404595,2,0,L|202:15,1,50,2|0,0:0|0:0,0:0:0:0:
256,108,404720,2,0,B|285:175|217:175|256:252,1,150,2|0,0:0|0:0,0:0:0:0:
309,304,404970,6,0,P|265:327|218:316,1,100,4|0,1:2|0:0,0:0:0:0:
72,249,405220,1,0,0:0:0:0:
168,121,405345,1,0,1:0:0:0:
36,29,405470,2,0,L|54:132,1,100,0|0,0:0|1:0,0:0:0:0:
181,31,405720,1,0,0:0:0:0:
326,97,405845,2,0,L|308:-6,1,100,0|0,1:0|0:0,0:0:0:0:
228,168,406095,5,4,3:0:0:0:
220,207,406157,1,4,3:0:0:0:
212,246,406220,1,0,1:0:0:0:
395,345,406345,1,0,1:0:0:0:
117,345,406470,1,0,1:0:0:0:
381,254,406595,1,0,1:0:0:0:
130,254,406720,1,0,1:0:0:0:
367,163,406845,1,2,0:0:0:0:
375,124,406907,1,0,0:0:0:0:
383,85,406970,6,0,L|488:68,1,100,0|0,1:0|0:0,0:0:0:0:
333,8,407220,1,0,0:0:0:0:
276,157,407345,1,0,1:0:0:0:
156,50,407470,2,0,L|51:67,1,100,0|0,0:0|1:0,0:0:0:0:
155,192,407720,1,0,0:0:0:0:
57,318,407845,2,0,L|156:334,1,100,0|0,1:0|0:0,0:0:0:0:
304,274,408095,5,0,1:0:0:0:
343,280,408157,1,0,1:0:0:0:
382,286,408220,1,0,1:0:0:0:
449,141,408345,1,0,0:0:0:0:
238,185,408470,2,0,P|212:187|189:185,1,50,0|0,1:0|0:0,0:0:0:0:
126,131,408595,2,0,P|123:105|126:82,1,50,0|0,1:0|0:0,0:0:0:0:
180,19,408720,2,0,P|205:16|228:19,1,50,2|0,0:0|0:0,0:0:0:0:
291,73,408845,1,2,0:0:0:0:
291,73,408907,1,0,0:0:0:0:
291,73,408970,6,0,L|422:51,1,100,4|0,1:2|0:0,0:0:0:0:
345,211,409220,1,0,0:0:0:0:
488,140,409345,1,0,1:0:0:0:
479,299,409470,2,0,L|348:321,1,100,0|0,0:0|1:0,0:0:0:0:
235,245,409720,1,0,0:0:0:0:
135,370,409845,2,0,P|73:371|35:349,1,100,0|0,1:0|0:0,0:0:0:0:
118,213,410095,5,4,3:0:0:0:
112,173,410157,1,4,3:0:0:0:
106,133,410220,1,0,1:0:0:0:
256,4,410345,1,0,1:0:0:0:
235,245,410470,1,0,1:0:0:0:
158,17,410595,1,0,1:0:0:0:
379,119,410720,1,0,1:0:0:0:
112,173,410845,1,2,0:0:0:0:
112,173,410907,1,0,0:0:0:0:
112,173,410970,6,0,L|-2:153,1,100,0|0,1:0|0:0,0:0:0:0:
202,88,411220,1,0,0:0:0:0:
153,283,411345,1,0,1:0:0:0:
359,283,411470,1,0,0:0:0:0:
310,88,411595,1,0,1:0:0:0:
256,320,411720,1,4,3:0:0:0:
256,320,411782,1,4,3:0:0:0:
256,320,411845,1,4,3:0:0:0:
256,320,411907,1,4,3:0:0:0:
256,320,411970,5,2,0:0:0:0:
409,90,412095,1,0,0:0:0:0:
103,90,412220,1,2,0:0:0:0:
256,0,412345,1,0,0:0:0:0:
396,201,412470,1,2,0:0:0:0:
116,201,412595,1,0,0:0:0:0:
256,320,412720,2,0,L|256:358,6,25,2|0|2|0|2|0|2,0:0|0:0|0:0|0:0|0:0|0:0|0:0,0:0:0:0:
320,271,412970,6,0,P|348:271|375:280,2,50,2|0|2,0:0|0:0|0:0,0:0:0:0:
192,175,413470,2,0,P|167:181|143:181,1,50,2|0,0:0|0:0,0:0:0:0:
72,141,413720,1,2,0:0:0:0:
72,141,413845,1,0,0:0:0:0:
105,68,413970,2,0,L|103:11,2,50,2|0|2,0:0|0:0|0:0,0:0:0:0:
21,204,414470,2,0,P|10:240|23:309,1,100,2|2,0:0|0:0,0:0:0:0:
169,357,414970,5,2,0:0:0:0:
248,344,415095,1,0,0:0:0:0:
327,331,415220,1,2,0:0:0:0:
327,331,415470,2,0,P|334:291|331:268,1,50,2|0,0:0|0:0,0:0:0:0:
299,208,415720,1,2,0:0:0:0:
445,143,415970,2,0,P|438:183|441:206,1,50,2|0,0:0|0:0,0:0:0:0:
473,266,416220,1,2,0:0:0:0:
473,266,416345,1,0,0:0:0:0:
425,330,416470,2,0,P|424:354|418:379,2,50,2|0|2,0:0|0:0|0:0,0:0:0:0:
331,199,416970,6,0,L|267:203,1,50,2|0,0:0|0:0,0:0:0:0:
215,248,417220,1,2,0:0:0:0:
297,110,417470,2,0,L|233:114,1,50,2|0,0:0|0:0,0:0:0:0:
181,159,417720,1,2,0:0:0:0:
102,142,417845,1,0,0:0:0:0:
36,188,417970,2,0,P|31:226|34:241,2,50,2|0|2,0:0|0:0|0:0,0:0:0:0:
102,42,418470,2,0,L|208:35,1,100,2|2,0:0|0:0,0:0:0:0:
352,89,418970,5,2,0:0:0:0:
430,103,419095,1,0,0:0:0:0:
499,62,419220,1,2,0:0:0:0:
401,189,419470,2,0,P|395:215|395:244,1,50,2|0,0:0|0:0,0:0:0:0:
466,273,419720,2,0,P|472:247|472:218,1,50,2|0,0:0|0:0,0:0:0:0:
390,318,419970,1,2,0:0:0:0:
310,326,420095,1,0,0:0:0:0:
230,333,420220,1,2,0:0:0:0:
230,333,420470,5,4,1:2:0:0:
31,248,420595,1,0,0:0:0:0:
204,119,420720,1,4,1:2:0:0:
230,333,420845,1,0,0:0:0:0:
31,248,420970,6,0,L|54:138,1,100,2|0,1:2|0:0,0:0:0:0:
89,15,421220,1,2,1:2:0:0:
224,52,421345,1,0,0:0:0:0:
187,187,421470,2,0,P|238:200|294:186,1,100,2|0,0:2|1:0,0:0:0:0:
403,118,421720,1,2,0:2:0:0:
417,257,421845,1,0,0:0:0:0:
280,82,421970,6,0,L|172:75,1,100,2|0,0:2|0:0,0:0:0:0:
99,189,422220,2,0,L|-9:182,1,100,2|0,1:2|0:0,0:0:0:0:
31,318,422470,1,2,0:2:0:0:
169,299,422595,1,0,1:0:0:0:
307,281,422720,1,2,0:2:0:0:
451,269,422845,1,4,0:3:0:0:
451,269,422907,1,4,0:3:0:0:
451,269,422970,6,0,P|460:208|441:152,1,100,2|0,0:2|0:0,0:0:0:0:
402,38,423220,1,2,1:2:0:0:
314,147,423345,1,0,0:0:0:0:
176,173,423470,2,0,L|72:158,2,100,2|0|2,0:2|1:0|0:2,0:0:0:0:
282,263,423845,1,0,0:0:0:0:
388,353,423970,6,0,L|492:338,1,100,2|0,0:2|0:0,0:0:0:0:
395,189,424220,2,0,L|499:174,1,100,2|0,1:2|0:0,0:0:0:0:
402,25,424470,2,0,L|506:10,2,100,2|0|2,0:2|1:0|0:2,0:0:0:0:
295,116,424845,1,0,0:0:0:0:
295,116,424907,1,0,0:0:0:0:
295,116,424970,6,0,P|233:116|198:94,1,100,2|0,0:2|0:0,0:0:0:0:
95,4,425220,1,2,1:2:0:0:
25,125,425345,1,0,0:0:0:0:
135,210,425470,2,0,L|125:318,1,100,2|0,0:2|1:0,0:0:0:0:
254,253,425720,2,0,L|244:361,1,100,2|0,0:2|0:0,0:0:0:0:
373,296,425970,5,2,0:2:0:0:
344,159,426095,1,0,0:0:0:0:
315,22,426220,1,2,1:2:0:0:
235,137,426345,1,0,0:0:0:0:
156,252,426470,1,2,0:2:0:0:
235,137,426595,1,0,1:0:0:0:
315,22,426720,1,2,0:2:0:0:
344,159,426845,1,0,0:0:0:0:
344,159,426907,1,0,0:0:0:0:
344,159,426970,6,0,L|461:145,1,100,2|0,0:2|0:0,0:0:0:0:
289,280,427220,2,0,L|303:397,1,100,2|0,1:2|0:0,0:0:0:0:
168,225,427470,2,0,L|51:239,1,100,2|0,0:2|1:0,0:0:0:0:
223,104,427720,2,0,L|209:-13,1,100,2|0,0:2|0:0,0:0:0:0:
289,280,427970,5,2,0:0:0:0:
18,142,428220,1,2,0:0:0:0:
325,1,428470,1,2,0:0:0:0:
452,59,428595,1,0,0:0:0:0:
500,190,428720,1,2,0:0:0:0:
476,328,428845,1,0,0:0:0:0:
476,328,428970,6,0,L|348:313,1,100,6|0,1:2|0:0,0:0:0:0:
312,190,429220,1,2,0:2:0:0:
195,268,429345,1,0,1:0:0:0:
121,148,429470,2,0,L|-7:163,1,100,2|0,0:2|1:0,0:0:0:0:
195,268,429720,1,2,0:2:0:0:
228,60,429845,1,0,1:0:0:0:
312,190,429970,5,2,0:2:0:0:
125,36,430095,1,4,3:0:0:0:
125,36,430157,1,4,3:0:0:0:
125,36,430220,1,2,1:2:0:0:
195,268,430345,1,0,1:0:0:0:
303,0,430470,1,2,1:2:0:0:
373,232,430595,1,0,1:0:0:0:
125,36,430720,1,2,1:2:0:0:
195,268,430845,1,2,0:0:0:0:
195,268,430907,1,0,0:0:0:0:
195,268,430970,6,0,L|81:256,1,100,2|0,1:2|0:0,0:0:0:0:
184,149,431220,1,2,0:2:0:0:
255,352,431345,1,0,1:0:0:0:
344,244,431470,2,0,L|458:256,1,100,2|0,0:2|1:0,0:0:0:0:
500,126,431720,1,2,0:2:0:0:
361,108,431845,1,0,1:0:0:0:
222,90,431970,5,2,0:2:0:0:
441,30,432095,1,0,1:0:0:0:
441,30,432157,1,0,1:0:0:0:
441,30,432220,1,2,1:2:0:0:
316,220,432345,1,0,0:0:0:0:
243,7,432470,2,0,P|197:7|181:15,1,50,2|0,1:2|0:0,0:0:0:0:
129,49,432595,2,0,P|106:88|104:106,1,50,0|0,1:0|0:0,0:0:0:0:
108,168,432720,2,0,P|130:207|145:217,1,50,2|0,0:0|0:0,0:0:0:0:
207,252,432845,1,2,0:0:0:0:
207,252,432907,1,0,0:0:0:0:
207,252,432970,6,0,B|217:303|217:303|204:353,1,100,2|0,1:2|0:0,0:0:0:0:
71,279,433220,1,2,0:2:0:0:
220,151,433345,1,0,1:0:0:0:
346,211,433470,2,0,L|459:196,1,100,2|0,0:2|1:0,0:0:0:0:
485,63,433720,1,2,0:2:0:0:
353,14,433845,1,0,1:0:0:0:
219,56,433970,5,2,0:2:0:0:
143,173,434095,1,4,3:0:0:0:
143,173,434157,1,4,3:0:0:0:
143,173,434220,1,2,1:2:0:0:
4,6,434345,1,0,1:0:0:0:
4,204,434470,1,2,1:2:0:0:
143,37,434595,1,0,1:0:0:0:
96,234,434720,1,2,1:2:0:0:
272,96,434845,1,2,0:0:0:0:
272,96,434907,1,0,0:0:0:0:
272,96,434970,6,0,L|387:85,1,100,2|0,1:2|0:0,0:0:0:0:
463,192,435220,1,2,0:2:0:0:
371,297,435345,1,0,1:0:0:0:
371,297,435470,2,0,L|272:288,1,100,2|0,0:2|1:0,0:0:0:0:
160,203,435720,1,2,3:2:0:0:
121,192,435782,1,4,3:0:0:0:
81,199,435845,1,4,3:0:0:0:
51,225,435907,1,4,3:0:0:0:
34,261,435970,6,0,P|28:314|45:357,1,100,2|0,1:2|0:0,0:0:0:0:
272,288,436220,2,0,P|278:235|261:192,1,100,2|0,0:2|0:0,0:0:0:0:
71,104,436470,2,0,P|65:157|82:200,1,100,2|0,1:2|0:0,0:0:0:0:
273,88,436720,1,2,0:2:0:0:
397,270,436845,1,0,0:0:0:0:
397,270,436907,1,0,0:0:0:0:
397,270,436970,6,0,L|398:372,1,100,6|0,1:2|0:0,0:0:0:0:
506,279,437220,2,0,L|505:177,1,100,2|0,1:2|0:0,0:0:0:0:
456,47,437470,1,2,0:2:0:0:
358,147,437595,1,0,1:0:0:0:
309,15,437720,1,2,0:2:0:0:
211,115,437845,1,0,1:0:0:0:
260,247,437970,5,2,0:2:0:0:
113,215,438095,1,4,0:3:0:0:
113,215,438157,1,4,0:3:0:0:
113,215,438220,1,2,1:2:0:0:
358,147,438345,1,0,1:0:0:0:
256,378,438470,1,2,1:2:0:0:
154,147,438595,1,0,1:0:0:0:
399,215,438720,1,2,1:2:0:0:
171,319,438845,1,2,0:0:0:0:
171,319,438907,1,0,0:0:0:0:
171,319,438970,6,0,L|66:308,1,100,2|0,1:2|0:0,0:0:0:0:
29,175,439220,1,2,0:2:0:0:
85,46,439345,1,0,1:0:0:0:
219,8,439470,2,0,P|293:9|326:17,1,100,2|0,0:2|1:0,0:0:0:0:
427,102,439720,1,2,0:2:0:0:
436,241,439845,1,0,1:0:0:0:
436,241,440095,5,0,1:0:0:0:
436,241,440157,1,0,1:0:0:0:
436,241,440220,1,2,1:2:0:0:
256,148,440345,1,0,0:0:0:0:
76,241,440470,2,0,L|90:348,1,100,2|0,1:2|0:0,0:0:0:0:
167,105,440720,2,0,L|158:40,1,50,2|0,0:0|0:0,0:0:0:0:
256,148,440845,2,0,L|264:212,1,50,2|0,0:0|0:0,0:0:0:0:
337,91,440970,6,0,P|390:83|440:97,1,100,2|0,1:2|0:0,0:0:0:0:
479,226,441220,1,2,0:2:0:0:
348,277,441345,1,0,1:0:0:0:
217,328,441470,2,0,L|104:315,1,100,2|0,0:2|1:0,0:0:0:0:
348,277,441720,1,2,0:2:0:0:
262,166,441845,1,0,1:0:0:0:
400,187,441970,5,2,0:2:0:0:
217,329,442095,1,4,3:0:0:0:
217,329,442157,1,4,3:0:0:0:
217,329,442220,1,2,1:2:0:0:
168,105,442345,1,0,1:0:0:0:
295,329,442470,1,2,1:2:0:0:
344,105,442595,1,0,1:0:0:0:
112,255,442720,1,2,1:2:0:0:
400,255,442845,1,2,0:0:0:0:
400,255,442907,1,0,0:0:0:0:
400,255,442970,6,0,P|419:319|408:355,1,100,2|0,1:2|0:0,0:0:0:0:
496,238,443220,1,2,0:2:0:0:
305,195,443345,1,0,1:0:0:0:
425,123,443470,2,0,P|432:74|414:28,1,100,2|0,0:2|1:0,0:0:0:0:
219,4,443720,1,2,3:2:0:0:
180,12,443782,1,4,3:3:0:0:
140,20,443845,1,4,3:3:0:0:
101,28,443907,1,4,3:3:0:0:
61,37,443970,6,0,B|84:107|45:158|45:158|78:123|78:123|42:171|62:240,1,300,12|0,3:0|0:0,0:0:0:0:
218,155,444470,2,0,B|238:223|202:272|202:272|234:236|234:236|196:288|219:358,1,300,12|0,3:0|0:0,0:0:0:0:
344,312,444970,6,0,L|458:324,1,100,4|0,1:2|0:0,0:0:0:0:
256,192,445220,1,2,0:0:0:0:
443,61,445345,2,0,L|344:72,1,100,4|0,1:2|0:0,0:0:0:0:
173,192,445595,1,2,0:0:0:0:
344,312,445720,2,0,P|354:290|356:242,1,50,2|0,0:0|0:0,0:0:0:0:
260,322,445845,2,0,P|250:344|248:392,1,50,2|0,0:0|0:0,0:0:0:0:
244,240,445970,6,0,P|254:218|240:139,2,100,2|0|2,0:0|0:0|0:0,0:0:0:0:
100,310,446345,2,0,L|35:300,1,50,2|0,0:0|0:0,0:0:0:0:
81,225,446470,2,0,L|16:215,1,50,2|0,0:0|0:0,0:0:0:0:
62,140,446595,1,0,0:0:0:0:
62,140,446657,1,0,0:0:0:0:
62,140,446720,2,0,P|57:112|61:86,1,50,2|0,0:0|0:0,0:0:0:0:
183,40,446845,2,0,P|188:68|184:94,1,50,2|0,0:0|0:0,0:0:0:0:
230,193,446970,6,0,L|343:173,1,100,2|0,0:0|0:0,0:0:0:0:
483,153,447220,1,2,0:0:0:0:
185,89,447345,2,0,L|298:69,1,100,2|0,0:0|0:0,0:0:0:0:
438,49,447595,1,2,0:0:0:0:
375,257,447720,2,0,L|310:269,1,50,2|0,0:0|0:0,0:0:0:0:
241,292,447845,1,2,0:0:0:0:
241,292,447907,1,0,0:0:0:0:
241,292,447970,6,0,P|235:328|242:351,1,50,2|0,0:0|0:0,0:0:0:0:
176,233,448095,2,0,P|182:197|175:174,1,50,2|0,0:0|0:0,0:0:0:0:
98,280,448220,1,2,0:0:0:0:
271,195,448345,2,0,L|335:206,1,50,2|0,0:0|0:0,0:0:0:0:
312,123,448470,2,0,L|375:133,1,50,2|0,0:0|0:0,0:0:0:0:
352,50,448595,1,0,0:0:0:0:
352,50,448657,1,0,0:0:0:0:
352,50,448720,2,0,L|456:69,1,100,2|2,0:0|0:0,0:0:0:0:
469,247,448970,5,4,1:2:0:0:
312,219,449095,1,0,0:0:0:0:
511,117,449220,1,2,0:0:0:0:
456,269,449345,1,6,1:2:0:0:
299,241,449470,1,0,0:0:0:0:
501,142,449595,1,2,0:0:0:0:
322,367,449720,2,0,L|311:315,1,50,2|0,0:0|0:0,0:0:0:0:
241,354,449845,2,0,L|230:302,1,50,2|0,0:0|0:0,0:0:0:0:
169,252,449970,6,0,L|196:154,1,100,2|2,0:0|0:0,0:0:0:0:
24,183,450220,1,2,0:0:0:0:
220,60,450345,1,2,0:0:0:0:
220,60,450407,1,0,0:0:0:0:
220,60,450470,1,2,0:0:0:0:
220,60,450532,1,0,0:0:0:0:
220,60,450595,2,0,L|277:42,1,50
269,126,450720,2,0,L|326:108,1,50,2|0,0:0|0:0,0:0:0:0:
318,192,450845,1,2,0:0:0:0:
107,192,450970,5,2,0:0:0:0:
203,371,451095,1,0,0:0:0:0:
385,282,451220,1,2,0:0:0:0:
116,164,451345,1,2,0:0:0:0:
212,343,451470,1,0,0:0:0:0:
394,254,451595,1,2,0:0:0:0:
121,280,451720,2,0,L|50:266,1,50,2|0,0:0|0:0,0:0:0:0:
88,350,451845,2,0,L|17:336,1,50,2|0,0:0|0:0,0:0:0:0:
165,343,451970,6,0,L|292:324,1,100,2|0,0:0|0:0,0:0:0:0:
467,300,452220,1,2,0:0:0:0:
290,204,452345,1,2,0:0:0:0:
494,176,452470,5,2,0:0:0:0:
499,136,452532,1,0,0:0:0:0:
491,96,452595,1,2,0:0:0:0:
469,62,452657,1,0,0:0:0:0:
437,36,452720,2,0,P|430:16|429:6,6,25,2|2|2|2|2|2|2,0:0|0:0|0:0|0:0|0:0|0:0|0:0,0:0:0:0:
390,96,452970,5,4,1:2:0:0:
256,2,453095,1,2,0:0:0:0:
122,96,453220,1,0,0:0:0:0:
390,288,453345,5,4,1:2:0:0:
256,382,453470,1,2,0:0:0:0:
122,288,453595,1,0,0:0:0:0:
256,2,453845,6,0,B|322:119|185:119|256:238,1,250,2|2,0:0|0:0,0:0:0:0:
56,256,455095,2,0,P|29:193|56:118,2,150,2|2|2,0:0|0:0|0:0,0:0:0:0:
256,336,456470,1,2,0:0:0:0:
352,58,456970,5,4,1:2:0:0:
446,192,457095,1,2,0:0:0:0:
352,326,457220,1,0,0:0:0:0:
160,58,457345,5,4,1:2:0:0:
66,192,457470,1,2,0:0:0:0:
160,326,457595,1,0,0:0:0:0:
446,192,457845,6,0,B|328:258|328:121|209:192,1,250,2|2,0:0|0:0,0:0:0:0:
328,352,459095,2,0,P|390:378|465:352,1,150,2|2,0:0|0:0,0:0:0:0:
367,67,459845,5,2,0:0:0:0:
367,67,459907,1,0,0:0:0:0:
367,67,459970,2,0,L|302:55,1,50,2|0,0:0|0:0,0:0:0:0:
194,57,460220,2,0,L|145:67,1,50,2|0,0:0|0:0,0:0:0:0:
192,186,460470,1,2,0:0:0:0:
320,186,460595,1,0,0:0:0:0:
256,5,460720,1,0,1:0:0:0:
98,186,460970,6,0,P|102:219|112:239,1,50,4|0,1:2|0:0,0:0:0:0:
182,302,461220,2,0,P|186:269|196:249,1,50
266,186,461470,2,0,P|270:219|280:239,1,50,2|0,0:0|0:0,0:0:0:0:
350,302,461720,2,0,P|354:269|364:249,1,50
434,186,461970,2,0,P|430:153|420:133,1,50,2|0,0:0|0:0,0:0:0:0:
350,70,462220,6,0,P|346:103|336:123,1,50
266,186,462470,2,0,P|262:153|252:133,1,50,2|0,0:0|0:0,0:0:0:0:
182,70,462720,2,0,P|178:103|168:123,1,50
98,186,462970,2,0,P|94:153|84:133,1,50,2|0,0:0|0:0,0:0:0:0:
30,246,463220,6,0,L|23:300,1,50
120,268,463470,2,0,L|113:322,1,50,2|0,0:0|0:0,0:0:0:0:
210,290,463720,2,0,L|203:344,1,50
300,312,463970,2,0,L|293:366,1,50,2|0,0:0|0:0,0:0:0:0:
368,252,464220,6,0,L|375:198,1,50
278,230,464470,2,0,L|285:176,1,50,2|0,0:0|0:0,0:0:0:0:
188,208,464720,2,0,L|195:154,1,50
98,186,464970,2,0,L|105:132,1,50,2|0,0:0|0:0,0:0:0:0:
112,36,465220,6,0,P|136:33|171:44,1,50
259,21,465470,2,0,P|283:18|318:29,1,50,2|0,0:0|0:0,0:0:0:0:
255,109,465720,2,0,P|279:106|314:117,1,50
402,94,465970,2,0,P|426:91|461:102,1,50,2|0,0:0|0:0,0:0:0:0:
496,187,466220,6,0,P|472:190|437:179,1,50
349,202,466470,2,0,P|325:205|290:194,1,50,2|0,0:0|0:0,0:0:0:0:
353,114,466720,2,0,P|329:117|294:106,1,50
206,129,466970,2,0,P|182:132|147:121,1,50,2|0,0:0|0:0,0:0:0:0:
80,61,467220,6,0,L|15:48,1,50
51,149,467470,2,0,L|-14:148,1,50,2|0,0:0|0:0,0:0:0:0:
51,235,467720,2,0,L|-14:236,1,50
80,323,467970,5,2,0:0:0:0:
177,300,468095,1,2,0:0:0:0:
274,277,468220,1,0,0:0:0:0:
371,254,468345,1,2,0:0:0:0:
131,106,468470,5,2,0:0:0:0:
177,300,468595,1,2,0:0:0:0:
325,60,468720,1,2,0:0:0:0:
371,254,468845,1,2,0:0:0:0:
131,106,468970,6,0,P|91:111|50:99,1,75.0000028610231,4|0,1:2|0:0,0:0:0:0:
15,215,469220,2,0,P|55:210|96:222,1,75.0000028610231,2|0,1:2|0:0,0:0:0:0:
177,300,469470,1,0,0:0:0:0:
218,187,469595,1,0,1:0:0:0:
315,257,469720,1,2,0:2:0:0:
356,144,469845,1,0,0:0:0:0:
453,214,469970,2,0,P|469:255|463:287,1,75.0000028610231
371,363,470220,5,0,1:0:0:0:
256,325,470345,1,0,0:0:0:0:
141,363,470470,1,2,0:2:0:0:
256,325,470595,1,0,1:0:0:0:
371,363,470720,1,0,0:0:0:0:
256,244,470845,1,0,0:0:0:0:
256,244,470907,1,0,0:0:0:0:
256,244,470970,2,0,L|256:167,1,75.0000028610231,2|0,0:2|0:0,0:0:0:0:
184,71,471220,6,0,P|141:71|104:87,1,75.0000028610231,0|0,1:0|0:0,0:0:0:0:
12,150,471470,2,0,P|12:193|28:230,1,75.0000028610231,2|0,0:2|1:0,0:0:0:0:
94,318,471720,1,0,0:0:0:0:
122,310,471782,1,0,0:0:0:0:
151,302,471845,1,0,0:0:0:0:
256,244,471970,2,0,P|299:244|336:260,1,75.0000028610231,2|0,0:2|0:0,0:0:0:0:
417,335,472220,5,0,1:0:0:0:
485,236,472345,1,0,0:0:0:0:
383,171,472470,1,2,0:2:0:0:
451,72,472595,1,0,1:0:0:0:
349,7,472720,2,0,L|293:15,1,37.5000014305115
255,63,472845,1,0,0:0:0:0:
255,63,472907,1,0,0:0:0:0:
255,63,472970,2,0,L|174:48,1,75.0000028610231,2|0,0:2|0:0,0:0:0:0:
63,28,473220,6,0,L|48:109,1,75.0000028610231,0|0,1:0|0:0,0:0:0:0:
28,220,473470,2,0,L|109:235,1,75.0000028610231,2|0,0:2|1:0,0:0:0:0:
203,168,473720,2,0,L|284:153,1,75.0000028610231
395,133,473970,2,0,L|410:214,1,75.0000028610231,2|0,0:2|0:0,0:0:0:0:
430,325,474220,6,0,L|349:340,1,75.0000028610231,0|0,1:0|0:0,0:0:0:0:
409,207,474470,2,0,L|490:192,1,75.0000028610231,2|0,0:2|1:0,0:0:0:0:
388,89,474720,1,0,0:0:0:0:
270,110,474845,1,0,0:0:0:0:
270,110,474907,1,0,0:0:0:0:
270,110,474970,2,0,P|219:112|186:95,1,75.0000028610231,2|0,0:2|0:0,0:0:0:0:
89,51,475220,6,0,L|71:130,1,75.0000028610231,0|0,1:0|0:0,0:0:0:0:
5,224,475470,2,0,L|23:303,1,75.0000028610231,2|0,0:2|1:0,0:0:0:0:
138,326,475720,1,0,0:0:0:0:
255,299,475845,1,0,0:0:0:0:
372,272,475970,5,0,0:0:0:0:
174,228,476095,1,0,0:0:0:0:
432,174,476220,1,2,0:0:0:0:
432,174,476470,2,0,P|439:118|428:84,1,75.0000028610231,2|0,0:0|0:0,0:0:0:0:
296,19,476720,6,0,L|235:28,1,50,2|0,0:0|0:0,0:0:0:0:
177,68,476845,2,0,L|140:62,2,25,2|0|2,0:0|0:0|0:0,0:0:0:0:
226,128,476970,5,4,1:2:0:0:
226,128,477345,1,4,1:2:0:0:
226,128,478970,6,0,L|135:122,1,75.0000028610231,4|0,3:0|0:0,0:0:0:0:
385,42,479220,2,0,L|476:48,1,75.0000028610231,0|4,1:0|3:0,0:0:0:0:
507,157,479470,1,0,0:0:0:0:
305,139,479595,1,0,1:0:0:0:
393,220,479720,2,0,P|401:257|390:302,1,75.0000028610231,4|0,3:0|0:0,0:0:0:0:
172,340,479970,5,2,0:0:0:0:
92,218,480095,1,0,0:0:0:0:
89,189,480157,1,0,0:0:0:0:
86,159,480220,1,2,0:0:0:0:
136,17,480345,1,2,0:0:0:0:
271,82,480470,1,2,0:0:0:0:
300,84,480532,1,0,0:0:0:0:
330,82,480595,1,2,0:0:0:0:
358,73,480657,1,0,0:0:0:0:
384,59,480720,1,2,0:0:0:0:
485,172,480845,1,2,0:0:0:0:
509,2,480970,5,4,1:2:0:0:
509,2,481345,1,4,1:2:0:0:
509,2,482970,5,2,0:0:0:0:
467,146,483095,1,2,0:0:0:0:
431,296,483220,1,2,0:0:0:0:
431,296,483282,1,0,0:0:0:0:
431,296,483345,1,2,0:0:0:0:
306,211,483470,1,2,0:0:0:0:
306,211,483532,1,0,0:0:0:0:
306,211,483595,1,2,0:0:0:0:
250,350,483720,2,0,L|186:342,1,37.5000014305115,2|0,0:0|0:0,0:0:0:0:
138,333,483845,1,2,0:0:0:0:
51,210,483970,2,0,L|115:202,1,37.5000014305115,2|0,0:0|0:0,0:0:0:0:
163,193,484095,5,2,0:0:0:0:
250,350,484220,1,2,0:0:0:0:
342,196,484345,1,2,0:0:0:0:
138,333,484470,5,4,3:0:0:0:
235,142,484595,1,0,1:0:0:0:
240,112,484657,1,0,0:0:0:0:
236,81,484720,1,0,1:0:0:0:
221,54,484782,1,0,0:0:0:0:
197,35,484845,1,0,1:0:0:0:
167,29,484907,1,0,0:0:0:0:
136,32,484970,5,4,1:2:0:0:
136,32,485345,1,4,1:2:0:0:
136,32,486970,6,0,B|85:39|85:39|32:13,1,100,4|0,1:2|0:0,0:0:0:0:
144,192,487220,1,0,1:0:0:0:
41,366,487345,2,0,B|85:345|85:345|136:352,1,100,4|0,1:2|0:0,0:0:0:0:
304,376,487595,1,0,1:0:0:0:
250,214,487720,1,4,3:3:0:0:
250,214,487845,1,0,0:0:0:0:
454,264,487970,5,2,0:0:0:0:
467,226,488032,1,0,0:0:0:0:
468,185,488095,2,0,P|468:155|460:129,1,50
410,68,488220,1,2,0:0:0:0:
340,264,488345,1,2,0:0:0:0:
155,171,488470,1,2,0:0:0:0:
115,165,488532,1,0,0:0:0:0:
75,175,488595,1,2,0:0:0:0:
48,204,488657,1,0,0:0:0:0:
33,241,488720,2,0,L|24:295,1,50,2|0,0:0|0:0,0:0:0:0:
124,368,488845,2,0,L|133:314,1,50,2|0,0:0|0:0,0:0:0:0:
245,267,488970,5,4,1:2:0:0:
245,267,489345,1,4,1:2:0:0:
245,267,489970,5,4,1:2:0:0:
245,267,490345,1,4,1:2:0:0:
245,267,490970,5,4,1:2:0:0:
294,109,491095,1,0,0:0:0:0:
256,97,491157,1,0,0:0:0:0:
217,84,491220,2,0,L|165:84,1,50,2|0,0:0|0:0,0:0:0:0:
310,17,491345,2,0,L|362:17,1,50,4|0,1:2|0:0,0:0:0:0:
457,55,491470,1,2,0:0:0:0:
472,91,491532,1,0,0:0:0:0:
472,131,491595,1,2,0:0:0:0:
459,168,491657,1,0,0:0:0:0:
432,198,491720,2,0,L|442:252,1,50,4|0,1:2|0:0,0:0:0:0:
377,352,491845,2,0,L|367:298,1,50,2|0,0:0|0:0,0:0:0:0:
297,208,491970,5,12,0:3:0:0:
240,189,492032,1,12,0:3:0:0:
180,196,492095,1,12,0:3:0:0:
127,224,492157,1,12,0:3:0:0:
92,273,492220,1,12,0:3:0:0:
289,308,492345,1,12,0:3:0:0:
201,124,492470,1,4,0:3:0:0:
398,159,492595,2,0,L|386:97,1,50,2|0,0:0|0:0,0:0:0:0:
464,203,492720,2,0,L|483:304,1,100,2|2,0:0|0:0,0:0:0:0:
451,57,492970,6,0,P|409:30|354:37,1,100,4|0,1:2|0:0,0:0:0:0:
256,158,493220,1,0,0:0:0:0:
151,33,493345,2,0,P|101:29|60:56,1,100,0|0,1:0|0:0,0:0:0:0:
3,205,493595,1,0,0:0:0:0:
123,109,493720,1,2,0:0:0:0:
100,268,493845,1,2,0:0:0:0:
111,305,493907,1,0,0:0:0:0:
123,343,493970,6,0,B|171:357|171:357|220:327,1,100,0|0,1:0|0:0,0:0:0:0:
256,169,494220,1,0,0:0:0:0:
298,330,494345,1,0,1:0:0:0:
298,330,494407,1,0,0:0:0:0:
298,330,494470,2,0,B|341:357|341:357|389:343,1,100
444,286,494657,1,0,0:0:0:0:
444,286,494720,2,0,B|401:259|401:259|353:273,1,100,2|2,0:0|0:0,0:0:0:0:
276,249,494907,1,0,0:0:0:0:
276,249,494970,6,0,L|259:141,1,100,0|0,1:0|0:0,0:0:0:0:
327,5,495220,1,0,0:0:0:0:
130,68,495345,2,0,L|147:176,1,100,0|0,1:0|0:0,0:0:0:0:
79,312,495595,1,0,0:0:0:0:
5,138,495720,1,4,3:0:0:0:
181,266,495845,1,4,3:0:0:0:
181,266,495907,1,0,0:0:0:0:
181,266,495970,6,0,P|238:267|280:246,1,100,0|0,1:0|0:0,0:0:0:0:
331,99,496220,1,0,0:0:0:0:
480,153,496345,1,0,1:0:0:0:
426,302,496470,1,0,0:0:0:0:
331,99,496595,1,0,0:0:0:0:
331,99,496657,1,0,0:0:0:0:
331,99,496720,2,0,L|339:42,1,50,2|0,0:0|0:0,0:0:0:0:
250,62,496845,2,0,L|258:5,1,50,2|0,0:0|0:0,0:0:0:0:
169,25,496970,6,0,L|58:35,1,100,0|0,1:0|0:0,0:0:0:0:
9,182,497220,1,0,0:0:0:0:
163,139,497345,2,0,P|190:138|220:144,1,50,0|0,1:0|0:0,0:0:0:0:
176,264,497470,2,0,P|184:238|199:211,1,50,2|0,0:0|0:0,0:0:0:0:
300,289,497595,2,0,P|277:274|256:251,1,50,2|0,0:0|0:0,0:0:0:0:
362,180,497720,2,0,P|341:196|313:209,1,50,2|0,0:0|0:0,0:0:0:0:
277,87,497845,2,0,P|286:112|290:142,1,50,2|0,0:0|0:0,0:0:0:0:
213,44,497970,6,0,P|249:15|306:18,1,100,0|0,1:0|0:0,0:0:0:0:
457,46,498220,1,0,0:0:0:0:
362,180,498345,2,0,P|326:209|269:206,1,100,0|0,1:0|0:0,0:0:0:0:
118,178,498595,1,2,0:0:0:0:
166,330,498720,1,2,0:0:0:0:
112,160,498845,1,4,3:0:0:0:
23,323,498970,5,0,1:0:0:0:
192,251,499095,1,0,0:0:0:0:
230,240,499157,1,0,0:0:0:0:
269,247,499220,1,2,0:0:0:0:
302,268,499282,1,0,0:0:0:0:
324,301,499345,2,0,P|331:333|328:359,1,50,0|0,1:0|0:0,0:0:0:0:
381,243,499470,1,2,0:0:0:0:
264,159,499595,1,0,0:0:0:0:
264,159,499657,1,0,0:0:0:0:
264,159,499720,2,0,P|257:127|260:101,1,50,2|0,0:0|0:0,0:0:0:0:
309,37,499845,1,2,0:0:0:0:
309,37,499907,1,0,0:0:0:0:
309,37,499970,5,0,1:0:0:0:
161,18,500095,1,0,0:0:0:0:
146,54,500157,1,0,0:0:0:0:
131,91,500220,1,2,0:0:0:0:
116,128,500282,1,0,0:0:0:0:
101,165,500345,2,0,L|119:237,1,50,0|0,1:0|0:0,0:0:0:0:
211,356,500470,2,0,L|193:284,1,50,0|0,1:0|0:0,0:0:0:0:
88,152,500595,2,0,L|106:224,1,50,0|0,1:0|0:0,0:0:0:0:
223,368,500720,2,0,L|205:296,1,50,0|0,1:0|0:0,0:0:0:0:
76,140,500845,2,0,L|94:212,1,50,0|0,1:0|0:0,0:0:0:0:
282,244,500970,6,0,L|405:233,1,100,0|0,1:0|0:0,0:0:0:0:
443,85,501220,1,0,0:0:0:0:
288,127,501345,2,0,L|221:122,1,50,0|0,1:0|0:0,0:0:0:0:
190,58,501470,1,0,0:0:0:0:
190,58,501532,1,0,0:0:0:0:
190,58,501595,1,0,0:0:0:0:
88,188,501720,2,0,P|79:244|96:301,1,100,2|2,0:0|0:0,0:0:0:0:
238,227,501970,6,0,P|268:226|313:240,1,50,0|0,1:0|0:0,0:0:0:0:
344,279,502095,1,0,0:0:0:0:
477,186,502220,2,0,P|447:187|402:173,1,50,2|0,0:0|0:0,0:0:0:0:
371,134,502345,1,0,1:0:0:0:
261,13,502470,1,0,0:0:0:0:
261,13,502532,1,0,0:0:0:0:
261,13,502595,1,4,3:0:0:0:
424,38,502720,1,2,0:0:0:0:
208,109,502845,1,4,3:0:0:0:
366,241,502970,6,0,P|374:290|359:352,1,100,0|0,1:0|0:0,0:0:0:0:
256,167,503220,1,0,0:0:0:0:
147,338,503345,1,0,1:0:0:0:
38,166,503470,2,0,L|70:62,1,100,4|0,3:0|0:0,0:0:0:0:
301,0,503720,2,0,L|333:104,1,100,4|0,3:0|1:0,0:0:0:0:
380,260,503970,5,0,1:0:0:0:
372,299,504032,1,0,0:0:0:0:
364,338,504095,1,0,0:0:0:0:
490,207,504220,1,2,0:0:0:0:
498,168,504282,1,0,0:0:0:0:
506,129,504345,1,0,1:0:0:0:
301,0,504470,2,0,L|228:9,1,50,2|0,0:0|0:0,0:0:0:0:
103,75,504595,2,0,L|176:66,1,50,4|0,3:0|0:0,0:0:0:0:
313,12,504720,2,0,L|240:21,1,50,2|0,0:0|0:0,0:0:0:0:
91,87,504845,2,0,L|164:78,1,50,2|0,1:2|0:0,0:0:0:0:
261,148,504970,6,0,P|268:204|254:265,1,100,0|4,1:0|0:3,0:0:0:0:
135,347,505220,1,0,0:0:0:0:
30,225,505345,2,0,P|23:169|37:108,1,100,0|4,1:0|3:0,0:0:0:0:
156,27,505595,1,0,0:0:0:0:
139,254,505720,1,4,3:0:0:0:
139,254,505845,1,4,3:0:0:0:
296,94,505970,5,0,1:0:0:0:
448,156,506095,1,2,0:0:0:0:
448,156,506157,1,0,0:0:0:0:
448,156,506220,2,0,L|474:268,1,100,2|4,0:0|3:0,0:0:0:0:
356,365,506470,1,4,3:0:0:0:
297,216,506595,1,2,0:0:0:0:
179,324,506720,1,2,0:0:0:0:
139,316,506782,1,0,0:0:0:0:
99,309,506845,1,2,0:0:0:0:
59,302,506907,1,0,0:0:0:0:
19,295,506970,5,0,1:0:0:0:
208,213,507095,1,2,0:0:0:0:
42,90,507220,1,2,0:0:0:0:
19,295,507345,1,0,1:0:0:0:
158,120,507470,2,0,L|150:61,1,50,2|0,0:0|0:0,0:0:0:0:
231,24,507595,2,0,L|239:83,1,50,2|0,0:0|0:0,0:0:0:0:
328,130,507720,2,0,L|320:71,1,50,2|0,0:0|0:0,0:0:0:0:
401,34,507845,2,0,L|409:93,1,50,2|0,0:0|0:0,0:0:0:0:
480,113,507970,5,0,1:0:0:0:
447,272,508095,1,0,0:0:0:0:
288,239,508220,1,2,0:0:0:0:
321,80,508345,1,0,1:0:0:0:
360,345,508470,5,2,0:0:0:0:
311,348,508532,1,2,0:0:0:0:
263,351,508595,1,2,0:0:0:0:
119,174,508720,1,2,0:0:0:0:
167,171,508782,1,2,0:0:0:0:
216,168,508845,1,2,0:0:0:0:
416,150,508970,6,0,P|423:98|412:52,1,100,4|0,1:2|0:0,0:0:0:0:
256,4,509220,1,2,0:0:0:0:
99,52,509345,2,0,P|88:100|96:150,1,100,0|0,1:0|0:0,0:0:0:0:
256,202,509595,1,0,0:0:0:0:
256,4,509720,1,2,0:0:0:0:
156,221,509844,1,2,0:0:0:0:
163,260,509907,1,0,0:0:0:0:
170,298,509970,6,0,L|59:280,1,100,0|0,1:0|0:0,0:0:0:0:
202,126,510220,1,2,0:0:0:0:
356,221,510345,1,0,1:0:0:0:
349,260,510408,1,0,0:0:0:0:
342,298,510470,2,0,L|453:280,1,100,2|0,0:0|0:0,0:0:0:0:
448,243,510657,1,0,0:0:0:0:
455,205,510720,2,0,L|344:223,1,100,2|2,0:0|0:0,0:0:0:0:
341,184,510907,1,0,0:0:0:0:
325,146,510970,6,0,P|314:93|328:43,1,100,0|0,1:0|0:0,0:0:0:0:
474,108,511220,1,4,3:0:0:0:
264,228,511345,2,0,P|275:281|261:331,1,100,0|0,1:0|0:0,0:0:0:0:
115,266,511595,1,4,3:0:0:0:
157,111,511720,1,4,3:0:0:0:
264,228,511845,2,0,L|278:173,1,50,2|0,0:0|0:0,0:0:0:0:
298,102,511970,5,0,1:0:0:0:
439,177,512095,1,0,0:0:0:0:
372,31,512220,1,2,0:0:0:0:
365,248,512345,1,0,1:0:0:0:
365,248,512407,1,0,0:0:0:0:
365,248,512470,1,2,0:0:0:0:
147,248,512595,1,2,0:0:0:0:
147,248,512657,1,0,0:0:0:0:
147,248,512720,1,2,0:0:0:0:
140,31,512845,1,2,0:0:0:0:
252,213,512970,6,0,P|259:265|241:315,1,100,0|0,1:0|0:0,0:0:0:0:
86,336,513220,1,2,0:0:0:0:
115,178,513345,1,0,1:0:0:0:
115,178,513407,1,0,0:0:0:0:
115,178,513470,2,0,L|87:126,1,50,0|0,1:0|0:0,0:0:0:0:
197,102,513595,2,0,L|183:46,1,50,0|0,1:0|0:0,0:0:0:0:
315,102,513720,2,0,L|329:46,1,50,0|0,1:0|0:0,0:0:0:0:
397,178,513845,2,0,L|425:126,1,50,0|0,1:0|0:0,0:0:0:0:
328,255,513970,6,0,P|321:310|332:357,1,100,0|0,1:0|0:0,0:0:0:0:
486,312,514220,1,2,0:0:0:0:
397,178,514345,1,0,1:0:0:0:
241,219,514470,1,2,0:0:0:0:
152,85,514595,1,0,0:0:0:0:
307,43,514720,2,0,L|429:53,1,100,2|4,0:0|3:0,0:0:0:0:
241,219,514970,6,0,P|185:228|146:204,1,100,0|0,1:0|0:0,0:0:0:0:
94,148,515157,1,0,0:0:0:0:
94,148,515220,2,0,L|32:158,1,50,2|0,0:0|0:0,0:0:0:0:
152,85,515345,1,0,1:0:0:0:
189,304,515470,1,2,0:0:0:0:
314,126,515595,1,2,0:0:0:0:
314,126,515657,1,0,0:0:0:0:
314,126,515720,1,2,0:0:0:0:
189,304,515845,1,2,0:0:0:0:
189,304,515907,1,0,0:0:0:0:
189,304,515970,5,0,1:0:0:0:
402,259,516095,1,0,0:0:0:0:
363,249,516157,1,0,0:0:0:0:
323,239,516220,1,2,0:0:0:0:
284,229,516282,1,0,0:0:0:0:
244,219,516345,2,0,P|234:187|238:158,1,50,0|0,1:0|0:0,0:0:0:0:
172,114,516470,2,0,P|199:94|228:89,1,50,0|0,1:0|0:0,0:0:0:0:
249,13,516595,2,0,P|275:33|289:58,1,50,0|0,1:0|0:0,0:0:0:0:
368,55,516720,2,0,P|357:86|336:107,1,50,0|0,1:0|0:0,0:0:0:0:
366,182,516845,2,0,P|332:181|306:168,1,50,0|0,1:0|0:0,0:0:0:0:
172,114,516970,6,0,L|54:129,1,100,0|0,1:0|0:0,0:0:0:0:
15,278,517220,1,2,0:0:0:0:
153,197,517345,1,2,1:2:0:0:
99,347,517470,1,2,0:0:0:0:
99,347,517532,1,0,0:0:0:0:
99,347,517595,1,4,3:0:0:0:
247,286,517720,2,0,P|313:285|349:300,1,100,4|2,3:0|0:0,0:0:0:0:
484,376,517970,5,0,1:0:0:0:
484,376,518032,1,0,0:0:0:0:
484,376,518095,1,0,0:0:0:0:
448,219,518220,2,0,L|463:108,1,100,2|0,0:0|1:0,0:0:0:0:
350,4,518470,1,0,0:0:0:0:
343,43,518532,1,0,0:0:0:0:
336,82,518595,1,4,3:0:0:0:
306,238,518720,1,2,0:0:0:0:
186,135,518845,1,4,3:0:0:0:
156,291,518970,6,0,P|153:344|167:389,1,100,0|0,1:0|0:0,0:0:0:0:
320,338,519220,1,4,3:0:0:0:
156,208,519345,2,0,P|153:155|167:110,1,100,0|0,1:0|0:0,0:0:0:0:
320,161,519595,1,4,3:0:0:0:
156,291,519720,1,4,3:0:0:0:
366,251,519845,1,2,0:0:0:0:
156,208,519970,6,0,L|52:225,1,100,0|0,1:0|0:0,0:0:0:0:
256,64,520220,1,2,0:0:0:0:
356,208,520345,2,0,L|460:225,1,100,0|0,1:0|0:0,0:0:0:0:
256,64,520595,1,4,3:0:0:0:
139,240,520720,1,2,0:0:0:0:
373,240,520845,1,2,0:0:0:0:
179,101,520970,6,0,P|168:53|192:4,1,100,0|4,1:0|3:0,0:0:0:0:
336,68,521220,1,2,0:0:0:0:
484,8,521345,1,0,1:0:0:0:
336,68,521470,2,0,L|336:174,1,100,4|0,3:0|0:0,0:0:0:0:
457,271,521720,1,4,3:0:0:0:
299,296,521845,1,4,3:0:0:0:
141,321,521970,6,0,L|19:286,1,100,0|2,1:0|0:0,0:0:0:0:
14,219,522157,1,0,0:0:0:0:
14,219,522220,2,0,P|3:158|17:119,1,100,2|0,0:0|1:0,0:0:0:0:
141,26,522470,1,4,3:0:0:0:
157,185,522595,1,2,0:0:0:0:
282,85,522720,1,2,0:0:0:0:
321,80,522782,1,0,0:0:0:0:
360,88,522845,1,2,0:0:0:0:
392,110,522907,1,0,0:0:0:0:
412,144,522970,5,0,1:0:0:0:
465,294,523095,1,2,0:0:0:0:
314,239,523220,1,2,0:0:0:0:
498,139,523345,1,0,1:0:0:0:
498,139,523407,1,0,0:0:0:0:
498,139,523470,1,2,0:0:0:0:
321,80,523595,1,2,0:0:0:0:
423,233,523720,1,2,0:0:0:0:
246,174,523845,1,2,0:0:0:0:
246,174,523907,1,0,0:0:0:0:
246,174,523970,5,0,1:0:0:0:
403,0,524095,1,0,1:0:0:0:
429,274,524220,1,2,1:2:0:0:
321,80,524345,1,0,1:0:0:0:
293,353,524470,1,0,1:0:0:0:
293,353,524532,1,0,1:0:0:0:
293,353,524595,1,0,1:0:0:0:
480,96,524720,1,4,3:0:0:0:
214,188,524845,1,4,3:0:0:0:
512,318,524970,5,4,1:2:0:0:
512,318,525345,1,4,1:2:0:0:
13,283,526970,6,0,P|66:269|107:282,1,100,4|0,3:0|0:0,0:0:0:0:
256,347,527220,1,0,1:0:0:0:
404,282,527345,2,0,P|451:268|499:283,2,100,4|0|0,3:0|0:0|1:0,0:0:0:0:
256,219,527720,1,4,3:0:0:0:
256,59,527845,1,0,0:0:0:0:
122,147,527970,5,2,0:0:0:0:
350,104,528095,1,2,0:0:0:0:
350,104,528157,1,0,0:0:0:0:
350,104,528220,1,2,0:0:0:0:
350,280,528345,1,2,0:0:0:0:
122,237,528470,1,2,0:0:0:0:
122,237,528532,1,0,0:0:0:0:
122,237,528595,1,2,0:0:0:0:
256,59,528720,1,2,0:0:0:0:
256,325,528845,1,2,0:0:0:0:
54,192,528970,5,4,1:2:0:0:
54,192,529345,1,4,1:2:0:0:
54,192,530970,6,0,L|175:179,1,100,2|2,0:0|0:0,0:0:0:0:
210,332,531220,1,2,0:0:0:0:
249,329,531282,1,0,0:0:0:0:
289,326,531345,1,0,0:0:0:0:
448,311,531470,1,2,0:0:0:0:
445,272,531532,1,0,0:0:0:0:
442,232,531595,1,0,0:0:0:0:
427,73,531720,1,2,0:0:0:0:
388,76,531782,1,0,0:0:0:0:
348,79,531845,1,2,0:0:0:0:
189,94,531970,5,2,0:0:0:0:
192,133,532032,1,0,0:0:0:0:
195,173,532095,1,2,0:0:0:0:
289,326,532220,1,2,0:0:0:0:
442,232,532345,1,2,0:0:0:0:
348,79,532470,1,0,1:0:0:0:
186,288,532595,1,4,3:0:0:0:
148,299,532657,1,4,3:0:0:0:
107,296,532720,1,6,3:0:0:0:
0,191,532845,1,2,3:0:0:0:
2,40,532970,5,4,1:2:0:0:
2,40,533345,1,4,1:2:0:0:
2,40,534970,6,0,L|105:32,1,100,4|0,1:2|0:0,0:0:0:0:
205,154,535220,1,2,0:0:0:0:
256,2,535345,1,4,1:2:0:0:
307,154,535470,1,0,0:0:0:0:
410,32,535595,1,2,0:0:0:0:
410,32,535657,1,0,0:0:0:0:
410,32,535720,1,4,3:0:0:0:
420,191,535845,1,2,0:0:0:0:
256,87,535970,5,2,0:0:0:0:
498,168,536095,1,2,0:0:0:0:
503,207,536157,1,0,0:0:0:0:
492,245,536220,1,2,0:0:0:0:
323,326,536345,1,2,0:0:0:0:
366,142,536470,1,2,0:0:0:0:
327,153,536532,1,0,0:0:0:0:
288,164,536595,1,2,0:0:0:0:
249,175,536657,1,0,0:0:0:0:
210,186,536720,1,2,0:0:0:0:
43,100,536845,1,2,0:0:0:0:
75,327,536970,5,4,1:2:0:0:
75,327,537345,1,4,1:2:0:0:
75,327,537970,5,4,1:2:0:0:
75,327,538345,1,4,1:2:0:0:
75,327,538970,6,0,L|91:212,1,100,4|0,1:2|0:0,0:0:0:0:
114,68,539220,1,0,0:0:0:0:
216,190,539345,1,4,1:2:0:0:
249,33,539470,1,2,0:0:0:0:
288,38,539532,1,0,0:0:0:0:
327,43,539595,1,2,0:0:0:0:
366,48,539657,1,0,0:0:0:0:
405,53,539720,2,0,L|528:37,1,100,4|0,1:2|0:0,0:0:0:0:
256,192,539970,12,2,540720,0:0:0:0:
171,283,540970,6,0,P|119:291|66:268,1,100,4|0,1:2|0:0,0:0:0:0:
139,128,541220,1,2,0:0:0:0:
293,169,541345,1,0,1:0:0:0:
359,23,541470,2,0,L|495:38,1,100,0|2,0:0|0:0,0:0:0:0:
484,110,541657,1,0,0:0:0:0:
484,110,541720,2,0,L|348:95,1,100,2|2,0:0|0:0,0:0:0:0:
305,89,541907,1,0,0:0:0:0:
305,89,541970,5,0,1:0:0:0:
397,219,542095,1,0,0:0:0:0:
240,187,542220,1,2,0:0:0:0:
419,305,542345,1,0,1:0:0:0:
327,175,542470,1,0,0:0:0:0:
484,207,542595,1,0,0:0:0:0:
484,207,542657,1,0,0:0:0:0:
484,207,542720,2,0,P|494:155|478:97,1,100,2|2,0:0|0:0,0:0:0:0:
434,47,542907,1,0,0:0:0:0:
434,47,542970,6,0,L|326:70,1,100,2|0,1:2|0:0,0:0:0:0:
182,24,543220,1,4,3:0:0:0:
410,135,543345,2,0,L|302:158,1,100,2|0,1:2|0:0,0:0:0:0:
158,112,543595,1,4,3:3:0:0:
174,271,543720,1,4,3:3:0:0:
174,271,543845,1,2,0:0:0:0:
44,177,543970,6,0,P|26:113|43:65,1,100,0|0,1:0|0:0,0:0:0:0:
177,8,544220,1,2,0:0:0:0:
335,8,544345,1,0,1:0:0:0:
478,81,544470,2,0,P|485:130|468:177,1,100,2|2,0:0|0:0,0:0:0:0:
404,224,544657,1,0,0:0:0:0:
404,224,544720,2,0,L|434:327,1,100,2|2,0:0|0:0,0:0:0:0:
279,367,544970,5,0,1:0:0:0:
279,207,545095,1,0,0:0:0:0:
141,309,545220,2,0,L|83:300,1,50,0|0,1:0|0:0,0:0:0:0:
132,223,545345,2,0,L|110:168,1,50,0|0,1:0|0:0,0:0:0:0:
201,172,545470,2,0,L|237:126,1,50,0|0,1:0|0:0,0:0:0:0:
279,207,545595,2,0,L|336:215,1,50,0|0,1:0|0:0,0:0:0:0:
289,292,545720,2,0,L|310:346,1,50,0|0,1:0|0:0,0:0:0:0:
220,343,545845,2,0,L|183:388,1,50,0|0,1:0|0:0,0:0:0:0:
132,223,545970,6,0,L|87:109,1,100,0|0,1:0|0:0,0:0:0:0:
197,7,546220,1,4,3:3:0:0:
250,157,546345,1,0,1:0:0:0:
367,48,546470,1,2,0:0:0:0:
405,55,546532,1,0,0:0:0:0:
444,62,546595,1,2,0:0:0:0:
498,212,546720,2,0,P|506:261|488:306,1,100,2|4,0:0|3:3,0:0:0:0:
336,363,546970,5,2,1:2:0:0:
354,204,547095,1,0,0:0:0:0:
209,273,547220,2,0,L|103:284,1,100,2|0,0:0|1:0,0:0:0:0:
109,100,547470,2,0,L|209:111,1,100,2|2,0:0|0:0,0:0:0:0:
287,93,547657,1,0,0:0:0:0:
287,93,547720,2,0,P|299:38|281:-4,1,100,2|2,0:0|0:0,0:0:0:0:
257,172,547907,1,0,0:0:0:0:
257,172,547970,6,0,P|245:227|263:269,1,100,0|0,1:0|0:0,0:0:0:0:
331,304,548157,1,0,0:0:0:0:
331,304,548220,2,0,L|389:296,1,50,2|0,0:0|0:0,0:0:0:0:
460,287,548345,1,0,1:0:0:0:
512,73,548470,6,0,L|454:81,1,50,0|0,1:0|0:0,0:0:0:0:
234,6,548595,2,0,L|292:-2,1,50,0|0,1:0|0:0,0:0:0:0:
500,85,548720,2,0,L|442:93,1,50,0|0,1:0|0:0,0:0:0:0:
222,18,548845,2,0,L|280:10,1,50,0|0,1:0|0:0,0:0:0:0:
488,97,548970,6,0,L|466:209,1,100,0|0,1:0|0:0,0:0:0:0:
434,351,549220,1,2,0:0:0:0:
304,260,549345,1,0,1:0:0:0:
304,260,549407,1,0,0:0:0:0:
304,260,549470,2,0,P|256:248|208:260,1,100,2|4,0:0|3:0,0:0:0:0:
78,351,549720,1,2,0:0:0:0:
44,196,549845,1,2,0:0:0:0:
173,105,549970,6,0,L|141:2,1,100,0|0,1:0|0:0,0:0:0:0:
222,14,550157,1,0,0:0:0:0:
222,14,550220,2,0,P|248:17|277:12,1,50,2|0,0:0|0:0,0:0:0:0:
334,63,550345,1,0,1:0:0:0:
369,219,550470,2,0,P|395:216|424:221,1,50
481,170,550595,1,4,3:0:0:0:
269,138,550720,1,2,0:0:0:0:
347,337,550845,1,4,3:0:0:0:
481,170,550970,6,0,B|488:119|488:119|469:68,1,100,0|0,1:0|0:0,0:0:0:0:
317,28,551220,1,4,3:0:0:0:
364,180,551345,1,0,1:0:0:0:
206,150,551470,2,0,L|230:260,1,100,0|4,0:0|3:0,0:0:0:0:
107,355,551720,1,4,3:0:0:0:
60,203,551845,1,2,0:0:0:0:
228,340,551970,6,0,P|279:346|331:327,1,100,0|0,1:0|0:0,0:0:0:0:
427,208,552220,1,2,0:0:0:0:
372,57,552345,1,0,1:0:0:0:
217,16,552470,2,0,P|166:10|114:29,1,100,2|4,0:0|3:0,0:0:0:0:
18,148,552720,1,4,3:0:0:0:
73,299,552845,1,2,0:0:0:0:
175,176,552970,6,0,L|292:176,1,100,0|0,1:0|0:0,0:0:0:0:
135,98,553220,1,4,3:0:0:0:
80,248,553345,1,0,1:0:0:0:
230,303,553470,2,0,L|347:303,1,100,4|0,3:0|0:0,0:0:0:0:
452,133,553720,1,4,3:0:0:0:
443,345,553845,1,4,3:0:0:0:
325,188,553970,6,0,P|312:138|325:83,1,100,0|2,1:0|0:0,0:0:0:0:
380,36,554157,1,0,0:0:0:0:
380,36,554220,2,0,L|267:27,1,100,2|0,0:0|1:0,0:0:0:0:
92,7,554470,1,4,3:0:0:0:
230,136,554595,1,2,0:0:0:0:
42,115,554720,1,2,0:0:0:0:
47,154,554782,1,0,0:0:0:0:
53,193,554845,1,2,0:0:0:0:
59,232,554907,1,0,0:0:0:0:
66,271,554970,6,0,P|122:279|163:253,1,100,0|0,1:0|0:0,0:0:0:0:
256,384,555220,1,2,0:0:0:0:
353,258,555345,2,0,P|397:280|446:271,1,100,0|2,1:0|0:0,0:0:0:0:
492,116,555595,1,2,0:0:0:0:
333,92,555720,1,2,0:0:0:0:
174,68,555845,1,2,0:0:0:0:
186,105,555907,1,0,0:0:0:0:
198,143,555970,5,0,1:0:0:0:
385,7,556095,1,0,1:0:0:0:
127,7,556220,1,0,1:0:0:0:
314,143,556345,1,0,1:0:0:0:
56,143,556470,1,0,1:0:0:0:
56,143,556532,1,0,1:0:0:0:
56,143,556595,1,0,1:0:0:0:
256,292,556720,1,2,1:2:0:0:
456,143,556845,1,2,1:2:0:0:
256,375,556970,5,4,1:2:0:0:
41,46,564970,5,12,0:0:0:0:
143,69,565095,1,12,0:0:0:0:
245,92,565220,1,2,0:0:0:0:
177,172,565345,1,0,0:0:0:0:
177,172,565407,1,0,0:0:0:0:
177,172,565470,1,2,0:0:0:0:
177,172,565532,1,0,0:0:0:0:
177,172,565595,1,0,0:0:0:0:
189,276,565720,1,0,0:0:0:0:
189,276,565782,1,0,0:0:0:0:
189,276,565845,1,2,0:0:0:0:
189,276,565907,1,0,0:0:0:0:
189,276,565970,5,12,0:0:0:0:
279,329,566095,1,12,0:0:0:0:
381,306,566220,1,2,0:0:0:0:
440,219,566345,1,2,0:0:0:0:
440,219,566407,1,0,0:0:0:0:
440,219,566470,1,2,0:0:0:0:
408,118,566595,1,2,0:0:0:0:
408,118,566657,1,0,0:0:0:0:
408,118,566720,1,2,0:0:0:0:
320,59,566845,1,2,0:0:0:0:
320,59,566907,1,0,0:0:0:0:
320,59,566970,5,12,0:0:0:0:
273,153,567095,1,12,0:0:0:0:
182,100,567220,1,2,0:0:0:0:
124,187,567345,1,0,0:0:0:0:
124,187,567407,1,0,0:0:0:0:
124,187,567470,1,2,0:0:0:0:
124,187,567532,1,0,0:0:0:0:
124,187,567595,1,2,0:0:0:0:
33,134,567720,1,0,0:0:0:0:
33,134,567782,1,0,0:0:0:0:
33,134,567845,1,2,0:0:0:0:
33,134,567907,1,0,0:0:0:0:
33,134,567970,5,12,0:0:0:0:
91,47,568095,1,12,0:0:0:0:
182,100,568220,1,2,0:0:0:0:
273,153,568345,1,2,0:0:0:0:
273,153,568407,1,0,0:0:0:0:
273,153,568470,5,2,0:0:0:0:
256,263,568595,1,2,0:0:0:0:
367,278,568720,1,2,0:0:0:0:
383,168,568845,1,2,0:0:0:0:
246,345,568970,5,12,0:0:0:0:
141,353,569095,1,12,0:0:0:0:
36,361,569220,1,2,0:0:0:0:
91,271,569345,1,0,0:0:0:0:
91,271,569407,1,0,0:0:0:0:
91,271,569470,1,2,0:0:0:0:
91,271,569532,1,0,0:0:0:0:
91,271,569595,1,0,0:0:0:0:
146,181,569720,1,0,0:0:0:0:
146,181,569782,1,0,0:0:0:0:
146,181,569845,1,2,0:0:0:0:
146,181,569907,1,0,0:0:0:0:
146,181,569970,5,12,0:0:0:0:
242,223,570095,1,12,0:0:0:0:
297,133,570220,1,2,0:0:0:0:
352,43,570345,1,2,0:0:0:0:
352,43,570407,1,0,0:0:0:0:
352,43,570470,1,2,0:0:0:0:
405,133,570595,1,2,0:0:0:0:
405,133,570657,1,0,0:0:0:0:
405,133,570720,1,2,0:0:0:0:
458,223,570845,1,2,0:0:0:0:
458,223,570907,1,0,0:0:0:0:
458,223,570970,5,12,0:0:0:0:
353,220,571095,1,12,0:0:0:0:
264,276,571220,1,2,0:0:0:0:
217,370,571345,1,0,0:0:0:0:
217,370,571407,1,0,0:0:0:0:
217,370,571470,1,2,0:0:0:0:
217,370,571532,1,0,0:0:0:0:
217,370,571595,1,2,0:0:0:0:
199,163,571720,1,2,0:0:0:0:
199,163,571782,1,2,0:0:0:0:
199,163,571845,1,2,0:0:0:0:
199,163,571907,1,2,0:0:0:0:
199,163,571970,6,0,L|210:110,1,37.5000014305115,4|4,0:0|0:0,0:0:0:0:
223,46,572095,1,2,0:0:0:0:
342,255,572220,1,2,0:0:0:0:
122,155,572345,1,4,0:0:0:0:
122,155,572407,1,4,0:0:0:0:
122,155,572470,1,2,0:0:0:0:
358,106,572595,1,4,0:0:0:0:
358,106,572657,1,4,0:0:0:0:
358,106,572720,1,2,0:0:0:0:
195,284,572845,1,2,0:0:0:0:
223,46,572970,6,0,L|122:33,1,100,4|0,1:2|0:0,0:0:0:0:
37,167,573220,1,2,0:0:0:0:
195,145,573345,2,0,L|296:132,1,100,0|0,1:0|0:0,0:0:0:0:
381,266,573595,1,2,0:0:0:0:
505,165,573720,1,2,0:0:0:0:
363,341,573845,1,2,0:0:0:0:
363,341,573907,1,0,0:0:0:0:
363,341,573970,6,0,P|301:342|269:319,1,100,0|0,1:0|0:0,0:0:0:0:
154,212,574220,1,2,0:0:0:0:
294,132,574345,1,0,1:0:0:0:
301,93,574407,1,0,0:0:0:0:
291,53,574470,1,0,0:0:0:0:
90,0,574595,1,0,0:0:0:0:
83,39,574657,1,0,0:0:0:0:
93,79,574720,1,2,0:0:0:0:
158,223,574845,1,2,0:0:0:0:
294,132,574970,6,0,L|411:140,1,100,0|0,1:0|0:0,0:0:0:0:
484,7,575220,1,2,0:0:0:0:
284,217,575345,2,0,L|401:225,1,100,0|0,1:0|0:0,0:0:0:0:
474,92,575595,1,4,3:0:0:0:
500,308,575720,1,4,3:0:0:0:
394,138,575845,1,2,0:0:0:0:
394,138,575907,1,0,0:0:0:0:
394,138,575970,6,0,P|386:78|399:39,1,100,0|0,1:0|0:0,0:0:0:0:
241,0,576220,1,2,0:0:0:0:
294,168,576345,2,0,L|283:220,1,50,0|0,1:0|0:0,0:0:0:0:
311,297,576470,2,0,L|258:302,1,50,2|0,0:0|0:0,0:0:0:0:
193,353,576595,2,0,L|171:304,1,50,2|0,0:0|0:0,0:0:0:0:
103,258,576720,2,0,L|142:222,1,50,2|0,0:0|0:0,0:0:0:0:
165,143,576845,2,0,L|211:169,1,50,2|0,0:0|0:0,0:0:0:0:
311,297,576970,6,0,P|373:298|412:266,1,100,0|0,1:0|0:0,0:0:0:0:
331,132,577220,1,2,0:0:0:0:
297,378,577345,1,0,1:0:0:0:
236,83,577470,1,0,1:0:0:0:
202,329,577595,1,0,1:0:0:0:
141,34,577720,1,0,1:0:0:0:
107,280,577845,1,0,1:0:0:0:
331,132,577970,6,0,L|443:123,1,100,0|0,1:0|0:0,0:0:0:0:
299,32,578220,1,2,0:0:0:0:
396,209,578345,1,0,1:0:0:0:
218,154,578470,1,2,0:0:0:0:
218,154,578532,1,0,0:0:0:0:
218,154,578595,1,2,0:0:0:0:
315,331,578720,2,0,L|427:322,1,100,2|4,0:0|3:0,0:0:0:0:
215,338,578970,5,2,1:2:0:0:
81,250,579095,1,0,0:0:0:0:
65,90,579220,1,2,0:0:0:0:
58,268,579345,1,2,1:2:0:0:
215,338,579470,2,0,P|240:295|235:242,1,100,2|2,0:0|0:0,0:0:0:0:
183,187,579657,1,0,0:0:0:0:
183,187,579720,2,0,P|179:137|204:95,1,100,2|2,0:0|0:0,0:0:0:0:
272,53,579907,1,0,0:0:0:0:
272,53,579970,5,0,1:0:0:0:
360,237,580095,1,2,0:0:0:0:
398,245,580157,1,0,0:0:0:0:
437,239,580220,1,2,0:0:0:0:
469,215,580282,1,0,0:0:0:0:
493,182,580345,1,0,1:0:0:0:
288,64,580470,1,0,1:0:0:0:
287,302,580595,1,0,1:0:0:0:
288,64,580720,1,0,1:0:0:0:
493,182,580845,1,0,1:0:0:0:
188,146,580970,6,0,L|75:154,1,100,0|0,1:0|0:0,0:0:0:0:
187,27,581220,1,2,0:0:0:0:
284,153,581345,1,0,1:0:0:0:
151,242,581470,1,2,0:0:0:0:
151,242,581532,1,0,0:0:0:0:
151,242,581595,1,4,3:0:0:0:
248,368,581720,2,0,L|361:360,1,100,0|2,0:0|0:0,0:0:0:0:
456,243,581970,6,0,P|465:185|452:141,1,100,0|0,1:0|0:0,0:0:0:0:
363,12,582220,1,2,0:0:0:0:
211,64,582345,1,0,1:0:0:0:
304,194,582470,2,0,P|313:252|300:296,1,100,0|2,0:0|0:0,0:0:0:0:
17,212,582720,2,0,P|8:154|21:110,1,100,0|2,0:0|0:0,0:0:0:0:
147,19,582970,6,0,L|276:29,1,100,0|0,1:0|0:0,0:0:0:0:
375,122,583220,1,2,0:0:0:0:
216,143,583345,1,0,1:0:0:0:
406,5,583470,1,2,0:0:0:0:
299,215,583595,1,4,3:0:0:0:
147,19,583720,2,0,L|18:9,1,100,4|2,3:0|0:0,0:0:0:0:
37,249,583970,5,0,1:0:0:0:
159,93,584095,1,0,0:0:0:0:
256,271,584220,1,2,0:0:0:0:
256,271,584282,1,0,0:0:0:0:
256,271,584345,1,0,1:0:0:0:
353,93,584470,1,2,0:0:0:0:
475,249,584595,1,4,3:0:0:0:
345,58,584720,1,4,3:0:0:0:
256,271,584845,1,2,0:0:0:0:
459,130,584970,6,0,P|468:70|449:26,1,100,0|4,1:0|3:0,0:0:0:0:
296,2,585220,1,2,0:0:0:0:
359,148,585345,1,0,1:0:0:0:
202,113,585470,2,0,L|82:131,1,100,0|4,3:0|3:0,0:0:0:0:
23,266,585720,1,4,3:0:0:0:
23,266,585845,1,0,0:0:0:0:
181,288,585970,6,0,P|204:338|195:386,1,100,0|0,1:0|0:0,0:0:0:0:
23,266,586220,1,2,0:0:0:0:
169,202,586345,1,0,1:0:0:0:
298,296,586470,2,0,L|412:278,1,100,4|2,3:0|0:0,0:0:0:0:
473,83,586720,1,2,0:0:0:0:
433,76,586782,1,0,0:0:0:0:
393,70,586845,1,2,0:0:0:0:
353,64,586907,1,0,0:0:0:0:
313,57,586970,5,2,1:2:0:0:
482,192,587095,1,2,0:0:0:0:
313,327,587220,1,2,0:0:0:0:
144,192,587345,1,2,1:2:0:0:
313,57,587470,2,0,P|325:109|313:162,1,100,2|2,0:0|0:0,0:0:0:0:
47,280,587720,2,0,P|35:228|47:175,1,100,2|2,0:0|0:0,0:0:0:0:
85,114,587907,1,0,0:0:0:0:
85,114,587970,5,0,1:0:0:0:
366,239,588095,1,0,1:0:0:0:
334,21,588220,1,0,1:0:0:0:
209,302,588345,1,0,1:0:0:0:
189,17,588470,1,0,1:0:0:0:
189,17,588532,1,0,1:0:0:0:
189,17,588595,1,0,1:0:0:0:
308,318,588720,1,0,1:0:0:0:
69,251,588845,1,0,1:0:0:0:
430,118,588970,5,4,1:2:0:0:
200,75,603970,5,0,1:0:0:0:
373,136,604095,1,0,1:0:0:0:
312,309,604220,1,0,1:0:0:0:
139,248,604345,1,0,1:0:0:0:
311,40,604470,1,0,1:0:0:0:
311,40,604532,1,0,1:0:0:0:
311,40,604595,1,0,1:0:0:0:
312,309,604720,2,0,L|312:353,4,25,2|0|2|0|2,0:0|0:0|0:0|0:0|0:0,0:0:0:0:
139,248,604970,5,4,1:2:0:0:
139,248,605345,1,4,1:2:0:0:
139,248,606970,6,0,P|148:190|136:146,1,100,4|0,3:0|0:0,0:0:0:0:
63,32,607220,1,0,1:0:0:0:
278,0,607345,2,0,P|269:58|281:102,1,100,4|0,3:0|0:0,0:0:0:0:
354,216,607595,1,0,1:0:0:0:
139,248,607720,2,0,P|148:190|136:146,1,100,4|0,3:0|0:0,0:0:0:0:
28,345,607970,5,2,0:0:0:0:
242,286,608095,1,2,0:0:0:0:
280,293,608157,1,0,0:0:0:0:
319,300,608220,1,2,0:0:0:0:
265,80,608345,1,2,0:0:0:0:
83,254,608470,1,2,0:0:0:0:
52,228,608532,1,0,0:0:0:0:
34,191,608595,1,2,0:0:0:0:
27,151,608657,1,0,0:0:0:0:
34,111,608720,1,2,0:0:0:0:
189,0,608845,1,2,0:0:0:0:
171,235,608970,5,4,1:2:0:0:
171,235,609345,1,4,1:2:0:0:
171,235,610970,6,0,L|314:221,1,100,2|2,0:0|0:0,0:0:0:0:
403,84,611220,1,2,0:0:0:0:
403,84,611282,1,0,0:0:0:0:
403,84,611345,1,2,0:0:0:0:
439,298,611470,1,2,0:0:0:0:
439,298,611532,1,0,0:0:0:0:
439,298,611595,1,2,0:0:0:0:
282,115,611720,1,2,0:0:0:0:
282,115,611782,1,0,0:0:0:0:
282,115,611845,1,2,0:0:0:0:
318,329,611970,5,2,0:0:0:0:
318,329,612032,1,0,0:0:0:0:
318,329,612095,1,2,0:0:0:0:
512,186,612220,1,2,0:0:0:0:
282,115,612345,1,2,0:0:0:0:
432,199,612470,1,4,0:3:0:0:
199,286,612595,1,4,3:0:0:0:
159,279,612657,1,4,3:0:0:0:
119,272,612720,1,6,3:0:0:0:
79,266,612782,1,0,0:0:0:0:
39,259,612845,2,0,L|24:200,1,50,6|0,3:0|0:0,0:0:0:0:
1,126,612970,5,4,1:2:0:0:
1,126,613345,1,4,1:2:0:0:
1,126,614970,6,0,L|110:104,1,100,4|0,1:2|0:0,0:0:0:0:
229,11,615220,1,2,0:0:0:0:
326,180,615345,2,0,L|217:202,1,100,4|0,1:2|0:0,0:0:0:0:
98,295,615595,1,2,0:0:0:0:
99,106,615720,1,4,3:0:0:0:
228,199,615845,1,2,0:0:0:0:
229,11,615970,5,2,0:0:0:0:
405,108,616095,1,2,0:0:0:0:
423,72,616157,1,0,0:0:0:0:
421,31,616220,1,2,0:0:0:0:
228,199,616345,1,2,0:0:0:0:
371,346,616470,1,2,0:0:0:0:
331,350,616532,1,0,0:0:0:0:
290,354,616595,1,2,0:0:0:0:
250,358,616657,1,0,0:0:0:0:
209,362,616720,1,2,0:0:0:0:
35,274,616845,1,2,0:0:0:0:
313,234,616970,5,4,1:2:0:0:
313,234,617345,1,4,1:2:0:0:
313,234,617970,5,4,1:2:0:0:
313,234,618345,1,4,1:2:0:0:
313,234,618970,6,0,L|328:128,1,100,4|0,1:2|0:0,0:0:0:0:
49,57,619220,1,2,0:0:0:0:
49,57,619282,1,0,0:0:0:0:
49,57,619345,2,0,L|63:156,1,100,4|0,1:2|0:0,0:0:0:0:
97,376,619595,1,0,0:0:0:0:
220,158,619720,1,4,1:2:0:0:
12,296,619845,1,0,0:0:0:0:
12,296,620720,5,2,0:0:0:0:
12,296,620970,6,0,P|74:292|119:318,1,100,4|0,1:2|0:0,0:0:0:0:
192,172,621220,1,2,0:0:0:0:
307,381,621345,2,0,P|245:385|200:359,2,100,0|0|4,1:0|0:0|3:0,0:0:0:0:
447,302,621720,1,2,0:0:0:0:
372,160,621845,1,2,0:0:0:0:
372,160,621907,1,0,0:0:0:0:
372,160,621970,6,0,L|393:48,1,100,0|0,1:0|0:0,0:0:0:0:
256,264,622220,1,2,0:0:0:0:
121,61,622345,2,0,L|132:122,1,50,0|0,1:0|0:0,0:0:0:0:
148,189,622470,2,0,L|37:175,1,100,2|2,0:0|0:0,0:0:0:0:
20,250,622657,1,0,0:0:0:0:
20,250,622720,2,0,L|119:262,1,100,2|2,0:0|0:0,0:0:0:0:
164,327,622907,1,0,0:0:0:0:
164,327,622970,6,0,P|248:352|335:255,1,200,0|4,1:0|3:0,0:0:0:0:
348,57,623345,2,0,P|264:32|177:129,1,200,0|4,1:0|3:0,0:0:0:0:
383,179,623720,1,4,3:0:0:0:
129,205,623845,1,2,0:0:0:0:
348,57,623970,6,0,L|449:74,1,100,0|0,1:0|0:0,0:0:0:0:
501,223,624220,1,2,0:0:0:0:
372,318,624345,1,0,1:2:0:0:
332,323,624407,1,0,0:0:0:0:
292,316,624470,1,2,0:0:0:0:
169,210,624595,1,2,0:0:0:0:
129,205,624657,1,0,0:0:0:0:
89,212,624720,1,2,0:0:0:0:
8,350,624845,1,2,0:0:0:0:
0,137,624970,6,0,L|21:30,1,100,0|0,1:0|0:0,0:0:0:0:
211,0,625220,1,2,0:0:0:0:
161,250,625345,1,0,1:0:0:0:
298,65,625470,1,0,1:0:0:0:
73,184,625595,1,0,1:0:0:0:
303,175,625720,1,0,1:0:0:0:
68,74,625845,1,0,1:0:0:0:
298,65,625970,6,0,L|415:60,1,100,0|0,1:0|0:0,0:0:0:0:
482,198,626220,1,4,3:0:0:0:
357,297,626345,2,0,L|240:302,1,100,0|0,1:0|0:0,0:0:0:0:
298,65,626595,1,2,0:0:0:0:
394,194,626720,1,2,0:0:0:0:
240,150,626845,1,4,3:0:0:0:
457,0,626970,6,0,P|480:39|473:97,1,100,2|0,1:2|0:0,0:0:0:0:
326,149,627220,1,2,0:0:0:0:
360,371,627345,2,0,P|383:332|376:274,1,100,2|2,1:2|0:0,0:0:0:0:
229,222,627595,1,2,0:0:0:0:
190,232,627657,1,0,0:0:0:0:
151,243,627720,1,2,0:0:0:0:
220,70,627845,1,2,0:0:0:0:
259,60,627907,1,0,0:0:0:0:
298,49,627970,5,0,1:0:0:0:
477,133,628095,1,2,0:0:0:0:
489,170,628157,1,0,0:0:0:0:
487,210,628220,1,2,0:0:0:0:
473,247,628282,1,0,0:0:0:0:
448,279,628345,1,0,1:0:0:0:
151,243,628470,6,0,L|165:183,1,50,0|0,1:0|0:0,0:0:0:0:
384,100,628595,2,0,L|370:160,1,50,0|0,1:0|0:0,0:0:0:0:
187,58,628720,2,0,L|247:72,1,50,0|0,1:0|0:0,0:0:0:0:
330,291,628845,2,0,L|270:277,1,50,0|0,1:0|0:0,0:0:0:0:
187,58,628970,6,0,P|125:65|90:93,1,100,0|0,1:0|0:0,0:0:0:0:
27,232,629220,1,2,0:0:0:0:
170,161,629345,1,0,1:0:0:0:
119,312,629470,1,2,0:0:0:0:
119,312,629532,1,0,0:0:0:0:
119,312,629595,1,4,3:0:0:0:
268,246,629720,2,0,L|388:256,1,100,2|2,0:0|0:0,0:0:0:0:
482,30,629970,5,0,1:0:0:0:
329,77,630095,1,0,0:0:0:0:
478,132,630220,1,0,0:0:0:0:
256,132,630345,1,0,1:0:0:0:
405,77,630470,1,0,0:0:0:0:
252,30,630595,1,4,3:0:0:0:
368,155,630720,2,0,L|368:270,1,100,2|4,0:0|3:0,0:0:0:0:
231,338,630970,6,0,P|143:353|63:279,1,200,0|4,1:0|3:0,0:0:0:0:
281,46,631345,2,0,P|369:31|449:105,1,200,0|4,1:0|3:0,0:0:0:0:
457,259,631720,1,4,3:0:0:0:
321,343,631845,1,2,0:0:0:0:
182,263,631970,6,0,P|169:209|185:156,1,100,0|0,1:0|0:0,0:0:0:0:
281,46,632220,1,2,0:0:0:0:
281,46,632282,1,0,0:0:0:0:
281,46,632345,1,0,1:0:0:0:
122,21,632470,1,2,0:0:0:0:
122,21,632532,1,0,0:0:0:0:
122,21,632595,1,4,3:0:0:0:
303,177,632720,2,0,L|417:151,1,100,2|2,0:0|0:0,0:0:0:0:
171,337,632970,6,0,L|57:311,2,100,0|4|2,1:0|3:0|0:0,0:0:0:0:
321,277,633345,1,0,1:0:0:0:
186,190,633470,2,0,P|163:136|173:82,1,100,2|0,0:0|0:0,0:0:0:0:
301,8,633720,1,4,3:0:0:0:
301,8,633845,1,4,3:0:0:0:
396,136,633970,6,0,L|500:113,1,100,0|0,1:0|0:0,0:0:0:0:
474,195,634157,1,0,0:0:0:0:
474,195,634220,2,0,L|370:218,1,100,2|0,0:0|1:0,0:0:0:0:
403,373,634470,1,4,3:0:0:0:
248,332,634595,2,0,L|180:344,1,50,2|0,0:0|0:0,0:0:0:0:
119,323,634720,1,2,0:0:0:0:
104,291,634782,1,0,0:0:0:0:
97,256,634845,1,2,0:0:0:0:
99,221,634907,1,0,0:0:0:0:
109,187,634970,6,0,P|115:137|101:80,1,100,2|0,1:2|0:0,0:0:0:0:
256,8,635220,1,2,0:0:0:0:
407,88,635345,2,0,P|396:137|403:187,1,100,2|0,1:2|0:0,0:0:0:0:
256,277,635595,2,0,L|255:218,1,50,2|0,0:0|0:0,0:0:0:0:
256,146,635720,1,2,0:0:0:0:
295,363,635845,1,2,0:0:0:0:
256,371,635907,1,0,0:0:0:0:
217,363,635970,5,0,1:0:0:0:
478,260,636095,1,0,1:0:0:0:
146,191,636220,1,0,1:0:0:0:
407,88,636345,1,0,1:0:0:0:
217,363,636470,1,0,1:0:0:0:
178,354,636532,1,0,1:0:0:0:
138,345,636595,1,0,1:0:0:0:
63,104,636720,1,0,1:0:0:0:
63,104,636845,1,0,1:0:0:0:
63,104,636970,6,0,P|122:28|126:155,1,300,6|0,1:2|0:0,0:0:0:0:
344,0,637470,2,0,P|420:58|293:62,1,300,2|0,1:2|0:0,0:0:0:0:
449,280,637970,2,0,P|390:356|386:229,1,300,2|0,1:2|0:0,0:0:0:0:
168,385,638470,2,0,P|92:326|219:322,1,300,2|0,1:2|0:0,0:0:0:0:
141,163,638970,6,0,B|94:124|60:117|60:117|94:124|140:115|168:96|197:60|190:-6,1,300,6|0,1:2|0:0,0:0:0:0:
285,77,639470,2,0,B|324:30|331:-4|331:-4|324:30|333:76|352:104|388:133|454:126,1,300,2|0,1:2|0:0,0:0:0:0:
371,221,639970,2,0,B|418:260|452:267|452:267|418:260|372:269|344:288|315:324|322:390,1,300,2|0,1:2|0:0,0:0:0:0:
227,307,640470,2,0,B|188:354|181:388|181:388|188:354|179:308|160:280|124:251|58:258,1,300,2|0,1:2|0:0,0:0:0:0:
86,132,640970,6,0,B|121:103|126:50|126:50|146:148|146:148|155:88|206:61,1,300,6|0,1:2|0:0,0:0:0:0:
316,22,641470,2,0,B|345:57|398:62|398:62|300:82|300:82|360:91|387:142,1,300,2|0,1:2|0:0,0:0:0:0:
426,252,641970,2,0,B|391:281|386:334|386:334|366:236|366:236|357:296|306:323,1,300,2|0,1:2|0:0,0:0:0:0:
196,362,642470,2,0,B|167:327|114:322|114:322|212:302|212:302|152:293|125:242,1,300,2|0,1:2|0:0,0:0:0:0:
162,142,642970,6,0,B|171:118|207:93|207:93|163:100|105:84|82:60|82:60|115:74|145:79|183:58,1,300,6|0,1:2|0:0,0:0:0:0:
306,98,643470,2,0,B|330:107|355:143|355:143|348:99|364:41|388:18|388:18|374:51|369:81|390:119,1,300,2|0,1:2|0:0,0:0:0:0:
350,242,643970,2,0,B|341:266|305:291|305:291|349:284|407:300|430:324|430:324|397:310|367:305|329:326,1,300,2|0,1:2|0:0,0:0:0:0:
206,286,644470,2,0,B|182:277|157:241|157:241|164:285|148:343|124:366|124:366|138:333|143:303|122:265,1,300,2|0,1:2|0:0,0:0:0:0:
69,143,644970,6,0,B|58:118|47:93|72:82|101:70|113:99|113:99|122:120|150:108|178:96|168:71|168:71|157:46|186:34|211:24|221:48|232:73,1,300,6|0,1:2|0:0,0:0:0:0:
305,5,645470,2,0,B|329:-5|354:-16|365:8|377:37|348:49|348:49|327:58|339:86|351:114|376:104|376:104|401:93|413:122|423:147|399:157|374:168,1,300,2|0,1:2|0:0,0:0:0:0:
443,241,645970,2,0,B|453:265|464:290|439:301|410:313|398:284|398:284|389:263|361:275|333:287|343:312|343:312|354:337|325:349|300:359|290:335|279:310,1,300,2|0,1:2|0:0,0:0:0:0:
207,379,646470,2,0,B|182:389|157:400|146:375|134:346|163:334|163:334|184:325|172:297|160:269|135:279|135:279|110:290|98:261|88:236|112:226|137:215,1,300,2|0,1:2|0:0,0:0:0:0:
196,129,646970,6,0,P|213:80|103:130,1,300,6|0,1:2|0:0,0:0:0:0:
319,132,647470,2,0,P|368:149|318:39,1,300,2|0,1:2|0:0,0:0:0:0:
316,255,647970,2,0,P|299:304|409:254,1,300,2|0,1:2|0:0,0:0:0:0:
193,252,648470,2,0,P|144:235|194:345,1,300,2|0,1:2|0:0,0:0:0:0:
227,173,648970,6,0,P|121:153|0:286,1,300,6|0,1:2|0:0,0:0:0:0:
193,252,649470,2,0,P|130:193|188:8,1,300,2|0,1:2|0:0,0:0:0:0:
285,173,649970,2,0,P|391:153|512:286,1,300,2|0,1:2|0:0,0:0:0:0:
319,252,650470,2,0,P|382:193|324:8,1,300,2|0,1:2|0:0,0:0:0:0:
256,192,650970,12,4,652970,1:2:0:0:
143,84,668970,5,4,1:2:0:0:
143,84,669345,1,4,1:2:0:0:
143,84,670970,6,0,L|235:71,1,75.0000028610231,4|0,3:0|0:0,0:0:0:0:
106,215,671220,2,0,L|14:228,1,75.0000028610231,0|4,1:0|3:0,0:0:0:0:
219,285,671470,1,2,0:0:0:0:
314,147,671595,1,0,1:0:0:0:
320,317,671720,2,0,P|361:328|398:317,1,75.0000028610231,4|0,3:0|0:0,0:0:0:0:
216,188,671970,5,2,0:0:0:0:
441,134,672095,1,2,0:0:0:0:
449,105,672157,1,0,0:0:0:0:
457,75,672220,1,2,0:0:0:0:
252,17,672345,1,2,0:0:0:0:
357,200,672470,1,2,0:0:0:0:
376,222,672532,1,0,0:0:0:0:
395,244,672595,1,2,0:0:0:0:
414,266,672657,1,0,0:0:0:0:
434,288,672720,2,0,P|442:322|439:337,1,37.5000014305115,2|0,0:0|0:0,0:0:0:0:
344,384,672845,2,0,P|336:350|339:335,1,37.5000014305115,2|0,0:0|0:0,0:0:0:0:
357,200,672970,5,4,1:2:0:0:
357,200,673345,1,4,1:2:0:0:
357,200,674970,6,0,L|372:100,1,75.0000028610231,2|2,0:0|0:0,0:0:0:0:
192,14,675220,1,2,0:0:0:0:
192,14,675282,1,0,0:0:0:0:
192,14,675345,1,2,0:0:0:0:
239,191,675470,1,2,0:0:0:0:
239,191,675532,1,0,0:0:0:0:
239,191,675595,1,2,0:0:0:0:
330,0,675720,1,2,0:0:0:0:
330,0,675782,1,0,0:0:0:0:
330,0,675845,1,2,0:0:0:0:
152,82,675970,5,2,0:0:0:0:
152,82,676032,1,0,0:0:0:0:
152,82,676095,2,0,L|88:70,1,37.5000014305115,2|0,0:0|0:0,0:0:0:0:
134,164,676220,2,0,L|70:152,1,37.5000014305115,2|0,0:0|0:0,0:0:0:0:
116,246,676345,2,0,L|52:234,1,37.5000014305115,2|0,0:0|0:0,0:0:0:0:
156,319,676470,1,4,3:0:0:0:
305,220,676595,1,0,1:0:0:0:
334,216,676657,1,0,0:0:0:0:
363,220,676720,1,0,1:0:0:0:
390,231,676782,1,0,0:0:0:0:
413,250,676845,1,0,1:0:0:0:
428,275,676907,1,0,0:0:0:0:
438,303,676970,5,4,1:2:0:0:
438,303,677345,1,4,1:2:0:0:
438,303,678970,6,0,L|446:200,1,75.0000028610231,4|0,1:2|0:0,0:0:0:0:
458,62,679220,1,0,1:0:0:0:
300,12,679345,2,0,L|292:115,1,75.0000028610231,4|0,1:2|0:0,0:0:0:0:
280,253,679595,1,0,1:0:0:0:
127,190,679720,1,4,3:0:0:0:
127,190,679845,1,0,0:0:0:0:
300,12,679970,5,2,0:0:0:0:
418,127,680095,1,2,0:0:0:0:
425,155,680157,1,0,0:0:0:0:
420,184,680220,2,0,P|421:225|440:282,1,75.0000028610231,2|2,0:0|0:0,0:0:0:0:
326,360,680470,1,2,0:0:0:0:
296,355,680532,1,0,0:0:0:0:
266,349,680595,1,2,0:0:0:0:
236,344,680657,1,0,0:0:0:0:
206,339,680720,1,2,0:0:0:0:
25,306,680845,1,2,0:0:0:0:
254,224,680970,5,4,1:2:0:0:
254,224,681345,1,4,1:2:0:0:
254,224,681970,5,4,1:2:0:0:
254,224,682345,1,4,1:2:0:0:
254,224,682970,6,0,P|254:172|238:131,1,75.0000028610231,4|0,1:2|0:0,0:0:0:0:
126,43,683220,1,2,0:0:0:0:
386,43,683345,1,4,1:2:0:0:
161,148,683470,1,2,0:0:0:0:
131,144,683532,1,0,0:0:0:0:
101,140,683595,1,2,0:0:0:0:
71,136,683657,1,0,0:0:0:0:
41,132,683720,1,4,1:2:0:0:
225,0,683845,1,2,0:0:0:0:
376,206,683970,5,2,0:0:0:0:
376,206,684032,1,0,0:0:0:0:
376,206,684095,2,0,P|345:241|338:245,1,37.5000014305115,2|0,0:0|0:0,0:0:0:0:
183,288,684220,2,0,P|168:244|168:236,1,37.5000014305115,0|0,1:0|0:0,0:0:0:0:
208,81,684345,2,0,P|254:90|261:94,1,37.5000014305115,0|0,1:0|0:0,0:0:0:0:
322,308,684470,5,2,1:2:0:0:
139,258,684595,1,2,1:2:0:0:
189,75,684720,1,2,1:2:0:0:
372,125,684845,1,2,1:2:0:0:
255,191,684970,5,4,1:2:0:0:
256,192,687345,12,2,688157,0:0:0:0:
90,76,688299,5,2,1:2:0:0:
124,69,688361,1,0,0:0:0:0:
157,79,688424,1,2,0:0:0:0:
183,100,688486,1,0,0:0:0:0:
199,131,688549,2,0,P|206:162|202:189,1,50,2|0,0:0|0:0,0:0:0:0:
313,253,688674,2,0,P|306:222|310:195,1,50,2|0,1:2|0:0,0:0:0:0:
326,174,688799,1,2,0:0:0:0:
352,153,688861,1,0,0:0:0:0:
385,143,688924,1,2,0:0:0:0:
419,150,688986,1,0,0:0:0:0:
448,169,689049,1,2,1:2:0:0:
448,169,689299,6,0,L|465:67,1,100,4|0,1:2|0:0,0:0:0:0:
318,4,689549,1,2,0:0:0:0:
448,169,689674,2,0,L|431:271,1,100,0|0,1:0|0:0,0:0:0:0:
293,349,689924,1,0,0:0:0:0:
253,342,689986,1,0,0:0:0:0:
213,336,690049,1,2,0:0:0:0:
173,330,690111,1,0,0:0:0:0:
133,324,690174,1,2,0:0:0:0:
31,200,690299,6,0,P|15:141|26:98,1,100,0|0,1:0|0:0,0:0:0:0:
71,39,690486,1,0,0:0:0:0:
71,39,690549,1,2,0:0:0:0:
210,116,690674,1,0,1:0:0:0:
249,122,690736,1,0,0:0:0:0:
289,118,690799,1,0,0:0:0:0:
324,100,690861,1,0,0:0:0:0:
351,70,690924,1,2,0:0:0:0:
71,39,691049,1,0,0:0:0:0:
81,78,691112,1,0,0:0:0:0:
91,116,691174,1,0,0:0:0:0:
101,155,691237,1,0,0:0:0:0:
110,193,691299,6,0,L|86:299,2,100,0|0|0,1:0|0:0|0:0,0:0:0:0:
366,114,691674,2,0,L|390:8,2,100,0|0|0,1:0|0:0|0:0,0:0:0:0:
462,361,692049,1,2,0:0:0:0:
462,361,692111,1,0,0:0:0:0:
462,361,692174,1,0,0:0:0:0:
261,293,692299,6,0,P|203:293|157:320,1,100,0|0,1:0|0:0,0:0:0:0:
366,114,692549,2,0,P|424:114|470:87,1,100,0|0,0:0|1:0,0:0:0:0:
226,17,692799,1,2,0:0:0:0:
402,204,692924,1,0,0:0:0:0:
393,242,692986,1,0,0:0:0:0:
385,281,693049,1,0,0:0:0:0:
376,319,693111,1,0,0:0:0:0:
368,358,693174,1,2,0:0:0:0:
152,235,693299,6,0,L|46:253,1,100,0|0,1:0|0:0,0:0:0:0:
214,131,693549,1,2,0:0:0:0:
116,356,693674,2,0,L|222:374,1,100,0|0,1:0|0:0,0:0:0:0:
54,252,693924,1,0,0:0:0:0:
296,202,694049,1,2,0:0:0:0:
335,197,694111,1,0,0:0:0:0:
374,206,694174,1,0,0:0:0:0:
406,228,694236,1,0,0:0:0:0:
426,262,694299,6,0,P|435:320|420:366,1,100,0|2,1:0|0:0,0:0:0:0:
296,202,694549,1,0,0:0:0:0:
305,163,694611,1,0,0:0:0:0:
314,123,694674,1,2,1:2:0:0:
323,84,694736,1,0,0:0:0:0:
332,44,694799,1,2,0:0:0:0:
141,0,694924,1,0,0:0:0:0:
132,39,694986,1,0,0:0:0:0:
123,79,695049,1,2,0:0:0:0:
114,118,695111,1,0,0:0:0:0:
105,158,695174,1,2,0:0:0:0:
332,44,695299,6,0,L|438:21,1,100,0|0,1:0|0:0,0:0:0:0:
499,192,695549,1,2,0:0:0:0:
429,361,695674,2,0,L|332:340,1,100,0|0,1:0|0:0,0:0:0:0:
155,305,695924,1,2,0:0:0:0:
383,257,696049,1,0,0:0:0:0:
111,202,696174,1,0,0:0:0:0:
252,17,696299,6,0,P|279:60|275:131,1,100,0|0,1:0|0:0,0:0:0:0:
254,182,696486,1,0,0:0:0:0:
254,182,696549,2,0,P|303:183|321:175,1,50,2|0,0:0|0:0,0:0:0:0:
202,118,696674,2,0,P|153:117|135:125,1,50,0|0,1:0|0:0,0:0:0:0:
75,127,696799,1,2,0:0:0:0:
64,165,696861,1,0,0:0:0:0:
53,203,696924,1,0,0:0:0:0:
43,241,696986,1,0,0:0:0:0:
33,280,697049,1,2,0:0:0:0:
213,384,697174,1,2,0:0:0:0:
254,182,697299,6,0,L|234:70,1,100,0|0,1:0|0:0,0:0:0:0:
418,0,697549,1,2,0:0:0:0:
363,191,697674,1,0,1:0:0:0:
282,8,697799,1,2,0:0:0:0:
152,160,697924,1,0,0:0:0:0:
158,199,697986,1,0,0:0:0:0:
164,238,698049,1,0,0:0:0:0:
171,277,698111,1,0,0:0:0:0:
178,316,698174,1,2,0:0:0:0:
389,347,698299,5,0,1:0:0:0:
383,308,698361,1,0,0:0:0:0:
377,269,698424,1,0,0:0:0:0:
370,230,698486,1,0,0:0:0:0:
363,191,698549,1,2,0:0:0:0:
423,26,698674,1,0,1:0:0:0:
423,26,698736,1,0,0:0:0:0:
423,26,698799,2,0,P|446:22|474:29,2,50,0|0|2,0:0|0:0|0:0,0:0:0:0:
256,126,699049,1,0,0:0:0:0:
216,132,699111,1,0,0:0:0:0:
175,128,699174,1,2,0:0:0:0:
139,111,699236,1,0,0:0:0:0:
108,84,699299,6,0,P|52:80|12:108,1,100,0|0,1:0|0:0,0:0:0:0:
122,276,699549,1,0,0:0:0:0:
256,126,699674,1,0,1:0:0:0:
362,300,699799,1,2,0:0:0:0:
159,192,699924,1,0,0:0:0:0:
119,190,699986,1,0,0:0:0:0:
79,199,700049,1,2,0:0:0:0:
50,226,700111,1,0,0:0:0:0:
35,263,700174,1,0,0:0:0:0:
212,380,700299,6,0,L|323:368,1,100,0|0,1:0|0:0,0:0:0:0:
469,246,700549,1,0,0:0:0:0:
272,202,700674,1,0,1:0:0:0:
473,382,700799,1,2,0:0:0:0:
392,159,700924,1,0,0:0:0:0:
402,120,700986,1,0,0:0:0:0:
412,81,701049,1,2,0:0:0:0:
422,42,701111,1,0,0:0:0:0:
433,3,701174,1,2,0:0:0:0:
240,93,701299,6,0,P|185:100|137:78,1,100,0|0,1:0|0:0,0:0:0:0:
33,239,701549,1,2,0:0:0:0:
3,38,701674,1,0,1:0:0:0:
144,188,701799,1,0,0:0:0:0:
19,51,701924,1,0,0:0:0:0:
215,7,702049,1,2,0:0:0:0:
144,188,702174,1,2,0:0:0:0:
138,227,702236,1,0,0:0:0:0:
143,267,702299,6,0,L|154:318,2,50,0|0|2,1:0|0:0|0:0,0:0:0:0:
317,182,702549,1,0,0:0:0:0:
356,175,702611,1,0,0:0:0:0:
395,185,702674,1,2,1:2:0:0:
426,208,702736,1,0,0:0:0:0:
444,244,702799,1,2,0:0:0:0:
228,217,702924,1,0,0:0:0:0:
221,178,702986,1,0,0:0:0:0:
231,139,703049,1,2,0:0:0:0:
254,108,703111,1,0,0:0:0:0:
290,90,703174,1,2,0:0:0:0:
340,344,703299,6,0,L|224:357,1,100,0|0,1:0|0:0,0:0:0:0:
44,305,703549,1,2,0:0:0:0:
228,217,703674,1,0,1:0:0:0:
32,167,703799,2,0,B|17:126|17:126|28:66,1,100,0|2,0:0|0:0,0:0:0:0:
293,0,704049,2,0,B|308:41|308:41|297:101,1,100
257,318,704299,5,0,1:0:0:0:
467,220,704424,1,0,0:0:0:0:
427,213,704486,1,0,0:0:0:0:
387,206,704549,1,2,0:0:0:0:
347,199,704611,1,0,0:0:0:0:
307,192,704674,1,0,1:0:0:0:
188,43,704799,1,0,0:0:0:0:
148,50,704861,1,0,0:0:0:0:
108,57,704924,1,0,0:0:0:0:
68,64,704986,1,0,0:0:0:0:
28,71,705049,1,2,0:0:0:0:
87,313,705174,1,2,0:0:0:0:
307,192,705299,6,0,P|317:146|310:120,1,75.0000028610231,4|0,1:2|0:0,0:0:0:0:
331,278,705549,2,0,P|370:252|384:229,1,75.0000028610231
205,192,705799,2,0,P|195:146|202:120,1,75.0000028610231,0|0,1:0|0:0,0:0:0:0:
181,278,706049,2,0,P|141:252|127:229,1,75.0000028610231
310,120,706299,6,0,L|400:133,1,75.0000028610231,0|0,1:0|0:0,0:0:0:0:
202,120,706549,2,0,L|112:133,1,75.0000028610231
350,33,706799,2,0,L|440:46,1,75.0000028610231,0|0,1:0|0:0,0:0:0:0:
162,33,707049,2,0,L|72:46,1,75.0000028610231
99,269,707299,6,0,P|134:261|165:228,1,75.0000028610231,0|0,1:0|0:0,0:0:0:0:
179,382,707549,2,0,L|211:312,1,75.0000028610231
413,269,707799,2,0,P|378:261|347:228,1,75.0000028610231,0|0,1:0|0:0,0:0:0:0:
333,382,708049,2,0,L|301:312,1,75.0000028610231
343,140,708299,6,0,L|428:153,1,75.0000028610231,0|0,1:0|0:0,0:0:0:0:
169,140,708549,2,0,L|94:151,1,75.0000028610231
371,32,708799,2,0,L|445:20,1,75.0000028610231,0|0,1:0|0:0,0:0:0:0:
141,32,709049,2,0,L|66:20,1,75.0000028610231
131,269,709299,6,0,P|174:266|205:247,1,75.0000028610231,0|0,1:0|0:0,0:0:0:0:
333,317,709549,2,0,P|330:274|311:243,1,75.0000028610231
179,67,709799,2,0,P|182:110|201:141,1,75.0000028610231,0|0,1:0|0:0,0:0:0:0:
131,269,710049,2,0,P|174:266|205:247,1,75.0000028610231
381,115,710299,6,0,P|338:118|307:137,1,75.0000028610231,0|0,1:0|0:0,0:0:0:0:
179,67,710549,2,0,P|182:110|201:141,1,75.0000028610231
333,317,710799,2,0,P|330:274|311:243,1,75.0000028610231,0|0,1:0|0:0,0:0:0:0:
381,115,711049,2,0,P|338:118|307:137,1,75.0000028610231
201,250,711299,6,0,P|168:267|131:269,1,75.0000028610231,0|0,1:0|0:0,0:0:0:0:
197,137,711549,2,0,P|180:104|179:67,1,75.0000028610231
314,246,711799,2,0,P|331:279|333:317,1,75.0000028610231,0|0,1:0|0:0,0:0:0:0:
201,250,712049,2,0,P|168:267|131:269,1,75.0000028610231
310,133,712299,6,0,P|343:116|381:115,1,75.0000028610231,0|0,1:0|0:0,0:0:0:0:
314,246,712549,2,0,P|331:279|333:317,1,75.0000028610231
197,137,712799,2,0,P|180:104|179:67,1,75.0000028610231,0|0,1:0|0:0,0:0:0:0:
396,17,713049,1,2,0:0:0:0:
396,17,713174,1,2,0:0:0:0:
483,197,713299,6,0,L|476:280,1,75.0000028610231,4|0,1:2|0:0,0:0:0:0:
390,357,713549,1,2,0:0:0:0:
349,244,713674,1,0,0:0:0:0:
253,316,713799,2,0,P|214:322|166:308,1,75.0000028610231,0|2,1:0|0:0,0:0:0:0:
130,206,714049,1,0,0:0:0:0:
100,211,714111,1,0,0:0:0:0:
70,217,714174,1,2,0:0:0:0:
41,223,714236,1,0,0:0:0:0:
12,230,714299,6,0,L|28:137,1,75.0000028610231,0|0,1:0|0:0,0:0:0:0:
49,37,714549,1,2,0:0:0:0:
168,62,714674,1,0,0:0:0:0:
276,10,714799,2,0,L|363:22,1,75.0000028610231,0|2,1:0|0:0,0:0:0:0:
460,70,715049,1,2,0:0:0:0:
469,98,715111,1,0,0:0:0:0:
470,128,715174,1,0,0:0:0:0:
464,157,715236,1,0,0:0:0:0:
452,184,715299,6,0,P|454:229|468:273,1,75.0000028610231,0|0,1:0|0:0,0:0:0:0:
379,348,715549,2,0,P|377:303|363:259,1,75.0000028610231,2|0,0:0|0:0,0:0:0:0:
323,113,715799,2,0,P|325:158|339:202,1,75.0000028610231,0|2,1:0|0:0,0:0:0:0:
250,277,716049,1,0,0:0:0:0:
220,271,716111,1,0,0:0:0:0:
189,273,716174,1,2,0:0:0:0:
161,285,716236,1,0,0:0:0:0:
138,305,716299,6,0,L|58:284,1,75.0000028610231,0|0,1:0|0:0,0:0:0:0:
118,177,716549,2,0,L|38:156,1,75.0000028610231,2|0,0:0|0:0,0:0:0:0:
98,49,716799,2,0,L|18:28,1,75.0000028610231,0|2,1:0|0:0,0:0:0:0:
212,92,717049,1,0,0:0:0:0:
241,92,717111,1,0,0:0:0:0:
271,88,717174,1,2,0:0:0:0:
299,80,717236,1,0,0:0:0:0:
326,68,717299,6,0,L|409:74,1,75.0000028610231,0|0,1:0|0:0,0:0:0:0:
394,193,717549,2,0,L|477:187,1,75.0000028610231,2|0,0:0|0:0,0:0:0:0:
283,168,717799,2,0,L|200:174,1,75.0000028610231,0|2,1:0|0:0,0:0:0:0:
215,293,718049,1,0,0:0:0:0:
185,290,718111,1,0,0:0:0:0:
154,287,718174,1,2,0:0:0:0:
124,284,718236,1,0,0:0:0:0:
93,281,718299,6,0,P|81:315|88:367,1,75.0000028610231,0|0,1:0|0:0,0:0:0:0:
24,215,718549,2,0,P|36:181|29:129,1,75.0000028610231,2|0,0:0|0:0,0:0:0:0:
5,21,718799,1,0,1:0:0:0:
119,62,718924,1,2,0:0:0:0:
233,103,719049,1,0,0:0:0:0:
262,98,719111,1,0,0:0:0:0:
291,93,719174,1,2,0:0:0:0:
320,88,719236,1,0,0:0:0:0:
349,83,719299,6,0,L|430:68,1,75.0000028610231,0|0,1:0|0:0,0:0:0:0:
490,169,719549,2,0,L|409:184,1,75.0000028610231,2|0,0:0|0:0,0:0:0:0:
380,298,719799,2,0,L|461:283,1,75.0000028610231,0|2,1:0|0:0,0:0:0:0:
286,206,720049,1,0,0:0:0:0:
262,224,720111,1,0,0:0:0:0:
246,250,720174,1,2,0:0:0:0:
240,279,720236,1,0,0:0:0:0:
244,308,720299,5,0,1:0:0:0:
256,192,720361,12,2,721049,0:0:0:0:
40,189,721299,6,0,L|54:68,1,100,4|0,1:2|0:0,0:0:0:0:
197,24,721549,1,2,0:0:0:0:
129,169,721674,1,0,1:0:0:0:
286,195,721799,2,0,P|349:197|394:171,1,100,2|2,0:0|0:0,0:0:0:0:
429,118,721986,1,0,0:0:0:0:
429,118,722049,2,0,P|435:84|432:61,1,50
381,7,722174,1,2,0:0:0:0:
463,212,722299,5,0,1:0:0:0:
313,104,722424,1,0,0:0:0:0:
273,108,722486,1,0,0:0:0:0:
232,113,722549,1,2,0:0:0:0:
86,47,722674,1,0,1:0:0:0:
57,74,722736,1,0,0:0:0:0:
42,111,722799,1,0,0:0:0:0:
40,150,722861,1,0,0:0:0:0:
47,189,722924,1,2,0:0:0:0:
239,340,723049,1,0,0:0:0:0:
268,313,723111,1,0,0:0:0:0:
283,276,723174,1,0,0:0:0:0:
285,237,723236,1,0,0:0:0:0:
278,198,723299,5,0,1:0:0:0:
391,381,723424,1,0,0:0:0:0:
407,166,723549,1,0,0:0:0:0:
391,381,723674,1,0,1:0:0:0:
204,272,723799,2,0,P|150:275|106:300,1,100,2|0,0:0|0:0,0:0:0:0:
69,364,723986,1,0,0:0:0:0:
69,364,724049,2,0,L|14:349,1,50
3,271,724174,1,0,0:0:0:0:
179,180,724299,5,0,1:0:0:0:
0,96,724424,1,0,0:0:0:0:
176,14,724549,2,0,L|283:26,1,100,0|0,0:0|1:0,0:0:0:0:
475,46,724799,1,2,0:0:0:0:
322,178,724924,1,0,0:0:0:0:
315,217,724986,1,0,0:0:0:0:
317,257,725049,1,2,0:0:0:0:
328,294,725111,1,0,0:0:0:0:
350,327,725174,1,2,0:0:0:0:
503,153,725299,6,0,L|401:136,1,100,0|0,1:0|0:0,0:0:0:0:
304,11,725549,1,2,0:0:0:0:
242,158,725674,1,0,1:0:0:0:
126,47,725799,2,0,L|24:64,1,100
1,241,726049,1,2,0:0:0:0:
165,158,726174,1,0,0:0:0:0:
203,150,726236,1,0,0:0:0:0:
242,158,726299,6,0,P|302:161|344:139,1,100,0|2,1:0|0:0,0:0:0:0:
454,6,726549,1,0,0:0:0:0:
459,45,726611,1,0,0:0:0:0:
464,84,726674,1,0,1:0:0:0:
469,123,726736,1,0,0:0:0:0:
474,162,726799,1,2,0:0:0:0:
337,144,726924,1,0,0:0:0:0:
342,183,726986,1,0,0:0:0:0:
347,222,727049,1,2,0:0:0:0:
352,261,727111,1,0,0:0:0:0:
357,300,727174,1,2,0:0:0:0:
220,282,727299,6,0,L|108:294,1,100,0|0,1:0|0:0,0:0:0:0:
7,179,727549,1,2,0:0:0:0:
7,339,727674,1,0,1:0:0:0:
9,156,727799,2,0,L|121:144,1,100,0|2,0:0|0:0,0:0:0:0:
330,127,728049,1,0,0:0:0:0:
139,29,728174,1,0,0:0:0:0:
250,217,728299,6,0,P|256:268|238:315,1,100,0|0,1:0|0:0,0:0:0:0:
184,110,728549,1,0,0:0:0:0:
220,94,728611,1,0,0:0:0:0:
260,93,728674,1,0,1:0:0:0:
297,106,728736,1,0,0:0:0:0:
330,127,728799,1,2,0:0:0:0:
367,140,728861,1,0,0:0:0:0:
407,139,728924,1,2,0:0:0:0:
443,123,728986,1,0,0:0:0:0:
469,93,729049,2,0,P|478:52|460:-4,1,100,2|2,0:0|0:0,0:0:0:0:
303,231,729299,6,0,L|417:239,1,100,4|0,1:2|0:0,0:0:0:0:
263,353,729549,1,2,0:0:0:0:
85,321,729674,1,0,1:0:0:0:
200,183,729799,2,0,P|203:136|174:84,1,100,2|0,0:0|0:0,0:0:0:0:
109,50,729986,1,0,0:0:0:0:
109,50,730049,2,0,L|47:69,1,50,2|0,0:0|0:0,0:0:0:0:
0,11,730174,1,2,0:0:0:0:
180,90,730299,5,0,1:0:0:0:
339,7,730424,1,0,0:0:0:0:
377,18,730486,1,0,0:0:0:0:
415,29,730549,1,2,0:0:0:0:
491,193,730674,1,0,1:0:0:0:
456,213,730736,1,0,0:0:0:0:
437,249,730799,1,2,0:0:0:0:
431,288,730861,1,0,0:0:0:0:
442,326,730924,1,2,0:0:0:0:
270,377,731049,1,2,0:0:0:0:
230,371,731111,1,0,0:0:0:0:
190,364,731174,1,2,0:0:0:0:
150,358,731236,1,0,0:0:0:0:
110,352,731299,6,0,P|97:296|109:247,1,100,0|0,1:0|0:0,0:0:0:0:
110,32,731549,2,0,P|97:88|109:137,1,100,0|0,0:0|1:0,0:0:0:0:
254,192,731799,1,2,0:0:0:0:
402,128,731924,1,0,0:0:0:0:
375,289,732049,1,2,0:0:0:0:
335,284,732111,1,0,0:0:0:0:
296,295,732174,1,0,0:0:0:0:
264,319,732236,1,0,0:0:0:0:
246,355,732299,6,0,L|138:336,1,100,0|0,1:0|0:0,0:0:0:0:
8,168,732549,2,0,L|116:187,1,100,0|0,0:0|1:0,0:0:0:0:
250,21,732799,1,2,0:0:0:0:
432,137,732924,1,0,0:0:0:0:
422,175,732986,1,0,0:0:0:0:
412,214,733049,1,0,0:0:0:0:
402,252,733111,1,0,0:0:0:0:
392,291,733174,1,2,0:0:0:0:
203,180,733299,6,0,P|153:171|93:195,1,100,0|0,1:0|0:0,0:0:0:0:
250,315,733549,1,2,0:0:0:0:
290,104,733674,1,0,1:0:0:0:
158,282,733799,2,0,P|110:296|61:287,1,100
14,97,734049,1,2,0:0:0:0:
203,180,734174,1,0,0:0:0:0:
241,190,734236,1,0,0:0:0:0:
279,201,734299,6,0,L|393:184,1,100,0|2,1:0|0:0,0:0:0:0:
503,305,734549,1,0,0:0:0:0:
503,305,734611,1,0,0:0:0:0:
503,305,734674,2,0,P|504:345|497:362,1,50,0|0,1:0|0:0,0:0:0:0:
461,238,734799,2,0,P|456:191|487:124,1,100,2|2,0:0|0:0,0:0:0:0:
501,68,734986,1,0,0:0:0:0:
501,68,735049,2,0,L|435:56,1,50,2|0,0:0|0:0,0:0:0:0:
376,46,735174,1,2,0:0:0:0:
250,199,735299,6,0,L|118:175,1,100,0|0,1:0|0:0,0:0:0:0:
337,111,735549,1,2,0:0:0:0:
384,304,735674,1,0,1:0:0:0:
175,111,735799,1,0,0:0:0:0:
128,304,735924,1,2,0:0:0:0:
413,192,736049,1,0,0:0:0:0:
256,2,736174,1,2,0:0:0:0:
256,324,736299,5,0,1:0:0:0:
256,192,736361,12,0,737174,0:0:0:0:
117,57,737299,6,0,L|195:65,1,75.0000028610231,4|0,0:2|0:0,0:0:0:0:
313,7,737549,1,2,0:0:0:0:
292,140,737674,1,0,0:0:0:0:
413,82,737799,1,2,0:0:0:0:
392,215,737924,1,0,0:0:0:0:
401,243,737986,1,0,0:0:0:0:
410,271,738049,1,0,0:0:0:0:
419,299,738111,1,0,0:0:0:0:
429,327,738174,1,2,0:0:0:0:
299,289,738299,5,0,0:0:0:0:
269,286,738361,1,0,0:0:0:0:
239,290,738424,1,0,0:0:0:0:
211,300,738486,1,0,0:0:0:0:
187,319,738549,1,2,0:0:0:0:
117,202,738674,1,0,0:0:0:0:
93,221,738737,1,0,0:0:0:0:
65,231,738799,1,0,0:0:0:0:
35,235,738862,1,0,0:0:0:0:
5,232,738924,1,2,0:0:0:0:
28,88,739049,2,0,L|40:26,1,37.5000014305115
111,73,739174,2,0,L|123:11,1,37.5000014305115
194,58,739299,6,0,L|272:58,1,75.0000028610231,4|4,3:0|3:0,0:0:0:0:
368,126,739549,2,0,L|446:126,1,75.0000028610231,4|4,3:3|3:3,0:0:0:0:
194,58,739799,1,2,0:0:0:0:
236,170,739924,1,0,0:0:0:0:
228,198,739986,1,0,0:0:0:0:
220,227,740049,1,2,0:0:0:0:
213,256,740111,1,0,0:0:0:0:
206,285,740174,1,0,0:0:0:0:
108,379,740299,5,4,3:0:0:0:
10,285,740424,1,4,3:0:0:0:
206,285,740549,1,4,3:0:0:0:
108,191,740674,1,4,3:0:0:0:
201,378,740799,1,2,0:0:0:0:
363,256,740924,1,0,0:0:0:0:
392,254,740986,1,0,0:0:0:0:
421,260,741049,1,0,0:0:0:0:
447,274,741111,1,0,0:0:0:0:
464,298,741174,1,2,0:0:0:0:
507,141,741299,6,0,L|486:62,1,75.0000028610231,4|4,3:0|3:0,0:0:0:0:
360,108,741549,2,0,L|339:29,1,75.0000028610231,2|0,0:0|0:0,0:0:0:0:
152,108,741799,2,0,L|173:29,1,75.0000028610231,4|4,3:0|3:0,0:0:0:0:
5,141,742049,2,0,L|26:62,1,75.0000028610231,2|0,0:0|0:0,0:0:0:0:
72,184,742236,1,0,0:0:0:0:
72,184,742299,6,0,L|59:237,1,37.5000014305115
40,290,742424,1,2,0:0:0:0:
192,246,742549,1,0,0:0:0:0:
221,240,742611,1,0,0:0:0:0:
251,242,742674,1,0,0:0:0:0:
279,251,742736,1,0,0:0:0:0:
302,269,742799,1,2,0:0:0:0:
371,130,742924,1,0,0:0:0:0:
400,136,742986,1,0,0:0:0:0:
430,134,743049,1,0,0:0:0:0:
458,125,743111,1,0,0:0:0:0:
481,107,743174,1,2,0:0:0:0:
328,16,743299,6,0,L|248:26,1,75.0000028610231,4|4,3:0|3:0,0:0:0:0:
333,222,743549,2,0,L|407:212,1,75.0000028610231,2|4,0:0|3:0,0:0:0:0:
214,145,743799,1,4,3:0:0:0:
305,333,743924,1,2,0:0:0:0:
143,262,744049,2,0,L|68:252,1,75.0000028610231,4|4,3:0|3:0,0:0:0:0:
214,145,744299,5,2,0:0:0:0:
305,333,744424,1,0,0:0:0:0:
300,303,744486,1,0,0:0:0:0:
295,273,744549,2,0,L|307:216,1,37.5000014305115,2|0,0:0|0:0,0:0:0:0:
375,154,744674,1,0,0:0:0:0:
402,165,744736,1,0,0:0:0:0:
427,182,744799,1,2,0:0:0:0:
447,204,744861,1,0,0:0:0:0:
462,230,744924,1,0,0:0:0:0:
470,258,744986,1,0,0:0:0:0:
472,288,745049,2,0,P|472:343|461:374,1,75.0000028610231,2|2,0:0|0:0,0:0:0:0:
375,154,745299,6,0,L|397:62,1,75.0000028610231,4|4,3:0|3:0,0:0:0:0:
256,22,745549,1,2,0:0:0:0:
256,170,745674,1,0,0:0:0:0:
119,81,745799,2,0,L|137:154,1,75.0000028610231,2|2,0:0|0:0,0:0:0:0:
153,229,745986,1,0,0:0:0:0:
153,229,746049,2,0,P|154:249|145:274,1,37.5000014305115
99,322,746174,1,2,0:0:0:0:
228,360,746299,5,0,0:0:0:0:
257,355,746361,1,0,0:0:0:0:
286,350,746424,1,0,0:0:0:0:
315,345,746486,1,0,0:0:0:0:
344,340,746549,1,2,0:0:0:0:
274,234,746674,1,0,0:0:0:0:
303,229,746736,1,0,0:0:0:0:
332,224,746799,1,0,0:0:0:0:
361,219,746861,1,0,0:0:0:0:
390,214,746924,1,2,0:0:0:0:
320,108,747049,1,0,0:0:0:0:
349,103,747111,1,0,0:0:0:0:
378,98,747174,1,2,0:0:0:0:
407,93,747236,1,0,0:0:0:0:
436,88,747299,6,0,P|440:48|428:4,1,75.0000028610231,4|4,3:0|3:0,0:0:0:0:
390,214,747549,2,0,P|386:254|398:298,1,75.0000028610231,4|4,3:0|3:0,0:0:0:0:
320,108,747799,1,2,0:0:0:0:
226,182,747924,1,0,0:0:0:0:
132,256,748049,1,4,3:0:0:0:
38,330,748174,1,4,3:0:0:0:
150,371,748299,6,0,L|235:355,1,75.0000028610231,4|4,3:0|3:0,0:0:0:0:
81,184,748549,2,0,L|-4:200,1,75.0000028610231,4|4,3:0|3:0,0:0:0:0:
226,182,748799,1,2,0:0:0:0:
146,25,748924,1,0,0:0:0:0:
116,22,748986,1,0,0:0:0:0:
86,30,749049,1,0,0:0:0:0:
61,46,749111,1,0,0:0:0:0:
44,71,749174,1,2,0:0:0:0:
226,182,749299,6,0,L|248:96,1,75.0000028610231,4|4,3:0|3:0,0:0:0:0:
344,28,749549,2,0,L|366:114,1,75.0000028610231,2|0,0:0|0:0,0:0:0:0:
396,223,749799,1,4,3:0:0:0:
289,292,749924,1,4,3:0:0:0:
466,327,750049,1,2,0:0:0:0:
299,209,750174,1,0,0:0:0:0:
269,213,750236,1,0,0:0:0:0:
239,217,750299,5,0,0:0:0:0:
209,221,750361,1,0,0:0:0:0:
179,225,750424,1,2,0:0:0:0:
26,145,750549,2,0,P|23:122|28:91,1,37.5000014305115
85,54,750674,2,0,P|86:35|84:17,1,37.5000014305115
152,102,750799,2,0,L|258:86,1,75.0000028610231,2|0,0:0|0:0,0:0:0:0:
292,46,750986,1,0,0:0:0:0:
292,46,751049,2,0,P|325:44|340:49,2,37.5000014305115,0|0|2,0:0|0:0|0:0,0:0:0:0:
179,225,751299,6,0,L|199:310,1,75.0000028610231,4|4,3:0|3:0,0:0:0:0:
333,225,751549,2,0,L|315:298,1,75.0000028610231,2|0,0:0|0:0,0:0:0:0:
101,274,751799,1,4,3:0:0:0:
256,375,751924,1,2,0:0:0:0:
411,274,752049,1,4,3:0:0:0:
256,173,752174,1,4,3:0:0:0:
139,376,752299,5,2,0:0:0:0:
373,376,752424,1,0,0:0:0:0:
373,376,752486,1,0,0:0:0:0:
373,376,752549,2,0,L|432:362,1,37.5000014305115,2|0,0:0|0:0,0:0:0:0:
411,274,752674,1,0,0:0:0:0:
411,274,752736,1,0,0:0:0:0:
411,274,752799,2,0,L|470:260,1,37.5000014305115,2|0,0:0|0:0,0:0:0:0:
449,172,752924,1,0,0:0:0:0:
449,172,752986,1,0,0:0:0:0:
449,172,753049,1,2,0:0:0:0:
230,108,753174,1,2,0:0:0:0:
108,64,756299,5,2,0:0:0:0:
281,136,756424,1,0,0:0:0:0:
320,142,756486,1,0,0:0:0:0:
360,138,756549,1,2,0:0:0:0:
397,124,756611,1,0,0:0:0:0:
426,96,756674,1,0,0:0:0:0:
231,248,756799,1,0,0:0:0:0:
192,242,756861,1,0,0:0:0:0:
152,246,756924,1,2,0:0:0:0:
115,260,756986,1,0,0:0:0:0:
86,288,757049,1,4,0:0:0:0:
86,288,757299,6,0,P|96:244|86:190,1,100,0|0,1:0|0:0,0:0:0:0:
28,63,757549,1,0,0:0:0:0:
172,143,757674,2,0,P|192:242|171:342,1,200,0|0,1:0|0:0,0:0:0:0:
256,135,758049,1,0,0:0:0:0:
256,135,758174,1,0,0:0:0:0:
425,190,758299,6,0,P|415:239|426:288,1,100,0|0,1:0|0:0,0:0:0:0:
484,63,758549,1,0,0:0:0:0:
340,143,758674,2,0,P|319:242|340:342,1,200,0|0,1:0|0:0,0:0:0:0:
256,135,759049,1,0,0:0:0:0:
256,135,759174,1,0,0:0:0:0:
28,63,759299,6,0,L|1:159,1,100,0|0,1:0|0:0,0:0:0:0:
25,297,759549,1,0,0:0:0:0:
161,265,759674,2,0,B|193:235|261:235|248:294|313:294|345:265,1,200,0|0,1:0|0:0,0:0:0:0:
461,184,760049,1,0,0:0:0:0:
342,109,760174,1,0,0:0:0:0:
436,288,760299,6,0,L|409:384,1,100,0|0,1:0|0:0,0:0:0:0:
301,210,760549,1,0,0:0:0:0:
439,44,760674,2,0,B|406:14|338:14|351:73|286:73|254:44,1,200,0|0,1:0|0:0,0:0:0:0:
118,6,761049,1,0,0:0:0:0:
17,103,761174,1,0,0:0:0:0:
108,208,761299,6,0,P|118:264|105:311,1,100,0|0,1:0|0:0,0:0:0:0:
13,200,761549,1,0,0:0:0:0:
131,125,761674,2,0,B|225:102|225:102|324:162,1,200,0|0,1:0|0:0,0:0:0:0:
432,230,762049,1,0,0:0:0:0:
408,91,762174,1,0,0:0:0:0:
337,238,762299,6,0,P|327:294|340:341,1,100,0|0,1:0|0:0,0:0:0:0:
432,230,762549,1,0,0:0:0:0:
314,155,762674,2,0,B|220:132|220:132|121:192,1,200,0|0,1:0|0:0,0:0:0:0:
13,260,763049,1,0,0:0:0:0:
37,121,763174,1,0,0:0:0:0:
117,293,763299,6,0,P|190:311|276:224,1,200,0|0,1:0|0:0,0:0:0:0:
395,91,763674,2,0,P|322:73|236:160,1,200,0|0,1:0|0:0,0:0:0:0:
422,211,764049,1,0,0:0:0:0:
422,211,764174,1,0,0:0:0:0:
308,340,764299,6,0,B|275:369|207:369|220:310|155:310|123:340,1,200,0|0,1:0|0:0,0:0:0:0:
6,164,764674,2,0,B|38:134|106:134|93:193|158:193|190:164,1,200,0|0,1:0|0:0,0:0:0:0:
280,0,765049,1,0,0:0:0:0:
280,0,765174,1,0,0:0:0:0:
414,137,765299,6,0,L|514:128,1,100,0|0,1:0|0:0,0:0:0:0:
368,57,765549,1,8,0:0:0:0:
313,245,765674,2,0,L|513:227,1,200,0|0,1:0|0:0,0:0:0:0:
358,332,766049,1,8,0:0:0:0:
358,332,766174,1,0,0:0:0:0:
172,228,766299,6,0,L|72:237,1,100,0|0,1:0|0:0,0:0:0:0:
218,308,766549,1,8,0:0:0:0:
273,120,766674,2,0,L|73:138,1,200,0|0,1:0|0:0,0:0:0:0:
228,33,767049,1,8,0:0:0:0:
228,33,767174,1,0,0:0:0:0:
343,190,767299,6,0,P|394:191|439:153,1,100,0|0,1:0|0:0,0:0:0:0:
346,51,767549,1,8,0:0:0:0:
325,270,767674,2,0,P|416:271|498:203,1,200,0|0,1:0|0:0,0:0:0:0:
346,51,768049,1,8,0:0:0:0:
346,51,768174,1,0,0:0:0:0:
169,190,768299,6,0,P|118:191|73:153,1,100,0|0,1:0|0:0,0:0:0:0:
166,51,768549,1,8,0:0:0:0:
187,270,768674,2,0,P|95:271|13:203,1,200,0|0,1:0|0:0,0:0:0:0:
166,51,769049,1,8,0:0:0:0:
166,51,769174,1,0,0:0:0:0:
349,166,769299,6,0,L|332:269,1,100,0|0,1:0|0:0,0:0:0:0:
235,164,769549,1,8,0:0:0:0:
398,101,769674,2,0,L|415:-2,1,100,0|0,1:0|0:0,0:0:0:0:
512,103,769924,1,0,0:0:0:0:
311,37,770049,2,0,P|262:30|205:49,1,100,8|0,0:0|0:0,0:0:0:0:
118,198,770299,6,0,P|70:211|21:204,1,100,0|0,1:0|0:0,0:0:0:0:
59,68,770549,1,8,0:0:0:0:
221,227,770674,2,0,P|268:213|317:220,1,100,0|0,1:0|0:0,0:0:0:0:
280,357,770924,1,0,0:0:0:0:
118,198,771049,1,8,0:0:0:0:
118,198,771174,1,0,0:0:0:0:
336,126,771299,6,0,L|310:24,1,100,0|0,1:0|0:0,0:0:0:0:
459,138,771549,1,8,0:0:0:0:
256,186,771674,2,0,L|308:390,1,200,0|0,1:0|0:0,0:0:0:0:
385,265,772049,1,8,0:0:0:0:
385,265,772174,1,0,0:0:0:0:
176,258,772299,6,0,L|202:360,1,100,0|0,1:0|0:0,0:0:0:0:
53,246,772549,1,8,0:0:0:0:
256,198,772674,2,0,L|204:-6,1,200,0|0,1:0|0:0,0:0:0:0:
127,119,773049,1,8,0:0:0:0:
385,119,773174,1,8,0:0:0:0:
257,312,773299,6,0,P|202:320|157:299,1,100,0|0,1:0|0:0,0:0:0:0:
77,190,773549,1,8,0:0:0:0:
209,144,773674,1,0,1:0:0:0:
209,144,773736,1,0,0:0:0:0:
209,144,773799,1,0,0:0:0:0:
128,34,773924,1,0,0:0:0:0:
164,27,773986,1,0,0:0:0:0:
202,20,774049,1,8,0:0:0:0:
238,15,774111,1,0,0:0:0:0:
276,11,774174,1,0,0:0:0:0:
368,49,774299,6,0,L|380:99,1,50,0|0,1:0|0:0,0:0:0:0:
441,149,774424,1,0,0:0:0:0:
441,149,774486,1,0,0:0:0:0:
441,149,774549,2,0,P|448:206|428:249,1,100,8|0,0:0|1:0,0:0:0:0:
363,285,774736,1,0,0:0:0:0:
363,285,774799,2,0,L|351:335,2,50
255,180,775049,1,8,0:0:0:0:
215,175,775111,1,0,0:0:0:0:
175,182,775174,1,0,0:0:0:0:
139,199,775236,1,0,0:0:0:0:
112,229,775299,6,0,P|105:281|118:331,2,100,0|0|8,1:0|0:0|0:0,0:0:0:0:
190,97,775674,2,0,P|197:45|184:-5,2,100,0|0|0,1:0|0:0|0:0,0:0:0:0:
317,165,776049,1,8,0:0:0:0:
355,156,776111,1,0,0:0:0:0:
394,147,776174,1,0,0:0:0:0:
432,138,776236,1,0,0:0:0:0:
471,129,776299,6,0,L|459:236,1,100,0|0,1:0|0:0,0:0:0:0:
442,368,776549,1,8,0:0:0:0:
358,255,776674,1,0,1:0:0:0:
243,323,776799,2,0,P|190:332|140:310,1,100
117,290,776986,1,0,0:0:0:0:
97,254,777049,2,0,P|92:223|95:199,1,50,8|0,0:0|0:0,0:0:0:0:
128,139,777174,1,0,0:0:0:0:
322,51,777299,6,0,L|438:64,1,100,0|0,1:0|0:0,0:0:0:0:
473,194,777549,1,8,0:0:0:0:
336,164,777674,1,0,1:0:0:0:
326,202,777736,1,0,0:0:0:0:
331,241,777799,1,0,0:0:0:0:
351,274,777861,1,0,0:0:0:0:
384,296,777924,1,0,0:0:0:0:
256,368,778049,1,8,0:0:0:0:
128,296,778174,1,0,0:0:0:0:
128,296,778236,1,0,0:0:0:0:
128,296,778299,6,0,L|70:310,2,50,0|0|0,1:0|0:0|0:0,0:0:0:0:
204,177,778549,1,8,0:0:0:0:
190,139,778611,1,0,0:0:0:0:
176,100,778674,1,0,1:0:0:0:
163,62,778736,1,0,0:0:0:0:
150,23,778799,1,0,0:0:0:0:
303,85,778924,1,0,0:0:0:0:
317,123,778986,1,0,0:0:0:0:
331,162,779049,1,8,0:0:0:0:
344,200,779111,1,0,0:0:0:0:
357,239,779174,2,0,L|345:298,1,50
420,198,779299,6,0,P|470:191|512:213,2,100,0|0|8,1:0|0:0|0:0,0:0:0:0:
266,367,779674,2,0,P|216:374|174:352,2,100,0|0|0,1:0|0:0|0:0,0:0:0:0:
452,272,780049,1,8,0:0:0:0:
228,229,780174,1,0,0:0:0:0:
419,101,780299,5,0,1:0:0:0:
332,301,780424,1,0,0:0:0:0:
292,306,780486,1,0,0:0:0:0:
252,312,780549,1,8,0:0:0:0:
212,318,780611,1,0,0:0:0:0:
172,324,780674,2,0,L|103:308,1,50,0|0,1:0|0:0,0:0:0:0:
37,212,780799,1,0,0:0:0:0:
77,207,780861,1,0,0:0:0:0:
117,201,780924,1,0,0:0:0:0:
157,195,780986,1,0,0:0:0:0:
197,189,781049,1,8,0:0:0:0:
247,29,781174,1,0,0:0:0:0:
331,204,781299,6,0,P|342:261|328:309,1,100,0|0,1:0|0:0,0:0:0:0:
197,189,781549,1,8,0:0:0:0:
365,96,781674,1,0,1:0:0:0:
404,102,781736,1,0,0:0:0:0:
443,108,781799,1,0,0:0:0:0:
332,300,781924,1,0,0:0:0:0:
293,294,781986,1,0,0:0:0:0:
254,288,782049,1,8,0:0:0:0:
215,282,782111,1,0,0:0:0:0:
176,276,782174,1,0,0:0:0:0:
59,108,782299,5,0,1:0:0:0:
97,100,782361,1,0,0:0:0:0:
135,112,782424,1,0,0:0:0:0:
166,136,782486,1,0,0:0:0:0:
185,171,782549,1,8,0:0:0:0:
327,171,782674,1,0,1:0:0:0:
346,136,782737,1,0,0:0:0:0:
377,112,782799,1,0,0:0:0:0:
415,100,782862,1,0,0:0:0:0:
453,108,782924,1,0,0:0:0:0:
479,286,783049,2,0,L|460:348,1,50,8|0,0:0|0:0,0:0:0:0:
401,290,783174,2,0,L|382:352,1,50
323,294,783299,6,0,L|199:308,1,100,0|0,1:0|0:0,0:0:0:0:
74,318,783549,1,8,0:0:0:0:
144,185,783674,1,0,1:0:0:0:
14,109,783799,2,0,P|8:60|34:2,1,100
96,37,783986,1,0,0:0:0:0:
96,37,784049,2,0,L|155:28,1,50,8|0,0:0|0:0,0:0:0:0:
220,20,784174,1,0,0:0:0:0:
443,114,784299,6,0,L|344:100,1,100,0|0,1:0|0:0,0:0:0:0:
113,215,784549,2,0,L|212:201,1,100,8|0,0:0|1:0,0:0:0:0:
451,318,784799,2,0,L|352:304,1,100
238,115,785049,1,8,0:0:0:0:
238,115,785111,1,0,0:0:0:0:
238,115,785174,1,0,0:0:0:0:
190,384,785299,5,0,1:0:0:0:
350,252,785424,1,0,0:0:0:0:
138,287,785549,1,8,0:0:0:0:
402,349,785674,1,0,1:0:0:0:
212,200,785799,1,0,0:0:0:0:
212,200,785861,1,0,0:0:0:0:
212,200,785924,1,0,0:0:0:0:
436,137,786049,2,0,P|444:84|423:34,1,100,8|0,0:0|0:0,0:0:0:0:
360,10,786236,1,0,0:0:0:0:
360,10,786299,6,0,L|308:20,1,50,0|0,1:0|0:0,0:0:0:0:
236,33,786424,1,0,0:0:0:0:
212,200,786549,1,8,0:0:0:0:
251,195,786611,1,0,0:0:0:0:
290,204,786674,1,0,1:0:0:0:
322,226,786736,1,0,0:0:0:0:
343,260,786799,1,0,0:0:0:0:
107,337,786924,1,0,0:0:0:0:
95,299,786986,1,0,0:0:0:0:
83,260,787049,1,8,0:0:0:0:
71,222,787111,1,0,0:0:0:0:
59,183,787174,2,0,L|74:133,1,50
121,12,787299,5,4,1:2:0:0:
194,59,789299,6,0,B|127:54|127:54|71:91,1,119.999996337891,6|0,1:2|0:0,0:0:0:0:
123,254,789549,2,0,B|118:320|118:320|155:376,1,119.999996337891,2|0,1:2|0:0,0:0:0:0:
318,325,789799,2,0,B|384:329|384:329|440:292,1,119.999996337891,0|0,1:0|0:0,0:0:0:0:
389,130,790049,2,0,B|393:63|393:63|356:7,1,119.999996337891,2|0,1:2|0:0,0:0:0:0:
148,164,790299,5,0,1:0:0:0:
228,300,790424,1,0,0:0:0:0:
364,220,790549,1,2,1:2:0:0:
284,84,790674,1,0,0:0:0:0:
145,256,790799,5,0,1:0:0:0:
320,302,790924,1,0,0:0:0:0:
366,127,791049,1,2,1:2:0:0:
191,81,791174,1,0,0:0:0:0:
364,220,791299,6,0,L|482:238,1,119.999996337891,0|0,1:0|0:0,0:0:0:0:
137,161,791549,2,0,L|12:141,1,119.999996337891,2|0,1:2|0:0,0:0:0:0:
361,129,791799,2,0,L|462:55,1,119.999996337891,2|0,1:2|0:0,0:0:0:0:
149,253,792049,2,0,L|48:327,1,119.999996337891,2|0,1:2|0:0,0:0:0:0:
227,79,792299,5,2,1:2:0:0:
285,305,792424,1,0,0:0:0:0:
221,58,792549,1,0,1:0:0:0:
290,325,792674,1,0,0:0:0:0:
315,91,792799,5,0,1:0:0:0:
196,292,792924,1,0,0:0:0:0:
325,73,793049,1,0,1:0:0:0:
186,310,793174,1,0,0:0:0:0:
444,234,793299,6,0,P|463:175|451:120,1,119.999996337891,2|0,1:2|0:0,0:0:0:0:
167,28,793549,2,0,P|147:86|159:142,1,119.999996337891,2|0,1:2|0:0,0:0:0:0:
293,384,793799,2,0,P|311:331|297:268,1,119.999996337891,0|0,1:0|0:0,0:0:0:0:
16,178,794049,2,0,P|-2:232|9:293,1,119.999996337891,2|0,1:2|0:0,0:0:0:0:
303,289,794299,6,0,L|423:306,1,119.999996337891,0|0,1:0|0:0,0:0:0:0:
481,11,794549,2,0,L|361:28,1,119.999996337891,2|0,1:2|0:0,0:0:0:0:
209,289,794799,2,0,L|89:306,1,119.999996337891,0|0,1:0|0:0,0:0:0:0:
31,11,795049,2,0,L|151:28,1,119.999996337891,2|0,1:2|0:0,0:0:0:0:
398,166,795299,5,0,1:0:0:0:
114,218,795424,1,0,0:0:0:0:
338,73,795549,1,2,1:2:0:0:
173,310,795674,1,0,0:0:0:0:
230,50,795799,1,2,1:2:0:0:
282,334,795924,1,0,0:0:0:0:
137,109,796049,1,2,1:2:0:0:
374,274,796174,1,0,0:0:0:0:
114,218,796299,6,0,P|77:277|81:329,1,119.999996337891,2|0,1:2|0:0,0:0:0:0:
398,166,796549,2,0,P|435:107|431:55,1,119.999996337891,0|0,1:0|0:0,0:0:0:0:
122,15,796799,2,0,P|181:15|230:50,1,119.999996337891,0|0,1:0|0:0,0:0:0:0:
389,368,797049,2,0,P|330:368|282:334,1,119.999996337891,0|0,1:0|0:0,0:0:0:0:
115,110,797299,5,2,1:2:0:0:
115,276,797424,1,0,0:0:0:0:
210,76,797549,1,2,1:2:0:0:
210,310,797674,1,0,0:0:0:0:
305,110,797799,1,0,1:0:0:0:
305,276,797924,1,0,0:0:0:0:
400,76,798049,1,2,1:2:0:0:
400,310,798174,1,0,0:0:0:0:
231,59,798299,6,0,L|112:73,1,119.999996337891,0|0,1:0|0:0,0:0:0:0:
281,325,798549,2,0,L|401:310,1,119.999996337891,2|0,1:2|0:0,0:0:0:0:
105,221,798799,2,0,B|88:274|88:274|101:340,1,119.999996337891,0|0,1:0|0:0,0:0:0:0:
407,163,799049,2,0,B|423:110|423:110|410:44,1,119.999996337891,2|0,1:2|0:0,0:0:0:0:
120,17,799299,6,0,B|103:70|103:70|116:136,1,119.999996337891,0|0,1:0|0:0,0:0:0:0:
400,270,799549,2,0,B|410:322|410:322|390:385,1,119.999996337891,2|0,1:2|0:0,0:0:0:0:
177,336,799799,2,0,B|125:346|125:346|61:326,1,119.999996337891,2|0,1:2|0:0,0:0:0:0:
334,47,800049,2,0,B|386:37|386:37|449:57,1,119.999996337891,2|0,1:2|0:0,0:0:0:0:
123,213,800299,6,0,L|109:90,1,119.999996337891,2|0,1:2|0:0,0:0:0:0:
400,270,800549,2,0,L|414:393,1,119.999996337891,0|0,1:0|0:0,0:0:0:0:
224,118,800799,2,0,L|210:-5,1,119.999996337891,2|0,1:2|0:0,0:0:0:0:
501,175,801049,2,0,L|515:298,1,119.999996337891,2|0,1:2|0:0,0:0:0:0:
192,293,801299,5,0,1:0:0:0:
154,128,801424,1,0,0:0:0:0:
319,90,801549,1,2,1:2:0:0:
357,255,801674,1,0,0:0:0:0:
148,268,801799,5,0,1:0:0:0:
178,84,801924,1,0,0:0:0:0:
362,114,802049,1,2,1:2:0:0:
332,298,802174,1,0,0:0:0:0:
115,221,802299,5,0,1:0:0:0:
225,51,802424,1,0,0:0:0:0:
395,160,802549,1,0,1:0:0:0:
285,331,802674,1,0,0:0:0:0:
103,163,802799,5,0,1:0:0:0:
284,40,802924,1,0,0:0:0:0:
407,221,803049,1,2,1:2:0:0:
226,344,803174,1,0,0:0:0:0:
118,96,803299,5,0,1:0:0:0:
351,55,803424,1,0,0:0:0:0:
392,288,803549,1,0,1:0:0:0:
159,329,803674,1,0,0:0:0:0:
160,40,803799,5,0,1:0:0:0:
407,97,803924,1,0,0:0:0:0:
350,344,804049,1,0,1:0:0:0:
103,287,804174,1,0,0:0:0:0:
335,65,804299,6,0,L|450:101,1,119.999996337891,0|0,1:0|0:0,0:0:0:0:
176,65,804549,2,0,L|62:101,1,119.999996337891,0|0,1:0|0:0,0:0:0:0:
398,211,804799,2,0,L|512:246,1,119.999996337891,0|0,1:0|0:0,0:0:0:0:
114,211,805049,2,0,L|0:246,1,119.999996337891,0|0,1:0|0:0,0:0:0:0:
365,117,805299,6,0,P|375:53|352:3,1,119.999996337891,2|0,1:2|0:0,0:0:0:0:
153,100,805549,1,0,1:0:0:0:
317,305,805674,2,0,L|452:286,1,119.999996337891,2|0,0:0|1:2,0:0:0:0:
479,80,805924,1,0,0:0:0:0:
496,341,806049,1,2,1:2:0:0:
304,162,806174,1,0,0:0:0:0:
188,378,806299,6,0,P|134:388|80:350,1,119.999996337891,2|0,1:2|0:0,0:0:0:0:
0,192,806549,1,0,1:0:0:0:
82,30,806674,2,0,P|130:-3|188:6,1,119.999996337891,2|0,0:0|1:0,0:0:0:0:
363,186,806924,1,0,0:0:0:0:
130,110,807049,1,2,1:2:0:0:
417,31,807174,1,0,0:0:0:0:
228,215,807299,6,0,L|253:339,1,119.999996337891,2|0,1:2|0:0,0:0:0:0:
334,100,807549,1,0,1:0:0:0:
507,269,807674,2,0,L|482:391,1,119.999996337891,2|0,0:0|1:0,0:0:0:0:
307,240,807924,1,0,0:0:0:0:
510,150,808049,1,2,1:2:0:0:
235,88,808174,1,0,0:0:0:0:
377,325,808299,6,0,P|407:267|407:212,1,119.999996337891,2|0,1:2|0:0,0:0:0:0:
34,76,808549,2,0,P|5:129|7:188,1,119.999996337891,0|2,1:2|0:2,0:2:0:0:
327,112,808799,2,0,L|299:-3,1,119.999996337891,0|0,1:0|0:0,0:0:0:0:
145,267,809049,2,0,L|173:388,1,119.999996337891,2|0,1:2|0:0,0:0:0:0:
407,233,809299,5,2,1:2:0:0:
183,148,809424,1,0,0:0:0:0:
313,349,809549,1,0,1:0:0:0:
407,151,809674,1,2,0:2:0:0:
183,236,809799,1,0,1:0:0:0:
313,35,809924,1,0,0:0:0:0:
93,192,810049,1,2,1:2:0:0:
313,349,810174,1,0,0:0:0:0:
183,148,810299,6,0,P|171:97|191:33,1,119.999996337891,2|0,1:2|0:0,0:0:0:0:
439,119,810549,1,0,1:0:0:0:
321,235,810674,2,0,P|332:285|312:349,1,119.999996337891,2|0,0:2|1:0,0:0:0:0:
58,281,810924,1,0,0:0:0:0:
272,153,811049,1,2,1:2:0:0:
145,369,811174,1,0,0:0:0:0:
59,132,811299,6,0,L|80:9,1,119.999996337891,2|0,1:2|0:0,0:0:0:0:
256,224,811549,1,0,1:0:0:0:
432,14,811674,2,0,L|454:135,1,119.999996337891,2|0,0:2|1:0,0:0:0:0:
256,259,811924,1,0,0:0:0:0:
177,22,812049,1,2,1:2:0:0:
368,176,812174,1,0,0:0:0:0:
103,203,812299,6,0,P|95:256|121:317,1,119.999996337891,2|0,1:2|0:0,0:0:0:0:
416,384,812549,2,0,P|424:331|398:270,1,119.999996337891,0|2,1:0|0:2,0:0:0:0:
170,0,812799,2,0,P|162:53|188:114,1,119.999996337891,0|0,1:0|0:0,0:0:0:0:
483,181,813049,2,0,P|491:128|465:67,1,119.999996337891,2|0,1:2|0:0,0:0:0:0:
215,198,813299,6,0,L|88:182,1,119.999996337891,2|0,1:2|0:0,0:0:0:0:
26,6,813549,1,0,1:0:0:0:
201,101,813674,1,2,0:2:0:0:
62,245,813799,2,0,P|55:304|82:363,1,119.999996337891,0|0,1:0|0:0,0:0:0:0:
350,341,814049,2,0,P|368:282|359:222,1,119.999996337891,2|0,1:2|0:0,0:0:0:0:
179,18,814299,5,2,1:2:0:0:
149,243,814424,1,0,0:0:0:0:
430,115,814549,1,0,1:0:0:0:
205,85,814674,1,2,0:2:0:0:
333,366,814799,1,0,1:0:0:0:
363,141,814924,1,0,0:0:0:0:
82,269,815049,1,2,1:2:0:0:
307,299,815174,1,0,0:0:0:0:
179,18,815299,6,0,L|58:38,1,119.999996337891,2|0,1:2|0:0,0:0:0:0:
82,269,815549,2,0,L|102:388,1,119.999996337891,0|2,1:0|0:2,0:0:0:0:
333,366,815799,2,0,L|453:345,1,119.999996337891,0|0,1:0|0:0,0:0:0:0:
430,115,816049,2,0,L|409:-4,1,119.999996337891,2|0,1:2|0:0,0:0:0:0:
84,140,816299,5,2,1:2:0:0:
320,226,816424,1,0,0:0:0:0:
105,263,816549,1,0,1:0:0:0:
298,102,816674,1,2,0:2:0:0:
60,131,816799,1,0,1:0:0:0:
343,234,816924,1,0,0:0:0:0:
86,279,817049,1,2,1:2:0:0:
317,86,817174,1,0,0:0:0:0:
207,332,817299,6,0,P|189:274|198:217,1,119.999996337891,2|0,1:2|0:0,0:0:0:0:
499,9,817549,2,0,P|515:61|504:126,1,119.999996337891,0|2,1:0|0:2,0:0:0:0:
305,332,817799,2,0,P|322:274|313:217,1,119.999996337891,0|0,1:0|0:0,0:0:0:0:
13,9,818049,2,0,P|-3:61|8:126,1,119.999996337891,2|0,1:2|0:0,0:0:0:0:
313,216,818299,6,0,L|432:197,1,119.999996337891,2|0,1:2|0:0,0:0:0:0:
143,54,818549,1,0,1:0:0:0:
207,332,818674,1,2,0:2:0:0:
269,97,818799,2,0,L|389:115,1,119.999996337891,0|0,1:0|0:0,0:0:0:0:
97,278,819049,1,2,1:2:0:0:
161,0,819174,1,0,0:0:0:0:
362,208,819299,6,0,P|377:264|373:326,1,119.999996337891,2|0,1:2|0:0,0:0:0:0:
150,176,819549,2,0,P|134:119|138:57,1,119.999996337891,0|2,1:0|0:2,0:0:0:0:
240,298,819799,2,0,P|183:313|121:309,1,119.999996337891,0|0,1:0|0:0,0:0:0:0:
272,86,820049,2,0,P|328:70|390:74,1,119.999996337891,2|0,1:2|0:0,0:0:0:0:
233,341,820299,5,2,1:2:0:0:
107,169,820424,1,0,0:0:0:0:
279,43,820549,1,0,1:0:0:0:
405,215,820674,1,2,0:2:0:0:
122,290,820799,5,0,1:0:0:0:
157,58,820924,1,0,0:0:0:0:
389,93,821049,1,2,1:2:0:0:
354,325,821174,1,0,0:0:0:0:
233,71,821299,22,0,B|232:25|172:-16|98:-7|27:31|14:99|29:192|76:221|136:245|183:274|208:312|227:362|227:362|263:322|300:295|355:287|419:287|474:278|523:198|537:130|485:66|420:29|349:46|322:104,1,1152.000028125,4|0,1:2|0:0,0:0:0:0:
256,192,825549,12,2,830049,0:0:0:0:
369,44,846299,5,4,1:1:0:0:
400,68,846361,1,0,0:0:0:0:
414,105,846424,1,0,0:0:0:0:
413,144,846486,1,0,0:0:0:0:
398,181,846549,2,0,L|432:305,1,100,0|0,0:0|1:0,0:0:0:0:
256,348,846799,1,2,0:0:0:0:
87,277,846924,1,2,0:0:0:0:
87,277,846986,1,0,0:0:0:0:
87,277,847049,2,0,L|114:181,1,100,8|0,1:2|0:0,0:0:0:0:
63,120,847236,1,0,0:0:0:0:
63,120,847299,6,0,L|89:23,1,100,2|0,1:2|0:0,0:0:0:0:
256,91,847549,1,2,0:2:0:0:
260,130,847611,1,0,0:0:0:0:
245,167,847674,1,0,1:0:0:0:
87,277,847799,1,2,0:2:0:0:
260,366,847924,1,0,0:0:0:0:
298,358,847986,1,0,0:0:0:0:
337,350,848049,2,0,L|441:367,1,100,10|0,1:2|0:0,0:0:0:0:
494,314,848236,1,0,0:0:0:0:
494,314,848299,6,0,P|506:255|483:200,1,100,2|0,1:2|0:0,0:0:0:0:
332,137,848549,1,0,0:0:0:0:
325,97,848611,1,0,0:0:0:0:
330,57,848674,1,0,1:0:0:0:
354,25,848736,1,0,0:0:0:0:
391,9,848799,1,0,0:0:0:0:
220,120,848924,1,0,0:0:0:0:
220,120,848986,1,0,0:0:0:0:
220,120,849049,2,0,L|103:102,1,100,8|0,1:2|0:0,0:0:0:0:
57,151,849236,1,0,0:0:0:0:
57,151,849299,6,0,P|42:205|54:255,1,100,0|0,1:0|0:0,0:0:0:0:
210,329,849549,1,0,0:0:0:0:
249,323,849611,1,0,0:0:0:0:
288,317,849674,1,0,1:0:0:0:
403,171,849799,1,0,0:0:0:0:
475,384,849924,1,0,0:0:0:0:
436,378,849986,1,0,0:0:0:0:
397,372,850049,1,8,1:2:0:0:
252,231,850174,1,0,0:0:0:0:
213,237,850236,1,0,0:0:0:0:
174,243,850299,6,0,L|65:225,1,100,0|0,1:0|0:0,0:0:0:0:
14,56,850549,1,0,0:0:0:0:
14,56,850611,1,0,0:0:0:0:
14,56,850674,1,0,1:0:0:0:
188,108,850799,2,0,L|297:90,1,100,2|0,0:2|0:0,0:0:0:0:
352,48,850986,1,0,0:0:0:0:
352,48,851049,2,0,P|366:106|349:145,1,100,10|2,1:2|0:2,0:0:0:0:
390,212,851236,1,0,0:0:0:0:
390,212,851299,6,0,P|374:258|389:305,1,100,2|0,1:2|0:0,0:0:0:0:
287,92,851549,1,2,0:2:0:0:
247,87,851611,1,0,0:0:0:0:
206,83,851674,1,0,1:0:0:0:
166,79,851736,1,0,0:0:0:0:
125,75,851799,1,2,0:2:0:0:
28,212,851924,1,0,0:0:0:0:
28,212,851986,1,0,0:0:0:0:
28,212,852049,1,10,1:2:0:0:
206,174,852174,1,0,0:0:0:0:
206,174,852236,1,0,0:0:0:0:
206,174,852299,6,0,P|215:235|201:273,1,100,2|0,1:2|0:0,0:0:0:0:
363,362,852549,1,0,0:0:0:0:
358,322,852611,1,0,0:0:0:0:
364,282,852674,1,0,1:0:0:0:
380,245,852736,1,0,0:0:0:0:
415,225,852799,1,0,0:0:0:0:
502,73,852924,2,0,L|445:59,1,50
380,40,853049,1,8,1:2:0:0:
206,174,853174,2,0,L|263:160,1,50
328,146,853299,5,0,1:0:0:0:
87,39,853424,1,0,1:0:0:0:
71,86,853486,1,0,1:0:0:0:
55,133,853549,1,4,3:3:0:0:
158,318,853674,1,0,1:0:0:0:
197,288,853736,1,0,1:0:0:0:
245,273,853799,1,0,1:0:0:0:
295,276,853861,1,0,1:0:0:0:
341,295,853924,1,4,3:3:0:0:
377,329,853986,1,4,3:3:0:0:
400,373,854049,1,8,1:2:0:0:
466,172,854174,1,8,1:2:0:0:
197,288,854299,6,0,L|82:271,1,100,4|0,1:1|0:0,0:0:0:0:
29,105,854549,1,0,0:0:0:0:
29,105,854611,1,0,0:0:0:0:
29,105,854674,1,0,1:0:0:0:
198,164,854799,2,0,P|246:162|285:126,1,100,2|0,0:2|0:0,0:0:0:0:
327,68,854986,1,0,0:0:0:0:
327,68,855049,2,0,P|363:35|412:32,1,100,10|2,1:2|0:2,0:0:0:0:
473,77,855236,1,0,0:0:0:0:
473,77,855299,6,0,L|454:184,1,100,2|0,1:2|0:0,0:0:0:0:
426,358,855549,1,2,0:2:0:0:
397,329,855611,1,0,0:0:0:0:
358,316,855674,1,0,1:0:0:0:
318,314,855736,1,0,0:0:0:0:
279,325,855799,1,2,0:2:0:0:
82,373,855924,1,0,0:0:0:0:
73,334,855986,1,0,0:0:0:0:
63,294,856049,1,10,1:2:0:0:
190,144,856174,1,0,0:0:0:0:
181,105,856236,1,0,0:0:0:0:
171,65,856299,6,0,L|64:52,1,100,2|0,1:2|0:0,0:0:0:0:
168,233,856549,1,0,0:0:0:0:
207,238,856611,1,0,0:0:0:0:
243,221,856674,1,0,1:0:0:0:
357,48,856799,1,0,0:0:0:0:
341,257,856924,1,0,0:0:0:0:
367,286,856987,1,0,0:0:0:0:
405,297,857049,1,8,1:2:0:0:
512,107,857174,1,0,0:0:0:0:
486,78,857237,1,0,0:0:0:0:
448,66,857299,6,0,L|333:87,1,100,0|0,1:0|0:0,0:0:0:0:
163,7,857549,1,0,0:0:0:0:
163,7,857611,1,0,0:0:0:0:
163,7,857674,1,0,1:0:0:0:
228,194,857799,1,0,0:0:0:0:
44,109,857924,1,0,0:0:0:0:
44,109,857986,1,0,0:0:0:0:
44,109,858049,1,8,1:2:0:0:
109,296,858174,1,0,0:0:0:0:
109,296,858236,1,0,0:0:0:0:
109,296,858299,6,0,L|215:306,1,100,0|0,1:0|0:0,0:0:0:0:
446,255,858549,1,0,0:0:0:0:
428,219,858611,1,0,0:0:0:0:
423,178,858674,1,2,1:2:0:0:
430,139,858736,1,0,0:0:0:0:
447,102,858799,2,0,P|450:49|425:2,1,100,2|2,0:2|0:2,0:0:0:0:
356,34,858986,1,0,0:0:0:0:
356,34,859049,2,0,L|242:21,1,100,10|2,1:2|0:2,0:0:0:0:
205,94,859236,1,0,0:0:0:0:
205,94,859299,6,0,L|319:107,1,100,2|0,1:2|0:0,0:0:0:0:
455,194,859549,1,2,0:2:0:0:
467,231,859611,1,0,0:0:0:0:
468,271,859674,1,0,1:0:0:0:
456,308,859736,1,0,0:0:0:0:
430,338,859799,1,2,0:2:0:0:
270,242,859924,1,0,0:0:0:0:
231,234,859986,1,0,0:0:0:0:
191,241,860049,1,10,1:2:0:0:
30,374,860174,1,0,0:0:0:0:
69,382,860236,1,0,0:0:0:0:
109,375,860299,6,0,P|119:319|101:274,1,100,2|0,1:2|0:0,0:0:0:0:
5,136,860549,1,0,0:0:0:0:
5,136,860611,1,0,0:0:0:0:
5,136,860674,1,0,1:0:0:0:
179,166,860799,1,0,0:0:0:0:
80,23,860924,1,0,0:0:0:0:
80,23,860986,1,0,0:0:0:0:
80,23,861049,2,0,L|185:9,1,100,8|0,1:2|0:0,0:0:0:0:
245,48,861236,1,0,0:0:0:0:
245,48,861299,5,0,1:0:0:0:
368,248,861424,1,0,1:0:0:0:
359,296,861486,1,0,1:0:0:0:
351,345,861549,1,4,3:0:0:0:
267,154,861674,1,0,1:0:0:0:
309,127,861736,1,0,1:0:0:0:
357,116,861799,1,0,1:0:0:0:
407,122,861861,1,0,1:0:0:0:
452,143,861924,1,4,3:0:0:0:
487,178,861986,1,4,3:0:0:0:
510,222,862049,1,8,1:2:0:0:
452,9,862174,1,8,1:2:0:0:
368,248,862299,6,0,P|359:288|367:346,1,100,4|0,1:1|0:0,0:0:0:0:
251,384,862674,1,0,0:0:0:0:
251,384,862799,2,0,P|260:344|252:286,1,100,2|0,0:0|0:0,0:0:0:0:
195,214,863174,2,0,L|83:236,1,100,2|0,0:0|0:0,0:0:0:0:
108,144,863549,2,0,L|46:155,1,50,2|0,0:0|0:0,0:0:0:0:
70,64,863799,2,0,L|8:75,1,50,2|0,0:0|0:0,0:0:0:0:
145,16,864049,1,0,0:0:0:0:
145,16,864174,1,0,0:0:0:0:
145,16,864299,6,0,P|185:42|238:29,1,100,2|0,0:0|0:0,0:0:0:0:
307,83,864674,1,0,0:0:0:0:
307,83,864799,2,0,P|354:72|395:99,1,100,2|0,0:0|0:0,0:0:0:0:
443,175,865174,2,0,L|428:287,1,100,0|2,0:0|0:0,0:0:0:0:
419,363,865549,1,0,0:0:0:0:
344,312,865674,1,0,0:0:0:0:
275,370,865799,2,0,P|246:367|224:348,1,50
178,284,866049,2,0,P|181:257|200:233,1,50
266,189,866299,6,0,L|242:88,1,100,2|0,0:0|0:0,0:0:0:0:
294,17,866674,1,0,0:0:0:0:
294,17,866799,2,0,P|348:12|389:43,1,100,2|0,0:0|0:0,0:0:0:0:
444,104,867174,2,0,L|506:91,2,50
407,186,867549,2,0,L|358:175,1,50,2|0,0:0|0:0,0:0:0:0:
309,251,867799,1,0,0:0:0:0:
220,268,867924,1,0,0:0:0:0:
131,285,868049,1,0,0:0:0:0:
42,303,868174,1,0,0:0:0:0:
42,303,868299,6,0,P|33:258|43:204,1,100,2|0,0:0|0:0,0:0:0:0:
115,151,868674,1,0,0:0:0:0:
115,151,868799,2,0,P|124:106|114:52,1,100,2|0,0:0|0:0,0:0:0:0:
193,9,869174,1,0,0:0:0:0:
272,53,869299,1,0,0:0:0:0:
351,9,869424,1,0,0:0:0:0:
430,53,869549,2,0,L|418:114,1,50,2|0,0:0|0:0,0:0:0:0:
476,172,869799,1,0,0:0:0:0:
476,172,869924,1,0,0:0:0:0:
476,172,870049,2,0,L|464:233,1,50
442,307,870299,6,0,P|383:298|343:320,1,100,2|0,0:0|0:0,0:0:0:0:
278,372,870674,1,0,0:0:0:0:
278,372,870799,2,0,P|219:381|179:359,1,100,2|0,0:0|0:0,0:0:0:0:
130,291,871174,2,0,P|121:232|143:192,1,100,2|0,0:0|0:0,0:0:0:0:
199,131,871549,2,0,P|198:95|194:78,1,50,2|0,0:0|0:0,0:0:0:0:
273,12,871799,2,0,P|274:48|278:65,1,50,2|0,0:0|0:0,0:0:0:0:
150,8,872049,1,0,0:0:0:0:
150,8,872174,1,0,0:0:0:0:
150,8,872299,6,0,L|48:22,1,100,2|0,0:0|0:0,0:0:0:0:
4,98,872674,1,0,0:0:0:0:
4,98,872799,2,0,L|106:112,1,100,2|0,0:0|0:0,0:0:0:0:
178,160,873174,2,0,P|180:194|172:216,1,50
248,306,873424,2,0,P|246:272|254:250,1,50,2|0,0:0|0:0,0:0:0:0:
348,194,873674,2,0,P|350:228|342:250,2,50
309,112,874049,1,0,0:0:0:0:
309,112,874174,1,0,0:0:0:0:
309,112,874299,6,0,L|429:89,1,100,2|0,0:0|0:0,0:0:0:0:
357,18,874674,1,0,0:0:0:0:
357,18,874799,2,0,L|237:41,1,100,2|0,0:0|0:0,0:0:0:0:
180,80,875174,2,0,P|141:86|123:78,1,50
50,43,875424,1,0,0:0:0:0:
14,125,875549,2,0,L|28:182,1,50,2|0,0:0|0:0,0:0:0:0:
112,198,875799,2,0,L|98:255,1,50
14,271,876049,2,0,L|28:328,1,50
102,367,876299,5,2,0:0:0:0:
256,192,876361,12,4,878299,1:1:0:0:
29,82,883424,5,0,0:0:0:0:
85,208,883549,1,2,0:0:0:0:
139,41,883674,1,0,0:0:0:0:
168,177,883799,1,2,0:0:0:0:
256,24,883924,1,0,0:0:0:0:
256,164,884049,1,2,0:0:0:0:
373,41,884174,1,0,0:0:0:0:
344,177,884299,1,2,0:0:0:0:
483,82,884424,1,0,0:0:0:0:
427,208,884549,1,2,0:0:0:0:
256,192,885049,12,0,886174,0:0:0:0:
64,80,886299,6,0,L|174:69,1,100,4|0,1:0|0:0,0:0:0:0:
362,55,886549,1,0,0:0:0:0:
362,55,886611,1,0,0:0:0:0:
362,55,886674,1,0,1:0:0:0:
247,218,886799,2,0,P|244:271|266:322,1,100
341,374,886986,1,0,0:0:0:0:
341,374,887049,2,0,L|453:356,1,100,8|0,1:2|0:0,0:0:0:0:
499,277,887236,1,0,0:0:0:0:
499,277,887299,6,0,P|502:224|480:173,1,100,0|0,1:0|0:0,0:0:0:0:
342,39,887549,1,0,0:0:0:0:
303,47,887611,1,0,0:0:0:0:
263,55,887674,1,0,1:0:0:0:
186,239,887799,1,0,0:0:0:0:
99,58,887924,1,0,0:0:0:0:
60,66,887986,1,0,0:0:0:0:
20,74,888049,2,0,P|8:123|22:173,1,100,8|0,1:2|0:0,0:0:0:0:
79,251,888236,1,0,0:0:0:0:
79,251,888299,6,0,P|91:300|77:350,1,100,0|0,1:0|0:0,0:0:0:0:
137,154,888549,1,0,0:0:0:0:
176,160,888611,1,0,0:0:0:0:
215,166,888674,1,0,1:0:0:0:
254,173,888736,1,0,0:0:0:0:
293,180,888799,1,0,0:0:0:0:
395,349,888924,1,0,0:0:0:0:
434,342,888986,1,0,0:0:0:0:
473,335,889049,1,8,1:2:0:0:
503,138,889174,1,0,0:0:0:0:
503,138,889236,1,0,0:0:0:0:
503,138,889299,6,0,P|508:80|486:38,1,100,0|0,1:0|0:0,0:0:0:0:
294,11,889549,1,0,0:0:0:0:
294,11,889611,1,0,0:0:0:0:
294,11,889674,1,0,1:0:0:0:
389,188,889799,1,0,0:0:0:0:
190,155,889924,1,0,0:0:0:0:
150,152,889986,1,0,0:0:0:0:
112,167,890049,1,8,1:2:0:0:
12,365,890174,1,0,0:0:0:0:
52,368,890236,1,0,0:0:0:0:
90,353,890299,6,0,P|137:346|192:360,1,100,0|0,1:0|0:0,0:0:0:0:
325,213,890549,1,0,0:0:0:0:
363,221,890611,1,0,0:0:0:0:
403,218,890674,1,0,1:0:0:0:
438,199,890736,1,0,0:0:0:0:
460,165,890799,2,0,P|469:118|451:68,1,100
370,9,890986,1,0,0:0:0:0:
370,9,891049,2,0,L|266:18,1,100,8|0,1:2|0:0,0:0:0:0:
211,96,891236,1,0,0:0:0:0:
211,96,891299,6,0,L|107:87,1,100,0|0,1:0|0:0,0:0:0:0:
11,260,891549,1,2,0:0:0:0:
50,264,891611,1,0,0:0:0:0:
89,258,891674,1,2,1:2:0:0:
124,240,891736,1,0,0:0:0:0:
151,210,891799,1,0,0:0:0:0:
256,382,891924,1,2,0:2:0:0:
256,382,891986,1,0,0:0:0:0:
256,382,892049,1,8,1:2:0:0:
361,210,892174,1,2,0:2:0:0:
388,240,892237,1,0,0:0:0:0:
423,258,892299,5,2,1:2:0:0:
483,46,892424,1,2,0:2:0:0:
296,162,892549,1,2,0:2:0:0:
296,162,892611,1,0,0:0:0:0:
296,162,892674,1,2,1:2:0:0:
483,46,892799,1,2,0:2:0:0:
268,0,892924,1,2,0:2:0:0:
268,0,892986,1,0,0:0:0:0:
268,0,893049,1,10,1:2:0:0:
430,173,893174,1,2,0:2:0:0:
443,210,893236,1,2,0:2:0:0:
456,247,893299,5,2,1:2:0:0:
434,280,893361,1,0,0:0:0:0:
412,313,893424,2,0,L|339:326,1,50,2|0,1:2|1:0,0:0:0:0:
226,273,893549,1,4,3:3:0:0:
187,265,893611,1,0,0:0:0:0:
147,274,893674,2,0,L|74:287,1,50,2|0,1:2|1:0,0:0:0:0:
6,172,893799,5,2,1:2:0:0:
0,124,893861,1,0,1:2:0:0:
6,75,893924,1,4,3:0:0:0:
30,32,893986,1,4,3:0:0:0:
67,0,894049,1,10,1:2:0:0:
288,56,894174,1,10,1:2:0:0:
83,165,894299,6,0,L|58:290,1,100,4|0,1:0|0:0,0:0:0:0:
217,373,894549,1,0,0:0:0:0:
256,381,894611,1,0,0:0:0:0:
295,373,894674,1,0,1:0:0:0:
449,263,894799,2,0,L|430:165,1,100
462,66,894986,1,0,0:0:0:0:
462,66,895049,2,0,P|403:61|367:81,1,100,8|0,1:2|0:0,0:0:0:0:
330,172,895236,1,0,0:0:0:0:
330,172,895299,6,0,P|285:192|236:185,1,100,0|0,1:0|0:0,0:0:0:0:
60,93,895549,1,0,0:0:0:0:
72,55,895611,1,0,0:0:0:0:
86,17,895674,1,0,1:0:0:0:
264,98,895799,1,0,0:0:0:0:
111,232,895924,1,0,0:0:0:0:
99,270,895986,1,0,0:0:0:0:
85,308,896049,1,8,1:2:0:0:
60,93,896174,1,0,0:0:0:0:
60,93,896236,1,0,0:0:0:0:
60,93,896299,6,0,L|165:74,1,100,0|0,1:0|0:0,0:0:0:0:
376,37,896549,1,0,0:0:0:0:
405,63,896611,1,0,0:0:0:0:
420,100,896674,1,0,1:0:0:0:
422,139,896736,1,0,0:0:0:0:
407,176,896799,1,0,0:0:0:0:
256,306,896924,1,0,0:0:0:0:
256,306,896986,1,0,0:0:0:0:
256,306,897049,1,8,1:2:0:0:
105,176,897174,1,0,0:0:0:0:
105,176,897236,1,0,0:0:0:0:
105,176,897299,6,0,L|125:64,1,100,0|0,1:0|0:0,0:0:0:0:
299,166,897549,1,0,0:0:0:0:
299,166,897611,1,0,0:0:0:0:
299,166,897674,1,0,1:0:0:0:
92,257,897799,2,0,L|72:369,1,100
2,286,897986,1,0,0:0:0:0:
2,286,898049,2,0,L|22:174,1,100,8|0,1:2|0:0,0:0:0:0:
74,105,898236,1,0,0:0:0:0:
74,105,898299,6,0,P|92:49|79:8,1,100,0|0,1:0|0:0,0:0:0:0:
277,66,898549,1,0,0:0:0:0:
315,57,898611,1,0,0:0:0:0:
354,47,898674,1,0,1:0:0:0:
392,38,898736,1,0,0:0:0:0:
431,28,898799,1,0,0:0:0:0:
496,218,898924,1,0,0:0:0:0:
496,218,898986,1,0,0:0:0:0:
496,218,899049,1,8,1:2:0:0:
308,167,899174,1,0,0:0:0:0:
308,167,899236,1,0,0:0:0:0:
308,167,899299,6,0,P|255:163|199:186,1,100,0|0,1:0|0:0,0:0:0:0:
92,339,899549,1,0,0:0:0:0:
53,329,899611,1,0,0:0:0:0:
13,319,899674,1,0,1:0:0:0:
120,154,899799,2,0,L|87:34,1,100
361,5,900049,5,8,1:2:0:0:
419,32,900111,1,0,0:0:0:0:
450,89,900174,1,0,1:2:0:0:
445,152,900236,1,0,1:2:0:0:
408,204,900299,6,0,P|406:267|433:326,1,100,4|0,1:3|0:0,0:0:0:0:
209,133,900549,2,0,P|211:71|184:11,1,100,4|0,1:3|0:0,0:0:0:0:
62,222,900799,5,0,0:0:0:0:
62,222,900924,1,0,0:0:0:0:
62,222,901049,2,0,L|80:306,1,75.0000028610231
299,344,901299,5,0,0:0:0:0:
349,172,901424,1,2,0:0:0:0:
175,214,901549,1,2,0:0:0:0:
373,272,901674,1,0,0:0:0:0:
249,143,901799,1,0,0:0:0:0:
199,314,901924,1,2,0:0:0:0:
349,172,902049,2,0,P|359:119|347:84,1,75.0000028610231,2|0,0:0|0:0,0:0:0:0:
179,22,902299,6,0,L|75:35,1,100,4|0,1:0|0:0,0:0:0:0:
31,97,902674,1,0,0:0:0:0:
31,97,902799,2,0,P|28:146|60:194,1,100,10|0,0:0|0:0,0:0:0:0:
106,128,903174,2,0,P|131:170|128:219,1,100,2|0,0:0|0:0,0:0:0:0:
70,276,903549,2,0,L|86:335,1,50,2|0,0:0|0:0,0:0:0:0:
150,367,903799,1,10,0:0:0:0:
252,244,904049,1,0,0:0:0:0:
252,244,904174,1,0,0:0:0:0:
252,244,904299,6,0,L|356:255,1,100,2|0,0:0|0:0,0:0:0:0:
418,209,904674,1,0,0:0:0:0:
418,209,904799,2,0,P|423:175|415:157,1,50,10|0,0:0|0:0,0:0:0:0:
363,102,905049,1,0,0:0:0:0:
363,102,905174,2,0,P|358:68|366:50,2,50,0|0|2,0:0|0:0|0:0,0:0:0:0:
299,151,905549,2,0,L|233:144,1,50
279,71,905799,2,0,L|213:64,1,50,8|0,0:0|0:0,0:0:0:0:
168,13,906049,1,0,0:0:0:0:
90,30,906174,1,0,0:0:0:0:
12,48,906299,6,0,L|2:151,1,100,2|0,0:0|0:0,0:0:0:0:
73,184,906674,1,0,0:0:0:0:
73,184,906799,2,0,L|66:246,1,50,10|0,0:0|0:0,0:0:0:0:
140,267,907049,1,0,0:0:0:0:
140,267,907174,2,0,L|133:329,2,50
202,216,907549,2,0,P|234:212|265:220,1,50,2|0,0:0|0:0,0:0:0:0:
314,264,907799,2,0,P|346:268|377:260,1,50,8|0,0:0|0:0,0:0:0:0:
430,222,908049,1,0,0:0:0:0:
430,222,908174,1,0,0:0:0:0:
430,222,908299,6,0,P|438:166|419:122,1,100,2|0,0:0|0:0,0:0:0:0:
358,78,908674,1,0,0:0:0:0:
358,78,908799,2,0,P|302:70|258:89,1,100,10|0,0:0|0:0,0:0:0:0:
196,129,909174,1,0,0:0:0:0:
117,144,909299,2,0,P|75:145|55:136,1,50
5,229,909549,2,0,P|47:228|67:237,1,50,2|0,0:0|0:0,0:0:0:0:
107,290,909799,2,0,P|149:297|208:264,1,100,8|0,0:0|0:0,0:0:0:0:
246,208,910174,1,0,0:0:0:0:
246,208,910299,6,0,L|272:310,1,100,2|0,0:0|0:0,0:0:0:0:
339,264,910674,1,0,0:0:0:0:
339,264,910799,2,0,L|365:366,1,100,10|0,0:0|0:0,0:0:0:0:
441,342,911174,2,0,L|459:270,1,50,2|0,0:0|0:0,0:0:0:0:
418,220,911424,1,0,0:0:0:0:
418,220,911549,2,0,L|436:148,1,50,2|0,0:0|0:0,0:0:0:0:
395,98,911799,2,0,L|413:26,1,50,10|0,0:0|0:0,0:0:0:0:
334,16,912049,1,0,0:0:0:0:
254,28,912174,1,0,0:0:0:0:
174,40,912299,6,0,P|168:91|188:137,1,100,2|0,0:0|0:0,0:0:0:0:
259,168,912674,1,0,0:0:0:0:
259,168,912799,2,0,P|277:213|271:262,1,100,10|0,0:0|0:0,0:0:0:0:
222,326,913174,2,0,L|151:322,1,50
292,371,913424,1,2,0:0:0:0:
292,371,913549,2,0,L|363:367,1,50
420,351,913799,1,8,0:0:0:0:
462,283,913924,1,0,0:0:0:0:
459,203,914049,1,0,0:0:0:0:
426,129,914174,1,0,0:0:0:0:
357,87,914299,6,0,L|247:110,1,100,2|0,0:0|0:0,0:0:0:0:
187,71,914674,1,0,0:0:0:0:
187,71,914799,2,0,L|77:94,1,100,10|0,0:0|0:0,0:0:0:0:
44,157,915174,2,0,P|39:185|47:211,1,50
115,242,915424,1,0,0:0:0:0:
115,242,915549,2,0,P|120:270|112:296,1,50,2|0,0:0|0:0,0:0:0:0:
174,180,915799,1,8,0:0:0:0:
249,154,915924,1,0,0:0:0:0:
327,169,916049,1,0,0:0:0:0:
384,224,916174,1,0,0:0:0:0:
408,300,916299,6,0,L|308:328,1,100,2|0,0:0|0:0,0:0:0:0:
240,289,916674,1,0,0:0:0:0:
240,289,916799,2,0,L|140:317,1,100,10|0,0:0|0:0,0:0:0:0:
66,291,917174,1,0,0:0:0:0:
66,291,917299,2,0,P|60:251|66:233,1,50
121,188,917549,2,0,P|127:148|121:130,1,50,2|0,0:0|0:0,0:0:0:0:
182,49,917799,5,2,1:2:0:0:
399,118,917924,1,2,1:2:0:0:
330,335,918049,1,2,1:2:0:0:
113,266,918174,1,2,1:2:0:0:
399,118,918299,6,0,L|419:235,1,100,4|0,1:0|0:0,0:0:0:0:
100,153,918549,2,0,L|80:36,1,100,0|0,1:0|0:0,0:0:0:0:
330,2,918799,1,2,1:2:0:0:
210,198,918924,1,0,0:0:0:0:
202,236,918986,1,0,0:0:0:0:
205,276,919049,1,0,0:0:0:0:
221,311,919111,1,0,0:0:0:0:
248,340,919174,1,2,1:2:0:0:
473,288,919299,5,0,0:0:0:0:
481,250,919361,1,0,0:0:0:0:
478,210,919424,1,0,0:0:0:0:
462,175,919486,1,0,0:0:0:0:
435,146,919549,1,2,1:2:0:0:
212,90,919674,1,0,0:0:0:0:
430,8,919799,1,10,1:2:0:0:
292,197,919924,1,0,1:0:0:0:
510,115,920049,1,0,0:0:0:0:
212,90,920174,1,0,1:0:0:0:
415,321,920299,6,0,L|294:345,1,100,2|0,1:2|0:0,0:0:0:0:
25,270,920549,2,0,L|146:246,1,100,0|0,1:0|0:0,0:0:0:0:
197,13,920799,1,2,1:2:0:0:
363,171,920924,1,0,0:0:0:0:
402,172,920986,1,0,0:0:0:0:
440,159,921049,1,0,0:0:0:0:
468,131,921111,1,0,0:0:0:0:
485,94,921174,1,0,1:0:0:0:
197,13,921299,5,0,0:0:0:0:
158,12,921361,1,0,0:0:0:0:
120,25,921424,1,2,0:0:0:0:
92,53,921486,1,0,0:0:0:0:
75,90,921549,2,0,P|70:141|94:195,1,100,0|0,1:0|0:0,0:0:0:0:
299,300,921799,1,8,1:2:0:0:
68,369,921924,1,0,1:0:0:0:
149,137,922049,1,0,0:0:0:0:
192,382,922174,1,0,1:0:0:0:
273,150,922299,6,0,L|385:137,1,100,2|0,1:2|0:0,0:0:0:0:
99,12,922549,2,0,L|-13:25,1,100,0|0,1:0|0:0,0:0:0:0:
157,204,922799,1,2,1:2:0:0:
294,12,922924,1,0,0:0:0:0:
333,19,922986,1,0,0:0:0:0:
372,26,923049,1,0,0:0:0:0:
411,33,923111,1,0,0:0:0:0:
450,40,923174,1,0,1:0:0:0:
512,228,923299,5,0,0:0:0:0:
473,235,923361,1,0,0:0:0:0:
434,242,923424,1,0,0:0:0:0:
395,249,923486,1,0,0:0:0:0:
356,256,923549,2,0,P|339:207|352:153,1,100,2|0,1:2|0:0,0:0:0:0:
494,358,923799,1,8,1:2:0:0:
502,117,923924,1,0,1:0:0:0:
271,236,924049,1,0,0:0:0:0:
512,228,924174,1,0,1:0:0:0:
316,60,924299,6,0,L|200:77,1,100,2|0,1:2|0:0,0:0:0:0:
0,220,924549,2,0,L|116:237,1,100,0|0,1:0|0:0,0:0:0:0:
316,60,924799,1,2,1:2:0:0:
333,322,924924,1,0,0:0:0:0:
371,329,924986,1,0,0:0:0:0:
411,326,925049,1,0,0:0:0:0:
446,308,925111,1,0,0:0:0:0:
470,276,925174,1,0,1:0:0:0:
316,60,925299,5,0,0:0:0:0:
278,53,925361,1,0,0:0:0:0:
238,56,925424,1,0,0:0:0:0:
203,74,925486,1,0,0:0:0:0:
179,106,925549,1,2,1:2:0:0:
126,329,925674,1,0,0:0:0:0:
21,128,925799,1,8,1:2:0:0:
220,240,925924,1,0,1:0:0:0:
5,118,926049,2,0,P|-4:58|9:14,1,100,0|0,0:0|1:0,0:0:0:0:
220,240,926299,6,0,L|349:230,1,100,2|0,1:2|0:0,0:0:0:0:
512,0,926549,2,0,L|383:10,1,100,0|0,1:0|0:0,0:0:0:0:
492,264,926799,1,2,1:2:0:0:
309,100,926924,1,0,0:0:0:0:
270,89,926986,1,0,0:0:0:0:
229,92,927049,1,0,0:0:0:0:
192,106,927111,1,0,0:0:0:0:
164,135,927174,1,2,1:2:0:0:
126,368,927299,5,0,0:0:0:0:
165,379,927361,1,0,0:0:0:0:
206,376,927424,1,0,0:0:0:0:
243,362,927486,1,0,0:0:0:0:
271,333,927549,1,2,1:2:0:0:
45,253,927674,1,0,0:0:0:0:
229,92,927799,1,10,1:2:0:0:
167,373,927924,1,0,1:0:0:0:
39,155,928049,1,0,0:0:0:0:
271,333,928174,1,0,1:0:0:0:
155,53,928299,6,0,L|278:25,1,100,2|0,1:2|0:0,0:0:0:0:
512,182,928549,2,0,L|389:210,1,100,0|0,1:0|0:0,0:0:0:0:
109,278,928799,1,2,1:2:0:0:
371,344,928924,1,0,0:0:0:0:
402,319,928986,1,0,0:0:0:0:
420,283,929049,1,0,0:0:0:0:
423,244,929111,1,0,0:0:0:0:
415,205,929174,1,0,1:0:0:0:
155,53,929299,5,0,0:0:0:0:
124,78,929361,1,0,0:0:0:0:
106,114,929424,1,2,0:0:0:0:
103,153,929486,1,0,0:0:0:0:
111,192,929549,1,0,1:0:0:0:
328,67,929674,1,0,0:0:0:0:
328,317,929799,1,8,1:2:0:0:
183,66,929924,1,0,1:0:0:0:
400,191,930049,1,0,0:0:0:0:
183,316,930174,1,0,1:0:0:0:
328,67,930299,6,0,L|447:53,1,100,2|0,1:2|0:0,0:0:0:0:
502,330,930549,2,0,L|383:316,1,100,0|0,1:0|0:0,0:0:0:0:
328,67,930799,1,2,1:2:0:0:
146,215,930924,1,0,0:0:0:0:
106,218,930986,1,0,0:0:0:0:
67,207,931049,1,0,0:0:0:0:
35,182,931111,1,0,0:0:0:0:
18,145,931174,1,0,1:0:0:0:
328,67,931299,5,0,0:0:0:0:
319,110,931361,1,0,0:0:0:0:
310,154,931424,1,0,0:0:0:0:
301,197,931486,1,0,0:0:0:0:
292,241,931549,2,0,L|317:340,1,100,2|0,1:2|0:0,0:0:0:0:
491,152,931799,1,8,1:2:0:0:
199,223,931924,1,0,1:0:0:0:
445,307,932049,1,0,0:0:0:0:
328,67,932174,1,0,1:0:0:0:
215,353,932299,6,0,P|154:357|121:335,1,100,0|0,1:0|1:0,0:0:0:0:
45,100,932799,1,2,0:0:0:0:
45,100,932924,1,2,0:0:0:0:
45,100,933049,1,2,0:0:0:0:
45,100,933174,6,0,P|106:96|139:118,1,100
374,115,933674,1,0,0:0:0:0:
374,115,933736,1,0,0:0:0:0:
374,115,933799,2,0,L|441:100,1,50,2|0,0:0|0:0,0:0:0:0:
400,211,934049,2,0,L|466:195,1,50,2|0,0:0|0:0,0:0:0:0:
425,306,934299,5,4,0:1:0:0:
425,306,934549,2,0,P|371:297|326:323,1,100,2|0,0:0|0:0,0:0:0:0:
278,375,934924,2,0,P|201:378|136:327,1,150,2|0,0:0|0:0,0:0:0:0:
92,186,935549,2,0,P|146:177|191:203,1,100,2|0,0:0|0:0,0:0:0:0:
239,255,935924,2,0,P|316:258|381:207,1,150,2|0,0:0|0:0,0:0:0:0:
416,63,936549,6,0,L|304:52,1,100,2|0,0:0|0:0,0:0:0:0:
336,130,936924,2,0,L|167:113,1,150,2|0,0:0|0:0,0:0:0:0:
119,260,937549,2,0,L|231:271,1,100,2|0,0:0|0:0,0:0:0:0:
199,193,937924,2,0,L|367:209,1,150,2|0,0:0|0:0,0:0:0:0:
471,105,938549,6,0,B|476:55|476:55|449:3,1,100,2|0,0:0|0:0,0:0:0:0:
396,68,938924,2,0,B|391:118|391:118|440:209,1,150,2|0,0:0|0:0,0:0:0:0:
293,274,939549,2,0,B|288:324|288:324|315:376,1,100,2|0,0:0|0:0,0:0:0:0:
368,311,939924,2,0,B|373:261|373:261|324:170,1,150,2|0,0:0|0:0,0:0:0:0:
208,60,940549,6,0,P|164:48|112:60,1,100,2|0,0:0|0:0,0:0:0:0:
90,137,940924,2,0,P|155:154|233:137,1,150,2|2,0:0|0:0,0:0:0:0:
298,267,941424,1,2,0:0:0:0:
355,136,941549,1,2,0:0:0:0:
355,136,941799,5,2,0:0:0:0:
364,153,941861,1,0,0:0:0:0:
374,170,941924,1,0,0:0:0:0:
384,187,941986,1,0,0:0:0:0:
394,204,942049,1,2,0:0:0:0:
472,315,942174,1,2,0:0:0:0:
483,109,942299,6,0,L|429:16,1,100,0|0,1:0|0:0,0:0:0:0:
255,51,942549,1,0,0:0:0:0:
245,89,942611,1,0,0:0:0:0:
255,127,942674,1,0,1:0:0:0:
353,277,942799,1,2,0:2:0:0:
181,331,942924,1,2,0:2:0:0:
142,323,942986,1,0,0:0:0:0:
102,315,943049,2,0,P|86:262|95:215,1,100,10|0,1:2|0:0,0:0:0:0:
139,152,943236,1,0,0:0:0:0:
139,152,943299,6,0,P|146:102|130:55,1,100,2|0,1:2|0:0,0:0:0:0:
8,192,943549,1,2,0:2:0:0:
8,192,943611,1,0,0:0:0:0:
8,192,943674,1,0,1:0:0:0:
185,241,943799,2,0,L|294:229,1,100,2|0,0:2|0:0,0:0:0:0:
322,160,943986,1,0,0:0:0:0:
322,160,944049,2,0,L|431:148,1,100,10|0,1:2|0:0,0:0:0:0:
488,193,944236,1,0,0:0:0:0:
488,193,944299,6,0,B|503:242|503:242|488:293,1,100,2|0,1:2|0:0,0:0:0:0:
318,353,944549,1,0,0:0:0:0:
279,344,944611,1,0,0:0:0:0:
239,335,944674,1,0,1:0:0:0:
61,294,944799,1,0,0:0:0:0:
184,158,944924,1,0,0:0:0:0:
191,118,944986,1,0,0:0:0:0:
181,78,945049,1,8,1:2:0:0:
344,0,945174,1,0,0:0:0:0:
337,40,945236,1,0,0:0:0:0:
347,80,945299,6,0,L|450:69,1,100,0|0,1:0|0:0,0:0:0:0:
504,240,945549,1,0,0:0:0:0:
490,277,945611,1,0,0:0:0:0:
477,315,945674,1,0,1:0:0:0:
299,351,945799,1,0,0:0:0:0:
374,155,945924,1,0,0:0:0:0:
360,118,945986,1,0,0:0:0:0:
347,80,946049,1,8,1:2:0:0:
169,44,946174,1,0,0:0:0:0:
169,44,946236,1,0,0:0:0:0:
169,44,946299,6,0,P|117:38|65:62,1,100,0|0,1:0|0:0,0:0:0:0:
192,192,946549,1,0,0:0:0:0:
73,328,946674,1,0,1:0:0:0:
256,358,946799,1,2,0:2:0:0:
438,328,946924,1,0,0:0:0:0:
438,328,946986,1,0,0:0:0:0:
438,328,947049,2,0,P|448:273|430:232,1,100,10|2,1:2|0:2,0:0:0:0:
393,163,947236,1,0,0:0:0:0:
393,163,947299,6,0,P|383:107|401:66,1,100,2|0,1:2|0:0,0:0:0:0:
508,210,947549,1,2,0:2:0:0:
508,210,947611,1,0,0:0:0:0:
508,210,947674,1,0,1:0:0:0:
333,259,947799,2,0,L|218:246,1,100,2|0,0:2|0:0,0:0:0:0:
172,200,947986,1,0,0:0:0:0:
172,200,948049,1,10,1:2:0:0:
90,361,948174,1,0,0:0:0:0:
129,355,948236,1,0,0:0:0:0:
169,350,948299,6,0,L|284:363,1,100,2|0,1:2|0:0,0:0:0:0:
440,308,948549,1,0,0:0:0:0:
449,269,948611,1,0,0:0:0:0:
440,229,948674,1,0,1:0:0:0:
274,163,948799,1,0,0:0:0:0:
440,97,948924,1,0,0:0:0:0:
449,57,948987,1,0,0:0:0:0:
440,18,949049,1,8,1:2:0:0:
274,163,949174,1,0,0:0:0:0:
274,163,949236,1,0,0:0:0:0:
274,163,949299,5,0,1:0:0:0:
124,36,949424,1,0,1:0:0:0:
77,52,949486,1,0,1:0:0:0:
29,69,949549,1,4,3:0:0:0:
0,295,949674,1,0,1:0:0:0:
46,312,949736,1,0,1:0:0:0:
96,309,949799,1,0,1:0:0:0:
137,281,949861,1,0,1:0:0:0:
178,253,949924,1,4,3:0:0:0:
228,250,949987,1,4,3:0:0:0:
274,267,950049,2,0,L|386:256,1,100,8|8,1:2|1:2,0:0:0:0:
457,60,950299,5,0,1:0:0:0:
506,233,950424,1,0,0:0:0:0:
364,122,950549,1,0,0:0:0:0:
324,116,950611,1,0,0:0:0:0:
284,122,950674,1,0,1:0:0:0:
178,253,950799,2,0,L|165:357,1,100,2|0,0:2|0:0,0:0:0:0:
95,308,950986,1,0,0:0:0:0:
95,308,951049,2,0,L|108:204,1,100,10|2,1:2|0:2,0:0:0:0:
120,131,951236,1,0,0:0:0:0:
120,131,951299,6,0,B|126:79|126:79|102:30,1,100,2|0,1:2|0:0,0:0:0:0:
283,2,951549,1,2,0:2:0:0:
321,11,951611,1,0,0:0:0:0:
359,21,951674,1,0,1:0:0:0:
427,192,951799,1,2,0:2:0:0:
359,363,951924,1,0,0:0:0:0:
321,373,951987,1,0,0:0:0:0:
283,382,952049,1,10,1:2:0:0:
168,192,952174,1,0,0:0:0:0:
168,192,952236,1,0,0:0:0:0:
168,192,952299,6,0,L|188:91,1,100,2|0,1:2|0:0,0:0:0:0:
240,279,952549,1,0,0:0:0:0:
203,293,952611,1,0,0:0:0:0:
162,297,952674,1,0,1:0:0:0:
122,290,952736,1,0,0:0:0:0:
86,271,952799,1,0,0:0:0:0:
275,155,952924,1,0,0:0:0:0:
275,155,952986,1,0,0:0:0:0:
275,155,953049,1,8,1:2:0:0:
253,376,953174,1,0,0:0:0:0:
253,376,953236,1,0,0:0:0:0:
253,376,953299,6,0,L|366:357,1,100,0|0,1:0|0:0,0:0:0:0:
481,235,953549,1,0,0:0:0:0:
484,195,953611,1,0,0:0:0:0:
474,155,953674,1,0,1:0:0:0:
450,123,953736,1,0,0:0:0:0:
417,99,953799,2,0,L|436:1,1,100
357,11,953986,1,0,0:0:0:0:
357,11,954049,2,0,L|338:109,1,100,8|0,1:2|0:0,0:0:0:0:
323,186,954236,1,0,0:0:0:0:
323,186,954299,6,0,P|268:190|226:167,1,100,0|0,1:0|0:0,0:0:0:0:
131,17,954549,1,0,0:0:0:0:
92,26,954611,1,0,0:0:0:0:
52,36,954674,1,2,1:2:0:0:
140,192,954799,1,2,0:2:0:0:
52,348,954924,1,2,0:2:0:0:
92,358,954987,1,0,0:0:0:0:
131,367,955049,1,10,1:2:0:0:
282,272,955174,1,2,0:2:0:0:
322,282,955237,1,0,0:0:0:0:
361,291,955299,6,0,L|465:270,1,100,2|0,1:2|0:0,0:0:0:0:
499,96,955549,1,2,0:2:0:0:
499,96,955611,1,0,0:0:0:0:
499,96,955674,1,0,1:0:0:0:
337,173,955799,2,0,P|303:137|301:79,1,100,2|0,0:2|0:0,0:0:0:0:
213,88,955986,1,0,0:0:0:0:
213,88,956049,2,0,P|208:137|175:172,1,100,10|0,1:2|0:0,0:0:0:0:
96,186,956236,1,0,0:0:0:0:
96,186,956299,6,0,L|0:150,1,100,2|0,1:2|0:0,0:0:0:0:
43,326,956549,1,0,0:0:0:0:
43,326,956611,1,0,0:0:0:0:
43,326,956674,1,0,1:0:0:0:
202,240,956799,1,0,0:0:0:0:
316,378,956924,1,0,0:0:0:0:
316,378,956986,1,0,0:0:0:0:
316,378,957049,1,8,1:2:0:0:
475,292,957174,1,0,0:0:0:0:
202,240,957299,5,0,1:0:0:0:
362,148,957424,1,0,1:0:0:0:
377,100,957486,1,0,1:0:0:0:
362,51,957549,1,4,3:0:0:0:
105,18,957674,1,0,1:0:0:0:
92,66,957736,1,0,1:0:0:0:
79,114,957799,1,0,1:0:0:0:
66,162,957861,1,0,1:0:0:0:
53,210,957924,1,4,3:0:0:0:
41,258,957986,1,4,3:0:0:0:
28,306,958049,1,8,1:2:0:0:
288,238,958174,1,8,1:2:0:0:
7,104,958299,5,4,1:0:0:0:
91,116,968299,6,0,B|99:87|86:54|45:33|45:33|-32:74|-36:169|33:247|140:210|140:210|222:313|202:384|115:388|86:313|166:246|211:213|247:223|247:223|255:243|255:252|255:252|255:243|264:223|264:223|301:213|346:246|425:313|396:388|309:384|288:313|371:210|371:210|478:247|548:169|544:74|466:33|466:33|425:54|412:87|420:116,1,1600,2|2,0:0|0:0,0:0:0:0:
256,192,972424,12,0,974049,0:0:0:0:
155,80,974299,6,0,L|359:80,1,200,2|0,0:0|0:0,0:0:0:0:
436,137,975049,1,0,0:0:0:0:
348,188,975299,2,0,P|255:222|164:188,1,200,2|0,0:0|0:0,0:0:0:0:
72,232,976049,1,0,0:0:0:0:
82,333,976299,2,0,B|142:404|271:404|247:261|376:261|437:333,1,400,2|2,0:0|0:0,0:0:0:0:
256,192,977361,12,0,978299,0:0:0:0:
256,112,993424,5,0,0:0:0:0:
291,18,993549,1,2,0:0:0:0:
332,167,993674,1,0,0:0:0:0:
432,171,993799,1,2,0:0:0:0:
303,256,993924,1,0,0:0:0:0:
329,353,994049,1,2,0:0:0:0:
208,256,994174,1,0,0:0:0:0:
125,312,994299,1,2,0:0:0:0:
179,167,994424,1,0,0:0:0:0:
101,104,994549,1,2,0:0:0:0:
256,192,995049,12,0,996174,0:0:0:0:
174,42,996299,6,0,L|149:139,1,100,4|0,1:0|0:0,0:0:0:0:
101,333,996549,1,0,1:0:0:0:
49,139,996674,1,0,0:0:0:0:
206,262,996799,1,2,1:2:0:0:
263,70,996924,1,0,0:0:0:0:
304,42,996986,1,0,0:0:0:0:
354,36,997049,1,0,0:0:0:0:
402,48,997111,1,0,0:0:0:0:
441,79,997174,1,2,1:2:0:0:
499,275,997299,5,0,0:0:0:0:
458,303,997361,1,0,0:0:0:0:
408,309,997424,1,0,0:0:0:0:
360,297,997486,1,0,0:0:0:0:
321,266,997549,2,0,B|312:218|312:218|334:160,1,100,2|0,1:2|0:0,0:0:0:0:
162,0,997799,2,0,B|171:48|171:48|149:106,1,100,10|0,1:2|1:0,0:0:0:0:
72,293,998049,1,0,0:0:0:0:
10,60,998174,1,0,1:0:0:0:
233,193,998299,6,0,L|352:166,1,100,2|0,1:2|0:0,0:0:0:0:
104,361,998549,2,0,L|-15:388,1,100,0|0,1:0|0:0,0:0:0:0:
287,313,998799,1,2,1:2:0:0:
54,228,998924,1,0,0:0:0:0:
29,184,998986,1,0,0:0:0:0:
26,133,999049,1,0,0:0:0:0:
46,87,999111,1,0,0:0:0:0:
88,60,999174,1,0,1:0:0:0:
277,140,999299,5,0,0:0:0:0:
325,130,999361,1,0,0:0:0:0:
374,121,999424,1,2,0:0:0:0:
422,112,999486,1,0,0:0:0:0:
471,103,999549,1,0,1:0:0:0:
283,35,999674,1,0,0:0:0:0:
391,261,999799,1,8,1:2:0:0:
471,103,999924,1,0,1:0:0:0:
234,224,1000049,1,0,0:0:0:0:
512,316,1000174,1,0,1:0:0:0:
325,130,1000299,6,0,L|204:130,1,100,2|0,1:2|0:0,0:0:0:0:
0,0,1000549,2,0,L|121:0,1,100,0|0,1:0|0:0,0:0:0:0:
26,193,1000799,1,2,1:2:0:0:
241,46,1000924,1,0,0:0:0:0:
290,39,1000986,1,0,0:0:0:0:
340,33,1001049,1,0,0:0:0:0:
389,27,1001111,1,0,0:0:0:0:
439,21,1001174,1,0,1:0:0:0:
494,274,1001299,5,0,0:0:0:0:
445,267,1001361,1,0,0:0:0:0:
395,261,1001424,1,0,0:0:0:0:
346,255,1001486,1,0,0:0:0:0:
295,253,1001549,2,0,L|183:283,1,100,2|0,1:2|0:0,0:0:0:0:
59,109,1001799,1,8,1:2:0:0:
38,328,1001924,1,0,1:0:0:0:
61,86,1002049,1,0,0:0:0:0:
217,301,1002174,1,0,1:0:0:0:
246,12,1002299,6,0,L|359:22,1,100,2|0,1:2|0:0,0:0:0:0:
512,217,1002549,2,0,L|399:227,1,100,0|0,1:0|0:0,0:0:0:0:
197,111,1002799,1,2,1:2:0:0:
225,374,1002924,1,0,0:0:0:0:
274,383,1002986,1,0,0:0:0:0:
323,370,1003049,1,0,0:0:0:0:
360,337,1003111,1,0,0:0:0:0:
382,292,1003174,1,0,1:0:0:0:
197,111,1003299,5,0,0:0:0:0:
148,102,1003361,1,0,0:0:0:0:
99,115,1003424,1,0,0:0:0:0:
62,148,1003486,1,0,0:0:0:0:
40,193,1003549,1,2,1:2:0:0:
289,268,1003674,1,0,0:0:0:0:
192,34,1003799,1,8,1:2:0:0:
60,212,1003924,1,0,1:0:0:0:
309,287,1004049,1,0,0:0:0:0:
212,53,1004174,1,0,1:0:0:0:
126,337,1004299,6,0,P|170:357|230:354,1,100,2|0,1:2|0:0,0:0:0:0:
512,182,1004549,2,0,P|468:162|408:165,1,100,0|0,1:0|0:0,0:0:0:0:
189,274,1004799,1,2,1:2:0:0:
248,39,1004924,1,0,0:0:0:0:
297,33,1004986,1,0,0:0:0:0:
347,27,1005049,1,0,0:0:0:0:
396,21,1005111,1,0,0:0:0:0:
446,14,1005174,1,2,1:2:0:0:
296,198,1005299,5,0,0:0:0:0:
247,192,1005361,1,0,0:0:0:0:
197,186,1005424,1,0,0:0:0:0:
148,180,1005486,1,0,0:0:0:0:
98,173,1005549,1,2,1:2:0:0:
313,113,1005674,1,0,0:0:0:0:
127,268,1005799,2,0,B|117:315|117:315|135:372,1,100,10|0,1:2|1:0,0:0:0:0:
448,284,1006049,2,0,B|458:237|458:237|440:180,1,100,0|0,0:0|1:0,0:0:0:0:
259,12,1006299,5,2,1:2:0:0:
270,226,1006424,1,0,0:0:0:0:
47,24,1006549,1,0,1:0:0:0:
58,238,1006674,1,0,0:0:0:0:
259,12,1006799,1,2,1:2:0:0:
205,351,1006924,1,0,0:0:0:0:
253,362,1006986,1,0,0:0:0:0:
303,359,1007049,1,0,0:0:0:0:
346,336,1007111,1,0,0:0:0:0:
374,295,1007174,1,0,1:0:0:0:
357,20,1007299,5,0,0:0:0:0:
309,9,1007361,1,0,0:0:0:0:
259,12,1007424,1,2,0:0:0:0:
216,35,1007486,1,0,0:0:0:0:
188,76,1007549,2,0,P|184:127|205:182,1,100,0|0,1:0|0:0,0:0:0:0:
483,335,1007799,2,0,P|487:284|466:229,1,100,8|0,1:2|1:0,0:0:0:0:
199,172,1008049,1,0,0:0:0:0:
495,92,1008174,1,0,1:0:0:0:
272,296,1008299,6,0,L|155:291,1,100,2|0,1:2|0:0,0:0:0:0:
0,65,1008549,2,0,L|117:70,1,100,0|0,1:0|0:0,0:0:0:0:
365,7,1008799,1,2,1:2:0:0:
212,197,1008924,1,0,0:0:0:0:
162,191,1008986,1,0,0:0:0:0:
111,185,1009049,1,0,0:0:0:0:
61,179,1009111,1,0,0:0:0:0:
10,174,1009174,1,0,1:0:0:0:
140,357,1009299,1,0,0:0:0:0:
190,351,1009361,1,0,0:0:0:0:
241,345,1009424,1,0,0:0:0:0:
291,339,1009486,1,0,0:0:0:0:
342,334,1009549,5,2,1:2:0:0:
102,127,1009674,1,0,0:0:0:0:
417,154,1009799,1,10,1:2:0:0:
147,317,1009924,1,0,1:0:0:0:
269,26,1010049,1,2,0:0:0:0:
342,334,1010174,1,0,1:0:0:0:
102,127,1010299,6,0,L|93:69,1,50,4|0,1:0|0:0,0:0:0:0:
203,187,1010549,2,0,L|211:245,1,50,0|0,1:0|0:0,0:0:0:0:
269,26,1010799,1,2,0:0:0:0:
269,26,1010924,1,2,0:0:0:0:
269,26,1011049,1,2,0:0:0:0:
380,117,1011174,6,0,P|407:118|437:108,1,50
512,251,1011424,2,0,P|485:250|455:260,1,50
367,340,1011674,1,0,0:0:0:0:
367,340,1011736,1,0,0:0:0:0:
367,340,1011799,2,0,L|303:327,1,50,2|2,0:0|0:0,0:0:0:0:
185,363,1012049,2,0,L|121:350,1,50,2|2,0:0|0:0,0:0:0:0:
1,140,1012299,6,0,B|-9:79|-9:79|19:16,1,119.999996337891,4|0,1:0|0:0,0:0:0:0:
275,109,1012549,1,0,1:2:0:0:
74,202,1012674,1,0,0:0:0:0:
212,2,1012799,1,2,1:2:0:0:
255,277,1012924,1,0,0:0:0:0:
284,314,1012986,1,0,0:0:0:0:
328,331,1013049,1,0,1:0:0:0:
375,328,1013111,1,0,0:0:0:0:
421,313,1013174,1,2,0:0:0:0:
410,56,1013299,5,0,1:0:0:0:
255,277,1013424,1,0,0:0:0:0:
255,277,1013486,1,0,0:0:0:0:
255,277,1013549,2,0,L|127:265,1,119.999996337891,2|0,1:2|0:0,0:0:0:0:
32,55,1013799,1,2,1:2:0:0:
78,47,1013861,1,0,0:0:0:0:
125,39,1013924,1,0,0:0:0:0:
171,31,1013986,1,0,0:0:0:0:
218,23,1014049,1,0,1:0:0:0:
475,92,1014174,1,0,0:0:0:0:
162,167,1014299,6,0,P|157:231|176:284,1,119.999996337891,2|0,1:2|0:0,0:0:0:0:
512,384,1014549,2,0,P|517:320|498:267,1,119.999996337891,0|0,1:0|0:0,0:0:0:0:
370,40,1014799,1,2,1:2:0:0:
322,46,1014861,1,0,0:0:0:0:
274,52,1014924,1,0,0:0:0:0:
176,282,1015049,1,0,1:0:0:0:
395,160,1015174,1,0,0:0:0:0:
113,34,1015299,6,0,L|75:148,1,119.999996337891,0|2,1:0|0:2,0:0:0:0:
292,309,1015549,1,0,1:0:0:0:
6,382,1015674,1,0,0:0:0:0:
186,165,1015799,1,0,1:0:0:0:
230,147,1015861,1,0,0:0:0:0:
278,152,1015924,1,0,0:0:0:0:
320,173,1015986,1,0,0:0:0:0:
347,212,1016049,1,0,1:0:0:0:
60,271,1016174,1,0,0:0:0:0:
45,225,1016236,1,0,0:0:0:0:
30,178,1016299,6,0,B|16:122|16:122|50:52,1,119.999996337891,2|0,1:2|0:0,0:0:0:0:
393,0,1016549,2,0,B|407:56|407:56|373:126,1,119.999996337891,0|0,1:0|0:0,0:0:0:0:
193,253,1016799,1,2,1:2:0:0:
203,299,1016861,1,0,0:0:0:0:
213,346,1016924,1,0,0:0:0:0:
30,178,1017049,1,0,1:0:0:0:
283,276,1017174,2,0,L|350:261,1,59.9999981689454
125,315,1017299,5,0,1:0:0:0:
213,40,1017424,2,0,P|224:71|227:102,1,59.9999981689454
193,253,1017549,1,2,1:2:0:0:
30,178,1017674,1,0,0:0:0:0:
227,98,1017799,1,0,1:0:0:0:
272,83,1017861,1,0,0:0:0:0:
319,90,1017924,1,0,0:0:0:0:
358,116,1017986,1,0,0:0:0:0:
383,157,1018049,1,0,1:0:0:0:
176,359,1018174,1,0,0:0:0:0:
176,359,1018236,1,0,0:0:0:0:
176,359,1018299,6,0,B|162:297|162:297|175:239,1,119.999996337891,2|0,1:2|0:0,0:0:0:0:
463,24,1018549,2,0,B|477:86|477:86|464:144,1,119.999996337891,2|0,1:2|0:0,0:0:0:0:
178,363,1018799,5,2,1:2:0:0:
336,25,1018924,1,0,0:0:0:0:
334,363,1019049,5,2,1:2:0:0:
176,25,1019174,1,0,0:0:0:0:
464,141,1019299,5,2,1:2:0:0:
455,190,1019362,1,0,0:0:0:0:
446,239,1019424,1,0,1:0:0:0:
437,288,1019487,1,0,0:0:0:0:
428,337,1019549,1,0,1:0:0:0:
102,197,1019674,5,0,0:0:0:0:
446,239,1019799,1,0,1:0:0:0:
95,352,1019924,1,0,1:0:0:0:
245,120,1020049,2,0,L|210:4,1,119.999996337891,0|0,1:0|0:0,0:0:0:0:
137,49,1020236,1,0,0:0:0:0:
137,49,1020299,6,0,B|75:62|75:62|14:37,1,119.999996337891,2|0,1:2|0:0,0:0:0:0:
375,49,1020549,2,0,B|437:62|437:62|498:37,1,119.999996337891,0|0,1:0|0:0,0:0:0:0:
370,274,1020799,1,2,1:2:0:0:
370,274,1020861,1,0,0:0:0:0:
370,274,1020924,1,0,0:0:0:0:
256,58,1021049,1,0,1:0:0:0:
142,274,1021174,1,0,0:0:0:0:
142,274,1021236,1,0,0:0:0:0:
142,274,1021299,5,0,1:0:0:0:
413,70,1021424,1,0,0:0:0:0:
429,114,1021486,1,0,0:0:0:0:
446,159,1021549,1,2,1:2:0:0:
462,203,1021611,1,0,0:0:0:0:
479,248,1021674,1,0,0:0:0:0:
256,378,1021799,1,0,1:0:0:0:
256,378,1021861,1,0,0:0:0:0:
256,378,1021924,1,0,0:0:0:0:
33,248,1022049,2,0,L|82:115,1,119.999996337891,0|0,1:0|0:0,0:0:0:0:
413,70,1022299,5,2,1:2:0:0:
126,21,1022424,1,0,0:0:0:0:
361,184,1022549,1,0,1:0:0:0:
74,135,1022674,1,0,0:0:0:0:
413,70,1022799,1,0,1:0:0:0:
413,70,1022861,1,0,0:0:0:0:
413,70,1022924,1,0,0:0:0:0:
254,322,1023049,1,0,1:0:0:0:
232,20,1023174,1,0,0:0:0:0:
232,20,1023236,1,0,0:0:0:0:
232,20,1023299,5,0,1:0:0:0:
460,221,1023424,1,0,0:0:0:0:
161,166,1023549,2,0,L|39:191,1,119.999996337891,0|0,1:0|0:0,0:0:0:0:
278,350,1023799,1,0,1:0:0:0:
321,342,1023861,1,0,0:0:0:0:
365,333,1023924,1,0,0:0:0:0:
491,99,1024049,2,0,L|364:124,1,119.999996337891,0|0,1:0|0:0,0:0:0:0:
118,37,1024299,6,0,L|97:95,1,59.9999981689454,0|0,1:2|0:0,0:0:0:0:
48,223,1024424,1,0,1:0:0:0:
256,4,1024549,1,0,0:0:0:0:
303,308,1024674,2,0,L|324:250,1,59.9999981689454,0|0,1:2|0:0,0:0:0:0:
373,122,1024799,1,0,1:0:0:0:
48,223,1024924,1,0,0:0:0:0:
362,36,1025049,6,0,L|420:48,1,59.9999981689454,0|0,1:2|0:0,0:0:0:0:
420,335,1025174,2,0,L|362:348,1,59.9999981689454,0|0,1:2|0:0,0:0:0:0:
208,63,1025299,2,0,L|266:75,1,59.9999981689454,0|0,1:2|0:0,0:0:0:0:
266,308,1025424,2,0,L|208:321,1,59.9999981689454,0|0,1:2|0:0,0:0:0:0:
188,58,1025549,5,2,1:2:0:0:
394,119,1025674,1,0,1:0:0:0:
332,324,1025799,1,2,1:2:0:0:
126,264,1025924,1,0,1:0:0:0:
313,8,1026049,1,2,1:2:0:0:
332,324,1026174,1,0,1:0:0:0:
63,186,1026299,5,2,1:2:0:0:
53,142,1026361,1,0,0:0:0:0:
68,102,1026424,1,0,1:0:0:0:
101,73,1026486,1,0,0:0:0:0:
143,64,1026549,1,2,1:2:0:0:
184,80,1026611,1,0,0:0:0:0:
212,113,1026674,1,0,1:0:0:0:
219,155,1026736,1,0,0:0:0:0:
203,196,1026799,1,2,1:2:0:0:
190,237,1026861,1,0,0:0:0:0:
197,279,1026923,1,0,1:0:0:0:
224,313,1026986,1,0,0:0:0:0:
265,326,1027048,1,2,1:2:0:0:
308,319,1027111,1,0,0:0:0:0:
341,290,1027173,1,0,1:0:0:0:
355,250,1027236,1,0,0:0:0:0:
348,208,1027299,22,0,L|367:138,1,59.9999981689454,4|0,1:1|0:0,0:0:0:0:
164,208,1027424,2,0,L|145:138,1,59.9999981689454,0|0,1:0|0:0,0:0:0:0:
420,69,1027549,2,0,L|439:-1,1,59.9999981689454,4|0,1:1|0:0,0:0:0:0:
92,69,1027674,2,0,L|73:-1,1,59.9999981689454,0|0,1:0|0:0,0:0:0:0:
348,208,1027799,5,4,1:1:0:0:
313,271,1027861,21,0,0:0:0:0:
249,308,1027924,21,0,1:0:0:0:
177,307,1027986,21,0,0:0:0:0:
116,268,1028049,21,4,1:1:0:0:
83,202,1028111,21,0,0:0:0:0:
90,130,1028174,21,0,1:1:0:0:
132,72,1028236,21,0,0:0:0:0:
199,43,1028299,5,0,0:0:0:0:
