osu file format v14

[General]
AudioFilename: Because Maybe Part 1.mp3
AudioLeadIn: 0
PreviewTime: 386233
Countdown: 0
SampleSet: Soft
StackLeniency: 0.7
Mode: 0
LetterboxInBreaks: 1
WidescreenStoryboard: 0

[Editor]
Bookmarks: 58,8254,17512,34967,52421,69876,96058,113512,130967,148421,165876,174603,192058,209506,218233,226960,244415,253142,261869,279324,296778,314233,331687,349142,366596,386233,403687,412415,423324,432051,440778,458233,466960,477869,486596,504051,512778,521506,530233,538960,549869,567324,583532,602078,610805,619532,636987,658805,676260,693714,711169,732987,750441,767880,785334,802789,820243,855152,872607,890061,907516,924970,942425,959880,977334,986061,994789,1012243,1029698,1038425,1047152,1082061,1099516,1116970,1134425,1151880,1160607,1169334,1186789,1204243,1212970,1221698
DistanceSpacing: 1.6
BeatDivisor: 4
GridSize: 4
TimelineZoom: 1.9

[Metadata]
Title:Because Maybe! pt. 1
TitleUnicode:Because Maybe! pt. 1
Artist:Renard
ArtistUnicode:Renard
Creator:Mismagius
Version:Marathon
Source:
Tags:blue dragon best of lapfox trax vol 1 vulpvibe go to the party dracula i'm a blind cave salamander sean paul opens a MFing casino banana with me banned forever wrecka raggacore breakcore queenston hardcore nogard compilation
BeatmapID:966920
BeatmapSetID:450709

[Difficulty]
HPDrainRate:5
CircleSize:4
OverallDifficulty:9
ApproachRate:9.5
SliderMultiplier:2
SliderTickRate:1

[Events]
//Background and Video events
0,0,"DFT1e.png",0,0
//Break Periods
2,70081,77538
2,244614,252617
2,314433,320253
2,323160,330071
2,366796,374799
2,403887,411890
2,458433,466435
2,495524,503526
2,530433,538435
2,567524,583017
2,602288,609199
2,693924,709563
2,768080,776082
2,785807,789698
2,794534,798425
2,925170,933173
2,977534,985536
2,1082261,1098991
2,1186989,1194991
//Storyboard Layer 0 (Background)
//Storyboard Layer 1 (Fail)
//Storyboard Layer 2 (Pass)
//Storyboard Layer 3 (Foreground)
//Storyboard Sound Samples

[TimingPoints]
63,272.727272727273,4,2,0,80,1,0
63,-200,4,2,0,80,0,0
17517,-133.333333333333,4,2,0,80,0,0
34972,-100,4,2,0,80,0,0
112426,-200,4,2,0,80,0,0
113517,-133.333333333333,4,2,0,80,0,0
148426,-100,4,2,0,80,0,0
165881,-133.333333333333,4,2,0,80,0,0
174608,-100,4,2,0,80,0,0
192063,-133.333333333333,4,2,0,80,0,0
209506,272.727272727273,4,2,0,80,1,0
242233,-200,4,2,0,80,0,0
261869,-100,4,2,0,80,0,0
277142,-200,4,2,0,80,0,0
296778,-100,4,2,0,80,0,0
312051,-200,4,2,0,80,0,0
320778,-200,4,2,0,50,0,0
330596,-100,4,2,0,80,0,0
375324,-200,4,2,0,80,0,0
386233,-100,4,2,0,80,0,0
412415,-133.333333333333,4,2,0,80,0,0
440778,-100,4,2,0,80,0,0
466960,-133.333333333333,4,2,0,80,0,0
486596,-100,4,2,0,80,0,0
504051,-133.333333333333,4,2,0,80,0,0
512778,-100,4,2,0,80,0,0
538960,-133.333333333333,4,2,0,80,0,0
549869,-100,4,2,0,80,0,0
569361,272.727272727273,4,2,0,80,1,0
732997,-133.333333333333,4,2,0,80,0,0
750451,-100,4,2,0,80,0,0
767880,272.727272727273,4,2,0,80,1,0
776607,-133.333333333333,4,2,0,80,0,0
820243,-100,4,2,0,80,0,0
855152,-133.333333333333,4,2,0,80,0,0
872607,-100,4,2,0,80,0,0
890061,-100,4,2,0,80,0,1
907516,-100,4,2,0,80,0,0
908061,-200,4,2,0,80,0,0
938061,-133.333333333333,4,2,0,80,0,0
940243,-200,4,2,0,80,0,0
942425,-100,4,2,0,80,0,1
959880,-133.333333333333,4,2,0,80,0,0
986061,-100,4,2,0,80,0,0
1029698,-133.333333333333,4,2,0,80,0,0
1047152,-100,4,2,0,80,0,1
1064061,-100,4,2,0,80,0,0
1064607,-100,4,2,0,80,0,1
1079880,-100,4,2,0,80,0,0
1082061,-200,4,2,0,80,0,0
1114380,-200,4,2,0,30,0,0
1116970,-100,4,2,0,80,0,0
1134425,-100,4,2,0,80,0,1
1151880,-133.333333333333,4,2,0,80,0,0
1169334,-100,4,2,0,80,0,0
1195516,-133.333333333333,4,2,0,80,0,0
1221698,-100,4,2,0,80,0,0
1239084,-100,4,2,0,10,0,0

[Colours]
Combo1 : 248,188,7
Combo2 : 102,255,74
Combo3 : 102,185,47
Combo4 : 240,47,81

[HitObjects]
356,84,63,6,0,P|416:80|464:108,2,100,2|2|2,0:0|0:0|0:0,0:0:0:0:
268,132,881,1,2,0:0:0:0:
220,140,1017,1,0,0:0:0:0:
172,128,1153,1,2,0:0:0:0:
132,96,1290,1,0,0:0:0:0:
116,48,1426,2,0,L|56:136,1,100,2|2,0:0|0:0,0:0:0:0:
112,328,2244,6,0,L|216:304,1,100,2|2,0:0|0:0,0:0:0:0:
256,292,2653,1,0,0:0:0:0:
302,305,2790,2,0,L|400:328,1,100,2|8,0:0|0:0,0:0:0:0:
116,256,3335,1,0,0:0:0:0:
396,256,3608,1,2,0:0:0:0:
112,328,3881,1,2,0:0:0:0:
256,36,4426,6,0,P|300:32|352:60,1,100,2|2,0:0|0:0,0:0:0:0:
284,132,4972,2,0,P|240:136|188:108,1,100,2|2,0:0|0:0,0:0:0:0:
160,72,5381,1,0,0:0:0:0:
160,24,5517,2,0,L|104:8,2,50,0|0|2,0:0|0:0|0:0,0:0:0:0:
284,132,6063,1,2,0:0:0:0:
392,300,6608,6,0,P|336:324|296:316,1,100,2|2,0:0|0:0,0:0:0:0:
256,292,7017,1,0,0:0:0:0:
212,317,7153,2,0,P|163:322|120:300,1,100,2|8,0:0|0:0,0:0:0:0:
256,64,7699,1,0,0:0:0:0:
392,300,7972,1,2,0:0:0:0:
120,300,8244,1,2,0:0:0:0:
256,64,8790,6,0,L|376:52,1,100,2|2,0:0|0:0,0:0:0:0:
172,140,9335,2,0,L|52:128,1,100,2|2,0:0|0:0,0:0:0:0:
40,92,9744,1,0,0:0:0:0:
48,44,9881,1,2,0:0:0:0:
84,12,10017,1,0,0:0:0:0:
132,8,10153,1,2,0:0:0:0:
196,224,10426,1,2,0:0:0:0:
196,224,10972,6,0,P|260:228|300:208,1,100,2|2,0:0|0:0,0:0:0:0:
328,176,11381,1,0,0:0:0:0:
328,176,11517,2,0,L|356:276,1,100,2|2,0:0|0:0,0:0:0:0:
436,120,12063,1,8,0:0:0:0:
248,296,12335,1,2,0:0:0:0:
494,370,12608,1,2,0:0:0:0:
494,370,13153,6,0,L|472:260,1,100,2|2,0:0|0:0,0:0:0:0:
372,116,13699,2,0,L|350:226,1,100,2|2,0:0|0:0,0:0:0:0:
328,256,14108,1,0,0:0:0:0:
284,284,14244,1,2,0:0:0:0:
236,292,14381,1,0,0:0:0:0:
188,284,14517,1,2,0:0:0:0:
256,80,14790,1,2,0:0:0:0:
444,12,15335,6,0,L|424:112,1,100,2|2,0:0|0:0,0:0:0:0:
384,140,15744,1,0,0:0:0:0:
340,112,15881,2,0,L|320:212,1,100,2|8,0:0|0:0,0:0:0:0:
444,344,16426,1,0,0:0:0:0:
256,140,16699,1,8,0:0:0:0:
68,344,16972,1,0,0:0:0:0:
444,344,17244,1,2,0:0:0:0:
256,140,17517,6,0,P|192:156|116:116,1,150.000005722046,4|0,0:0|0:0,0:0:0:0:
32,40,17926,2,0,L|4:196,1,150.000005722046,2|0,0:0|0:0,0:0:0:0:
48,300,18335,1,0,0:0:0:0:
152,236,18472,1,0,0:0:0:0:
120,120,18608,6,0,P|160:80|260:84,1,150.000005722046,2|0,0:0|0:0,0:0:0:0:
281,194,19017,2,0,P|241:234|141:230,1,150.000005722046,2|0,0:0|0:0,0:0:0:0:
44,180,19426,1,0,0:0:0:0:
48,300,19563,1,0,0:0:0:0:
152,236,19699,6,0,L|176:144,1,75.0000028610231,2|0,0:0|0:0,0:0:0:0:
200,48,19972,1,0,0:0:0:0:
288,128,20108,1,0,0:0:0:0:
288,128,20244,2,0,L|264:220,1,75.0000028610231,2|0,0:0|0:0,0:0:0:0:
236,316,20517,1,0,0:0:0:0:
352,284,20653,1,0,0:0:0:0:
230,317,20790,5,2,0:0:0:0:
357,282,20926,1,0,0:0:0:0:
224,319,21063,1,2,0:0:0:0:
363,280,21199,1,0,0:0:0:0:
219,321,21335,2,0,L|125:313,1,75.0000028610231,2|0,0:0|0:0,0:0:0:0:
40,252,21608,1,0,0:0:0:0:
140,188,21744,1,0,0:0:0:0:
240,124,21881,6,0,P|316:112|380:148,1,150.000005722046,2|0,0:0|0:0,0:0:0:0:
444,248,22290,2,0,L|296:304,1,150.000005722046,2|0,0:0|0:0,0:0:0:0:
192,256,22699,1,0,0:0:0:0:
288,184,22835,1,0,0:0:0:0:
224,356,22972,6,0,L|136:336,1,75.0000028610231,2|0,0:0|0:0,0:0:0:0:
36,312,23244,1,0,0:0:0:0:
192,256,23381,2,0,L|104:236,1,75.0000028610231,2|0,0:0|0:0,0:0:0:0:
4,212,23653,1,0,0:0:0:0:
88,124,23790,1,0,0:0:0:0:
172,36,23926,1,0,0:0:0:0:
204,152,24063,6,0,P|268:160|344:116,1,150.000005722046,2|0,0:0|0:0,0:0:0:0:
392,12,24472,1,0,0:0:0:0:
488,84,24608,2,0,L|488:176,1,75.0000028610231,2|0,0:0|0:0,0:0:0:0:
396,236,24881,1,0,0:0:0:0:
396,236,25017,1,0,0:0:0:0:
396,236,25153,5,2,0:0:0:0:
322,95,25290,1,0,0:0:0:0:
182,169,25426,1,2,0:0:0:0:
255,309,25563,1,0,0:0:0:0:
396,236,25699,2,0,L|417:225,14,18.7500007152558,2|0|0|0|0|0|0|0|0|0|0|0|0|0|0,0:0|0:0|0:0|0:0|0:0|0:0|0:0|0:0|0:0|0:0|0:0|0:0|0:0|0:0|0:0,0:0:0:0:
440,212,26244,6,0,P|456:172|416:76,1,150.000005722046,2|0,0:0|0:0,0:0:0:0:
324,8,26653,1,0,0:0:0:0:
280,120,26790,2,0,L|188:108,1,75.0000028610231,2|0,0:0|0:0,0:0:0:0:
84,96,27063,1,0,0:0:0:0:
84,96,27199,1,0,0:0:0:0:
84,96,27335,6,0,P|48:168|64:244,1,150.000005722046,2|0,0:0|0:0,0:0:0:0:
152,308,27744,2,0,B|216:272|216:272|300:280,1,150.000005722046,2|0,0:0|0:0,0:0:0:0:
412,292,28153,1,0,0:0:0:0:
320,368,28290,1,0,0:0:0:0:
264,188,28426,6,0,L|284:112,1,75.0000028610231,2|0,0:0|0:0,0:0:0:0:
388,60,28699,1,0,0:0:0:0:
380,180,28835,1,0,0:0:0:0:
192,264,28972,2,0,L|172:188,1,75.0000028610231,2|0,0:0|0:0,0:0:0:0:
68,136,29245,1,0,0:0:0:0:
76,256,29381,1,0,0:0:0:0:
84,376,29517,5,2,0:0:0:0:
200,344,29653,1,0,0:0:0:0:
316,316,29790,1,2,0:0:0:0:
432,284,29926,1,0,0:0:0:0:
472,168,30063,2,0,P|432:144|392:144,1,75.0000028610231,2|0,0:0|0:0,0:0:0:0:
316,316,30335,2,0,P|356:340|396:340,1,75.0000028610231
356,216,30608,6,0,P|284:211|222:260,1,150.000005722046,2|0,0:0|0:0,0:0:0:0:
204,376,31017,1,0,0:0:0:0:
100,316,31153,2,0,L|24:300,1,75.0000028610231,2|0,0:0|0:0,0:0:0:0:
0,184,31426,1,0,0:0:0:0:
44,380,31563,1,0,0:0:0:0:
156,216,31699,6,0,P|172:164|128:76,1,150.000005722046,2|0,0:0|0:0,0:0:0:0:
28,28,32108,1,0,0:0:0:0:
244,60,32244,2,0,L|272:52,14,18.7500007152558,2|0|0|0|0|0|0|0|0|0|0|0|0|0|0,0:0|0:0|0:0|0:0|0:0|0:0|0:0|0:0|0:0|0:0|0:0|0:0|0:0|0:0|0:0,0:0:0:0:
292,48,32790,5,2,0:0:0:0:
468,364,33199,1,2,0:0:0:0:
246,276,33472,1,0,0:0:0:0:
273,191,33608,1,2,0:0:0:0:
337,254,33744,1,0,0:0:0:0:
201,315,33881,5,2,0:0:0:0:
260,135,34017,1,2,0:0:0:0:
260,135,34085,1,0,0:0:0:0:
260,135,34153,1,0,0:0:0:0:
395,270,34290,1,0,0:0:0:0:
168,360,34426,2,0,L|79:348,1,75.0000028610231,2|0,0:0|0:0,0:0:0:0:
0,204,34699,2,0,L|89:191,1,75.0000028610231,2|0,0:0|0:0,0:0:0:0:
192,24,34972,6,0,P|240:40|272:176,1,200,4|0,0:0|0:0,0:0:0:0:
212,296,35381,1,0,0:0:0:0:
72,276,35517,1,2,0:0:0:0:
156,164,35653,1,0,0:0:0:0:
304,348,35790,1,0,0:0:0:0:
332,340,35858,1,0,0:0:0:0:
360,332,35926,1,0,0:0:0:0:
388,324,35994,1,0,0:0:0:0:
416,316,36063,6,0,P|444:276|432:204,1,100,2|0,0:0|0:0,0:0:0:0:
368,80,36335,1,0,0:0:0:0:
228,156,36472,2,0,L|128:148,1,100,2|0,0:0|0:0,0:0:0:0:
52,8,36744,1,0,0:0:0:0:
20,248,36881,1,0,0:0:0:0:
20,248,36949,1,0,0:0:0:0:
20,248,37017,1,0,0:0:0:0:
20,248,37085,1,0,0:0:0:0:
20,248,37153,6,0,L|120:240,1,100,4|0,0:0|0:0,0:0:0:0:
260,228,37426,1,0,0:0:0:0:
148,144,37563,1,0,0:0:0:0:
92,332,37699,2,0,L|192:324,1,100,2|0,0:0|0:0,0:0:0:0:
332,312,37972,1,0,0:0:0:0:
360,308,38040,1,0,0:0:0:0:
388,312,38108,1,0,0:0:0:0:
412,328,38176,1,0,0:0:0:0:
428,352,38244,5,2,0:0:0:0:
464,184,38381,1,0,0:0:0:0:
332,312,38517,1,2,0:0:0:0:
288,134,38654,1,0,0:0:0:0:
228,328,38790,1,2,0:0:0:0:
90,180,38927,1,0,0:0:0:0:
332,312,39063,1,2,0:0:0:0:
360,304,39131,1,0,0:0:0:0:
388,296,39199,1,0,0:0:0:0:
416,288,39267,1,0,0:0:0:0:
444,280,39335,6,0,P|464:224|396:112,1,200,4|0,0:0|0:0,0:0:0:0:
272,44,39744,2,0,B|196:104|196:104|96:80,1,200,2|0,0:0|0:0,0:0:0:0:
12,192,40153,1,0,0:0:0:0:
20,220,40222,1,0,0:0:0:0:
28,248,40290,1,0,0:0:0:0:
36,276,40358,1,0,0:0:0:0:
44,304,40426,6,0,L|152:320,1,100,2|0,0:0|0:0,0:0:0:0:
256,236,40699,1,0,0:0:0:0:
208,104,40835,2,0,P|272:60|404:80,1,200,2|0,0:0|0:0,0:0:0:0:
480,180,41244,1,2,0:0:0:0:
468,208,41313,1,0,0:0:0:0:
456,236,41381,1,0,0:0:0:0:
444,264,41449,1,0,0:0:0:0:
432,292,41517,6,0,L|320:304,1,100,4|0,0:0|0:0,0:0:0:0:
196,260,41790,1,0,0:0:0:0:
268,380,41926,1,0,0:0:0:0:
352,216,42063,2,0,P|360:164|344:112,1,100,2|0,0:0|0:0,0:0:0:0:
160,28,42335,1,0,0:0:0:0:
140,52,42403,1,0,0:0:0:0:
128,80,42472,1,0,0:0:0:0:
128,108,42540,1,0,0:0:0:0:
136,136,42608,5,2,0:0:0:0:
312,36,42744,1,0,0:0:0:0:
204,224,42881,1,2,0:0:0:0:
315,32,43017,1,0,0:0:0:0:
319,282,43153,1,2,0:0:0:0:
319,28,43289,1,0,0:0:0:0:
180,256,43426,2,0,L|124:344,1,100,2|0,0:0|0:0,0:0:0:0:
319,282,43699,6,0,P|384:228|500:248,1,200,4|0,0:0|0:0,0:0:0:0:
296,384,44108,2,0,L|260:176,1,200,2|0,0:0|0:0,0:0:0:0:
236,24,44517,1,0,0:0:0:0:
216,44,44585,1,0,0:0:0:0:
196,64,44653,1,0,0:0:0:0:
176,84,44722,1,0,0:0:0:0:
156,104,44790,6,0,P|96:104|56:88,1,100,2|0,0:0|0:0,0:0:0:0:
236,24,45063,1,0,0:0:0:0:
280,200,45199,2,0,P|340:200|380:216,1,100,2|0,0:0|0:0,0:0:0:0:
472,368,45472,1,0,0:0:0:0:
300,312,45608,1,2,0:0:0:0:
272,316,45676,1,0,0:0:0:0:
244,320,45744,1,0,0:0:0:0:
212,324,45813,1,0,0:0:0:0:
184,328,45881,6,0,L|76:344,1,100,4|0,0:0|0:0,0:0:0:0:
8,204,46153,1,0,0:0:0:0:
164,244,46290,1,0,0:0:0:0:
248,108,46426,2,0,L|356:124,1,100,2|0,0:0|0:0,0:0:0:0:
444,252,46699,1,0,0:0:0:0:
448,280,46767,1,0,0:0:0:0:
444,308,46835,1,0,0:0:0:0:
432,336,46903,1,0,0:0:0:0:
416,360,46972,5,2,0:0:0:0:
237,287,47108,1,0,0:0:0:0:
309,108,47244,1,0,0:0:0:0:
488,180,47381,1,0,0:0:0:0:
237,287,47517,2,0,L|128:264,1,100,2|0,0:0|0:0,0:0:0:0:
48,104,47790,1,2,0:0:0:0:
48,104,47858,1,0,0:0:0:0:
48,104,47926,1,0,0:0:0:0:
48,104,47994,1,0,0:0:0:0:
48,104,48063,6,0,P|84:48|212:44,1,200,4|0,0:0|0:0,0:0:0:0:
336,136,48472,2,0,P|431:145|495:73,1,200,2|0,0:0|0:0,0:0:0:0:
284,72,48881,1,2,0:0:0:0:
264,96,48949,1,0,0:0:0:0:
244,120,49017,1,0,0:0:0:0:
224,140,49085,1,0,0:0:0:0:
204,164,49153,6,0,L|88:152,1,100,2|0,0:0|0:0,0:0:0:0:
32,296,49426,1,0,0:0:0:0:
215,252,49563,2,0,L|314:262,1,100,2|0,0:0|0:0,0:0:0:0:
472,280,49835,1,0,0:0:0:0:
272,360,49972,1,0,0:0:0:0:
258,333,50040,1,0,0:0:0:0:
243,306,50108,1,0,0:0:0:0:
229,279,50176,1,0,0:0:0:0:
215,252,50244,6,0,P|208:200|232:152,1,100,4|0,0:0|0:0,0:0:0:0:
400,88,50517,1,0,0:0:0:0:
314,262,50653,1,0,0:0:0:0:
120,204,50790,2,0,L|12:228,1,100,2|0,0:0|0:0,0:0:0:0:
64,28,51063,1,0,0:0:0:0:
102,15,51131,1,0,0:0:0:0:
141,13,51199,1,0,0:0:0:0:
180,21,51267,1,0,0:0:0:0:
215,39,51335,5,2,0:0:0:0:
264,164,51472,1,0,0:0:0:0:
292,172,51540,1,0,0:0:0:0:
320,180,51608,1,2,0:0:0:0:
444,220,51744,1,0,0:0:0:0:
472,92,51881,2,0,P|472:48|439:99,1,150,2|0,0:0|0:0,0:0:0:0:
432,128,52153,2,0,L|416:160,6,25,2|0|0|0|0|0|0,0:0|0:0|0:0|0:0|0:0|0:0|0:0,0:0:0:0:
407,165,52426,6,0,P|343:193|231:137,1,200,4|0,0:0|0:0,0:0:0:0:
140,8,52835,2,0,L|76:204,1,200,2|0,0:0|0:0,0:0:0:0:
148,368,53244,1,0,0:0:0:0:
188,372,53313,1,0,0:0:0:0:
228,360,53381,1,0,0:0:0:0:
256,332,53449,1,0,0:0:0:0:
264,292,53517,6,0,P|256:240|216:196,1,100,2|0,0:0|0:0,0:0:0:0:
8,136,53790,1,0,0:0:0:0:
300,108,53926,2,0,P|260:73|201:65,1,100,2|0,0:0|0:0,0:0:0:0:
3,153,54199,1,0,0:0:0:0:
228,204,54335,1,0,0:0:0:0:
266,214,54403,1,0,0:0:0:0:
305,224,54472,1,0,0:0:0:0:
343,234,54540,1,0,0:0:0:0:
381,244,54608,6,0,L|495:220,1,100,4|0,0:0|0:0,0:0:0:0:
376,72,54881,1,0,0:0:0:0:
228,204,55017,2,0,P|216:264|232:308,1,100,2|0,0:0|0:0,0:0:0:0:
416,344,55290,1,0,0:0:0:0:
168,376,55426,1,2,0:0:0:0:
56,160,55563,1,0,0:0:0:0:
176,368,55699,5,2,0:0:0:0:
420,336,55835,1,0,0:0:0:0:
304,128,55972,2,0,L|200:100,1,100,2|0,0:0|0:0,0:0:0:0:
280,252,56244,1,0,0:0:0:0:
436,188,56381,1,0,0:0:0:0:
240,20,56517,1,2,0:0:0:0:
200,16,56585,1,0,0:0:0:0:
160,28,56653,1,0,0:0:0:0:
132,60,56722,1,0,0:0:0:0:
120,100,56790,6,0,P|132:184|40:264,1,200,4|0,0:0|0:0,0:0:0:0:
224,368,57199,2,0,P|212:284|304:204,1,200,2|0,0:0|0:0,0:0:0:0:
512,264,57608,1,0,0:0:0:0:
480,288,57676,1,0,0:0:0:0:
448,312,57744,1,0,0:0:0:0:
416,336,57813,1,0,0:0:0:0:
384,356,57881,6,0,L|280:320,1,100,2|0,0:0|0:0,0:0:0:0:
104,264,58153,1,0,0:0:0:0:
280,136,58290,2,0,L|176:172,1,100,2|0,0:0|0:0,0:0:0:0:
0,228,58562,1,0,0:0:0:0:
200,296,58699,1,0,0:0:0:0:
96,100,58835,1,0,0:0:0:0:
96,100,58903,1,0,0:0:0:0:
96,100,58972,6,0,P|88:44|96:0,1,100,4|0,0:0|0:0,0:0:0:0:
256,88,59244,1,0,0:0:0:0:
416,1,59381,2,0,P|424:50|416:100,1,100,2|0,0:0|0:0,0:0:0:0:
332,272,59653,1,0,0:0:0:0:
256,88,59790,1,2,0:0:0:0:
456,240,59926,1,0,0:0:0:0:
456,240,59994,1,0,0:0:0:0:
456,240,60063,6,0,L|480:352,1,100,2|0,0:0|0:0,0:0:0:0:
256,240,60335,1,2,0:0:0:0:
412,64,60472,1,0,0:0:0:0:
412,64,60540,1,0,0:0:0:0:
412,64,60608,1,2,0:0:0:0:
360,272,60744,1,0,0:0:0:0:
156,184,60881,1,2,0:0:0:0:
116,180,60949,1,0,0:0:0:0:
80,192,61017,1,0,0:0:0:0:
52,220,61085,1,0,0:0:0:0:
40,256,61153,6,0,B|112:324|112:324|224:308,1,200,4|0,0:0|0:0,0:0:0:0:
324,184,61563,2,0,B|423:169|423:169|495:237,1,200,2|0,0:0|0:0,0:0:0:0:
212,310,61972,1,2,0:0:0:0:
180,284,62040,1,0,0:0:0:0:
168,248,62108,1,0,0:0:0:0:
168,208,62176,1,0,0:0:0:0:
184,172,62244,6,0,L|104:104,1,100,2|0,0:0|0:0,0:0:0:0:
44,276,62517,1,0,0:0:0:0:
272,232,62653,2,0,L|352:164,1,100,2|0,0:0|0:0,0:0:0:0:
216,48,62926,1,0,0:0:0:0:
168,248,63063,1,2,0:0:0:0:
368,296,63199,1,0,0:0:0:0:
368,296,63267,1,0,0:0:0:0:
368,296,63335,6,0,P|428:272|452:144,1,200,4|0,0:0|0:0,0:0:0:0:
324,44,63744,1,0,0:0:0:0:
256,196,63881,2,0,P|244:240|256:304,1,100,2|0,0:0|0:0,0:0:0:0:
348,160,64153,1,2,0:0:0:0:
316,136,64222,1,0,0:0:0:0:
284,112,64290,1,0,0:0:0:0:
252,88,64358,1,0,0:0:0:0:
220,64,64426,6,0,L|116:84,1,100,2|0,0:0|0:0,0:0:0:0:
36,224,64699,1,2,0:0:0:0:
256,196,64835,1,0,0:0:0:0:
256,196,64903,1,0,0:0:0:0:
256,196,64972,1,2,0:0:0:0:
424,364,65108,1,0,0:0:0:0:
200,324,65244,1,2,0:0:0:0:
168,300,65313,1,0,0:0:0:0:
148,264,65381,1,0,0:0:0:0:
140,224,65449,1,0,0:0:0:0:
148,184,65517,6,0,P|172:136|96:16,1,200,4|0,0:0|0:0,0:0:0:0:
148,264,65926,2,0,L|352:296,1,200,2|0,0:0|0:0,0:0:0:0:
496,176,66335,1,0,0:0:0:0:
292,204,66472,1,0,0:0:0:0:
292,204,66540,1,0,0:0:0:0:
292,204,66608,6,0,P|280:152|292:104,1,100,2|0,0:0|0:0,0:0:0:0:
480,8,66881,1,0,0:0:0:0:
220,48,67017,2,0,L|116:32,1,100,2|0,0:0|0:0,0:0:0:0:
0,168,67290,1,0,0:0:0:0:
224,152,67426,1,2,0:0:0:0:
248,184,67494,1,0,0:0:0:0:
256,224,67563,1,0,0:0:0:0:
252,264,67631,1,0,0:0:0:0:
240,304,67699,6,0,P|292:336|336:332,1,100,4|0,0:0|0:0,0:0:0:0:
432,188,67972,1,0,0:0:0:0:
224,152,68108,2,0,P|172:120|128:124,1,100,2|0,0:0|0:0,0:0:0:0:
32,268,68381,1,0,0:0:0:0:
256,224,68517,1,2,0:0:0:0:
24,136,68653,1,0,0:0:0:0:
88,360,68790,6,0,L|192:376,1,100,2|0,0:0|0:0,0:0:0:0:
388,336,69063,1,2,0:0:0:0:
172,264,69199,1,0,0:0:0:0:
428,176,69335,1,2,0:0:0:0:
428,176,69403,1,0,0:0:0:0:
428,176,69472,1,2,0:0:0:0:
428,176,69540,1,0,0:0:0:0:
428,176,69608,1,2,0:0:0:0:
428,176,69676,1,0,0:0:0:0:
428,176,69744,1,2,0:0:0:0:
428,176,69813,1,0,0:0:0:0:
428,176,69881,5,4,0:0:0:0:
224,17,78063,5,2,0:0:0:0:
212,149,78199,1,0,0:0:0:0:
209,176,78267,1,0,0:0:0:0:
206,204,78335,1,2,0:0:0:0:
28,172,78472,1,0,0:0:0:0:
124,24,78608,6,0,L|232:16,1,100,4|0,0:0|0:0,0:0:0:0:
424,4,78881,1,2,0:0:0:0:
444,204,79017,1,0,0:0:0:0:
244,220,79153,2,0,P|224:172|236:124,1,100,8|0,0:0|0:0,0:0:0:0:
360,320,79426,1,2,0:0:0:0:
320,328,79494,1,0,0:0:0:0:
280,336,79563,1,2,0:0:0:0:
240,344,79631,1,0,0:0:0:0:
200,352,79699,6,0,L|88:332,1,100,2|0,0:0|0:0,0:0:0:0:
28,148,79972,1,2,0:0:0:0:
4,360,80108,1,0,0:0:0:0:
140,192,80244,2,0,L|252:172,1,100,8|0,0:0|0:0,0:0:0:0:
432,140,80517,1,2,0:0:0:0:
456,172,80585,1,0,0:0:0:0:
468,212,80653,1,2,0:0:0:0:
460,252,80722,1,0,0:0:0:0:
444,288,80790,6,0,P|400:320|344:328,1,100,4|0,0:0|0:0,0:0:0:0:
156,296,81063,1,2,0:0:0:0:
232,112,81199,1,0,0:0:0:0:
48,256,81335,2,0,P|40:312|56:352,1,100,8|0,0:0|0:0,0:0:0:0:
192,204,81608,1,2,0:0:0:0:
176,168,81676,1,0,0:0:0:0:
144,144,81744,1,2,0:0:0:0:
108,128,81813,1,0,0:0:0:0:
72,128,81881,5,2,0:0:0:0:
156,296,82017,1,0,0:0:0:0:
232,112,82153,2,0,L|268:16,1,100,2|0,0:0|0:0,0:0:0:0:
348,204,82426,1,8,0:0:0:0:
152,40,82563,1,0,0:0:0:0:
428,12,82699,1,2,0:0:0:0:
460,36,82767,1,0,0:0:0:0:
476,72,82835,1,2,0:0:0:0:
476,112,82903,1,0,0:0:0:0:
456,148,82972,6,0,L|444:247,1,100,4|0,0:0|0:0,0:0:0:0:
292,348,83244,1,2,0:0:0:0:
512,376,83381,1,0,0:0:0:0:
364,176,83517,2,0,P|312:168|268:184,1,100,8|0,0:0|0:0,0:0:0:0:
172,328,83790,1,2,0:0:0:0:
136,344,83858,1,0,0:0:0:0:
96,340,83926,1,2,0:0:0:0:
68,312,83994,1,0,0:0:0:0:
64,272,84063,6,0,L|88:164,1,100,2|0,0:0|0:0,0:0:0:0:
124,12,84335,1,2,0:0:0:0:
4,160,84472,1,0,0:0:0:0:
168,256,84608,2,0,L|276:244,1,100,8|0,0:0|0:0,0:0:0:0:
504,228,84881,1,2,0:0:0:0:
504,228,84949,1,0,0:0:0:0:
504,228,85017,1,2,0:0:0:0:
504,228,85085,1,0,0:0:0:0:
504,228,85153,6,0,P|512:128|448:52,1,200,4|2,0:0|0:0,0:0:0:0:
248,20,85563,1,0,0:0:0:0:
212,216,85699,2,0,L|228:316,1,100,8|0,0:0|0:0,0:0:0:0:
348,144,85972,1,2,0:0:0:0:
348,144,86040,1,0,0:0:0:0:
348,144,86108,1,2,0:0:0:0:
100,76,86244,5,2,0:0:0:0:
128,280,86381,1,0,0:0:0:0:
268,60,86517,2,0,P|308:36|380:44,1,100,2|0,0:0|0:0,0:0:0:0:
396,56,86722,1,0,0:0:0:0:
416,92,86790,2,0,P|465:92|508:67,1,100,8|0,0:0|0:0,0:0:0:0:
332,120,87063,1,2,0:0:0:0:
319,157,87131,1,0,0:0:0:0:
321,197,87199,1,2,0:0:0:0:
337,233,87267,1,0,0:0:0:0:
364,264,87335,6,0,P|440:268|496:164,1,200,4|2,0:0|0:0,0:0:0:0:
300,44,87744,1,0,0:0:0:0:
244,268,87881,2,0,L|220:368,1,100,8|0,0:0|0:0,0:0:0:0:
76,232,88153,1,2,0:0:0:0:
56,196,88222,1,0,0:0:0:0:
52,156,88290,1,2,0:0:0:0:
68,120,88358,1,0,0:0:0:0:
100,100,88426,6,0,L|212:88,1,100,2|0,0:0|0:0,0:0:0:0:
408,72,88699,1,2,0:0:0:0:
176,4,88835,1,0,0:0:0:0:
288,188,88972,2,0,P|296:244|284:292,1,100,8|0,0:0|0:0,0:0:0:0:
56,324,89244,1,2,0:0:0:0:
56,324,89313,1,0,0:0:0:0:
56,324,89381,1,2,0:0:0:0:
56,324,89449,1,0,0:0:0:0:
56,324,89517,6,0,P|48:268|60:220,1,100,4|0,0:0|0:0,0:0:0:0:
156,56,89790,1,2,0:0:0:0:
156,268,89926,1,0,0:0:0:0:
0,88,90063,1,8,0:0:0:0:
268,64,90199,1,0,0:0:0:0:
388,260,90335,1,2,0:0:0:0:
364,292,90403,1,0,0:0:0:0:
332,316,90472,1,2,0:0:0:0:
292,324,90540,1,0,0:0:0:0:
252,320,90608,5,2,0:0:0:0:
316,140,90744,1,0,0:0:0:0:
432,372,90881,1,2,0:0:0:0:
168,300,91017,1,0,0:0:0:0:
368,80,91153,2,0,P|440:80|472:100,1,100,8|0,0:0|0:0,0:0:0:0:
224,180,91426,1,2,0:0:0:0:
196,152,91494,1,0,0:0:0:0:
184,112,91563,1,2,0:0:0:0:
192,72,91631,1,0,0:0:0:0:
212,36,91699,6,0,L|104:20,1,100,4|0,0:0|0:0,0:0:0:0:
60,224,91972,1,2,0:0:0:0:
280,108,92108,1,0,0:0:0:0:
248,352,92244,2,0,P|196:336|160:292,1,100,8|0,0:0|0:0,0:0:0:0:
298,126,92517,1,2,0:0:0:0:
298,126,92585,1,0,0:0:0:0:
298,126,92653,1,2,0:0:0:0:
298,126,92722,1,0,0:0:0:0:
298,126,92790,6,0,P|370:114|478:190,1,200,2|2,0:0|0:0,0:0:0:0:
380,352,93199,1,0,0:0:0:0:
192,276,93335,2,0,L|80:324,1,100,8|0,0:0|0:0,0:0:0:0:
88,144,93608,1,2,0:0:0:0:
76,108,93676,1,0,0:0:0:0:
80,68,93744,1,2,0:0:0:0:
100,32,93813,1,0,0:0:0:0:
136,12,93881,5,8,0:0:0:0:
288,196,94017,1,0,0:0:0:0:
52,216,94153,1,8,0:0:0:0:
264,56,94290,1,0,0:0:0:0:
176,284,94426,2,0,L|160:320,2,25,2|0|2,0:0|0:0|0:0,0:0:0:0:
148,336,94563,1,2,0:0:0:0:
108,104,94699,1,2,0:0:0:0:
132,88,94767,1,0,0:0:0:0:
160,84,94835,1,0,0:0:0:0:
188,88,94903,1,0,0:0:0:0:
212,104,94972,6,0,L|256:212,1,100,2|0,0:0|0:0,0:0:0:0:
260,224,95176,1,0,0:0:0:0:
272,252,95244,1,2,0:0:0:0:
472,188,95381,1,0,0:0:0:0:
152,168,95517,2,0,P|100:168|48:204,1,100,2|0,0:0|0:0,0:0:0:0:
240,372,95790,2,0,P|292:372|344:336,1,100,8|0,0:0|0:0,0:0:0:0:
408,84,96063,6,0,P|344:48|248:124,1,200,4|0,0:0|0:0,0:0:0:0:
208,296,96472,1,2,0:0:0:0:
336,136,96608,1,8,0:0:0:0:
96,200,96744,1,0,0:0:0:0:
288,364,96881,1,0,0:0:0:0:
328,372,96949,1,0,0:0:0:0:
368,364,97017,1,0,0:0:0:0:
400,344,97085,1,0,0:0:0:0:
424,312,97153,6,0,P|424:256|392:216,1,100,2|0,0:0|0:0,0:0:0:0:
96,200,97426,1,0,0:0:0:0:
324,84,97563,1,2,0:0:0:0:
188,332,97699,2,0,L|88:320,1,100,8|0,0:0|0:0,0:0:0:0:
28,80,97972,1,0,0:0:0:0:
64,60,98040,1,0,0:0:0:0:
104,60,98108,1,0,0:0:0:0:
136,80,98176,1,0,0:0:0:0:
152,116,98244,5,4,0:0:0:0:
16,276,98381,1,0,0:0:0:0:
64,60,98517,1,0,0:0:0:0:
104,332,98653,1,2,0:0:0:0:
336,184,98790,2,0,P|384:176|440:204,1,100,8|0,0:0|0:0,0:0:0:0:
316,384,99063,1,0,0:0:0:0:
300,348,99131,1,0,0:0:0:0:
284,312,99199,1,0,0:0:0:0:
268,276,99267,1,0,0:0:0:0:
252,240,99335,5,2,0:0:0:0:
388,52,99472,1,0,0:0:0:0:
372,280,99608,1,0,0:0:0:0:
400,16,99744,1,2,0:0:0:0:
252,240,99881,2,0,P|200:252|156:240,1,100,8|0,0:0|0:0,0:0:0:0:
8,80,100153,1,0,0:0:0:0:
44,60,100222,1,0,0:0:0:0:
84,60,100290,1,0,0:0:0:0:
120,76,100358,1,0,0:0:0:0:
144,108,100426,6,0,P|216:128|312:56,1,200,4|0,0:0|0:0,0:0:0:0:
512,176,100835,2,0,P|440:156|344:228,1,200,2|0,0:0|0:0,0:0:0:0:
488,368,101244,1,0,0:0:0:0:
488,368,101313,1,0,0:0:0:0:
488,368,101381,1,0,0:0:0:0:
512,176,101517,6,0,L|472:76,1,100,2|0,0:0|0:0,0:0:0:0:
256,24,101790,1,2,0:0:0:0:
384,232,101926,2,0,L|344:332,1,100,0|8,0:0|0:0,0:0:0:0:
128,384,102199,1,0,0:0:0:0:
256,216,102335,1,2,0:0:0:0:
256,216,102403,1,0,0:0:0:0:
256,216,102472,1,0,0:0:0:0:
438,362,102608,6,0,L|513:174,1,200,4|0,0:0|0:0,0:0:0:0:
384,20,103017,1,2,0:0:0:0:
256,216,103153,2,0,P|304:220|360:196,1,100,8|0,0:0|0:0,0:0:0:0:
256,28,103426,1,0,0:0:0:0:
216,16,103494,1,0,0:0:0:0:
176,20,103563,1,0,0:0:0:0:
144,40,103631,1,0,0:0:0:0:
124,76,103699,5,2,0:0:0:0:
200,304,103835,1,0,0:0:0:0:
256,28,103972,1,2,0:0:0:0:
32,196,104108,1,0,0:0:0:0:
356,120,104244,2,0,L|448:168,1,100,8|0,0:0|0:0,0:0:0:0:
456,356,104517,1,2,0:0:0:0:
420,368,104585,1,0,0:0:0:0:
380,372,104653,1,2,0:0:0:0:
344,360,104722,1,0,0:0:0:0:
316,332,104790,6,0,P|328:272|236:172,1,200,4|2,0:0|0:0,0:0:0:0:
8,124,105199,1,0,0:0:0:0:
120,336,105335,2,0,L|120:236,1,100,8|0,0:0|0:0,0:0:0:0:
120,24,105608,1,2,0:0:0:0:
160,16,105676,1,0,0:0:0:0:
200,20,105744,1,2,0:0:0:0:
236,40,105813,1,0,0:0:0:0:
252,76,105881,6,0,P|304:92|428:12,1,200,2|0,0:0|0:0,0:0:0:0:
160,16,106290,2,0,L|200:224,1,200,2|0,0:0|0:0,0:0:0:0:
336,312,106699,1,2,0:0:0:0:
356,276,106767,1,0,0:0:0:0:
356,236,106835,1,0,0:0:0:0:
340,200,106903,1,0,0:0:0:0:
308,176,106972,5,4,0:0:0:0:
220,384,107108,1,0,0:0:0:0:
424,296,107244,1,2,0:0:0:0:
512,88,107381,1,0,0:0:0:0:
308,176,107517,2,0,L|208:152,1,100,8|0,0:0|0:0,0:0:0:0:
12,40,107790,1,2,0:0:0:0:
52,36,107858,1,0,0:0:0:0:
92,32,107926,1,2,0:0:0:0:
132,28,107994,1,0,0:0:0:0:
172,24,108063,5,2,0:0:0:0:
216,252,108199,1,0,0:0:0:0:
400,116,108335,5,2,0:0:0:0:
356,344,108471,1,0,0:0:0:0:
64,156,108608,5,8,0:0:0:0:
108,384,108744,1,0,0:0:0:0:
356,344,108881,1,2,0:0:0:0:
368,308,108949,1,0,0:0:0:0:
372,268,109017,1,2,0:0:0:0:
360,228,109085,1,0,0:0:0:0:
332,200,109153,6,0,P|280:184|172:272,1,200,4|0,0:0|0:0,0:0:0:0:
356,344,109563,1,2,0:0:0:0:
412,132,109699,2,0,L|392:24,1,100,8|0,0:0|0:0,0:0:0:0:
144,8,109972,1,2,0:0:0:0:
124,40,110040,1,0,0:0:0:0:
120,80,110108,1,2,0:0:0:0:
136,116,110176,1,0,0:0:0:0:
164,144,110244,5,2,0:0:0:0:
412,132,110381,1,0,0:0:0:0:
252,284,110517,1,0,0:0:0:0:
212,68,110653,2,0,L|316:100,1,100,2|8,0:0|0:0,0:0:0:0:
512,160,110926,1,0,0:0:0:0:
400,352,111063,1,2,0:0:0:0:
360,360,111131,1,0,0:0:0:0:
320,352,111199,1,2,0:0:0:0:
288,328,111267,1,0,0:0:0:0:
272,292,111335,5,4,0:0:0:0:
372,36,111472,1,0,0:0:0:0:
468,256,111608,1,0,0:0:0:0:
192,312,111744,1,2,0:0:0:0:
372,36,111881,2,0,L|372:152,1,100,8|0,0:0|0:0,0:0:0:0:
192,312,112153,1,2,0:0:0:0:
152,320,112222,1,0,0:0:0:0:
112,312,112290,1,2,0:0:0:0:
80,288,112358,1,0,0:0:0:0:
68,252,112426,6,0,B|94:225|94:225|68:198|68:198|97:168|97:168|77:129|97:82,1,200,2|2,0:0|0:0,0:0:0:0:
396,12,113517,6,0,L|364:160,1,150.000005722046,4|0,0:0|0:0,0:0:0:0:
444,200,113926,2,0,L|475:53,1,150.000005722046,2|0,0:0|0:0,0:0:0:0:
396,12,114335,2,0,P|340:8|312:20,1,75.0000028610231,2|0,0:0|0:0,0:0:0:0:
252,68,114608,6,0,P|184:80|112:36,1,150.000005722046,2|0,0:0|0:0,0:0:0:0:
32,12,115017,2,0,L|0:160,1,150.000005722046,2|0,0:0|0:0,0:0:0:0:
80,280,115426,1,2,0:0:0:0:
128,136,115563,1,0,0:0:0:0:
208,332,115699,6,0,P|256:344|356:288,1,150.000005722046,2|0,0:0|0:0,0:0:0:0:
400,184,116108,1,2,0:0:0:0:
400,184,116176,1,0,0:0:0:0:
400,184,116244,2,0,L|476:208,1,75.0000028610231,2|0,0:0|0:0,0:0:0:0:
288,128,116517,2,0,L|212:152,1,75.0000028610231,2|0,0:0|0:0,0:0:0:0:
172,164,116722,1,0,0:0:0:0:
172,164,116790,6,0,P|152:128|152:88,1,75.0000028610231,2|0,0:0|0:0,0:0:0:0:
236,8,117063,1,2,0:0:0:0:
348,52,117199,1,0,0:0:0:0:
348,52,117267,1,0,0:0:0:0:
348,52,117335,1,2,0:0:0:0:
263,139,117472,1,0,0:0:0:0:
151,95,117608,2,0,P|103:91|75:103,1,75.0000028610231,2|0,0:0|0:0,0:0:0:0:
32,228,117881,6,0,P|48:280|148:328,1,150.000005722046,2|0,0:0|0:0,0:0:0:0:
228,264,118290,2,0,P|296:252|376:308,1,150.000005722046,2|0,0:0|0:0,0:0:0:0:
444,380,118699,1,2,0:0:0:0:
300,356,118835,1,0,0:0:0:0:
428,240,118972,6,0,L|452:84,1,150.000005722046,2|0,0:0|0:0,0:0:0:0:
336,44,119381,1,0,0:0:0:0:
504,4,119517,1,2,0:0:0:0:
364,124,119653,1,0,0:0:0:0:
200,28,119790,2,0,P|148:28|124:40,1,75.0000028610231,2|0,0:0|0:0,0:0:0:0:
80,200,120063,6,0,P|136:216|208:160,1,150.000005722046,2|0,0:0|0:0,0:0:0:0:
32,96,120472,1,2,0:0:0:0:
32,96,120540,1,0,0:0:0:0:
32,96,120608,2,0,L|8:168,1,75.0000028610231,2|0,0:0|0:0,0:0:0:0:
108,312,120881,1,2,0:0:0:0:
130,134,121017,1,0,0:0:0:0:
130,134,121085,1,0,0:0:0:0:
130,134,121153,5,2,0:0:0:0:
12,264,121290,1,0,0:0:0:0:
176,232,121426,2,0,P|220:228|256:244,1,75.0000028610231,2|0,0:0|0:0,0:0:0:0:
272,264,121631,1,0,0:0:0:0:
272,264,121699,2,0,L|300:192,1,75.0000028610231,2|0,0:0|0:0,0:0:0:0:
352,48,121972,1,2,0:0:0:0:
400,260,122108,1,0,0:0:0:0:
400,260,122176,1,0,0:0:0:0:
400,260,122244,6,0,P|392:348|328:384,1,150.000005722046,2|0,0:0|0:0,0:0:0:0:
244,320,122653,1,0,0:0:0:0:
136,376,122790,1,2,0:0:0:0:
28,320,122926,1,0,0:0:0:0:
80,212,123063,2,0,P|88:172|76:128,1,75.0000028610231,2|0,0:0|0:0,0:0:0:0:
4,44,123335,6,0,L|168:20,1,150.000005722046,2|0,0:0|0:0,0:0:0:0:
228,116,123744,1,0,0:0:0:0:
348,96,123881,2,0,L|429:84,1,75.0000028610231,2|0,0:0|0:0,0:0:0:0:
508,0,124153,1,2,0:0:0:0:
492,156,124290,1,0,0:0:0:0:
348,96,124426,6,0,P|288:80|208:124,1,150.000005722046,2|0,0:0|0:0,0:0:0:0:
160,224,124835,1,0,0:0:0:0:
160,224,124903,1,0,0:0:0:0:
160,224,124972,2,0,P|204:236|248:228,1,75.0000028610231,2|0,0:0|0:0,0:0:0:0:
348,96,125244,1,2,0:0:0:0:
392,296,125381,1,0,0:0:0:0:
512,152,125517,5,2,0:0:0:0:
468,352,125654,1,0,0:0:0:0:
336,240,125790,2,0,L|256:228,1,75.0000028610231,2|0,0:0|0:0,0:0:0:0:
216,220,125994,1,0,0:0:0:0:
216,220,126063,2,0,P|200:256|204:296,1,75.0000028610231,2|0,0:0|0:0,0:0:0:0:
328,352,126335,1,2,0:0:0:0:
272,152,126472,1,0,0:0:0:0:
272,152,126540,1,0,0:0:0:0:
272,152,126608,6,0,P|256:88|304:0,1,150.000005722046,2|0,0:0|0:0,0:0:0:0:
376,96,127017,1,0,0:0:0:0:
492,116,127153,2,0,P|504:84|500:36,1,75.0000028610231,2|0,0:0|0:0,0:0:0:0:
376,96,127426,1,2,0:0:0:0:
448,224,127563,1,0,0:0:0:0:
284,184,127699,6,0,P|232:184|156:248,1,150.000005722046,2|2,0:0|0:0,0:0:0:0:
204,368,128108,1,0,0:0:0:0:
56,304,128244,2,0,L|76:224,1,75.0000028610231,2|0,0:0|0:0,0:0:0:0:
120,76,128517,1,2,0:0:0:0:
2,190,128653,1,0,0:0:0:0:
158,243,128790,6,0,P|222:247|298:199,1,150.000005722046,2|2,0:0|0:0,0:0:0:0:
272,68,129199,1,0,0:0:0:0:
272,68,129267,1,0,0:0:0:0:
272,68,129335,2,0,P|304:48|344:44,1,75.0000028610231,2|0,0:0|0:0,0:0:0:0:
496,128,129608,5,2,0:0:0:0:
344,148,129744,1,0,0:0:0:0:
496,256,129881,1,2,0:0:0:0:
344,236,130017,1,0,0:0:0:0:
440,192,130153,5,2,0:0:0:0:
440,192,130563,1,2,0:0:0:0:
440,192,130972,6,0,P|459:115|414:31,1,150.000005722046,4|2,0:0|0:0,0:0:0:0:
356,8,131381,1,0,0:0:0:0:
312,88,131517,2,0,L|224:72,1,75.0000028610231,2|0,0:0|0:0,0:0:0:0:
152,56,131790,1,0,0:0:0:0:
176,144,131926,1,0,0:0:0:0:
238,74,132063,6,0,P|258:38|258:2,1,75.0000028610231,2|0,0:0|0:0,0:0:0:0:
176,144,132335,1,2,0:0:0:0:
204,232,132472,1,0,0:0:0:0:
232,316,132608,1,2,0:0:0:0:
364,176,132881,5,2,0:0:0:0:
364,176,133017,2,0,P|432:180|504:120,1,150.000005722046
500,44,133426,1,2,0:0:0:0:
420,0,133563,1,0,0:0:0:0:
420,0,133631,1,0,0:0:0:0:
420,0,133699,2,0,P|404:40|408:80,1,75.0000028610231,2|0,0:0|0:0,0:0:0:0:
504,236,133972,1,2,0:0:0:0:
432,288,134108,1,0,0:0:0:0:
344,272,134244,6,0,P|316:236|312:200,1,75.0000028610231,2|0,0:0|0:0,0:0:0:0:
168,112,134517,2,0,P|196:148|200:184,1,75.0000028610231,2|0,0:0|0:0,0:0:0:0:
184,264,134790,1,2,0:0:0:0:
104,304,134926,1,0,0:0:0:0:
16,288,135063,2,0,L|0:364,1,75.0000028610231,2|0,0:0|0:0,0:0:0:0:
80,216,135335,6,0,L|48:64,2,150.000005722046,0|2|2,0:0|0:0|0:0,0:0:0:0:
104,304,136017,1,0,0:0:0:0:
184,264,136153,2,0,P|224:260|264:276,1,75.0000028610231,2|0,0:0|0:0,0:0:0:0:
324,328,136426,5,2,0:0:0:0:
388,264,136563,1,0,0:0:0:0:
392,176,136699,1,2,0:0:0:0:
348,96,136835,1,0,0:0:0:0:
260,76,136972,2,0,L|168:104,1,75.0000028610231,2|0,0:0|0:0,0:0:0:0:
348,96,137244,2,0,L|440:68,1,75.0000028610231,2|0,0:0|0:0,0:0:0:0:
476,4,137517,5,2,0:0:0:0:
508,88,137653,1,0,0:0:0:0:
460,164,137790,1,2,0:0:0:0:
492,248,137926,1,0,0:0:0:0:
492,248,137994,1,0,0:0:0:0:
492,248,138063,2,0,P|500:296|492:328,1,75.0000028610231,2|0,0:0|0:0,0:0:0:0:
412,360,138335,1,2,0:0:0:0:
364,283,138472,1,0,0:0:0:0:
364,283,138540,1,0,0:0:0:0:
364,283,138608,6,0,P|356:235|364:203,1,75.0000028610231,2|0,0:0|0:0,0:0:0:0:
444,171,138881,1,2,0:0:0:0:
476,88,139017,1,0,0:0:0:0:
432,8,139153,2,0,L|352:0,1,75.0000028610231,2|0,0:0|0:0,0:0:0:0:
293,64,139426,2,0,L|213:56,1,75.0000028610231,2|0,0:0|0:0,0:0:0:0:
128,44,139699,6,0,P|100:96|108:188,1,150.000005722046,2|0,0:0|0:0,0:0:0:0:
164,252,140108,1,0,0:0:0:0:
252,236,140244,2,0,P|260:276|248:320,1,75.0000028610231,2|0,0:0|0:0,0:0:0:0:
184,368,140517,1,2,0:0:0:0:
96,352,140653,1,0,0:0:0:0:
56,272,140790,5,2,0:0:0:0:
84,188,140926,1,0,0:0:0:0:
164,144,141063,2,0,P|176:104|164:56,1,75.0000028610231,2|0,0:0|0:0,0:0:0:0:
116,0,141335,2,0,L|264:32,1,150.000005722046,2|0,0:0|0:0,0:0:0:0:
352,52,141744,1,0,0:0:0:0:
440,76,141881,6,0,P|476:112|476:212,1,150.000005722046,2|2,0:0|0:0,0:0:0:0:
420,276,142290,1,0,0:0:0:0:
420,276,142358,1,0,0:0:0:0:
420,276,142426,2,0,P|408:316|412:348,1,75.0000028610231,2|0,0:0|0:0,0:0:0:0:
500,320,142699,1,2,0:0:0:0:
388,188,142835,1,0,0:0:0:0:
388,188,142903,1,0,0:0:0:0:
388,188,142971,6,0,P|348:176|316:180,1,75.0000028610231,2|0,0:0|0:0,0:0:0:0:
256,248,143244,1,2,0:0:0:0:
168,264,143381,1,0,0:0:0:0:
84,228,143517,2,0,L|64:148,1,75.0000028610231,2|0,0:0|0:0,0:0:0:0:
156,155,143790,2,0,L|176:75,1,75.0000028610231,2|0,0:0|0:0,0:0:0:0:
252,128,144063,6,0,P|308:136|392:76,1,150.000005722046,2|2,0:0|0:0,0:0:0:0:
432,12,144472,1,0,0:0:0:0:
504,68,144608,2,0,L|480:152,1,75.0000028610231,2|0,0:0|0:0,0:0:0:0:
452,224,144881,1,0,0:0:0:0:
420,308,145017,1,0,0:0:0:0:
336,276,145153,6,0,P|280:268|196:324,1,150.000005722046,2|2,0:0|0:0,0:0:0:0:
144,384,145563,1,0,0:0:0:0:
56,360,145699,2,0,P|24:320|24:288,1,75.0000028610231,2|0,0:0|0:0,0:0:0:0:
36,208,145972,1,2,0:0:0:0:
104,148,146108,1,0,0:0:0:0:
192,148,146244,6,0,B|264:160|264:160|344:116,1,150.000005722046,2|2,0:0|0:0,0:0:0:0:
408,76,146653,1,0,0:0:0:0:
408,76,146722,1,0,0:0:0:0:
408,76,146790,2,0,P|424:128|416:156,1,75.0000028610231,2|0,0:0|0:0,0:0:0:0:
336,264,147063,1,2,0:0:0:0:
203,218,147199,1,0,0:0:0:0:
203,218,147268,1,0,0:0:0:0:
203,218,147336,6,0,P|187:166|195:138,1,75.0000028610231,2|0,0:0|0:0,0:0:0:0:
268,0,147608,1,2,0:0:0:0:
328,156,147744,1,0,0:0:0:0:
488,88,147881,6,0,L|516:168,1,75.0000028610231,2|0,0:0|0:0,0:0:0:0:
136,368,148426,6,0,B|92:270|179:270|136:173,1,200,4|2,0:0|0:0,0:0:0:0:
20,12,148835,1,0,0:0:0:0:
264,56,148972,1,8,0:0:0:0:
56,128,149108,1,0,0:0:0:0:
320,192,149244,1,2,0:0:0:0:
360,200,149313,1,0,0:0:0:0:
400,200,149381,1,0,0:0:0:0:
436,188,149449,1,0,0:0:0:0:
468,164,149517,6,0,P|488:116|480:60,1,100,2|0,0:0|0:0,0:0:0:0:
320,192,149790,1,2,0:0:0:0:
432,360,149926,1,0,0:0:0:0:
200,304,150063,2,0,L|92:332,1,100,8|0,0:0|0:0,0:0:0:0:
12,164,150335,1,2,0:0:0:0:
12,164,150403,1,0,0:0:0:0:
12,164,150472,1,0,0:0:0:0:
216,216,150608,6,0,L|324:244,1,100,4|0,0:0|0:0,0:0:0:0:
500,300,150881,1,2,0:0:0:0:
344,348,151017,1,0,0:0:0:0:
396,140,151153,2,0,P|400:88|376:40,1,100,8|0,0:0|0:0,0:0:0:0:
160,12,151426,1,2,0:0:0:0:
128,36,151494,1,0,0:0:0:0:
116,76,151563,1,0,0:0:0:0:
116,116,151631,1,0,0:0:0:0:
136,152,151699,6,0,L|152:256,1,100,2|0,0:0|0:0,0:0:0:0:
8,348,151972,1,2,0:0:0:0:
176,380,152108,1,0,0:0:0:0:
248,220,152244,1,8,0:0:0:0:
72,312,152381,1,0,0:0:0:0:
328,364,152517,1,2,0:0:0:0:
368,364,152585,1,0,0:0:0:0:
404,352,152653,1,0,0:0:0:0:
436,328,152722,1,0,0:0:0:0:
456,296,152790,6,0,P|468:248|452:196,1,100,4|0,0:0|0:0,0:0:0:0:
300,124,153063,1,2,0:0:0:0:
492,44,153199,1,0,0:0:0:0:
372,248,153335,1,8,0:0:0:0:
260,52,153472,1,0,0:0:0:0:
204,320,153608,1,2,0:0:0:0:
204,320,153676,1,0,0:0:0:0:
204,320,153744,1,0,0:0:0:0:
204,320,153813,1,0,0:0:0:0:
204,320,153881,6,0,L|72:300,1,100,2|0,0:0|0:0,0:0:0:0:
0,136,154153,1,2,0:0:0:0:
172,232,154290,1,0,0:0:0:0:
48,384,154426,1,8,0:0:0:0:
0,136,154563,1,0,0:0:0:0:
240,268,154699,1,2,0:0:0:0:
280,276,154767,1,0,0:0:0:0:
320,272,154835,1,0,0:0:0:0:
356,260,154903,1,0,0:0:0:0:
388,236,154972,5,4,0:0:0:0:
200,144,155108,1,0,0:0:0:0:
456,80,155244,1,2,0:0:0:0:
200,144,155381,1,0,0:0:0:0:
464,268,155517,2,0,P|476:320|464:368,1,100,8|0,0:0|0:0,0:0:0:0:
240,280,155790,1,2,0:0:0:0:
200,272,155858,1,0,0:0:0:0:
160,276,155926,1,0,0:0:0:0:
128,300,155994,1,0,0:0:0:0:
104,332,156063,5,2,0:0:0:0:
312,376,156199,1,0,0:0:0:0:
240,184,156335,1,2,0:0:0:0:
32,228,156471,1,0,0:0:0:0:
32,228,156540,1,0,0:0:0:0:
32,228,156608,2,0,L|8:336,1,100,8|0,0:0|0:0,0:0:0:0:
240,184,156881,1,2,0:0:0:0:
256,136,156949,1,0,0:0:0:0:
252,88,157017,1,0,0:0:0:0:
220,48,157085,1,0,0:0:0:0:
176,28,157153,6,0,L|64:52,1,100,4|0,0:0|0:0,0:0:0:0:
160,240,157426,1,2,0:0:0:0:
340,100,157563,1,0,0:0:0:0:
78,49,157699,2,0,P|54:93|50:149,1,100,8|0,0:0|0:0,0:0:0:0:
164,356,157972,1,2,0:0:0:0:
204,364,158040,1,0,0:0:0:0:
244,360,158108,1,0,0:0:0:0:
280,340,158176,1,0,0:0:0:0:
304,308,158244,5,2,0:0:0:0:
120,220,158381,1,0,0:0:0:0:
412,156,158517,1,2,0:0:0:0:
280,340,158653,1,0,0:0:0:0:
216,104,158790,2,0,P|208:56|224:4,1,100,8|0,0:0|0:0,0:0:0:0:
484,56,159063,1,2,0:0:0:0:
484,56,159131,1,0,0:0:0:0:
484,56,159199,1,0,0:0:0:0:
484,56,159267,1,0,0:0:0:0:
484,56,159335,6,0,P|492:104|476:156,1,100,4|0,0:0|0:0,0:0:0:0:
324,296,159608,1,2,0:0:0:0:
376,108,159744,1,0,0:0:0:0:
500,336,159881,2,0,L|392:356,1,100,8|0,0:0|0:0,0:0:0:0:
192,248,160153,1,2,0:0:0:0:
152,244,160222,1,0,0:0:0:0:
112,252,160290,1,0,0:0:0:0:
80,276,160358,1,0,0:0:0:0:
60,312,160426,5,2,0:0:0:0:
272,352,160563,1,0,0:0:0:0:
208,144,160699,1,2,0:0:0:0:
164,332,160836,1,0,0:0:0:0:
360,240,160972,2,0,P|424:236|472:256,1,100,8|0,0:0|0:0,0:0:0:0:
272,352,161244,1,2,0:0:0:0:
260,312,161313,1,0,0:0:0:0:
248,276,161381,1,0,0:0:0:0:
236,236,161449,1,0,0:0:0:0:
224,200,161517,6,0,L|248:92,1,100,4|0,0:0|0:0,0:0:0:0:
396,36,161790,1,2,0:0:0:0:
148,0,161926,1,0,0:0:0:0:
316,172,162063,2,0,L|340:280,1,100,8|0,0:0|0:0,0:0:0:0:
504,372,162335,1,2,0:0:0:0:
496,332,162403,1,0,0:0:0:0:
488,292,162472,1,0,0:0:0:0:
480,252,162540,1,0,0:0:0:0:
472,212,162608,6,0,P|468:160|492:108,1,100,2|0,0:0|0:0,0:0:0:0:
256,8,162881,2,0,P|260:60|236:112,1,100,2|0,0:0|0:0,0:0:0:0:
32,216,163153,1,8,0:0:0:0:
116,28,163290,1,0,0:0:0:0:
196,268,163426,1,2,0:0:0:0:
224,296,163494,1,0,0:0:0:0:
260,312,163563,1,0,0:0:0:0:
300,316,163631,1,0,0:0:0:0:
340,308,163699,6,0,P|364:301|392:284,7,50,2|0|0|0|0|0|0|0,0:0|0:0|0:0|0:0|0:0|0:0|0:0|0:0,0:0:0:0:
328,224,164244,2,0,P|345:206|361:177,7,50,2|0|0|0|0|0|0|0,0:0|0:0|0:0|0:0|0:0|0:0|0:0|0:0,0:0:0:0:
275,157,164790,6,0,P|279:138|278:113,6,25,2|0|2|0|2|0|2,0:0|0:0|0:0|0:0|0:0|0:0|0:0,0:0:0:0:
280,112,165063,2,0,P|275:93|261:72,6,25,2|0|2|0|2|0|2,0:0|0:0|0:0|0:0|0:0|0:0|0:0,0:0:0:0:
261,70,165335,2,0,P|247:56|225:45,6,25,2|0|2|0|2|0|2,0:0|0:0|0:0|0:0|0:0|0:0|0:0,0:0:0:0:
223,42,165608,2,0,P|210:39|194:40,9,16.6666666666667,2|2|2|2|2|2|2|0|0|0,0:0|0:0|0:0|0:0|0:0|0:0|0:0|0:0|0:0|0:0,0:0:0:0:
180,40,165881,6,0,L|104:56,1,75.0000028610231,2|0,0:0|0:0,0:0:0:0:
152,148,166153,2,0,L|76:164,1,75.0000028610231,2|0,0:0|0:0,0:0:0:0:
144,244,166426,2,0,L|220:260,1,75.0000028610231
172,352,166698,2,0,L|248:368,1,75.0000028610231,2|0,0:0|0:0,0:0:0:0:
400,340,166972,6,0,L|476:324,1,75.0000028610231,2|0,0:0|0:0,0:0:0:0:
428,232,167244,2,0,L|504:216,1,75.0000028610231,2|0,0:0|0:0,0:0:0:0:
436,136,167517,2,0,L|360:120,1,75.0000028610231
408,28,167789,2,0,L|332:12,1,75.0000028610231,2|0,0:0|0:0,0:0:0:0:
264,92,168063,5,2,0:0:0:0:
168,136,168199,1,0,0:0:0:0:
64,120,168335,1,0,0:0:0:0:
4,32,168472,1,2,0:0:0:0:
108,24,168608,1,0,0:0:0:0:
64,120,168744,1,0,0:0:0:0:
80,224,168881,1,2,0:0:0:0:
152,300,169017,1,0,0:0:0:0:
256,308,169153,6,0,L|360:288,1,75.0000028610231,2|0,0:0|0:0,0:0:0:0:
484,256,169426,2,0,L|380:236,1,75.0000028610231
284,176,169699,2,0,L|388:156,1,75.0000028610231,2|0,0:0|0:0,0:0:0:0:
512,124,169972,2,0,L|408:104,1,75.0000028610231
352,52,170244,5,2,0:0:0:0:
260,104,170381,1,0,0:0:0:0:
196,20,170517,1,2,0:0:0:0:
104,72,170654,1,0,0:0:0:0:
168,156,170790,2,0,L|144:240,1,75.0000028610231
212,348,171063,2,0,L|236:264,1,75.0000028610231,2|0,0:0|0:0,0:0:0:0:
264,172,171335,5,2,0:0:0:0:
356,120,171472,1,0,0:0:0:0:
420,204,171608,1,2,0:0:0:0:
512,152,171745,1,0,0:0:0:0:
444,72,171881,2,0,P|452:36|472:4,1,75.0000028610231
508,256,172153,2,0,P|500:292|480:324,1,75.0000028610231,2|0,0:0|0:0,0:0:0:0:
380,356,172426,5,2,0:0:0:0:
280,320,172563,1,0,0:0:0:0:
244,220,172699,1,0,0:0:0:0:
160,284,172835,5,2,0:0:0:0:
141,179,172972,1,0,0:0:0:0:
209,98,173108,1,0,0:0:0:0:
312,80,173244,2,0,P|368:92|400:112,1,75.0000028610231,2|0,0:0|0:0,0:0:0:0:
440,188,173517,5,2,0:0:0:0:
272,268,173653,1,2,0:0:0:0:
496,304,173790,2,0,L|508:340,3,37.5000014305115,2|0|0|0,0:0|0:0|0:0|0:0,0:0:0:0:
428,344,174063,6,0,L|437:371,6,18.7500007152558,2|0|0|0|0|0|0,0:0|0:0|0:0|0:0|0:0|0:0|0:0,0:0:0:0:
360,300,174335,2,0,L|350:272,6,18.7500007152558,2|0|0|0|0|0|0,0:0|0:0|0:0|0:0|0:0|0:0|0:0,0:0:0:0:
304,360,174608,6,0,P|248:368|192:344,1,100,4|0,0:0|0:0,0:0:0:0:
120,172,174881,1,2,0:0:0:0:
272,236,175017,1,0,0:0:0:0:
52,300,175153,1,8,0:0:0:0:
92,88,175290,1,0,0:0:0:0:
272,236,175426,1,2,0:0:0:0:
312,244,175494,1,0,0:0:0:0:
352,244,175563,1,0,0:0:0:0:
392,232,175631,1,0,0:0:0:0:
424,212,175699,5,2,0:0:0:0:
488,24,175835,1,0,0:0:0:0:
300,92,175972,1,2,0:0:0:0:
500,148,176108,1,0,0:0:0:0:
300,92,176244,2,0,P|240:88|200:108,1,100,8|0,0:0|0:0,0:0:0:0:
152,324,176517,1,2,0:0:0:0:
176,292,176585,1,0,0:0:0:0:
176,252,176653,1,0,0:0:0:0:
156,216,176722,1,0,0:0:0:0:
120,196,176790,6,0,P|96:156|96:84,1,100,4|0,0:0|0:0,0:0:0:0:
332,176,177063,2,0,P|356:216|356:288,1,100,2|0,0:0|0:0,0:0:0:0:
152,324,177335,1,8,0:0:0:0:
328,368,177472,1,0,0:0:0:0:
440,224,177608,1,2,0:0:0:0:
452,184,177676,1,0,0:0:0:0:
452,144,177744,1,0,0:0:0:0:
432,108,177813,1,0,0:0:0:0:
404,80,177881,5,2,0:0:0:0:
200,52,178017,1,0,0:0:0:0:
464,4,178153,1,2,0:0:0:0:
360,220,178290,1,0,0:0:0:0:
128,172,178426,2,0,P|72:172|24:200,1,100,8|0,0:0|0:0,0:0:0:0:
160,360,178699,1,2,0:0:0:0:
200,364,178767,1,0,0:0:0:0:
240,352,178835,1,0,0:0:0:0:
268,324,178903,1,0,0:0:0:0:
280,284,178972,5,4,0:0:0:0:
176,64,179108,1,0,0:0:0:0:
96,284,179244,2,0,L|192:252,1,100,2|0,0:0|0:0,0:0:0:0:
424,172,179517,1,8,0:0:0:0:
360,344,179653,1,0,0:0:0:0:
252,152,179790,1,2,0:0:0:0:
240,112,179858,1,0,0:0:0:0:
244,72,179926,1,0,0:0:0:0:
264,36,179994,1,0,0:0:0:0:
300,20,180063,5,2,0:0:0:0:
500,144,180199,1,0,0:0:0:0:
376,344,180335,1,2,0:0:0:0:
176,220,180472,1,0,0:0:0:0:
424,164,180608,2,0,P|428:112|408:64,1,100,8|0,0:0|0:0,0:0:0:0:
168,12,180881,1,2,0:0:0:0:
132,28,180949,1,0,0:0:0:0:
104,56,181017,1,0,0:0:0:0:
88,92,181085,1,0,0:0:0:0:
84,132,181153,5,4,0:0:0:0:
284,200,181290,1,0,0:0:0:0:
12,276,181426,1,2,0:0:0:0:
104,56,181563,1,0,0:0:0:0:
208,284,181699,2,0,L|188:384,1,100,8|0,0:0|0:0,0:0:0:0:
160,148,181972,1,2,0:0:0:0:
184,116,182040,1,0,0:0:0:0:
220,104,182108,1,0,0:0:0:0:
260,104,182176,1,0,0:0:0:0:
292,124,182244,6,0,P|344:136|408:124,1,100,2|0,0:0|0:0,0:0:0:0:
496,8,182517,1,2,0:0:0:0:
508,240,182653,1,0,0:0:0:0:
508,240,182722,1,0,0:0:0:0:
508,240,182790,1,8,0:0:0:0:
292,124,182926,1,0,0:0:0:0:
496,8,183063,1,2,0:0:0:0:
484,48,183131,1,0,0:0:0:0:
472,88,183199,1,0,0:0:0:0:
460,128,183267,1,0,0:0:0:0:
448,168,183335,6,0,P|400:212|352:212,1,100,4|0,0:0|0:0,0:0:0:0:
124,128,183608,1,2,0:0:0:0:
356,36,183744,1,0,0:0:0:0:
248,252,183881,2,0,P|240:304|256:348,1,100,8|0,0:0|0:0,0:0:0:0:
488,360,184153,1,2,0:0:0:0:
496,320,184222,1,0,0:0:0:0:
480,284,184290,1,0,0:0:0:0:
452,256,184358,1,0,0:0:0:0:
412,252,184426,6,0,L|372:144,1,100,2|0,0:0|0:0,0:0:0:0:
316,0,184699,1,2,0:0:0:0:
252,196,184835,1,0,0:0:0:0:
464,128,184972,1,8,0:0:0:0:
244,88,185108,1,0,0:0:0:0:
320,296,185244,1,2,0:0:0:0:
288,320,185313,1,0,0:0:0:0:
252,332,185381,1,0,0:0:0:0:
212,328,185449,1,0,0:0:0:0:
176,316,185517,5,4,0:0:0:0:
84,148,185653,1,0,0:0:0:0:
12,372,185790,1,2,0:0:0:0:
176,224,185926,1,0,0:0:0:0:
20,100,186063,2,0,P|20:52|48:8,1,100,8|0,0:0|0:0,0:0:0:0:
256,96,186335,1,2,0:0:0:0:
296,108,186403,1,0,0:0:0:0:
336,108,186472,1,0,0:0:0:0:
376,96,186540,1,0,0:0:0:0:
408,72,186608,5,2,0:0:0:0:
472,236,186744,1,0,0:0:0:0:
512,8,186881,1,2,0:0:0:0:
336,108,187017,1,0,0:0:0:0:
472,236,187153,2,0,P|480:288|464:332,1,100,8|0,0:0|0:0,0:0:0:0:
256,264,187426,1,2,0:0:0:0:
216,256,187494,1,0,0:0:0:0:
176,260,187563,1,0,0:0:0:0:
140,276,187631,1,0,0:0:0:0:
116,308,187699,5,4,0:0:0:0:
336,380,187835,1,0,0:0:0:0:
216,172,187972,2,0,P|204:120|216:64,1,100,2|0,0:0|0:0,0:0:0:0:
412,4,188244,1,8,0:0:0:0:
328,196,188381,1,0,0:0:0:0:
128,96,188517,1,2,0:0:0:0:
88,88,188585,1,0,0:0:0:0:
48,96,188653,1,0,0:0:0:0:
20,124,188722,1,0,0:0:0:0:
4,160,188790,5,2,0:0:0:0:
212,284,188926,1,0,0:0:0:0:
272,48,189063,2,0,L|380:80,1,100,2|0,0:0|0:0,0:0:0:0:
476,264,189335,1,8,0:0:0:0:
260,176,189472,1,0,0:0:0:0:
440,8,189608,1,2,0:0:0:0:
464,40,189676,1,0,0:0:0:0:
472,80,189744,1,0,0:0:0:0:
468,120,189813,1,0,0:0:0:0:
448,156,189881,5,4,0:0:0:0:
224,76,190017,1,0,0:0:0:0:
280,300,190153,2,0,L|396:280,1,100,2|0,0:0|0:0,0:0:0:0:
472,80,190426,1,8,0:0:0:0:
252,204,190562,1,0,0:0:0:0:
480,340,190699,1,2,0:0:0:0:
496,304,190767,1,0,0:0:0:0:
500,264,190835,1,0,0:0:0:0:
488,224,190903,1,0,0:0:0:0:
460,192,190971,5,2,0:0:0:0:
324,376,191108,1,0,0:0:0:0:
300,128,191244,1,2,0:0:0:0:
164,312,191381,1,0,0:0:0:0:
460,192,191517,2,0,P|480:164|488:136,6,50,2|0|0|0|0|0|0,0:0|0:0|0:0|0:0|0:0|0:0|0:0,0:0:0:0:
256,264,192063,6,0,L|164:248,1,75.0000028610231,2|0,0:0|0:0,0:0:0:0:
64,232,192335,1,0,0:0:0:0:
144,140,192472,1,0,0:0:0:0:
182,251,192608,2,0,P|182:303|158:335,1,75.0000028610231,2|0,0:0|0:0,0:0:0:0:
144,140,192881,2,0,P|144:88|168:56,1,75.0000028610231
260,12,193153,5,2,0:0:0:0:
380,32,193290,1,0,0:0:0:0:
460,120,193426,2,0,P|472:168|468:196,1,75.0000028610231
360,244,193699,1,2,0:0:0:0:
472,288,193835,1,0,0:0:0:0:
360,336,193972,2,0,L|284:320,1,75.0000028610231
172,292,194244,6,0,P|152:240|176:148,1,150.000005722046,2|0,0:0|0:0,0:0:0:0:
256,64,194653,1,0,0:0:0:0:
364,120,194790,2,0,L|388:196,1,75.0000028610231,2|0,0:0|0:0,0:0:0:0:
480,112,195063,2,0,L|504:36,1,75.0000028610231
388,8,195335,5,2,0:0:0:0:
284,72,195472,1,0,0:0:0:0:
184,8,195608,1,0,0:0:0:0:
80,72,195745,1,0,0:0:0:0:
184,132,195881,2,0,P|188:176|176:216,1,75.0000028610231,2|0,0:0|0:0,0:0:0:0:
96,290,196153,2,0,P|92:334|104:374,1,75.0000028610231
216,332,196426,6,0,P|292:324|368:368,1,150.000005722046,2|0,0:0|0:0,0:0:0:0:
464,304,196835,1,0,0:0:0:0:
372,228,196972,2,0,L|384:144,1,75.0000028610231,2|0,0:0|0:0,0:0:0:0:
480,84,197244,2,0,L|468:0,1,75.0000028610231
364,72,197517,5,2,0:0:0:0:
248,104,197653,1,0,0:0:0:0:
128,84,197790,1,0,0:0:0:0:
40,4,197926,1,0,0:0:0:0:
128,84,198063,2,0,P|140:140|104:228,1,150.000005722046,2|0,0:0|0:0,0:0:0:0:
4,288,198472,1,0,0:0:0:0:
96,364,198608,6,0,L|248:332,1,150.000005722046,2|0,0:0|0:0,0:0:0:0:
360,308,199017,1,0,0:0:0:0:
360,308,199085,1,0,0:0:0:0:
360,308,199153,2,0,P|380:344|384:380,1,75.0000028610231,2|0,0:0|0:0,0:0:0:0:
281,258,199426,1,0,0:0:0:0:
420,184,199563,1,0,0:0:0:0:
420,184,199631,1,0,0:0:0:0:
420,184,199699,6,0,P|440:148|444:112,1,75.0000028610231,2|0,0:0|0:0,0:0:0:0:
256,32,199972,2,0,P|236:68|232:104,1,75.0000028610231
316,264,200244,2,0,P|276:300|264:228,1,150.000005722046,2|0,0:0|0:0,0:0:0:0:
344,152,200653,1,0,0:0:0:0:
332,360,200790,6,0,P|254:373|192:332,1,150.000005722046,4|0,0:0|0:0,0:0:0:0:
164,220,201199,1,0,0:0:0:0:
244,128,201335,2,0,P|248:80|232:44,1,75.0000028610231,2|0,0:0|0:0,0:0:0:0:
124,16,201608,2,0,P|118:52|128:88,1,75.0000028610231
244,128,201881,5,2,0:0:0:0:
360,100,202017,1,0,0:0:0:0:
432,4,202153,1,0,0:0:0:0:
312,12,202290,1,0,0:0:0:0:
476,92,202426,2,0,L|496:172,1,75.0000028610231,2|0,0:0|0:0,0:0:0:0:
380,208,202699,2,0,L|360:288,1,75.0000028610231
252,232,202972,6,0,P|184:224|112:272,1,150.000005722046,2|0,0:0|0:0,0:0:0:0:
56,368,203381,1,0,0:0:0:0:
16,204,203517,2,0,L|40:120,1,75.0000028610231,2|0,0:0|0:0,0:0:0:0:
120,44,203790,2,0,L|144:128,1,75.0000028610231
212,216,204063,5,2,0:0:0:0:
328,236,204199,1,0,0:0:0:0:
436,184,204335,1,0,0:0:0:0:
468,68,204472,1,0,0:0:0:0:
356,112,204608,2,0,P|316:112|264:88,1,75.0000028610231,2|0,0:0|0:0,0:0:0:0:
436,184,204881,2,0,P|476:184|528:208,1,75.0000028610231
512,328,205153,6,0,L|364:300,1,150.000005722046,2|0,0:0|0:0,0:0:0:0:
248,272,205563,1,0,0:0:0:0:
132,240,205699,2,0,P|116:280|124:328,1,75.0000028610231,2|0,0:0|0:0,0:0:0:0:
248,272,205972,2,0,P|264:232|256:184,1,75.0000028610231
168,128,206244,5,2,0:0:0:0:
280,80,206381,1,0,0:0:0:0:
180,16,206517,2,0,L|88:36,1,75.0000028610231
280,80,206790,2,0,L|426:48,1,150.000005722046,2|0,0:0|0:0,0:0:0:0:
504,140,207199,1,0,0:0:0:0:
444,244,207335,5,2,0:0:0:0:
256,192,207403,12,2,208153,0:0:0:0:
176,40,208426,5,2,0:0:0:0:
224,224,208563,1,0,0:0:0:0:
184,56,208699,1,2,0:0:0:0:
136,240,208836,1,0,0:0:0:0:
192,72,208972,2,0,L|272:56,1,75.0000028610231,2|0,0:0|0:0,0:0:0:0:
400,32,209244,1,2,0:0:0:0:
400,32,209506,6,0,P|348:96|380:200,1,200,4|0,0:0|0:0,0:0:0:0:
184,320,209915,2,0,P|238:241|203:151,1,200,4|0,0:0|0:0,0:0:0:0:
56,100,210324,2,0,L|160:76,1,100
400,32,210596,6,0,B|420:84|468:104|468:104|428:148|432:200,1,200,4|0,0:0|0:0,0:0:0:0:
296,304,211006,2,0,B|276:252|228:232|228:232|268:188|264:136,1,200,4|0,0:0|0:0,0:0:0:0:
140,44,211415,2,0,P|112:88|108:140,1,100
216,324,211687,6,0,B|272:324|272:324|284:340|284:340|296:304|296:304|308:324|308:324|380:324,1,200,4|0,0:0|0:0,0:0:0:0:
464,144,212096,2,0,B|408:144|408:144|396:160|396:160|384:124|384:124|372:144|372:144|300:144,1,200,4|0,0:0|0:0,0:0:0:0:
132,48,212506,2,0,P|156:96|144:144,1,100
92,332,212778,6,0,B|104:276|56:248|56:248|12:208|44:144,1,200,4|0,0:0|0:0,0:0:0:0:
232,24,213187,2,0,B|283:52|269:110|269:110|245:160|285:199,1,200,4|0,0:0|0:0,0:0:0:0:
460,300,213596,2,0,P|488:256|488:208,1,100
424,0,213869,6,0,L|384:208,1,200,4|0,0:0|0:0,0:0:0:0:
280,372,214278,2,0,L|240:164,1,200,4|0,0:0|0:0,0:0:0:0:
136,4,214687,2,0,P|108:44|104:100,1,100
188,276,214960,6,0,P|292:280|352:208,1,200,4|0,0:0|0:0,0:0:0:0:
188,72,215369,2,0,P|84:68|28:136,1,200,4|0,0:0|0:0,0:0:0:0:
144,340,215778,2,0,P|188:364|240:368,1,100
347,211,216051,6,0,B|427:267|427:267|403:371,1,200,4|0,0:0|0:0,0:0:0:0:
248,172,216460,2,0,B|224:72|224:72|304:16,1,200,4|0,0:0|0:0,0:0:0:0:
484,112,216869,2,0,P|484:168|460:212,1,100,2|0,0:0|0:0,0:0:0:0:
280,296,217142,6,0,L|132:276,2,150,4|0|2,0:0|0:0|0:0,0:0:0:0:
248,172,217687,2,0,L|396:152,2,150,0|0|2,0:0|0:0|0:0,0:0:0:0:
48,152,218233,6,0,P|40:104|48:52,1,100,4|0,0:0|0:0,0:0:0:0:
224,8,218506,1,0,0:0:0:0:
368,116,218642,2,0,P|295:181|197:185,1,200,4|0,0:0|0:0,0:0:0:0:
224,8,219051,1,2,0:0:0:0:
368,116,219187,1,0,0:0:0:0:
272,268,219324,6,0,P|272:320|300:368,1,100,4|0,0:0|0:0,0:0:0:0:
432,248,219596,1,0,0:0:0:0:
198,186,219733,2,0,L|114:374,1,200,4|0,0:0|0:0,0:0:0:0:
80,192,220142,1,2,0:0:0:0:
296,152,220278,1,0,0:0:0:0:
20,80,220415,6,0,L|124:52,1,100,4|0,0:0|0:0,0:0:0:0:
292,12,220687,1,0,0:0:0:0:
198,186,220824,2,0,B|150:282|246:282|198:378,1,200,4|0,0:0|0:0,0:0:0:0:
84,224,221233,1,2,0:0:0:0:
296,280,221369,1,0,0:0:0:0:
376,96,221506,6,0,P|380:36|360:0,1,100,4|0,0:0|0:0,0:0:0:0:
208,96,221778,1,0,0:0:0:0:
296,280,221915,2,0,L|496:228,1,200,4|0,0:0|0:0,0:0:0:0:
384,376,222324,1,2,0:0:0:0:
320,156,222460,1,0,0:0:0:0:
208,296,222596,6,0,P|156:308|104:288,1,100,4|0,0:0|0:0,0:0:0:0:
20,136,222869,1,0,0:0:0:0:
224,208,223006,2,0,B|308:264|308:264|272:364,1,200,4|0,0:0|0:0,0:0:0:0:
113,294,223415,1,2,0:0:0:0:
212,124,223551,1,0,0:0:0:0:
400,208,223687,6,0,P|416:256|408:304,1,100,4|0,0:0|0:0,0:0:0:0:
224,208,223960,1,0,0:0:0:0:
488,148,224096,2,0,P|500:88|404:0,1,200,4|0,0:0|0:0,0:0:0:0:
219,90,224506,1,2,0:0:0:0:
399,102,224642,1,0,0:0:0:0:
156,4,224778,6,0,L|112:104,1,100,4|0,0:0|0:0,0:0:0:0:
40,259,225051,1,0,0:0:0:0:
222,142,225187,2,0,L|36:60,1,200,4|0,0:0|0:0,0:0:0:0:
263,31,225596,2,0,L|355:71,1,100,2|0,0:0|0:0,0:0:0:0:
424,284,225869,6,0,P|368:312|316:304,1,100,2|0,0:0|0:0,0:0:0:0:
192,164,226142,1,2,0:0:0:0:
348,40,226278,1,0,0:0:0:0:
304,236,226415,1,2,0:0:0:0:
228,52,226551,1,0,0:0:0:0:
228,52,226619,1,0,0:0:0:0:
228,52,226687,1,2,0:0:0:0:
396,148,226824,1,2,0:0:0:0:
208,260,226960,6,0,P|192:320|196:360,1,100,4|0,0:0|0:0,0:0:0:0:
288,204,227233,1,2,0:0:0:0:
104,288,227369,1,0,0:0:0:0:
348,344,227506,2,0,L|464:316,1,100,2|0,0:0|0:0,0:0:0:0:
492,104,227778,2,0,L|376:132,1,100,2|0,0:0|0:0,0:0:0:0:
168,56,228051,5,2,0:0:0:0:
252,212,228187,1,0,0:0:0:0:
344,12,228324,1,2,0:0:0:0:
108,148,228460,1,0,0:0:0:0:
108,148,228528,1,0,0:0:0:0:
108,148,228596,2,0,P|56:148|12:124,1,100,2|0,0:0|0:0,0:0:0:0:
248,20,228869,2,0,P|300:20|344:44,1,100,2|0,0:0|0:0,0:0:0:0:
408,244,229142,5,6,0:0:0:0:
236,188,229278,1,0,0:0:0:0:
468,120,229415,2,0,L|508:220,1,100,2|0,0:0|0:0,0:0:0:0:
276,332,229687,2,0,L|313:239,1,100,2|0,0:0|0:0,0:0:0:0:
400,36,229960,1,2,0:0:0:0:
408,244,230096,1,0,0:0:0:0:
220,176,230233,6,0,P|152:176|120:192,1,100,2|0,0:0|0:0,0:0:0:0:
36,348,230506,1,2,0:0:0:0:
240,288,230642,1,0,0:0:0:0:
240,288,230710,1,0,0:0:0:0:
240,288,230778,2,0,P|308:288|340:304,1,100,2|0,0:0|0:0,0:0:0:0:
500,380,231051,1,2,0:0:0:0:
452,208,231187,1,0,0:0:0:0:
276,376,231324,6,0,P|208:376|176:360,1,100,6|0,0:0|0:0,0:0:0:0:
36,256,231596,1,2,0:0:0:0:
240,196,231733,1,0,0:0:0:0:
112,0,231869,2,0,L|76:104,1,100,2|0,0:0|0:0,0:0:0:0:
124,296,232142,2,0,L|160:192,1,100,2|0,0:0|0:0,0:0:0:0:
216,32,232415,5,2,0:0:0:0:
348,152,232551,1,0,0:0:0:0:
157,202,232687,1,2,0:0:0:0:
320,48,232824,1,0,0:0:0:0:
320,48,232892,1,0,0:0:0:0:
320,48,232960,2,0,P|368:32|424:36,1,100,2|0,0:0|0:0,0:0:0:0:
452,260,233233,2,0,P|404:276|348:272,1,100,2|0,0:0|0:0,0:0:0:0:
196,192,233506,6,0,B|136:184|120:136|120:136|136:184|92:232,1,200,4|0,0:0|0:0,0:0:0:0:
254,309,233915,2,0,B|314:317|330:365|330:365|314:317|358:269,1,200,4|0,0:0|0:0,0:0:0:0:
464,128,234324,1,2,0:0:0:0:
464,344,234460,1,0,0:0:0:0:
280,204,234596,6,0,B|288:144|336:128|336:128|288:144|240:100,1,200,4|0,0:0|0:0,0:0:0:0:
152,272,235006,2,0,B|144:332|96:348|96:348|144:332|192:376,1,200,4|0,0:0|0:0,0:0:0:0:
348,292,235415,1,2,0:0:0:0:
96,208,235551,1,0,0:0:0:0:
316,96,235687,6,0,L|416:132,1,100,4|0,0:0|0:0,0:0:0:0:
232,172,235960,2,0,L|132:136,1,100,2|0,0:0|0:0,0:0:0:0:
268,12,236233,1,2,0:0:0:0:
324,184,236369,1,0,0:0:0:0:
176,320,236506,2,0,P|152:276|156:224,1,100,2|0,0:0|0:0,0:0:0:0:
376,292,236778,5,2,0:0:0:0:
248,364,236915,1,0,0:0:0:0:
324,184,237051,1,2,0:0:0:0:
448,372,237187,1,0,0:0:0:0:
448,372,237256,1,0,0:0:0:0:
448,372,237324,2,0,P|472:336|472:264,1,100,2|0,0:0|0:0,0:0:0:0:
260,112,237596,2,0,P|236:148|236:220,1,100,2|0,0:0|0:0,0:0:0:0:
420,124,237869,5,6,0:0:0:0:
280,8,238006,1,0,0:0:0:0:
324,184,238142,2,0,L|436:216,1,100,2|0,0:0|0:0,0:0:0:0:
260,112,238415,2,0,L|148:144,1,100,2|0,0:0|0:0,0:0:0:0:
112,312,238687,1,2,0:0:0:0:
28,96,238824,1,0,0:0:0:0:
232,212,238960,6,0,P|248:268|236:308,1,100,2|0,0:0|0:0,0:0:0:0:
80,204,239233,1,2,0:0:0:0:
260,112,239369,1,0,0:0:0:0:
260,112,239437,1,0,0:0:0:0:
260,112,239506,2,0,L|364:128,1,100,2|0,0:0|0:0,0:0:0:0:
468,264,239778,2,0,L|364:280,1,100,2|0,0:0|0:0,0:0:0:0:
192,308,240051,5,6,0:0:0:0:
100,156,240187,1,0,0:0:0:0:
72,360,240324,1,2,0:0:0:0:
216,228,240460,1,0,0:0:0:0:
28,200,240596,2,2,P|16:144|40:96,1,100,2|0,0:0|0:0,0:0:0:0:
260,40,240869,2,0,P|272:96|248:144,1,100,2|0,0:0|0:0,0:0:0:0:
68,28,241142,5,2,0:0:0:0:
216,228,241278,1,0,0:0:0:0:
28,200,241415,1,2,0:0:0:0:
184,88,241551,1,0,0:0:0:0:
184,88,241619,1,0,0:0:0:0:
184,88,241687,2,0,L|80:120,1,100,2|0,0:0|0:0,0:0:0:0:
312,248,241960,2,0,L|407:218,1,100,2|0,0:0|0:0,0:0:0:0:
416,56,242233,6,2,B|379:71|373:116|385:119|385:119|382:98|355:92|355:92|330:98|324:119|324:119|336:116|330:71|294:56,1,250,2|0,0:0|0:0,0:0:0:0:
217,56,243051,2,2,B|181:71|175:116|187:119|187:119|181:98|156:92|156:92|129:98|126:119|126:119|138:116|132:71|96:56,1,250,2|0,0:0|0:0,0:0:0:0:
40,128,243869,2,2,B|24:180|52:232|116:240|116:240|120:216|120:216|132:228|156:232|156:232,1,200,2|4,0:0|0:0,0:0:0:0:
312,284,253142,6,0,L|420:272,1,100,4|0,0:0|0:0,0:0:0:0:
468,168,253687,1,2,0:0:0:0:
348,180,253960,1,0,0:0:0:0:
232,148,254233,6,0,L|252:44,1,100,2|0,0:0|0:0,0:0:0:0:
191,5,254642,1,0,0:0:0:0:
191,5,254710,1,0,0:0:0:0:
191,5,254778,2,0,P|151:-3|99:25,1,100,2|0,0:0|0:0,0:0:0:0:
140,137,255324,5,2,0:0:0:0:
28,93,255596,1,0,0:0:0:0:
66,216,255869,2,0,L|38:320,1,100,2|0,0:0|0:0,0:0:0:0:
158,288,256415,6,0,P|190:284|254:312,1,100,2|0,0:0|0:0,0:0:0:0:
319,355,256824,1,0,0:0:0:0:
319,355,256892,1,0,0:0:0:0:
319,355,256960,2,0,L|352:257,1,100,2|0,0:0|0:0,0:0:0:0:
394,147,257506,5,2,0:0:0:0:
294,83,257778,1,0,0:0:0:0:
238,187,258051,2,0,P|186:199|142:187,1,100,2|0,0:0|0:0,0:0:0:0:
62,97,258596,5,2,0:0:0:0:
10,205,258869,1,0,0:0:0:0:
69,269,259006,1,0,0:0:0:0:
69,269,259074,1,0,0:0:0:0:
69,269,259142,2,0,P|93:301|85:365,1,100,2|0,0:0|0:0,0:0:0:0:
196,344,259687,6,0,B|228:352|228:352|328:296|256:188|184:296|284:352|284:352|316:344,1,300,2|2,0:0|0:0,0:0:0:0:
336,192,260778,6,0,L|368:104,2,75,2|2|2,0:0|0:0|0:0,0:0:0:0:
264,128,261324,2,0,L|296:40,2,75,2|2|2,0:0|0:0|0:0,0:0:0:0:
124,84,261869,6,0,P|72:160|104:272,1,200,4|0,0:0|0:0,0:0:0:0:
264,128,262278,2,0,P|316:128|360:156,1,100,4|0,0:0|0:0,0:0:0:0:
408,324,262551,1,0,0:0:0:0:
280,264,262687,1,2,0:0:0:0:
452,204,262824,1,0,0:0:0:0:
304,360,262960,6,0,P|228:348|184:244,1,200,4|0,0:0|0:0,0:0:0:0:
284,92,263369,1,4,0:0:0:0:
336,220,263506,1,0,0:0:0:0:
176,140,263642,1,0,0:0:0:0:
380,48,263778,2,0,P|416:96|416:140,1,100,2|0,0:0|0:0,0:0:0:0:
280,280,264051,6,0,L|72:248,1,200,4|0,0:0|0:0,0:0:0:0:
12,84,264460,1,4,0:0:0:0:
208,168,264596,1,0,0:0:0:0:
83,250,264733,1,0,0:0:0:0:
120,28,264869,2,0,P|144:80|140:132,1,100,2|0,0:0|0:0,0:0:0:0:
68,280,265142,6,0,P|100:328|244:344,1,200,4|0,0:0|0:0,0:0:0:0:
348,212,265551,1,4,0:0:0:0:
420,376,265687,1,0,0:0:0:0:
308,300,265824,1,0,0:0:0:0:
496,224,265960,2,0,L|480:124,1,100,2|0,0:0|0:0,0:0:0:0:
328,28,266233,6,0,B|232:-16|232:72|136:32,1,200,4|0,0:0|0:0,0:0:0:0:
48,188,266642,1,4,0:0:0:0:
0,0,266778,1,0,0:0:0:0:
128,128,266915,1,0,0:0:0:0:
32,280,267051,2,0,P|24:328|44:376,1,100,2|0,0:0|0:0,0:0:0:0:
224,248,267324,6,0,P|312:244|396:320,1,200,4|0,0:0|0:0,0:0:0:0:
220,372,267733,1,4,0:0:0:0:
420,304,267869,1,0,0:0:0:0:
224,248,268006,1,0,0:0:0:0:
84,384,268142,2,0,P|32:372|-8:324,1,100,2|0,0:0|0:0,0:0:0:0:
136,184,268415,6,0,B|180:96|180:96|128:8,1,200,4|0,0:0|0:0,0:0:0:0:
296,80,268824,2,0,B|252:168|252:168|304:256,1,200,4|0,0:0|0:0,0:0:0:0:
432,384,269233,1,2,0:0:0:0:
500,220,269369,1,0,0:0:0:0:
248,344,269506,6,0,P|176:344|112:304,2,150,6|2|2,0:0|0:0|0:0,0:0:0:0:
376,104,270051,2,0,P|476:112|512:144,2,150,2|2|2,0:0|0:0|0:0,0:0:0:0:
248,344,270596,6,0,L|140:316,1,100,4|0,0:0|0:0,0:0:0:0:
56,164,270869,1,0,0:0:0:0:
8,340,271006,1,4,0:0:0:0:
232,252,271142,2,0,L|340:224,1,100
504,180,271415,1,2,0:0:0:0:
340,104,271551,1,0,0:0:0:0:
408,328,271687,6,0,P|344:348|304:344,1,100,4|0,0:0|0:0,0:0:0:0:
152,260,271960,1,0,0:0:0:0:
340,104,272096,2,0,L|330:214,1,100,4|0,0:0|0:0,0:0:0:0:
212,340,272369,1,0,0:0:0:0:
156,168,272506,1,2,0:0:0:0:
288,292,272642,1,0,0:0:0:0:
76,352,272778,6,0,P|52:304|56:252,1,100,4|0,0:0|0:0,0:0:0:0:
168,76,273051,1,0,0:0:0:0:
204,252,273187,1,4,0:0:0:0:
16,140,273324,2,0,L|124:160,1,100
292,192,273596,1,2,0:0:0:0:
240,20,273733,1,0,0:0:0:0:
192,248,273869,6,0,P|184:296|216:360,1,100,4|0,0:0|0:0,0:0:0:0:
380,368,274142,1,0,0:0:0:0:
504,240,274278,2,0,P|512:192|480:128,1,100,4|0,0:0|0:0,0:0:0:0:
312,116,274551,1,0,0:0:0:0:
192,248,274687,2,0,L|76:232,1,100,2|0,0:0|0:0,0:0:0:0:
28,36,274960,6,0,L|144:20,1,100,4|0,0:0|0:0,0:0:0:0:
292,100,275233,1,0,0:0:0:0:
140,196,275369,1,4,0:0:0:0:
304,272,275506,2,0,P|320:328|308:376,1,100
64,248,275778,2,0,P|48:192|60:144,1,100,2|0,0:0|0:0,0:0:0:0:
220,76,276051,5,4,0:0:0:0:
372,156,276187,1,0,0:0:0:0:
292,308,276324,1,0,0:0:0:0:
140,228,276460,1,4,0:0:0:0:
372,156,276596,2,0,L|480:184,1,100
168,332,276869,2,0,L|60:304,1,100,2|0,0:0|0:0,0:0:0:0:
36,136,277142,6,0,P|32:92|40:68,1,50,2|0,0:0|0:0,0:0:0:0:
276,114,277415,2,0,P|300:109|325:112,1,50
152,75,277687,2,0,P|165:55|184:38,1,50,2|0,0:0|0:0,0:0:0:0:
336,230,277960,2,0,P|369:258|381:280,1,50
97,251,278233,6,0,P|93:207|101:183,1,50,2|0,0:0|0:0,0:0:0:0:
336,230,278506,2,0,P|360:225|385:228,1,50
213,190,278778,2,0,P|226:170|245:153,1,50,2|0,0:0|0:0,0:0:0:0:
397,345,279051,2,0,P|430:373|442:395,1,50
256,376,279324,6,0,L|148:360,1,100,4|0,0:0|0:0,0:0:0:0:
40,236,279869,1,2,0:0:0:0:
0,340,280142,1,0,0:0:0:0:
156,256,280415,2,0,P|168:200|148:148,1,100,2|0,0:0|0:0,0:0:0:0:
101,94,280824,1,0,0:0:0:0:
101,94,280892,1,0,0:0:0:0:
101,94,280960,2,0,L|205:78,1,100,2|0,0:0|0:0,0:0:0:0:
424,68,281506,6,0,B|388:140|452:140|416:224,1,150,2|0,0:0|0:0,0:0:0:0:
356,268,282051,2,0,P|424:300|487:268,1,150,2|0,0:0|0:0,0:0:0:0:
496,248,282528,1,0,0:0:0:0:
496,248,282596,2,0,L|512:348,1,100,2|0,0:0|0:0,0:0:0:0:
356,268,283142,1,2,0:0:0:0:
428,52,283415,2,0,L|408:20,3,25,2|0|0|0,0:0|0:0|0:0|0:0,0:0:0:0:
396,8,283687,6,0,P|344:8|296:36,1,100,2|0,0:0|0:0,0:0:0:0:
264,144,284233,1,2,0:0:0:0:
348,228,284506,1,0,0:0:0:0:
308,340,284778,2,0,L|204:320,1,100,2|0,0:0|0:0,0:0:0:0:
134,361,285187,1,0,0:0:0:0:
134,361,285256,1,0,0:0:0:0:
134,361,285324,2,0,P|98:373|30:349,1,100,2|0,0:0|0:0,0:0:0:0:
16,168,285869,6,0,L|64:16,1,150,2|0,0:0|0:0,0:0:0:0:
132,96,286415,2,0,L|84:248,1,150,2|0,0:0|0:0,0:0:0:0:
72,276,286892,1,0,0:0:0:0:
72,276,286960,2,0,P|112:276|168:312,1,100,2|0,0:0|0:0,0:0:0:0:
0,372,287506,1,2,0:0:0:0:
52,184,287778,2,0,L|48:144,3,25,2|0|0|0,0:0|0:0|0:0|0:0,0:0:0:0:
48,144,288051,6,0,L|80:40,1,100,2|0,0:0|0:0,0:0:0:0:
192,12,288596,2,0,L|224:116,1,100,2|0,0:0|0:0,0:0:0:0:
300,200,289142,2,0,P|380:200|404:184,1,100,2|0,0:0|0:0,0:0:0:0:
456,132,289551,1,0,0:0:0:0:
456,132,289619,1,0,0:0:0:0:
456,132,289687,2,0,L|484:236,1,100,2|0,0:0|0:0,0:0:0:0:
380,320,290233,6,0,B|308:356|308:292|224:328,1,150,2|0,0:0|0:0,0:0:0:0:
174,263,290778,2,0,B|102:227|102:291|18:255,1,150,2|0,0:0|0:0,0:0:0:0:
8,220,291256,1,0,0:0:0:0:
8,220,291324,2,0,L|32:120,1,100,2|0,0:0|0:0,0:0:0:0:
184,48,291869,1,2,0:0:0:0:
208,216,292142,2,0,L|214:251,3,25
220,284,292415,5,2,0:0:0:0:
384,192,292551,1,2,0:0:0:0:
280,152,292687,1,2,0:0:0:0:
312,328,292824,1,0,0:0:0:0:
136,240,292960,1,2,0:0:0:0:
264,160,293096,1,0,0:0:0:0:
200,320,293233,2,0,P|172:336|148:340,1,50,2|0,0:0|0:0,0:0:0:0:
16,264,293506,5,2,0:0:0:0:
16,264,293574,1,0,0:0:0:0:
16,264,293642,1,0,0:0:0:0:
120,164,293778,2,0,L|112:96,1,50
248,16,294051,1,2,0:0:0:0:
288,184,294187,1,0,0:0:0:0:
322,44,294324,1,2,0:0:0:0:
282,212,294460,1,0,0:0:0:0:
476,136,294596,5,8,0:0:0:0:
476,136,294733,1,8,0:0:0:0:
424,248,294869,2,0,L|440:308,1,50,2|0,0:0|0:0,0:0:0:0:
332,368,295142,2,0,L|311:290,1,75,2|0,0:0|0:0,0:0:0:0:
300,264,295415,2,0,L|284:324,1,50,2|0,0:0|0:0,0:0:0:0:
152,352,295687,5,2,0:0:0:0:
196,248,295824,1,0,0:0:0:0:
20,192,295960,1,2,0:0:0:0:
64,296,296097,1,2,0:0:0:0:
116,104,296233,1,2,0:0:0:0:
216,288,296369,1,0,0:0:0:0:
256,276,296437,1,0,0:0:0:0:
296,264,296506,1,10,0:0:0:0:
484,204,296642,1,10,0:0:0:0:
372,0,296778,6,0,L|344:108,1,100,4|0,0:0|0:0,0:0:0:0:
296,264,297051,1,0,0:0:0:0:
484,204,297187,1,4,0:0:0:0:
328,360,297324,2,0,P|284:368|224:336,1,100
160,184,297596,1,2,0:0:0:0:
296,264,297733,1,0,0:0:0:0:
256,40,297869,6,0,L|360:8,1,100,4|0,0:0|0:0,0:0:0:0:
504,160,298142,1,0,0:0:0:0:
316,128,298278,1,4,0:0:0:0:
316,128,298346,1,0,0:0:0:0:
316,128,298415,2,0,P|312:184|328:236,1,100
512,258,298687,2,0,P|516:202|500:150,1,100,2|0,0:0|0:0,0:0:0:0:
351,10,298960,5,4,0:0:0:0:
292,180,299096,1,0,0:0:0:0:
136,88,299233,1,0,0:0:0:0:
304,28,299369,1,4,0:0:0:0:
372,196,299506,2,0,P|372:248|356:300,1,100
96,352,299778,2,0,P|96:300|112:248,1,100,2|0,0:0|0:0,0:0:0:0:
284,148,300051,5,4,0:0:0:0:
112,96,300187,1,0,0:0:0:0:
200,248,300324,1,0,0:0:0:0:
372,196,300460,1,4,0:0:0:0:
228,32,300596,2,0,L|196:132,1,100
320,368,300869,1,2,0:0:0:0:
320,368,300937,1,0,0:0:0:0:
320,368,301006,1,0,0:0:0:0:
448,172,301142,6,0,P|416:128|360:116,1,100,4|0,0:0|0:0,0:0:0:0:
192,260,301415,1,0,0:0:0:0:
336,376,301551,2,0,L|324:264,1,100,4|0,0:0|0:0,0:0:0:0:
208,104,301824,1,0,0:0:0:0:
32,196,301960,2,0,L|44:308,1,100,2|0,0:0|0:0,0:0:0:0:
208,104,302233,6,0,P|208:56|179:-2,1,100,4|0,0:0|0:0,0:0:0:0:
28,96,302506,1,0,0:0:0:0:
156,220,302642,1,4,0:0:0:0:
156,220,302710,1,0,0:0:0:0:
156,220,302778,2,0,L|264:196,1,100
424,336,303051,2,0,L|316:360,1,100,2|0,0:0|0:0,0:0:0:0:
156,220,303324,5,4,0:0:0:0:
276,88,303460,1,0,0:0:0:0:
256,265,303596,1,0,0:0:0:0:
148,80,303733,1,4,0:0:0:0:
360,28,303869,2,0,P|378:87|368:128,1,100
166,315,304142,2,0,P|148:256|158:215,1,100,2|0,0:0|0:0,0:0:0:0:
356,224,304415,6,0,L|516:264,2,150,4|2|2,0:0|0:0|0:0,0:0:0:0:
196,108,304960,2,0,L|36:148,2,150,2|2|2,0:0|0:0|0:0,0:0:0:0:
384,56,305506,5,4,0:0:0:0:
284,208,305642,1,0,0:0:0:0:
456,156,305778,1,0,0:0:0:0:
256,216,305915,1,4,0:0:0:0:
356,368,306051,1,0,0:0:0:0:
184,316,306187,1,0,0:0:0:0:
288,128,306324,2,0,L|248:24,1,100,2|0,0:0|0:0,0:0:0:0:
48,12,306596,5,4,0:0:0:0:
92,188,306733,1,0,0:0:0:0:
184,56,306869,1,0,0:0:0:0:
8,152,307006,1,4,0:0:0:0:
8,152,307074,1,0,0:0:0:0:
8,152,307142,2,0,P|0:208|24:252,1,100
284,188,307415,2,0,P|292:132|268:88,1,100,2|0,0:0|0:0,0:0:0:0:
176,332,307687,6,0,L|284:360,1,100,4|0,0:0|0:0,0:0:0:0:
436,276,307960,1,0,0:0:0:0:
244,168,308096,1,4,0:0:0:0:
273,357,308233,2,0,P|305:317|317:265,1,100
168,80,308506,2,0,P|136:120|124:172,1,100,2|0,0:0|0:0,0:0:0:0:
344,116,308778,5,4,0:0:0:0:
168,80,308915,1,0,0:0:0:0:
336,12,309051,1,0,0:0:0:0:
388,184,309187,1,4,0:0:0:0:
168,80,309324,2,0,L|72:36,1,100
0,280,309596,2,0,L|96:236,1,100,2|0,0:0|0:0,0:0:0:0:
312,148,309869,5,4,0:0:0:0:
224,368,310006,1,0,0:0:0:0:
156,208,310142,1,2,0:0:0:0:
348,276,310278,1,4,0:0:0:0:
284,52,310415,1,0,0:0:0:0:
240,248,310551,1,0,0:0:0:0:
436,292,310687,1,2,0:0:0:0:
480,96,310824,1,0,0:0:0:0:
240,248,310960,5,4,0:0:0:0:
216,252,311028,1,0,0:0:0:0:
192,248,311096,1,0,0:0:0:0:
20,148,311233,1,2,0:0:0:0:
72,308,311369,1,4,0:0:0:0:
176,120,311506,2,0,P|184:64|168:16,1,100,2|0,0:0|0:0,0:0:0:0:
240,248,311778,2,0,P|232:304|248:352,1,100,2|0,0:0|0:0,0:0:0:0:
460,376,312051,5,2,0:0:0:0:
432,212,312187,1,0,0:0:0:0:
328,328,312324,2,0,L|396:312,1,50,2|0,0:0|0:0,0:0:0:0:
448,300,312869,1,8,0:0:0:0:
296,64,313142,5,2,0:0:0:0:
324,228,313278,1,0,0:0:0:0:
428,112,313415,2,0,L|360:128,1,50,2|0,0:0|0:0,0:0:0:0:
308,140,313960,1,8,0:0:0:0:
308,140,314233,5,4,0:0:0:0:
156,160,320778,6,0,L|136:56,1,100,2|0,0:0|0:0,0:0:0:0:
312,184,321324,2,0,L|292:80,1,100,2|0,0:0|0:0,0:0:0:0:
156,160,321869,1,2,0:0:0:0:
137,61,322006,1,2,0:0:0:0:
164,196,322142,2,0,L|176:258,1,50,2|2,0:0|0:0,0:0:0:0:
176,264,322346,1,0,0:0:0:0:
180,284,322415,1,2,0:0:0:0:
184,304,322483,1,0,0:0:0:0:
188,324,322551,1,2,0:0:0:0:
192,344,322619,1,0,0:0:0:0:
196,364,322687,2,0,P|232:376|260:376,1,50,2|2,0:0|0:0,0:0:0:0:
400,328,322960,5,4,0:0:0:0:
352,104,330596,6,0,L|468:120,1,100,2|0,0:0|0:0,0:0:0:0:
308,248,330869,1,2,0:0:0:0:
308,248,330937,1,0,0:0:0:0:
308,248,331006,1,2,0:0:0:0:
208,32,331142,2,0,L|92:48,1,100,2|0,0:0|0:0,0:0:0:0:
28,256,331415,2,0,L|144:272,1,100,2|0,0:0|0:0,0:0:0:0:
420,300,331687,6,0,P|432:240|420:196,1,100,4|0,0:0|0:0,0:0:0:0:
320,40,331960,1,2,0:0:0:0:
264,240,332096,1,2,0:0:0:0:
264,240,332165,1,0,0:0:0:0:
264,240,332233,2,0,P|252:300|264:344,1,100,2|0,0:0|0:0,0:0:0:0:
480,384,332506,1,2,0:0:0:0:
336,288,332642,1,0,0:0:0:0:
168,372,332778,5,4,0:0:0:0:
132,352,332846,1,0,0:0:0:0:
112,316,332915,1,2,0:0:0:0:
108,276,332983,1,0,0:0:0:0:
120,236,333051,1,0,0:0:0:0:
312,160,333187,1,2,0:0:0:0:
352,172,333255,1,0,0:0:0:0:
392,168,333323,1,2,0:0:0:0:
428,148,333392,1,0,0:0:0:0:
448,112,333460,1,0,0:0:0:0:
256,12,333596,1,2,0:0:0:0:
324,260,333733,1,0,0:0:0:0:
64,152,333869,6,0,L|180:128,1,100,4|0,0:0|0:0,0:0:0:0:
367,92,334142,1,2,0:0:0:0:
232,260,334278,1,2,0:0:0:0:
232,260,334346,1,0,0:0:0:0:
232,260,334415,2,0,P|244:314|280:352,1,100,2|0,0:0|0:0,0:0:0:0:
508,372,334687,1,2,0:0:0:0:
392,208,334824,1,0,0:0:0:0:
168,336,334960,5,4,0:0:0:0:
128,324,335028,1,0,0:0:0:0:
88,312,335096,1,2,0:0:0:0:
48,300,335165,1,0,0:0:0:0:
8,288,335233,1,2,0:0:0:0:
148,132,335369,1,2,0:0:0:0:
188,144,335437,1,0,0:0:0:0:
228,156,335505,1,2,0:0:0:0:
268,168,335574,1,0,0:0:0:0:
308,180,335642,1,0,0:0:0:0:
392,376,335778,1,2,0:0:0:0:
488,244,335915,1,0,0:0:0:0:
272,328,336051,6,0,L|164:288,1,100,4|0,0:0|0:0,0:0:0:0:
0,224,336324,1,2,0:0:0:0:
108,48,336460,1,2,0:0:0:0:
108,48,336528,1,0,0:0:0:0:
108,48,336596,2,0,P|132:100|124:148,1,100,2|0,0:0|0:0,0:0:0:0:
44,328,336869,1,2,0:0:0:0:
120,160,337006,1,0,0:0:0:0:
296,244,337142,5,4,0:0:0:0:
336,252,337210,1,0,0:0:0:0:
376,252,337278,1,2,0:0:0:0:
412,236,337346,1,0,0:0:0:0:
440,208,337415,1,2,0:0:0:0:
384,8,337551,1,2,0:0:0:0:
344,0,337619,1,0,0:0:0:0:
304,0,337687,1,2,0:0:0:0:
268,16,337755,1,0,0:0:0:0:
240,44,337824,1,0,0:0:0:0:
164,244,337960,1,2,0:0:0:0:
28,78,338096,1,0,0:0:0:0:
252,168,338233,6,0,L|364:140,1,100,4|0,0:0|0:0,0:0:0:0:
472,16,338506,1,2,0:0:0:0:
488,228,338642,1,2,0:0:0:0:
488,228,338710,1,0,0:0:0:0:
488,228,338778,2,0,P|488:288|472:324,1,100,2|0,0:0|0:0,0:0:0:0:
204,268,339051,2,0,P|204:208|220:172,1,100,2|0,0:0|0:0,0:0:0:0:
432,24,339324,6,0,L|508:164,2,150,4|2|2,0:0|0:0|0:0,0:0:0:0:
220,172,339869,2,0,L|144:32,2,150,2|2|2,0:0|0:0|0:0,0:0:0:0:
336,376,340415,5,4,0:0:0:0:
388,208,340551,1,0,0:0:0:0:
224,272,340687,1,2,0:0:0:0:
456,324,340824,1,2,0:0:0:0:
456,324,340892,1,0,0:0:0:0:
456,324,340960,2,0,L|400:228,1,100,2|0,0:0|0:0,0:0:0:0:
280,56,341233,1,2,0:0:0:0:
460,112,341369,1,0,0:0:0:0:
232,220,341506,5,4,0:0:0:0:
192,224,341574,1,0,0:0:0:0:
152,216,341642,1,2,0:0:0:0:
120,196,341710,1,0,0:0:0:0:
96,164,341778,1,2,0:0:0:0:
312,8,341915,1,2,0:0:0:0:
324,48,341983,1,0,0:0:0:0:
336,88,342051,1,2,0:0:0:0:
348,128,342119,1,0,0:0:0:0:
360,168,342187,1,0,0:0:0:0:
272,344,342324,1,2,0:0:0:0:
188,128,342460,1,0,0:0:0:0:
420,248,342596,6,0,L|480:236,2,50,4|0|0,0:0|0:0|0:0,0:0:0:0:
208,288,342869,1,2,0:0:0:0:
336,88,343006,2,0,L|324:28,2,50,2|0|2,0:0|0:0|0:0,0:0:0:0:
380,320,343279,1,0,0:0:0:0:
128,272,343415,2,0,P|72:272|32:296,1,100,2|0,0:0|0:0,0:0:0:0:
196,184,343687,5,4,0:0:0:0:
204,144,343756,1,0,0:0:0:0:
196,104,343824,1,2,0:0:0:0:
172,72,343892,1,0,0:0:0:0:
136,52,343960,1,2,0:0:0:0:
35,293,344096,1,2,0:0:0:0:
55,329,344164,1,0,0:0:0:0:
87,353,344232,1,2,0:0:0:0:
127,361,344300,1,0,0:0:0:0:
167,353,344369,1,0,0:0:0:0:
392,268,344506,1,2,0:0:0:0:
196,184,344642,1,0,0:0:0:0:
456,68,344778,6,0,L|424:168,1,100,4|0,0:0|0:0,0:0:0:0:
284,304,345051,1,2,0:0:0:0:
256,104,345187,1,2,0:0:0:0:
256,104,345256,1,0,0:0:0:0:
256,104,345324,2,0,L|288:4,1,100,2|0,0:0|0:0,0:0:0:0:
320,208,345596,1,2,0:0:0:0:
144,100,345733,1,0,0:0:0:0:
56,320,345869,5,4,0:0:0:0:
96,332,345937,1,0,0:0:0:0:
136,328,346006,1,2,0:0:0:0:
172,312,346074,1,0,0:0:0:0:
196,280,346142,1,2,0:0:0:0:
268,72,346278,1,2,0:0:0:0:
292,40,346346,1,0,0:0:0:0:
328,24,346414,1,2,0:0:0:0:
368,20,346483,1,0,0:0:0:0:
408,32,346551,1,0,0:0:0:0:
480,268,346687,1,2,0:0:0:0:
360,124,346824,1,0,0:0:0:0:
256,344,346960,6,0,B|215:344|190:323|190:323|129:344|129:344|104:323|69:323,1,200,4|0,0:0|0:0,0:0:0:0:
256,344,348051,6,0,B|215:344|190:323|190:323|129:344|129:344|104:323|69:323,1,200,4|0,0:0|0:0,0:0:0:0:
84,60,349142,6,0,L|196:76,1,100,4|0,0:0|0:0,0:0:0:0:
416,104,349415,1,2,0:0:0:0:
416,104,349483,1,0,0:0:0:0:
416,104,349551,1,2,0:0:0:0:
176,180,349687,1,2,0:0:0:0:
296,0,349824,1,0,0:0:0:0:
336,264,349960,2,0,L|352:372,1,100,2|0,0:0|0:0,0:0:0:0:
176,180,350233,5,4,0:0:0:0:
136,208,350301,1,0,0:0:0:0:
112,252,350369,1,2,0:0:0:0:
108,300,350437,1,0,0:0:0:0:
124,348,350506,1,2,0:0:0:0:
340,140,350642,1,2,0:0:0:0:
296,116,350710,1,0,0:0:0:0:
252,92,350778,1,2,0:0:0:0:
208,68,350846,1,0,0:0:0:0:
164,44,350915,1,0,0:0:0:0:
0,202,351051,1,2,0:0:0:0:
168,48,351187,1,0,0:0:0:0:
252,288,351324,6,0,P|248:336|228:388,1,100,4|0,0:0|0:0,0:0:0:0:
28,292,351596,1,2,0:0:0:0:
28,292,351665,1,0,0:0:0:0:
28,292,351733,1,2,0:0:0:0:
208,128,351869,1,2,0:0:0:0:
208,128,351937,1,0,0:0:0:0:
208,128,352006,1,0,0:0:0:0:
336,332,352142,2,0,L|448:312,1,100,2|0,0:0|0:0,0:0:0:0:
496,116,352415,5,4,0:0:0:0:
476,76,352483,1,0,0:0:0:0:
436,56,352551,1,2,0:0:0:0:
392,48,352619,1,0,0:0:0:0:
348,60,352687,1,2,0:0:0:0:
184,192,352824,1,2,0:0:0:0:
140,204,352892,1,0,0:0:0:0:
96,196,352960,1,2,0:0:0:0:
56,176,353028,1,0,0:0:0:0:
36,136,353096,1,0,0:0:0:0:
212,20,353233,1,2,0:0:0:0:
308,232,353369,1,0,0:0:0:0:
56,176,353506,6,0,L|24:280,1,100,4|0,0:0|0:0,0:0:0:0:
204,364,353778,1,2,0:0:0:0:
204,364,353846,1,0,0:0:0:0:
204,364,353915,1,2,0:0:0:0:
180,136,354051,1,2,0:0:0:0:
180,136,354119,1,0,0:0:0:0:
180,136,354188,1,0,0:0:0:0:
352,264,354324,2,0,P|416:272|464:256,1,100,2|0,0:0|0:0,0:0:0:0:
484,32,354596,5,4,0:0:0:0:
440,20,354665,1,0,0:0:0:0:
396,20,354733,1,2,0:0:0:0:
356,40,354801,1,0,0:0:0:0:
328,76,354869,1,2,0:0:0:0:
352,264,355006,1,2,0:0:0:0:
396,276,355075,1,0,0:0:0:0:
440,276,355143,1,2,0:0:0:0:
480,256,355211,1,0,0:0:0:0:
508,220,355279,1,0,0:0:0:0:
272,152,355415,2,0,L|176:180,1,100,2|0,0:0|0:0,0:0:0:0:
12,32,355687,6,0,L|108:60,1,100,4|0,0:0|0:0,0:0:0:0:
320,16,355960,1,2,0:0:0:0:
128,56,356096,1,0,0:0:0:0:
348,164,356233,2,0,L|252:192,1,100,2|0,0:0|0:0,0:0:0:0:
40,148,356506,1,2,0:0:0:0:
232,188,356642,1,0,0:0:0:0:
48,316,356778,5,6,0:0:0:0:
152,96,356915,1,2,0:0:0:0:
212,368,357051,1,2,0:0:0:0:
324,156,357187,1,2,0:0:0:0:
348,196,357256,1,0,0:0:0:0:
372,236,357324,1,2,0:0:0:0:
396,276,357392,1,0,0:0:0:0:
420,316,357460,2,0,P|448:328|476:328,1,50,2|0,0:0|0:0,0:0:0:0:
500,216,357596,2,0,P|472:204|444:204,1,50,2|0,0:0|0:0,0:0:0:0:
344,256,357733,1,2,0:0:0:0:
256,68,357869,6,0,L|352:12,1,100,4|0,0:0|0:0,0:0:0:0:
500,216,358142,1,2,0:0:0:0:
184,152,358278,1,2,0:0:0:0:
376,0,358415,1,2,0:0:0:0:
376,0,358483,1,0,0:0:0:0:
376,0,358551,1,0,0:0:0:0:
500,216,358687,2,0,P|498:265|479:311,1,100,2|0,0:0|0:0,0:0:0:0:
236,224,358960,5,4,0:0:0:0:
193,210,359028,1,0,0:0:0:0:
148,213,359096,1,2,0:0:0:0:
110,238,359165,1,0,0:0:0:0:
85,277,359233,1,2,0:0:0:0:
292,332,359369,1,2,0:0:0:0:
331,307,359437,1,0,0:0:0:0:
356,269,359506,1,2,0:0:0:0:
359,224,359574,1,0,0:0:0:0:
345,181,359642,1,0,0:0:0:0:
184,20,359778,2,0,L|148:128,1,100,2|0,0:0|0:0,0:0:0:0:
85,277,360051,5,4,0:0:0:0:
36,80,360187,1,0,0:0:0:0:
224,168,360324,1,2,0:0:0:0:
128,352,360460,1,2,0:0:0:0:
68,116,360596,1,2,0:0:0:0:
68,116,360664,1,0,0:0:0:0:
68,116,360732,1,0,0:0:0:0:
260,8,360869,2,0,L|380:28,1,100,2|0,0:0|0:0,0:0:0:0:
504,176,361142,5,4,0:0:0:0:
484,216,361210,1,0,0:0:0:0:
448,240,361278,1,2,0:0:0:0:
404,248,361346,1,0,0:0:0:0:
360,240,361415,1,2,0:0:0:0:
152,144,361551,1,2,0:0:0:0:
108,136,361620,1,0,0:0:0:0:
64,144,361688,1,2,0:0:0:0:
28,168,361756,1,0,0:0:0:0:
8,208,361824,1,0,0:0:0:0:
192,364,361960,2,0,L|216:260,1,100,2|0,0:0|0:0,0:0:0:0:
481,78,362233,6,0,L|505:182,1,100,4|0,0:0|0:0,0:0:0:0:
336,336,362506,1,2,0:0:0:0:
128,236,362642,1,2,0:0:0:0:
304,88,362778,1,2,0:0:0:0:
304,88,362846,1,0,0:0:0:0:
304,88,362915,1,0,0:0:0:0:
96,0,363051,2,0,P|36:4|-8:24,1,100,2|0,0:0|0:0,0:0:0:0:
8,276,363324,5,4,0:0:0:0:
52,288,363392,1,0,0:0:0:0:
96,280,363460,1,2,0:0:0:0:
132,256,363528,1,0,0:0:0:0:
152,216,363596,1,2,0:0:0:0:
260,32,363733,1,2,0:0:0:0:
304,20,363801,1,0,0:0:0:0:
348,28,363869,1,2,0:0:0:0:
384,52,363937,1,0,0:0:0:0:
404,92,364005,1,0,0:0:0:0:
340,308,364142,1,2,0:0:0:0:
268,156,364278,1,0,0:0:0:0:
512,240,364415,6,0,B|512:199|491:174|491:174|512:113|512:113|491:88|491:53,1,200,4|0,0:0|0:0,0:0:0:0:
512,240,365506,6,0,B|512:199|491:174|491:174|512:113|512:113|491:88|491:53,1,200,4|0,0:0|0:0,0:0:0:0:
256,192,366596,5,4,0:0:0:0:
88,304,375324,6,0,L|192:288,1,100,2|0,0:0|0:0,0:0:0:0:
272,204,375869,1,2,0:0:0:0:
308,320,376142,1,0,0:0:0:0:
396,240,376415,2,0,P|400:196|388:140,1,100,2|0,0:0|0:0,0:0:0:0:
321,103,376824,1,0,0:0:0:0:
321,103,376892,1,0,0:0:0:0:
321,103,376960,2,0,P|317:59|329:3,1,100,2|0,0:0|0:0,0:0:0:0:
288,208,377506,6,0,L|124:184,1,150,2|0,0:0|0:0,0:0:0:0:
56,176,378051,2,0,P|36:248|84:328,1,150,2|0,0:0|0:0,0:0:0:0:
84,336,378528,1,0,0:0:0:0:
84,336,378596,2,0,L|196:320,1,100,2|0,0:0|0:0,0:0:0:0:
304,308,379142,1,2,0:0:0:0:
416,348,379415,2,0,L|456:340,3,25,2|0|0|0,0:0|0:0|0:0|0:0,0:0:0:0:
468,336,379687,6,0,P|480:308|460:236,1,100,2|0,0:0|0:0,0:0:0:0:
368,168,380233,1,2,0:0:0:0:
412,56,380506,1,0,0:0:0:0:
360,188,380778,1,2,0:0:0:0:
244,160,381051,1,0,0:0:0:0:
244,160,381187,1,0,0:0:0:0:
244,160,381256,1,0,0:0:0:0:
244,160,381324,2,0,P|248:209|228:254,1,100,2|0,0:0|0:0,0:0:0:0:
104,360,381869,6,0,P|80:312|104:216,1,150,2|0,0:0|0:0,0:0:0:0:
168,196,382415,2,0,L|16:168,1,150,2|0,0:0|0:0,0:0:0:0:
8,144,382892,1,0,0:0:0:0:
20,116,382960,2,0,P|32:80|20:20,2,100,2|0|2,0:0|0:0|0:0,0:0:0:0:
48,308,383778,1,2,0:0:0:0:
76,304,383846,1,0,0:0:0:0:
104,300,383915,1,0,0:0:0:0:
132,296,383983,1,0,0:0:0:0:
160,292,384051,5,2,0:0:0:0:
316,372,384324,2,0,P|336:316|332:284,1,66.6666666666667,2|0,0:0|0:0,0:0:0:0:
316,276,384596,1,2,0:0:0:0:
168,60,384869,1,2,0:0:0:0:
464,44,385415,5,2,0:0:0:0:
144,176,385687,1,2,0:0:0:0:
144,176,386233,5,4,0:0:0:0:
324,248,386369,1,2,0:0:0:0:
324,248,386437,1,0,0:0:0:0:
324,248,386506,1,2,0:0:0:0:
236,68,386642,1,0,0:0:0:0:
324,248,386778,2,0,P|340:312|332:352,1,100,2|0,0:0|0:0,0:0:0:0:
240,168,387051,1,8,0:0:0:0:
436,216,387187,1,0,0:0:0:0:
204,328,387324,5,2,0:0:0:0:
160,316,387392,1,0,0:0:0:0:
116,304,387460,1,2,0:0:0:0:
48,116,387596,1,2,0:0:0:0:
304,236,387733,1,0,0:0:0:0:
236,48,387869,2,0,P|216:104|220:152,1,100,2|0,0:0|0:0,0:0:0:0:
436,216,388142,1,8,0:0:0:0:
280,280,388278,1,0,0:0:0:0:
400,52,388415,5,4,0:0:0:0:
444,248,388551,1,2,0:0:0:0:
444,248,388619,1,0,0:0:0:0:
444,248,388687,1,2,0:0:0:0:
256,180,388824,1,0,0:0:0:0:
68,244,388960,2,0,P|40:296|36:360,1,100,2|0,0:0|0:0,0:0:0:0:
280,280,389233,1,8,0:0:0:0:
68,244,389369,1,0,0:0:0:0:
200,76,389506,5,2,0:0:0:0:
208,124,389574,1,0,0:0:0:0:
216,172,389642,1,2,0:0:0:0:
256,384,389778,1,2,0:0:0:0:
408,252,389915,1,0,0:0:0:0:
144,304,390051,2,0,L|20:276,1,100,2|0,0:0|0:0,0:0:0:0:
408,252,390324,2,0,L|532:280,1,100,8|0,0:0|0:0,0:0:0:0:
360,80,390596,5,4,0:0:0:0:
280,316,390733,1,2,0:0:0:0:
280,316,390801,1,0,0:0:0:0:
280,316,390869,1,2,0:0:0:0:
204,132,391006,1,0,0:0:0:0:
436,172,391142,2,0,P|480:128|488:84,1,100,2|0,0:0|0:0,0:0:0:0:
204,132,391415,1,8,0:0:0:0:
356,260,391551,1,0,0:0:0:0:
300,28,391687,5,2,0:0:0:0:
300,28,391756,1,0,0:0:0:0:
300,28,391824,1,2,0:0:0:0:
232,216,391960,1,2,0:0:0:0:
300,28,392096,1,0,0:0:0:0:
108,84,392233,1,2,0:0:0:0:
232,216,392369,1,0,0:0:0:0:
424,160,392506,2,0,P|436:112|420:56,1,100,8|0,0:0|0:0,0:0:0:0:
340,244,392778,5,4,0:0:0:0:
481,359,392915,1,2,0:0:0:0:
481,359,392983,1,0,0:0:0:0:
481,359,393051,1,2,0:0:0:0:
424,160,393187,1,0,0:0:0:0:
280,308,393324,2,0,P|232:320|176:308,1,100,2|0,0:0|0:0,0:0:0:0:
116,124,393596,2,0,P|164:112|220:124,1,100,8|0,0:0|0:0,0:0:0:0:
280,308,393869,5,2,0:0:0:0:
268,336,393937,1,0,0:0:0:0:
256,364,394006,1,2,0:0:0:0:
213,121,394142,1,0,0:0:0:0:
456,76,394278,1,0,0:0:0:0:
213,121,394415,2,0,L|105:97,1,100,2|0,0:0|0:0,0:0:0:0:
24,332,394687,2,0,P|60:372|84:300,1,150,8|0,0:0|0:0,0:0:0:0:
36,252,394960,5,4,0:0:0:0:
216,336,395096,1,2,0:0:0:0:
216,336,395165,1,0,0:0:0:0:
216,336,395233,1,2,0:0:0:0:
108,132,395369,1,0,0:0:0:0:
216,336,395506,2,0,P|276:352|328:336,1,100,2|0,0:0|0:0,0:0:0:0:
484,244,395778,1,8,0:0:0:0:
260,180,395915,1,0,0:0:0:0:
436,368,396051,5,2,0:0:0:0:
436,368,396119,1,0,0:0:0:0:
436,368,396187,1,2,0:0:0:0:
480,92,396324,1,2,0:0:0:0:
218,191,396460,1,0,0:0:0:0:
436,368,396596,2,0,P|456:304|444:256,1,100,2|0,0:0|0:0,0:0:0:0:
233,96,396869,2,0,P|213:160|225:208,1,100,8|0,0:0|0:0,0:0:0:0:
288,380,397142,5,4,0:0:0:0:
56,304,397278,1,2,0:0:0:0:
56,304,397346,1,0,0:0:0:0:
56,304,397415,1,2,0:0:0:0:
218,191,397551,1,0,0:0:0:0:
288,380,397687,2,0,P|344:384|388:368,1,100,2|0,0:0|0:0,0:0:0:0:
496,172,397960,1,8,0:0:0:0:
384,369,398096,1,0,0:0:0:0:
316,84,398233,5,2,0:0:0:0:
316,84,398301,1,0,0:0:0:0:
316,84,398369,1,2,0:0:0:0:
512,48,398506,1,2,0:0:0:0:
396,212,398642,1,0,0:0:0:0:
200,172,398778,2,0,L|92:196,1,100,2|0,0:0|0:0,0:0:0:0:
368,328,399051,2,0,L|476:304,1,100,8|0,0:0|0:0,0:0:0:0:
512,48,399324,5,4,0:0:0:0:
396,212,399460,1,2,0:0:0:0:
396,212,399528,1,0,0:0:0:0:
396,212,399596,1,2,0:0:0:0:
228,104,399733,1,0,0:0:0:0:
512,48,399869,2,0,P|476:84|420:96,1,100,2|0,0:0|0:0,0:0:0:0:
168,28,400142,1,8,0:0:0:0:
284,228,400278,1,0,0:0:0:0:
420,0,400415,5,2,0:0:0:0:
420,0,400483,1,0,0:0:0:0:
420,0,400551,1,2,0:0:0:0:
168,28,400687,1,2,0:0:0:0:
196,280,400824,1,0,0:0:0:0:
448,252,400960,2,0,P|472:208|472:152,1,100,2|0,0:0|0:0,0:0:0:0:
240,60,401233,1,8,0:0:0:0:
308,248,401369,1,0,0:0:0:0:
420,0,401506,5,4,0:0:0:0:
448,252,401642,1,2,0:0:0:0:
448,252,401710,1,0,0:0:0:0:
448,252,401778,1,2,0:0:0:0:
340,80,401915,1,0,0:0:0:0:
468,288,402051,2,0,P|480:328|472:384,1,100,2|0,0:0|0:0,0:0:0:0:
232,352,402324,1,8,0:0:0:0:
468,288,402460,1,0,0:0:0:0:
164,192,402596,5,2,0:0:0:0:
112,184,402665,1,0,0:0:0:0:
64,192,402733,1,2,0:0:0:0:
232,352,402869,1,0,0:0:0:0:
312,120,403006,1,0,0:0:0:0:
96,336,403142,1,2,0:0:0:0:
416,336,403278,1,0,0:0:0:0:
200,120,403415,2,0,P|192:64|204:12,1,100,8|0,0:0|0:0,0:0:0:0:
500,4,403687,5,4,0:0:0:0:
256,192,412415,5,0,0:0:0:0:
132,246,412551,1,0,0:0:0:0:
168,84,412687,1,8,0:0:0:0:
48,136,412824,1,0,0:0:0:0:
44,152,412892,1,0,0:0:0:0:
40,168,412960,1,0,0:0:0:0:
36,184,413028,1,0,0:0:0:0:
32,200,413096,1,0,0:0:0:0:
3,332,413233,1,8,0:0:0:0:
152,356,413369,2,0,L|204:348,1,37.5000014305115
260,336,413506,5,0,0:0:0:0:
144,268,413642,1,0,0:0:0:0:
272,344,413778,1,8,0:0:0:0:
344,216,413915,1,0,0:0:0:0:
340,200,413983,1,0,0:0:0:0:
336,184,414051,1,0,0:0:0:0:
332,168,414119,1,0,0:0:0:0:
328,152,414187,1,0,0:0:0:0:
296,20,414324,1,8,0:0:0:0:
424,64,414460,2,0,L|436:112,1,37.5000014305115
452,172,414596,5,0,0:0:0:0:
328,152,414733,1,0,0:0:0:0:
472,176,414869,1,8,0:0:0:0:
384,276,415006,1,0,0:0:0:0:
384,276,415074,1,0,0:0:0:0:
384,276,415142,2,0,L|424:280,2,37.5000014305115
248,328,415415,2,0,L|168:320,1,75.0000028610231,8|0,0:0|0:0,0:0:0:0:
32,208,415687,5,0,0:0:0:0:
32,208,415756,1,0,0:0:0:0:
32,208,415824,1,0,0:0:0:0:
152,144,415960,1,8,0:0:0:0:
68,40,416096,1,0,0:0:0:0:
68,40,416165,1,0,0:0:0:0:
68,40,416233,1,0,0:0:0:0:
68,40,416301,1,0,0:0:0:0:
68,40,416369,1,0,0:0:0:0:
124,248,416506,1,8,0:0:0:0:
276,95,416642,1,0,0:0:0:0:
68,40,416778,6,0,P|56:88|64:128,1,75.0000028610231
124,248,417051,1,8,0:0:0:0:
260,176,417187,1,0,0:0:0:0:
260,176,417256,1,0,0:0:0:0:
260,176,417324,2,0,L|344:184,1,75.0000028610231
388,332,417596,2,0,L|313:339,1,75.0000028610231,8|0,0:0|0:0,0:0:0:0:
192,276,417869,5,0,0:0:0:0:
335,183,418006,1,0,0:0:0:0:
168,292,418142,1,8,0:0:0:0:
184,80,418278,1,0,0:0:0:0:
184,80,418346,1,0,0:0:0:0:
184,80,418415,1,0,0:0:0:0:
352,192,418551,1,0,0:0:0:0:
88,148,418687,2,0,P|56:144|0:160,1,75.0000028610231,8|0,0:0|0:0,0:0:0:0:
12,368,418960,5,0,0:0:0:0:
128,300,419096,1,0,0:0:0:0:
248,364,419233,1,8,0:0:0:0:
368,300,419369,1,0,0:0:0:0:
368,300,419437,1,0,0:0:0:0:
368,300,419506,2,0,P|376:256|368:224,1,75.0000028610231
308,108,419778,1,8,0:0:0:0:
428,48,419915,1,0,0:0:0:0:
488,168,420051,5,0,0:0:0:0:
488,168,420119,1,0,0:0:0:0:
488,168,420187,1,0,0:0:0:0:
308,108,420324,2,0,L|220:120,1,75.0000028610231,8|0,0:0|0:0,0:0:0:0:
204,124,420528,1,0,0:0:0:0:
204,124,420596,1,0,0:0:0:0:
316,8,420733,1,4,0:0:0:0:
288,224,420869,1,0,0:0:0:0:
114,91,421006,1,0,3:0:0:0:
392,128,421142,5,4,0:0:0:0:
256,192,421278,12,2,422983,0:0:0:0:
128,76,423324,5,4,0:0:0:0:
96,208,423460,1,2,0:0:0:0:
96,208,423528,1,0,0:0:0:0:
96,208,423596,1,2,0:0:0:0:
212,148,423733,1,0,0:0:0:0:
128,76,423869,2,0,L|56:104,1,75.0000028610231,2|0,0:0|0:0,0:0:0:0:
224,160,424142,1,2,0:0:0:0:
224,160,424278,1,2,0:0:0:0:
224,160,424551,5,2,0:0:0:0:
232,196,424619,1,0,0:0:0:0:
240,232,424687,1,2,0:0:0:0:
248,268,424755,1,0,0:0:0:0:
256,304,424823,1,2,0:0:0:0:
380,356,424960,2,0,L|488:340,1,75.0000028610231,0|2,0:0|0:0,0:0:0:0:
240,232,425233,2,0,L|132:248,1,75.0000028610231,0|2,0:0|0:0,0:0:0:0:
76,344,425506,5,2,0:0:0:0:
32,216,425642,1,2,0:0:0:0:
32,216,425710,1,0,0:0:0:0:
32,216,425779,1,2,0:0:0:0:
166,243,425915,1,0,0:0:0:0:
76,344,426051,1,2,0:0:0:0:
76,344,426187,1,0,0:0:0:0:
108,168,426324,1,2,0:0:0:0:
108,168,426460,1,2,0:0:0:0:
108,168,426733,5,2,0:0:0:0:
120,132,426801,1,0,0:0:0:0:
112,96,426869,1,2,0:0:0:0:
92,64,426937,1,0,0:0:0:0:
56,48,427006,1,2,0:0:0:0:
184,4,427142,2,0,L|292:20,1,75.0000028610231
444,112,427415,2,0,L|336:128,1,75.0000028610231,2|2,0:0|0:0,0:0:0:0:
180,156,427687,5,2,0:0:0:0:
304,208,427824,1,2,0:0:0:0:
304,208,427892,1,0,0:0:0:0:
304,208,427960,1,2,0:0:0:0:
185,276,428096,1,2,0:0:0:0:
324,336,428233,2,0,L|432:320,1,75.0000028610231
196,288,428506,1,2,0:0:0:0:
196,288,428642,1,2,0:0:0:0:
196,288,428915,5,2,0:0:0:0:
160,300,428983,1,0,0:0:0:0:
124,296,429051,1,2,0:0:0:0:
88,280,429119,1,0,0:0:0:0:
64,252,429187,1,2,0:0:0:0:
100,120,429324,2,0,L|84:36,1,75.0000028610231,0|2,0:0|0:0,0:0:0:0:
196,288,429596,2,0,L|212:372,1,75.0000028610231,0|2,0:0|0:0,0:0:0:0:
280,208,429869,5,2,0:0:0:0:
408,256,430006,1,2,0:0:0:0:
408,256,430074,1,0,0:0:0:0:
408,256,430142,1,2,0:0:0:0:
392,124,430278,1,2,0:0:0:0:
312,304,430415,1,0,0:0:0:0:
312,304,430551,1,0,0:0:0:0:
392,124,430687,1,2,0:0:0:0:
392,124,430824,1,2,0:0:0:0:
392,124,431096,5,2,0:0:0:0:
364,100,431165,1,0,0:0:0:0:
328,88,431233,1,2,0:0:0:0:
292,84,431301,1,0,0:0:0:0:
256,88,431369,1,2,0:0:0:0:
32,180,431506,5,2,0:0:0:0:
100,346,431642,1,2,0:0:0:0:
93,115,431778,5,4,0:0:0:0:
186,346,431914,1,4,0:0:0:0:
32,180,432051,5,4,0:0:0:0:
160,224,432187,1,2,0:0:0:0:
160,224,432256,1,0,0:0:0:0:
160,224,432324,2,0,L|256:208,1,75.0000028610231,2|0,0:0|0:0,0:0:0:0:
366,195,432596,1,2,0:0:0:0:
246,135,432733,1,0,0:0:0:0:
402,211,432869,1,2,0:0:0:0:
282,151,433006,1,2,0:0:0:0:
274,310,433142,5,0,0:0:0:0:
160,224,433278,1,2,0:0:0:0:
160,224,433346,1,0,0:0:0:0:
160,224,433415,2,0,P|112:216|80:224,1,75.0000028610231,2|2,0:0|0:0,0:0:0:0:
0,104,433687,2,0,P|48:112|80:104,1,75.0000028610231,0|2,0:0|0:0,0:0:0:0:
168,12,433960,1,0,0:0:0:0:
212,140,434096,1,2,0:0:0:0:
320,56,434233,5,2,0:0:0:0:
192,164,434369,1,2,0:0:0:0:
192,164,434437,1,0,0:0:0:0:
192,164,434506,2,0,P|180:204|184:248,1,75.0000028610231,2|2,0:0|0:0,0:0:0:0:
224,364,434778,1,0,0:0:0:0:
88,344,434915,1,0,0:0:0:0:
240,366,435051,1,2,0:0:0:0:
71,341,435188,1,2,0:0:0:0:
280,268,435324,5,0,0:0:0:0:
71,341,435460,1,2,0:0:0:0:
48,312,435528,1,0,0:0:0:0:
36,276,435596,1,2,0:0:0:0:
32,240,435665,1,0,0:0:0:0:
36,204,435733,1,2,0:0:0:0:
112,92,435869,2,0,P|124:52|116:16,1,75.0000028610231
176,240,436142,2,0,P|164:280|172:316,1,75.0000028610231,2|2,0:0|0:0,0:0:0:0:
300,356,436415,5,2,0:0:0:0:
420,292,436551,1,2,0:0:0:0:
420,292,436619,1,0,0:0:0:0:
420,292,436687,1,2,0:0:0:0:
296,236,436824,1,2,0:0:0:0:
416,172,436960,2,0,P|420:120|412:96,1,75.0000028610231
216,28,437233,2,0,P|212:80|220:104,1,75.0000028610231,2|2,0:0|0:0,0:0:0:0:
416,172,437506,5,0,0:0:0:0:
296,236,437642,1,2,0:0:0:0:
260,232,437710,1,0,0:0:0:0:
224,228,437778,1,2,0:0:0:0:
188,224,437846,1,0,0:0:0:0:
152,220,437915,1,2,0:0:0:0:
56,336,438051,1,0,0:0:0:0:
16,144,438187,1,2,0:0:0:0:
51,312,438324,1,0,0:0:0:0:
11,120,438460,1,2,0:0:0:0:
176,240,438596,5,2,0:0:0:0:
256,56,438733,1,0,0:0:0:0:
256,56,438801,1,0,0:0:0:0:
256,56,438869,1,2,0:0:0:0:
336,240,439006,1,2,0:0:0:0:
128,120,439142,1,0,0:0:0:0:
128,120,439278,1,0,0:0:0:0:
384,120,439415,1,2,0:0:0:0:
384,120,439551,1,2,0:0:0:0:
296,368,439687,5,4,0:0:0:0:
80,232,439960,1,4,0:0:0:0:
216,16,440233,1,4,0:0:0:0:
432,152,440506,1,8,0:0:0:0:
256,196,440642,1,8,0:0:0:0:
416,40,440778,5,4,0:0:0:0:
356,240,440915,1,2,0:0:0:0:
356,240,440983,1,0,0:0:0:0:
356,240,441051,1,2,0:0:0:0:
492,92,441187,1,0,0:0:0:0:
304,24,441324,2,0,P|248:24|208:40,1,100,2|0,0:0|0:0,0:0:0:0:
124,220,441596,1,2,0:0:0:0:
32,4,441733,1,2,0:0:0:0:
256,148,441869,5,2,0:0:0:0:
272,196,441937,1,0,0:0:0:0:
260,244,442006,1,0,0:0:0:0:
36,100,442142,1,2,0:0:0:0:
20,52,442210,1,0,0:0:0:0:
32,4,442279,1,0,0:0:0:0:
176,200,442415,2,0,L|152:312,1,100,0|2,0:0|0:0,0:0:0:0:
332,100,442687,2,0,L|356:-12,1,100,0|2,0:0|0:0,0:0:0:0:
424,248,442960,5,2,0:0:0:0:
176,200,443096,1,2,0:0:0:0:
176,200,443165,1,0,0:0:0:0:
176,200,443233,1,2,0:0:0:0:
332,100,443369,1,2,0:0:0:0:
268,348,443506,2,0,P|220:352|148:320,1,100
36,168,443778,1,2,0:0:0:0:
24,384,443915,1,2,0:0:0:0:
176,200,444051,5,0,0:0:0:0:
192,156,444119,1,0,0:0:0:0:
192,112,444187,1,0,0:0:0:0:
180,68,444256,1,0,0:0:0:0:
152,32,444324,2,0,L|96:16,1,50,2|0,0:0|0:0,0:0:0:0:
0,76,444460,2,0,L|56:92,1,50,2|0,0:0|0:0,0:0:0:0:
284,68,444596,5,2,0:0:0:0:
88,164,444733,1,0,0:0:0:0:
244,316,444869,5,2,0:0:0:0:
440,220,445006,1,2,0:0:0:0:
284,68,445142,5,2,0:0:0:0:
360,312,445278,1,2,0:0:0:0:
360,312,445346,1,0,0:0:0:0:
360,312,445415,1,2,0:0:0:0:
180,224,445551,1,2,0:0:0:0:
412,132,445687,2,0,P|456:128|508:156,1,100
360,312,445960,1,2,0:0:0:0:
284,68,446096,1,2,0:0:0:0:
110,255,446233,5,2,0:0:0:0:
110,255,446301,1,0,0:0:0:0:
110,255,446369,1,0,0:0:0:0:
336,164,446506,1,2,0:0:0:0:
336,164,446574,1,0,0:0:0:0:
336,164,446642,1,0,0:0:0:0:
36,104,446778,2,0,L|4:0,1,100,0|2,0:0|0:0,0:0:0:0:
208,240,447051,2,0,L|240:344,1,100,0|2,0:0|0:0,0:0:0:0:
436,360,447324,5,2,0:0:0:0:
492,136,447460,1,2,0:0:0:0:
492,136,447528,1,0,0:0:0:0:
492,136,447596,1,2,0:0:0:0:
270,199,447733,1,2,0:0:0:0:
436,360,447869,1,0,0:0:0:0:
364,112,448006,1,0,0:0:0:0:
184,288,448142,2,0,P|136:296|84:288,1,100,2|2,0:0|0:0,0:0:0:0:
16,100,448415,5,2,0:0:0:0:
28,52,448483,1,0,0:0:0:0:
40,4,448551,1,0,0:0:0:0:
208,192,448687,1,2,0:0:0:0:
196,240,448755,1,0,0:0:0:0:
184,288,448823,1,0,0:0:0:0:
16,100,448960,5,2,0:0:0:0:
280,32,449096,1,2,0:0:0:0:
448,356,449233,5,4,0:0:0:0:
184,288,449369,1,4,0:0:0:0:
374,93,449506,5,2,0:0:0:0:
316,284,449642,1,0,0:0:0:0:
316,284,449710,1,0,0:0:0:0:
316,284,449778,2,0,P|308:340|320:384,1,100,2|0,0:0|0:0,0:0:0:0:
476,256,450051,1,2,0:0:0:0:
288,188,450187,1,0,0:0:0:0:
508,120,450324,1,2,0:0:0:0:
320,52,450460,1,2,0:0:0:0:
356,249,450596,5,2,0:0:0:0:
356,249,450665,1,0,0:0:0:0:
356,249,450733,1,0,0:0:0:0:
448,16,450869,1,2,0:0:0:0:
448,16,450938,1,0,0:0:0:0:
448,16,451006,1,0,0:0:0:0:
200,52,451142,2,0,L|80:28,1,100,0|2,0:0|0:0,0:0:0:0:
0,268,451415,2,0,L|120:292,1,100,0|2,0:0|0:0,0:0:0:0:
256,164,451687,5,2,0:0:0:0:
284,364,451824,1,2,0:0:0:0:
284,364,451892,1,0,0:0:0:0:
284,364,451960,1,2,0:0:0:0:
252,136,452096,1,0,0:0:0:0:
420,264,452233,2,0,P|440:316|432:368,1,100,2|0,0:0|0:0,0:0:0:0:
156,200,452506,2,0,P|136:148|144:96,1,100,2|2,0:0|0:0,0:0:0:0:
312,4,452778,5,2,0:0:0:0:
360,0,452846,1,0,0:0:0:0:
404,24,452915,1,0,0:0:0:0:
428,68,452983,1,0,0:0:0:0:
432,116,453051,2,0,P|422:142|406:159,1,50,2|0,0:0|0:0,0:0:0:0:
320,168,453187,2,0,P|303:186|296:210,1,50,2|0,0:0|0:0,0:0:0:0:
312,304,453324,5,2,0:0:0:0:
92,256,453460,1,0,0:0:0:0:
332,384,453596,5,2,0:0:0:0:
36,319,453732,1,2,0:0:0:0:
240,95,453869,5,2,0:0:0:0:
312,304,454006,1,2,0:0:0:0:
312,304,454074,1,0,0:0:0:0:
312,304,454142,1,2,0:0:0:0:
456,137,454278,1,2,0:0:0:0:
192,232,454415,2,0,L|80:208,1,100
16,0,454687,2,0,L|128:24,1,100,2|2,0:0|0:0,0:0:0:0:
312,48,454960,5,2,0:0:0:0:
360,52,455028,1,0,0:0:0:0:
408,36,455096,1,0,0:0:0:0:
512,220,455233,1,2,0:0:0:0:
464,216,455301,1,0,0:0:0:0:
416,232,455369,1,0,0:0:0:0:
212,340,455506,2,0,P|156:344|96:316,1,100,0|2,0:0|0:0,0:0:0:0:
44,68,455778,2,0,P|100:64|160:92,1,100,0|2,0:0|0:0,0:0:0:0:
288,296,456051,5,2,0:0:0:0:
32,208,456187,1,2,0:0:0:0:
16,160,456256,1,0,0:0:0:0:
20,112,456324,1,2,0:0:0:0:
220,55,456460,1,2,0:0:0:0:
152,244,456596,2,0,P|140:304|152:344,1,100
360,140,456869,2,0,P|372:80|360:40,1,100,2|2,0:0|0:0,0:0:0:0:
72,8,457142,5,4,0:0:0:0:
8,316,457415,1,4,0:0:0:0:
316,380,457687,1,4,0:0:0:0:
380,72,457960,1,8,0:0:0:0:
194,194,458096,1,8,0:0:0:0:
392,294,458233,5,4,0:0:0:0:
60,100,466960,6,0,L|72:180,1,75.0000028610231,4|0,0:0|0:0,0:0:0:0:
88,288,467233,1,8,0:0:0:0:
176,220,467369,1,0,0:0:0:0:
204,328,467506,6,0,L|284:316,1,75.0000028610231
392,300,467779,1,8,0:0:0:0:
324,212,467915,1,0,0:0:0:0:
436,200,468051,6,0,L|424:120,1,75.0000028610231
408,12,468324,1,8,0:0:0:0:
320,80,468460,1,0,0:0:0:0:
425,126,468596,1,0,0:0:0:0:
337,194,468733,1,0,0:0:0:0:
337,194,468801,1,0,0:0:0:0:
337,194,468869,2,0,P|288:196|256:180,1,75.0000028610231,8|0,0:0|0:0,0:0:0:0:
172,120,469142,5,0,0:0:0:0:
144,228,469278,1,0,0:0:0:0:
116,336,469415,2,0,L|208:304,1,75.0000028610231,8|0,0:0|0:0,0:0:0:0:
340,264,469687,5,0,0:0:0:0:
368,156,469823,1,0,0:0:0:0:
396,48,469960,2,0,L|304:80,1,75.0000028610231,8|0,0:0|0:0,0:0:0:0:
172,120,470233,5,0,0:0:0:0:
144,228,470369,1,0,0:0:0:0:
116,336,470506,2,0,L|208:304,1,75.0000028610231,8|0,0:0|0:0,0:0:0:0:
340,264,470778,5,0,0:0:0:0:
144,228,470915,1,0,0:0:0:0:
144,228,470983,1,0,0:0:0:0:
144,228,471051,1,8,0:0:0:0:
368,156,471187,1,0,0:0:0:0:
172,120,471324,6,0,L|80:136,1,75.0000028610231
24,48,471596,1,8,0:0:0:0:
136,28,471733,1,0,0:0:0:0:
212,220,471869,6,0,L|304:236,1,75.0000028610231
360,148,472141,1,8,0:0:0:0:
248,128,472278,1,0,0:0:0:0:
172,320,472415,6,0,L|80:336,1,75.0000028610231
24,248,472687,1,8,0:0:0:0:
136,228,472824,1,0,0:0:0:0:
5,251,472960,1,0,0:0:0:0:
154,224,473097,1,0,0:0:0:0:
154,224,473165,1,0,0:0:0:0:
154,224,473233,2,0,P|168:180|160:136,1,75.0000028610231,8|0,0:0|0:0,0:0:0:0:
152,40,473506,5,0,0:0:0:0:
60,104,473642,1,0,0:0:0:0:
168,28,473778,2,0,L|244:36,1,75.0000028610231,8|0,0:0|0:0,0:0:0:0:
356,48,474051,1,0,0:0:0:0:
332,160,474187,1,0,0:0:0:0:
219,146,474324,2,0,L|143:154,1,75.0000028610231,8|0,0:0|0:0,0:0:0:0:
73,241,474596,6,0,L|-3:233,2,75.0000028610231,2|0|2,0:0|0:0|0:0,0:0:0:0:
186,254,475006,1,0,0:0:0:0:
257,168,475142,1,2,0:0:0:0:
257,168,475210,1,0,0:0:0:0:
257,168,475278,1,2,0:0:0:0:
144,364,475415,1,2,0:0:0:0:
368,364,475551,1,0,0:0:0:0:
256,132,475687,5,4,0:0:0:0:
256,132,475960,1,2,0:0:0:0:
256,132,476233,1,2,0:0:0:0:
256,132,476778,2,0,B|281:77|230:77|257:23,1,112.500004291535,2|0,0:0|0:0,0:0:0:0:
257,0,477051,1,0,0:0:0:0:
188,240,477256,2,0,P|256:268|324:240,1,150.000005722046,2|2,0:0|0:0,0:0:0:0:
323,240,477869,6,0,P|328:280|324:320,1,75.0000028610231,4|0,0:0|0:0,0:0:0:0:
424,372,478142,2,0,P|419:332|423:292,1,75.0000028610231,2|0,0:0|0:0,0:0:0:0:
512,228,478415,1,2,0:0:0:0:
408,184,478551,1,0,0:0:0:0:
304,140,478687,1,2,0:0:0:0:
304,140,478960,5,2,0:0:0:0:
464,88,479096,1,0,0:0:0:0:
304,32,479233,1,2,0:0:0:0:
304,32,479369,1,0,0:0:0:0:
464,88,479506,2,0,P|472:128|464:168,2,75.0000028610231,2|0|2,0:0|0:0|0:0,0:0:0:0:
189,144,480051,6,0,P|184:104|188:64,1,75.0000028610231,2|0,0:0|0:0,0:0:0:0:
88,12,480324,2,0,P|93:52|89:92,1,75.0000028610231,2|0,0:0|0:0,0:0:0:0:
0,156,480597,1,2,0:0:0:0:
104,200,480733,1,0,0:0:0:0:
208,244,480869,1,2,0:0:0:0:
208,244,481142,5,2,0:0:0:0:
48,296,481278,1,0,0:0:0:0:
208,352,481415,1,2,0:0:0:0:
208,352,481551,1,0,0:0:0:0:
48,296,481687,2,0,P|40:256|48:216,1,75.0000028610231,0|2,0:0|0:0,0:0:0:0:
186,69,481960,2,0,P|194:109|186:149,1,75.0000028610231,0|2,0:0|0:0,0:0:0:0:
48,296,482233,5,2,0:0:0:0:
152,332,482369,1,0,0:0:0:0:
208,236,482506,1,2,0:0:0:0:
312,272,482642,1,0,0:0:0:0:
208,236,482778,2,0,L|137:211,2,75.0000028610231,2|0|2,0:0|0:0|0:0,0:0:0:0:
416,152,483324,6,0,L|486:176,2,75.0000028610231,2|0|2,0:0|0:0|0:0,0:0:0:0:
308,116,483733,1,0,0:0:0:0:
392,40,483869,1,2,0:0:0:0:
328,224,484006,1,0,0:0:0:0:
392,40,484142,1,2,0:0:0:0:
48,88,484415,5,2,0:0:0:0:
152,52,484551,1,0,0:0:0:0:
208,148,484688,1,2,0:0:0:0:
312,112,484824,1,0,0:0:0:0:
208,148,484960,2,0,L|137:172,2,75.0000028610231,2|0|2,0:0|0:0|0:0,0:0:0:0:
416,232,485506,2,0,L|486:207,1,75.0000028610231,2|0,0:0|0:0,0:0:0:0:
308,268,485915,1,0,0:0:0:0:
386,115,486051,5,2,0:0:0:0:
462,341,486188,1,0,0:0:0:0:
228,293,486324,1,2,0:0:0:0:
228,293,486392,1,2,0:0:0:0:
228,293,486460,1,2,0:0:0:0:
486,206,486596,5,4,0:0:0:0:
281,26,486733,1,0,0:0:0:0:
268,72,486801,1,0,0:0:0:0:
252,120,486869,2,0,P|252:168|272:220,1,100,2|0,0:0|0:0,0:0:0:0:
408,72,487142,1,2,0:0:0:0:
164,32,487278,1,0,0:0:0:0:
408,72,487415,2,0,L|508:48,1,100,2|0,0:0|0:0,0:0:0:0:
505,335,487687,5,2,0:0:0:0:
456,324,487756,1,0,0:0:0:0:
408,312,487824,1,2,0:0:0:0:
216,256,487960,1,2,0:0:0:0:
408,208,488096,1,0,0:0:0:0:
220,348,488233,2,0,P|164:336|136:300,1,100,2|0,0:0|0:0,0:0:0:0:
76,112,488506,1,2,0:0:0:0:
16,368,488642,1,0,0:0:0:0:
248,228,488778,5,4,0:0:0:0:
76,112,488915,1,0,0:0:0:0:
76,112,488983,1,0,0:0:0:0:
76,112,489051,2,0,P|68:60|80:8,1,100,2|0,0:0|0:0,0:0:0:0:
268,76,489324,1,2,0:0:0:0:
24,168,489460,1,0,0:0:0:0:
316,256,489596,2,0,L|424:244,1,100,2|0,0:0|0:0,0:0:0:0:
256,364,489869,5,2,0:0:0:0:
256,364,489937,1,0,0:0:0:0:
256,364,490006,1,2,0:0:0:0:
164,188,490142,1,2,0:0:0:0:
348,112,490278,1,0,0:0:0:0:
136,80,490415,2,0,L|24:64,1,100,2|0,0:0|0:0,0:0:0:0:
376,224,490687,2,0,L|488:208,1,100,2|0,0:0|0:0,0:0:0:0:
388,28,490960,5,4,0:0:0:0:
196,84,491096,1,0,0:0:0:0:
196,84,491165,1,0,0:0:0:0:
196,84,491233,2,0,P|184:136|196:180,1,100,2|0,0:0|0:0,0:0:0:0:
252,372,491506,1,2,0:0:0:0:
60,316,491642,1,0,0:0:0:0:
312,236,491778,2,0,L|424:252,1,100,2|0,0:0|0:0,0:0:0:0:
484,64,492051,5,2,0:0:0:0:
484,64,492119,1,0,0:0:0:0:
484,64,492187,1,2,0:0:0:0:
292,120,492324,1,2,0:0:0:0:
512,184,492460,1,0,0:0:0:0:
256,108,492596,2,0,L|152:80,2,100,2|0|2,0:0|0:0|0:0,0:0:0:0:
356,284,493006,1,0,0:0:0:0:
428,28,493142,5,4,0:0:0:0:
512,184,493278,1,0,0:0:0:0:
512,184,493346,1,0,0:0:0:0:
512,184,493415,2,0,P|520:236|508:292,1,100,2|0,0:0|0:0,0:0:0:0:
272,368,493687,2,0,P|264:316|276:260,1,100,2|0,0:0|0:0,0:0:0:0:
357,76,493960,1,2,0:0:0:0:
440,308,494096,1,0,0:0:0:0:
164,240,494233,5,2,0:0:0:0:
164,240,494301,1,0,0:0:0:0:
164,240,494369,1,2,0:0:0:0:
356,180,494506,1,0,0:0:0:0:
272,368,494642,1,0,0:0:0:0:
200,132,494778,2,0,P|188:80|200:32,1,100,2|0,0:0|0:0,0:0:0:0:
396,0,495051,1,2,0:0:0:0:
116,0,495187,1,0,0:0:0:0:
116,0,495256,1,0,0:0:0:0:
116,0,495324,5,4,0:0:0:0:
116,200,504051,5,4,0:0:0:0:
141,309,504187,1,0,0:0:0:0:
32,278,504324,1,8,0:0:0:0:
116,200,504460,1,0,0:0:0:0:
142,205,504528,1,0,0:0:0:0:
167,209,504596,1,0,0:0:0:0:
193,215,504665,1,0,0:0:0:0:
218,219,504733,1,0,0:0:0:0:
326,245,504869,2,0,L|428:233,1,75.0000028610231,8|0,0:0|0:0,0:0:0:0:
426,234,505074,1,0,0:0:0:0:
452,231,505142,6,0,P|457:189|443:151,1,75.0000028610231
390,60,505415,1,8,0:0:0:0:
306,135,505551,1,0,0:0:0:0:
279,137,505619,1,0,0:0:0:0:
253,132,505687,1,0,0:0:0:0:
228,121,505756,1,0,0:0:0:0:
207,104,505824,1,0,0:0:0:0:
143,11,505960,1,8,0:0:0:0:
72,159,506096,1,0,0:0:0:0:
72,159,506165,1,0,0:0:0:0:
72,159,506233,6,0,L|81:251,1,75.0000028610231
88,346,506506,1,8,0:0:0:0:
186,292,506642,1,0,0:0:0:0:
186,292,506710,1,0,0:0:0:0:
186,292,506778,2,0,L|191:335,2,37.5000014305115
168,104,507051,1,8,0:0:0:0:
79,233,507187,1,8,0:0:0:0:
181,88,507324,5,0,0:0:0:0:
205,82,507392,1,0,0:0:0:0:
231,85,507460,1,0,0:0:0:0:
255,95,507528,1,0,0:0:0:0:
274,111,507596,1,8,0:0:0:0:
365,246,507733,1,0,0:0:0:0:
389,252,507801,1,0,0:0:0:0:
415,249,507869,1,0,0:0:0:0:
439,239,507937,1,0,0:0:0:0:
458,223,508005,1,2,0:0:0:0:
492,75,508142,2,0,L|473:0,1,75.0000028610231,12|0,0:0|0:0,0:0:0:0:
388,104,508415,5,0,0:0:0:0:
388,104,508551,1,0,0:0:0:0:
314,188,508687,1,8,0:0:0:0:
209,168,508824,1,0,0:0:0:0:
209,168,508892,1,0,0:0:0:0:
209,168,508960,2,0,L|195:118,2,37.5000014305115
165,269,509233,1,8,0:0:0:0:
121,91,509369,1,0,0:0:0:0:
121,91,509437,1,0,0:0:0:0:
121,91,509506,5,0,0:0:0:0:
165,269,509642,1,0,0:0:0:0:
297,141,509778,1,8,0:0:0:0:
121,91,509915,1,0,0:0:0:0:
95,85,509983,1,0,0:0:0:0:
69,87,510051,1,0,0:0:0:0:
46,100,510119,1,0,0:0:0:0:
25,119,510187,1,0,0:0:0:0:
90,268,510324,1,8,0:0:0:0:
241,207,510460,1,0,0:0:0:0:
241,207,510528,1,0,0:0:0:0:
241,207,510596,1,0,0:0:0:0:
241,207,510869,5,2,0:0:0:0:
241,207,511415,1,2,0:0:0:0:
387,135,511960,5,2,0:0:0:0:
387,135,512233,1,2,0:0:0:0:
387,135,512778,6,0,P|394:190|379:243,1,100,4|0,0:0|0:0,0:0:0:0:
366,263,512983,1,0,0:0:0:0:
345,291,513051,2,0,L|238:317,1,100,8|0,0:0|0:0,0:0:0:0:
51,359,513324,1,2,0:0:0:0:
51,359,513392,1,0,0:0:0:0:
51,359,513460,1,0,0:0:0:0:
110,165,513596,1,8,0:0:0:0:
247,314,513733,1,0,0:0:0:0:
247,314,513801,1,0,0:0:0:0:
247,314,513869,5,2,0:0:0:0:
54,257,514006,1,2,0:0:0:0:
294,168,514142,2,0,P|305:124|292:64,1,100,8|0,0:0|0:0,0:0:0:0:
273,43,514346,1,0,0:0:0:0:
241,27,514415,1,2,0:0:0:0:
206,20,514483,1,0,0:0:0:0:
171,27,514551,1,0,0:0:0:0:
230,237,514687,1,8,0:0:0:0:
75,139,514824,1,0,0:0:0:0:
295,70,514960,6,0,L|410:88,1,100,2|0,0:0|0:0,0:0:0:0:
478,267,515233,1,8,0:0:0:0:
296,351,515369,1,0,0:0:0:0:
271,326,515437,1,0,0:0:0:0:
261,291,515506,1,2,0:0:0:0:
261,256,515574,1,0,0:0:0:0:
268,222,515642,1,0,0:0:0:0:
478,267,515778,1,8,0:0:0:0:
296,351,515915,1,0,0:0:0:0:
342,126,516051,6,0,P|351:80|333:16,1,100,2|0,0:0|0:0,0:0:0:0:
140,0,516324,1,8,0:0:0:0:
342,126,516460,1,0,0:0:0:0:
376,119,516528,1,0,0:0:0:0:
410,112,516596,1,2,0:0:0:0:
444,105,516665,1,0,0:0:0:0:
478,98,516733,1,2,0:0:0:0:
243,30,516869,1,12,0:0:0:0:
301,267,517006,1,0,0:0:0:0:
66,199,517142,6,0,P|53:148|63:97,1,100,2|0,0:0|0:0,0:0:0:0:
80,73,517346,1,0,0:0:0:0:
107,51,517415,2,0,L|212:33,1,100,8|0,0:0|0:0,0:0:0:0:
410,112,517687,1,2,0:0:0:0:
376,119,517755,1,0,0:0:0:0:
342,126,517823,1,0,0:0:0:0:
145,169,517960,2,0,P|132:220|142:271,1,100,8|0,0:0|0:0,0:0:0:0:
159,295,518164,1,0,0:0:0:0:
186,317,518233,6,0,L|291:335,1,100,2|0,0:0|0:0,0:0:0:0:
376,119,518506,1,8,0:0:0:0:
500,360,518642,1,0,0:0:0:0:
465,366,518710,1,0,0:0:0:0:
430,358,518778,1,2,0:0:0:0:
403,335,518846,1,0,0:0:0:0:
389,302,518915,1,0,0:0:0:0:
499,113,519051,2,0,P|503:61|482:9,1,100,8|0,0:0|0:0,0:0:0:0:
204,86,519324,6,0,P|200:138|221:190,1,100,2|0,0:0|0:0,0:0:0:0:
242,204,519528,1,0,0:0:0:0:
242,204,519596,2,0,L|219:308,1,100,8|0,0:0|0:0,0:0:0:0:
16,344,519869,1,2,0:0:0:0:
25,309,519937,1,0,0:0:0:0:
34,275,520006,1,0,0:0:0:0:
87,60,520142,1,8,0:0:0:0:
121,336,520278,1,0,0:0:0:0:
121,336,520346,1,0,0:0:0:0:
121,336,520415,5,2,0:0:0:0:
21,163,520551,1,2,0:0:0:0:
256,250,520687,1,0,0:0:0:0:
491,163,520824,1,2,0:0:0:0:
391,336,520960,1,2,0:0:0:0:
391,336,521028,1,0,0:0:0:0:
391,336,521096,1,2,0:0:0:0:
391,336,521165,1,0,0:0:0:0:
391,336,521233,1,6,0:0:0:0:
256,62,521369,1,0,0:0:0:0:
121,336,521506,6,0,P|59:337|21:311,1,100,4|0,0:0|0:0,0:0:0:0:
15,285,521710,1,0,0:0:0:0:
14,250,521778,1,8,0:0:0:0:
207,196,521915,1,0,0:0:0:0:
63,55,522051,1,2,0:0:0:0:
63,55,522119,1,0,0:0:0:0:
63,55,522187,1,0,0:0:0:0:
118,250,522324,1,8,0:0:0:0:
257,107,522460,5,0,0:0:0:0:
257,107,522528,1,0,0:0:0:0:
257,107,522596,2,0,L|377:92,1,100,2|0,0:0|0:0,0:0:0:0:
448,273,522869,1,8,0:0:0:0:
499,33,523006,1,0,0:0:0:0:
471,10,523074,1,0,0:0:0:0:
436,2,523142,1,2,0:0:0:0:
401,0,523210,1,0,0:0:0:0:
367,10,523278,1,0,0:0:0:0:
281,197,523415,2,0,P|287:255|308:297,1,100,8|0,0:0|0:0,0:0:0:0:
489,140,523687,5,2,0:0:0:0:
255,107,523824,1,0,0:0:0:0:
255,107,523892,1,0,0:0:0:0:
255,107,523960,2,0,L|135:92,1,100,8|0,0:0|0:0,0:0:0:0:
120,90,524165,1,0,0:0:0:0:
84,88,524233,2,0,P|61:132|66:181,1,100,2|0,0:0|0:0,0:0:0:0:
134,372,524506,1,8,0:0:0:0:
255,107,524642,1,0,0:0:0:0:
378,372,524778,5,2,0:0:0:0:
86,282,524915,1,0,0:0:0:0:
426,282,525051,1,8,0:0:0:0:
134,372,525187,1,0,0:0:0:0:
255,107,525324,1,2,0:0:0:0:
267,58,525392,1,0,0:0:0:0:
256,9,525460,1,2,0:0:0:0:
126,185,525596,1,12,0:0:0:0:
386,185,525733,1,0,0:0:0:0:
145,92,525869,6,0,P|90:96|53:127,1,100,2|0,0:0|0:0,0:0:0:0:
31,167,526074,1,0,0:0:0:0:
31,167,526142,2,0,L|48:267,1,100,8|0,0:0|0:0,0:0:0:0:
235,337,526415,1,2,0:0:0:0:
269,336,526483,1,0,0:0:0:0:
301,323,526551,1,0,0:0:0:0:
434,175,526687,1,8,0:0:0:0:
238,128,526824,1,0,0:0:0:0:
204,129,526892,1,0,0:0:0:0:
172,142,526960,5,2,0:0:0:0:
269,336,527096,1,0,0:0:0:0:
341,51,527233,1,8,0:0:0:0:
167,236,527369,1,0,0:0:0:0:
132,233,527437,1,0,0:0:0:0:
102,213,527506,1,2,0:0:0:0:
84,182,527574,1,0,0:0:0:0:
78,147,527642,1,0,0:0:0:0:
341,51,527778,1,8,0:0:0:0:
167,236,527915,1,0,0:0:0:0:
443,327,528051,6,0,P|456:270|445:213,1,100,2|0,0:0|0:0,0:0:0:0:
439,195,528256,1,0,0:0:0:0:
419,165,528324,2,0,L|316:149,1,100,8|0,0:0|0:0,0:0:0:0:
61,114,528596,1,2,0:0:0:0:
61,114,528665,1,0,0:0:0:0:
61,114,528733,1,0,0:0:0:0:
256,24,528869,1,8,0:0:0:0:
124,292,529006,1,0,0:0:0:0:
124,0,529142,5,2,0:0:0:0:
451,114,529278,1,0,0:0:0:0:
451,114,529551,1,0,0:0:0:0:
176,216,529687,1,2,0:0:0:0:
168,252,529756,1,0,0:0:0:0:
160,284,529824,1,2,0:0:0:0:
152,316,529892,1,0,0:0:0:0:
144,348,529960,1,0,0:0:0:0:
344,292,530096,1,0,0:0:0:0:
0,208,530233,5,4,0:0:0:0:
100,56,538960,6,0,L|88:136,1,75.0000028610231
72,240,539233,1,8,0:0:0:0:
176,200,539369,1,0,0:0:0:0:
176,200,539437,1,0,0:0:0:0:
176,200,539506,1,0,0:0:0:0:
160,312,539642,1,0,0:0:0:0:
88,130,539778,2,0,L|100:56,1,75.0000028610231,8|0,0:0|0:0,0:0:0:0:
104,24,539983,1,0,0:0:0:0:
103,24,540051,6,0,P|140:15|180:20,1,75.0000028610231
280,68,540324,1,8,0:0:0:0:
380,20,540460,1,0,0:0:0:0:
380,20,540528,1,0,0:0:0:0:
380,20,540596,1,0,0:0:0:0:
484,68,540733,1,0,0:0:0:0:
424,164,540869,2,0,P|420:204|428:244,1,75.0000028610231,8|0,0:0|0:0,0:0:0:0:
480,336,541142,5,0,0:0:0:0:
372,368,541278,1,0,0:0:0:0:
272,312,541415,1,8,0:0:0:0:
252,200,541551,1,0,0:0:0:0:
252,200,541619,1,0,0:0:0:0:
252,200,541687,2,0,P|248:156|256:120,1,75.0000028610231
360,16,541960,2,0,P|364:60|356:96,1,75.0000028610231,0|8,0:0|0:0,0:0:0:0:
160,92,542233,5,0,0:0:0:0:
160,92,542301,1,0,0:0:0:0:
160,92,542369,1,0,0:0:0:0:
160,264,542506,2,0,P|156:308|164:344,1,75.0000028610231,8|0,0:0|0:0,0:0:0:0:
184,356,542710,1,0,0:0:0:0:
208,368,542778,2,0,L|288:364,1,75.0000028610231,0|4,0:0|0:0,0:0:0:0:
424,232,543051,2,0,L|344:228,1,75.0000028610231
168,148,543324,5,0,0:0:0:0:
184,36,543460,1,0,0:0:0:0:
268,108,543596,1,8,0:0:0:0:
168,148,543733,1,0,0:0:0:0:
140,152,543801,1,0,0:0:0:0:
112,148,543869,1,0,0:0:0:0:
88,140,543937,1,0,0:0:0:0:
68,124,544006,1,0,0:0:0:0:
4,216,544142,2,0,L|20:304,1,75.0000028610231,8|0,0:0|0:0,0:0:0:0:
24,316,544346,1,0,0:0:0:0:
28,340,544415,5,0,0:0:0:0:
132,380,544551,1,0,0:0:0:0:
200,292,544687,2,0,L|300:280,1,75.0000028610231,8|0,0:0|0:0,0:0:0:0:
300,279,544892,1,0,0:0:0:0:
326,276,544960,1,0,0:0:0:0:
431,313,545096,1,0,0:0:0:0:
480,211,545233,2,0,P|484:157|471:127,1,75.0000028610231,8|0,0:0|0:0,0:0:0:0:
410,46,545506,5,0,0:0:0:0:
373,152,545642,1,0,0:0:0:0:
275,96,545778,1,8,0:0:0:0:
238,202,545915,1,0,0:0:0:0:
238,202,545983,1,0,0:0:0:0:
238,202,546051,1,0,0:0:0:0:
373,152,546187,1,0,0:0:0:0:
210,212,546324,2,0,L|128:194,1,75.0000028610231,0|8,0:0|0:0,0:0:0:0:
0,166,546596,5,0,0:0:0:0:
0,166,546665,1,0,0:0:0:0:
0,166,546733,1,0,0:0:0:0:
153,88,546869,1,8,0:0:0:0:
75,241,547006,1,0,0:0:0:0:
75,241,547074,1,0,0:0:0:0:
75,241,547142,1,0,0:0:0:0:
174,52,547278,1,4,0:0:0:0:
0,166,547415,1,0,0:0:0:0:
185,259,547551,1,0,0:0:0:0:
72,86,547687,5,4,0:0:0:0:
72,86,547960,1,2,0:0:0:0:
72,86,548233,1,2,0:0:0:0:
72,86,548778,1,2,0:0:0:0:
72,86,549187,1,2,0:0:0:0:
72,86,549869,6,0,L|187:77,1,100,4|0,0:0|0:0,0:0:0:0:
204,101,550074,1,0,0:0:0:0:
237,123,550142,2,0,L|352:114,1,100,8|0,0:0|0:0,0:0:0:0:
487,106,550415,1,2,0:0:0:0:
368,15,550551,1,0,0:0:0:0:
441,205,550687,1,8,0:0:0:0:
441,205,550756,1,0,0:0:0:0:
441,205,550824,1,0,0:0:0:0:
368,15,550960,5,2,0:0:0:0:
368,15,551029,1,0,0:0:0:0:
368,15,551097,1,0,0:0:0:0:
239,173,551233,2,0,P|229:224|241:276,1,100,8|0,0:0|0:0,0:0:0:0:
440,302,551506,2,0,P|450:251|438:199,1,100,2|0,0:0|0:0,0:0:0:0:
269,41,551778,1,8,0:0:0:0:
487,106,551915,1,0,0:0:0:0:
239,173,552051,6,0,L|141:204,1,100,4|0,0:0|0:0,0:0:0:0:
105,215,552256,1,0,0:0:0:0:
66,227,552324,2,0,P|46:173|55:129,1,100,8|0,0:0|0:0,0:0:0:0:
244,74,552596,1,2,0:0:0:0:
303,265,552733,1,0,0:0:0:0:
54,132,552870,1,8,0:0:0:0:
54,132,552937,1,0,0:0:0:0:
54,132,553006,1,0,0:0:0:0:
113,323,553142,5,2,0:0:0:0:
113,323,553210,1,0,0:0:0:0:
113,323,553278,1,0,0:0:0:0:
303,265,553415,2,0,P|373:262|417:286,1,100,8|0,0:0|0:0,0:0:0:0:
512,96,553687,2,0,P|442:99|398:75,1,100,2|0,0:0|0:0,0:0:0:0:
233,2,553960,1,8,0:0:0:0:
432,0,554096,1,0,0:0:0:0:
278,168,554233,6,0,L|305:274,1,100,4|0,0:0|0:0,0:0:0:0:
314,302,554437,1,0,0:0:0:0:
314,302,554506,1,8,0:0:0:0:
403,123,554642,1,0,0:0:0:0:
460,360,554778,1,2,0:0:0:0:
274,282,554915,1,0,0:0:0:0:
509,189,555051,1,8,0:0:0:0:
509,189,555119,1,0,0:0:0:0:
509,189,555187,1,0,0:0:0:0:
220,100,555324,5,2,0:0:0:0:
220,100,555392,1,0,0:0:0:0:
220,100,555460,1,0,0:0:0:0:
274,282,555596,1,8,0:0:0:0:
324,24,555733,1,0,0:0:0:0:
130,156,555869,2,0,P|79:157|36:134,1,100,2|0,0:0|0:0,0:0:0:0:
324,24,556142,2,0,P|375:23|418:46,1,100,8|0,0:0|0:0,0:0:0:0:
489,262,556415,5,4,0:0:0:0:
309,175,556551,1,0,0:0:0:0:
309,175,556619,1,0,0:0:0:0:
309,175,556687,2,0,L|202:196,1,100,8|0,0:0|0:0,0:0:0:0:
13,230,556960,1,2,0:0:0:0:
187,326,557096,1,0,0:0:0:0:
99,145,557233,1,8,0:0:0:0:
93,105,557301,1,0,0:0:0:0:
101,65,557369,1,0,0:0:0:0:
338,10,557506,5,2,0:0:0:0:
344,50,557574,1,0,0:0:0:0:
336,90,557642,1,0,0:0:0:0:
172,204,557778,1,8,0:0:0:0:
425,255,557915,1,0,0:0:0:0:
187,326,558051,2,0,L|82:302,1,100,2|0,0:0|0:0,0:0:0:0:
13,61,558324,2,0,L|118:85,1,100,8|0,0:0|0:0,0:0:0:0:
380,144,558596,5,4,0:0:0:0:
224,17,558733,1,0,0:0:0:0:
224,17,558801,1,0,0:0:0:0:
224,17,558869,1,8,0:0:0:0:
227,256,559006,1,0,0:0:0:0:
380,144,559142,2,0,P|434:143|477:161,1,100,2|0,0:0|0:0,0:0:0:0:
510,374,559415,1,8,0:0:0:0:
510,374,559483,1,0,0:0:0:0:
510,374,559551,1,0,0:0:0:0:
227,256,559687,5,2,0:0:0:0:
227,256,559755,1,0,0:0:0:0:
227,256,559823,1,0,0:0:0:0:
476,160,559960,2,0,P|481:102|463:59,1,100,8|0,0:0|0:0,0:0:0:0:
177,3,560233,2,0,P|172:61|190:104,1,100,2|0,0:0|0:0,0:0:0:0:
345,250,560506,1,8,0:0:0:0:
345,50,560642,1,0,0:0:0:0:
151,193,560778,6,0,L|46:166,1,100,4|0,0:0|0:0,0:0:0:0:
15,154,560983,1,0,0:0:0:0:
15,154,561051,2,0,P|35:217|29:254,1,100,8|0,0:0|0:0,0:0:0:0:
206,384,561324,2,0,P|186:321|192:284,1,100,2|0,0:0|0:0,0:0:0:0:
252,98,561596,1,8,0:0:0:0:
290,86,561665,1,0,0:0:0:0:
328,75,561733,1,0,0:0:0:0:
497,241,561869,5,2,0:0:0:0:
459,253,561938,1,0,0:0:0:0:
421,264,562006,1,0,0:0:0:0:
451,52,562142,1,8,0:0:0:0:
512,316,562278,1,0,0:0:0:0:
252,236,562415,2,0,L|150:204,1,100,2|0,0:0|0:0,0:0:0:0:
355,22,562687,2,0,L|457:54,1,100,8|0,0:0|0:0,0:0:0:0:
512,316,562960,5,4,0:0:0:0:
412,143,563096,1,0,0:0:0:0:
412,143,563165,1,0,0:0:0:0:
412,143,563233,1,8,0:0:0:0:
380,377,563369,1,0,0:0:0:0:
280,204,563506,2,0,P|223:195|171:207,1,100,2|0,0:0|0:0,0:0:0:0:
40,343,563778,1,8,0:0:0:0:
40,343,563846,1,0,0:0:0:0:
40,343,563915,1,0,0:0:0:0:
40,143,564051,5,2,0:0:0:0:
40,143,564119,1,0,0:0:0:0:
40,143,564188,1,0,0:0:0:0:
140,316,564324,2,0,P|197:325|249:313,1,100,8|0,0:0|0:0,0:0:0:0:
412,220,564596,1,2,0:0:0:0:
216,180,564733,1,0,0:0:0:0:
434,358,564869,1,8,0:0:0:0:
400,96,565006,1,0,0:0:0:0:
238,317,565142,6,0,P|188:325|140:316,1,100,4|0,0:0|0:0,0:0:0:0:
112,288,565346,1,0,0:0:0:0:
88,256,565415,2,0,L|76:132,1,100,8|0,0:0|0:0,0:0:0:0:
248,32,565687,2,0,L|236:156,1,100,2|0,0:0|0:0,0:0:0:0:
208,368,565960,1,8,0:0:0:0:
208,368,566028,1,0,0:0:0:0:
208,368,566096,1,0,0:0:0:0:
420,212,566233,5,2,0:0:0:0:
420,212,566301,1,0,0:0:0:0:
420,212,566369,1,0,0:0:0:0:
78,156,566506,1,8,0:0:0:0:
272,288,566642,1,0,0:0:0:0:
344,16,566778,2,0,L|240:0,1,100,2|0,0:0|0:0,0:0:0:0:
8,248,567051,2,0,L|112:264,1,100,8|0,0:0|0:0,0:0:0:0:
396,304,567324,5,4,0:0:0:0:
256,192,583542,12,4,584361,3:0:0:0:
68,56,584633,6,0,L|180:56,1,100,4|0,0:0|0:0,0:0:0:0:
292,16,584906,1,2,0:0:0:0:
260,140,585042,1,0,0:0:0:0:
384,104,585179,2,0,P|408:168|400:208,1,100,2|0,0:0|0:0,0:0:0:0:
320,372,585451,1,8,0:0:0:0:
464,336,585588,1,0,0:0:0:0:
464,336,585656,1,0,0:0:0:0:
464,336,585724,5,2,0:0:0:0:
300,376,585861,1,0,0:0:0:0:
172,276,585997,2,0,P|148:212|156:172,1,100,2|0,0:0|0:0,0:0:0:0:
340,108,586270,1,2,0:0:0:0:
100,48,586406,1,0,0:0:0:0:
60,56,586474,1,0,0:0:0:0:
20,64,586542,1,8,0:0:0:0:
152,182,586679,1,0,0:0:0:0:
192,174,586747,1,0,0:0:0:0:
232,166,586815,6,0,L|336:184,1,100,2|0,0:0|0:0,0:0:0:0:
460,208,587088,1,2,0:0:0:0:
404,92,587224,1,0,0:0:0:0:
336,276,587361,2,0,P|324:332|336:380,1,100,2|0,0:0|0:0,0:0:0:0:
460,208,587633,1,8,0:0:0:0:
280,80,587770,1,0,0:0:0:0:
280,80,587838,1,0,0:0:0:0:
280,80,587906,6,0,L|176:98,1,100,2|0,0:0|0:0,0:0:0:0:
24,124,588179,1,2,0:0:0:0:
160,208,588315,1,0,0:0:0:0:
84,24,588451,1,2,0:0:0:0:
100,308,588588,1,0,0:0:0:0:
100,308,588656,1,0,0:0:0:0:
100,308,588724,1,8,0:0:0:0:
337,152,588861,1,0,0:0:0:0:
337,152,588929,1,0,0:0:0:0:
337,152,588997,6,0,P|344:104|328:48,1,100,2|0,0:0|0:0,0:0:0:0:
260,260,589270,2,0,P|253:308|269:364,1,100,2|0,0:0|0:0,0:0:0:0:
424,384,589542,1,2,0:0:0:0:
364,236,589679,1,0,0:0:0:0:
265,357,589815,2,0,L|161:373,1,100,8|0,0:0|0:0,0:0:0:0:
124,380,590020,1,0,0:0:0:0:
124,380,590088,6,0,P|104:328|112:276,1,100,2|0,0:0|0:0,0:0:0:0:
160,132,590361,1,2,0:0:0:0:
256,260,590497,1,0,0:0:0:0:
352,132,590633,1,2,0:0:0:0:
109,285,590770,1,0,0:0:0:0:
124,324,590838,1,0,0:0:0:0:
140,360,590906,1,8,0:0:0:0:
372,360,591042,1,0,0:0:0:0:
388,324,591110,1,0,0:0:0:0:
403,285,591179,6,0,P|416:224|408:180,1,100,2|0,0:0|0:0,0:0:0:0:
336,44,591451,1,2,0:0:0:0:
192,112,591588,1,0,0:0:0:0:
410,187,591724,2,0,L|510:163,1,100,2|0,0:0|0:0,0:0:0:0:
336,44,591997,1,8,0:0:0:0:
284,280,592133,1,0,0:0:0:0:
284,280,592201,1,0,0:0:0:0:
284,280,592270,6,0,L|184:256,1,100,2|0,0:0|0:0,0:0:0:0:
32,220,592542,1,2,0:0:0:0:
69,66,592679,1,0,0:0:0:0:
223,103,592815,1,2,0:0:0:0:
32,220,592951,1,0,0:0:0:0:
20,260,593020,1,0,0:0:0:0:
20,300,593088,1,8,0:0:0:0:
272,360,593224,1,0,0:0:0:0:
284,320,593293,1,0,0:0:0:0:
284,280,593361,6,0,P|276:224|288:176,1,100,4|0,0:0|0:0,0:0:0:0:
440,136,593633,1,2,0:0:0:0:
304,48,593770,1,0,0:0:0:0:
416,276,593906,2,0,P|425:324|417:373,1,100,2|0,0:0|0:0,0:0:0:0:
256,296,594179,1,8,0:0:0:0:
94,373,594315,1,0,0:0:0:0:
94,373,594383,1,0,0:0:0:0:
94,373,594451,6,0,P|86:324|96:276,1,100,4|0,0:0|0:0,0:0:0:0:
228,188,594724,1,2,0:0:0:0:
28,112,594861,1,0,0:0:0:0:
292,32,594997,1,2,0:0:0:0:
192,276,595133,1,0,0:0:0:0:
184,316,595201,1,0,0:0:0:0:
192,356,595270,1,8,0:0:0:0:
464,288,595406,1,0,0:0:0:0:
472,248,595474,1,0,0:0:0:0:
464,208,595542,6,0,L|360:172,1,100,4|0,0:0|0:0,0:0:0:0:
196,120,595815,1,2,0:0:0:0:
336,8,595951,1,0,0:0:0:0:
172,140,596088,2,0,P|164:192|172:240,1,100,2|0,0:0|0:0,0:0:0:0:
328,328,596361,1,8,0:0:0:0:
112,372,596497,1,0,0:0:0:0:
72,360,596565,1,0,0:0:0:0:
32,348,596633,5,4,0:0:0:0:
172,239,596770,1,0,0:0:0:0:
44,112,596906,2,0,L|68:4,1,100,2|0,0:0|0:0,0:0:0:0:
256,92,597179,1,2,0:0:0:0:
446,14,597315,1,0,0:0:0:0:
452,52,597383,1,0,0:0:0:0:
448,92,597451,1,8,0:0:0:0:
161,194,597588,1,0,0:0:0:0:
155,156,597656,1,0,0:0:0:0:
159,116,597724,6,0,L|265:90,1,100,4|0,0:0|0:0,0:0:0:0:
440,172,597997,1,2,0:0:0:0:
368,16,598133,1,0,0:0:0:0:
284,240,598270,6,0,L|178:214,1,100,4|0,0:0|0:0,0:0:0:0:
3,296,598543,1,2,0:0:0:0:
75,140,598679,1,0,0:0:0:0:
75,140,598747,1,0,0:0:0:0:
75,140,598815,6,0,P|80:80|64:32,1,100,4|0,0:0|0:0,0:0:0:0:
3,296,599088,1,2,0:0:0:0:
192,236,599224,1,0,0:0:0:0:
4,96,599361,5,4,0:0:0:0:
128,348,599497,1,0,0:0:0:0:
128,348,599565,1,0,0:0:0:0:
128,348,599633,1,8,0:0:0:0:
216,52,599770,1,0,0:0:0:0:
216,52,599838,1,0,0:0:0:0:
216,52,599906,5,4,0:0:0:0:
116,232,600042,1,0,0:0:0:0:
296,332,600179,1,4,0:0:0:0:
396,152,600315,1,0,0:0:0:0:
128,121,600451,5,4,0:0:0:0:
185,319,600587,1,0,0:0:0:0:
383,262,600724,1,4,0:0:0:0:
326,64,600860,1,0,0:0:0:0:
185,319,600997,6,0,P|132:340|84:332,2,100,2|0|2,0:0|0:0|0:0,0:0:0:0:
185,319,602088,5,4,0:0:0:0:
256,192,609724,12,4,610815,0:0:0:0:
392,64,611088,6,0,L|372:172,1,100,2|0,0:0|0:0,0:0:0:0:
348,292,611361,1,2,0:0:0:0:
236,228,611497,1,0,0:0:0:0:
204,352,611633,1,8,0:0:0:0:
348,292,611770,1,0,0:0:0:0:
348,292,611838,1,0,0:0:0:0:
348,292,611906,6,0,P|408:288|456:300,1,100,2|0,0:0|0:0,0:0:0:0:
236,228,612179,2,0,P|176:232|128:220,1,100,2|0,0:0|0:0,0:0:0:0:
36,140,612451,1,2,0:0:0:0:
148,72,612588,1,0,0:0:0:0:
148,72,612656,1,0,0:0:0:0:
148,72,612724,1,8,0:0:0:0:
36,256,612861,1,0,0:0:0:0:
36,256,612929,1,0,0:0:0:0:
36,256,612997,6,0,L|52:364,1,100,2|0,0:0|0:0,0:0:0:0:
164,292,613270,1,2,0:0:0:0:
256,384,613406,1,0,0:0:0:0:
348,292,613542,1,2,0:0:0:0:
461,354,613679,1,0,0:0:0:0:
256,384,613815,1,8,0:0:0:0:
335,192,613951,1,0,0:0:0:0:
335,192,614020,1,0,0:0:0:0:
335,192,614088,6,0,P|340:132|324:88,1,100,2|0,0:0|0:0,0:0:0:0:
204,52,614361,1,2,0:0:0:0:
384,8,614497,1,0,0:0:0:0:
175,59,614633,2,0,L|56:40,1,100,2|0,0:0|0:0,0:0:0:0:
36,36,614838,1,0,0:0:0:0:
36,36,614906,2,0,P|24:92|40:148,1,100,8|0,0:0|0:0,0:0:0:0:
52,168,615111,1,0,0:0:0:0:
52,168,615179,6,0,P|64:224|48:280,1,100,2|0,0:0|0:0,0:0:0:0:
4,384,615451,1,2,0:0:0:0:
124,336,615588,1,0,0:0:0:0:
244,380,615724,2,0,L|352:380,1,100,2|0,0:0|0:0,0:0:0:0:
416,216,615997,2,0,L|308:216,1,100,8|0,0:0|0:0,0:0:0:0:
276,216,616201,1,0,0:0:0:0:
276,216,616270,6,0,P|264:164|276:116,1,100,2|0,0:0|0:0,0:0:0:0:
336,4,616542,1,2,0:0:0:0:
424,100,616679,1,0,0:0:0:0:
224,32,616815,1,2,0:0:0:0:
360,180,616951,1,0,0:0:0:0:
360,180,617020,1,0,0:0:0:0:
360,180,617088,1,8,0:0:0:0:
163,223,617224,1,0,0:0:0:0:
163,223,617293,1,0,0:0:0:0:
163,223,617361,6,0,L|36:204,1,100,2|0,0:0|0:0,0:0:0:0:
200,368,617633,2,0,L|327:349,1,100,2|0,0:0|0:0,0:0:0:0:
436,328,617906,1,2,0:0:0:0:
272,216,618042,1,0,0:0:0:0:
452,340,618179,1,8,0:0:0:0:
392,76,618315,1,0,0:0:0:0:
392,76,618383,1,0,0:0:0:0:
392,76,618451,6,0,P|320:12|212:36,1,200,2|4,3:0|3:0,0:0:0:0:
196,56,618792,1,0,3:0:0:0:
192,96,618861,1,2,3:0:0:0:
284,280,618997,1,2,3:0:0:0:
324,272,619065,1,0,3:0:0:0:
364,264,619133,1,0,3:0:0:0:
404,256,619201,1,0,3:0:0:0:
444,248,619270,1,12,3:0:0:0:
320,144,619406,1,4,3:0:0:0:
224,376,619542,6,0,L|100:352,1,100,4|0,0:0|0:0,0:0:0:0:
4,268,619815,1,2,0:0:0:0:
136,200,619951,1,0,0:0:0:0:
20,104,620088,2,0,P|8:56|20:0,1,100,2|0,0:0|0:0,0:0:0:0:
136,200,620361,1,8,0:0:0:0:
4,268,620497,1,0,0:0:0:0:
20,104,620633,6,0,L|128:80,1,100,2|0,0:0|0:0,0:0:0:0:
156,72,620838,1,0,0:0:0:0:
196,64,620906,2,0,L|304:88,1,100,2|0,0:0|0:0,0:0:0:0:
440,128,621179,1,2,0:0:0:0:
316,212,621315,1,0,0:0:0:0:
456,260,621451,2,0,P|472:316|464:360,1,100,8|0,0:0|0:0,0:0:0:0:
316,212,621724,6,0,P|288:144|304:64,1,150,2|0,0:0|0:0,0:0:0:0:
324,36,621997,1,2,0:0:0:0:
208,132,622133,1,0,0:0:0:0:
60,104,622270,2,0,L|40:0,1,100,2|0,0:0|0:0,0:0:0:0:
208,132,622542,2,0,L|228:236,1,100,8|0,0:0|0:0,0:0:0:0:
256,376,622815,5,2,0:0:0:0:
116,324,622951,1,0,0:0:0:0:
116,324,623020,1,0,0:0:0:0:
116,324,623088,1,2,0:0:0:0:
272,384,623224,1,0,0:0:0:0:
372,272,623361,2,0,L|492:244,1,100,2|0,0:0|0:0,0:0:0:0:
208,132,623633,2,0,L|88:160,1,100,8|0,0:0|0:0,0:0:0:0:
276,224,623906,6,0,P|316:168|296:68,1,150,2|0,0:0|0:0,0:0:0:0:
296,52,624179,1,2,0:0:0:0:
152,12,624315,1,0,0:0:0:0:
111,155,624451,2,0,P|103:223|123:267,1,100,2|0,0:0|0:0,0:0:0:0:
200,376,624724,1,8,0:0:0:0:
52,356,624861,1,0,0:0:0:0:
256,280,624997,6,0,L|376:296,1,100,2|0,0:0|0:0,0:0:0:0:
480,212,625270,1,2,0:0:0:0:
332,188,625406,1,0,0:0:0:0:
452,96,625542,2,0,P|456:44|440:-4,1,100,2|0,0:0|0:0,0:0:0:0:
180,44,625815,2,0,P|176:96|192:144,1,100,8|0,0:0|0:0,0:0:0:0:
332,188,626088,6,0,P|344:256|284:364,1,150,2|0,0:0|0:0,0:0:0:0:
288,356,626361,1,2,0:0:0:0:
436,332,626497,1,0,0:0:0:0:
228,264,626633,2,0,L|120:276,1,100,2|0,0:0|0:0,0:0:0:0:
4,192,626906,1,8,0:0:0:0:
0,340,627042,1,0,0:0:0:0:
140,156,627179,6,0,P|144:104|128:52,1,100,2|0,0:0|0:0,0:0:0:0:
104,28,627383,1,0,0:0:0:0:
104,28,627451,2,0,L|220:12,1,100,2|0,0:0|0:0,0:0:0:0:
388,92,627724,2,0,L|272:108,1,100,2|0,0:0|0:0,0:0:0:0:
208,240,627997,2,0,L|324:224,1,100,8|0,0:0|0:0,0:0:0:0:
456,200,628270,5,4,0:0:0:0:
471,348,628406,1,0,0:0:0:0:
471,348,628474,1,0,0:0:0:0:
471,348,628542,2,0,P|424:366|375:366,1,100,2|0,0:0|0:0,0:0:0:0:
307,226,628815,2,0,L|324:122,1,100,2|0,0:0|0:0,0:0:0:0:
450,46,629088,1,8,0:0:0:0:
456,200,629224,1,0,0:0:0:0:
289,130,629361,6,0,L|124:152,1,150,2|0,0:0|0:0,0:0:0:0:
100,156,629633,1,2,0:0:0:0:
208,52,629770,1,0,0:0:0:0:
252,232,629906,2,0,P|256:288|244:336,1,100,2|0,0:0|0:0,0:0:0:0:
100,360,630179,1,8,0:0:0:0:
16,236,630315,1,0,0:0:0:0:
16,236,630383,1,0,0:0:0:0:
16,236,630451,6,0,P|12:180|24:132,1,100,2|0,0:0|0:0,0:0:0:0:
124,28,630724,1,2,0:0:0:0:
216,148,630861,1,0,0:0:0:0:
332,56,630997,2,0,L|472:72,1,100,2|0,0:0|0:0,0:0:0:0:
431,316,631270,2,0,L|332:328,1,100,8|0,0:0|0:0,0:0:0:0:
76,256,631542,6,0,P|43:191|76:128,1,150,2|0,0:0|0:0,0:0:0:0:
112,108,631815,1,2,0:0:0:0:
196,232,631951,1,0,0:0:0:0:
327,153,632088,2,0,P|339:101|331:53,1,100,2|0,0:0|0:0,0:0:0:0:
196,232,632361,2,0,P|184:284|192:332,1,100,8|0,0:0|0:0,0:0:0:0:
336,372,632633,6,0,L|488:356,1,150,2|0,0:0|0:0,0:0:0:0:
504,320,632906,1,2,0:0:0:0:
364,268,633042,1,0,0:0:0:0:
452,148,633179,6,0,L|300:132,1,150,2|0,0:0|0:0,0:0:0:0:
284,96,633452,1,8,0:0:0:0:
424,44,633588,1,0,0:0:0:0:
364,268,633724,6,0,L|212:252,1,150,2|0,0:0|0:0,0:0:0:0:
196,216,633997,1,2,0:0:0:0:
240,368,634133,1,0,0:0:0:0:
302,132,634270,2,0,P|308:76|298:32,1,100,2|0,0:0|0:0,0:0:0:0:
80,96,634542,2,0,P|74:152|84:196,1,100,8|0,0:0|0:0,0:0:0:0:
240,368,634815,6,0,L|392:352,1,150,2|0,0:0|0:0,0:0:0:0:
428,348,635088,1,2,0:0:0:0:
488,212,635224,1,0,0:0:0:0:
344,168,635361,2,0,L|237:179,1,100,2|0,0:0|0:0,0:0:0:0:
412,24,635633,2,0,L|518:12,1,100,8|0,0:0|0:0,0:0:0:0:
344,168,635906,6,0,P|328:260|360:336,1,150,2|0,3:0|0:0,0:0:0:0:
389,352,636179,2,0,L|268:365,1,100,0|2,3:0|3:0,0:0:0:0:
96,320,636451,1,2,3:0:0:0:
68,288,636520,1,0,3:0:0:0:
52,252,636588,1,0,3:0:0:0:
48,212,636656,1,2,3:0:0:0:
52,172,636724,1,12,3:0:0:0:
116,16,636861,1,4,3:0:0:0:
232,228,636997,6,0,P|308:224|356:200,1,100,4|0,0:0|0:0,0:0:0:0:
404,84,637270,1,2,0:0:0:0:
264,28,637406,1,0,0:0:0:0:
428,96,637542,2,0,L|456:216,1,100,2|0,0:0|0:0,0:0:0:0:
480,340,637815,1,8,0:0:0:0:
340,284,637951,1,0,0:0:0:0:
224,380,638088,6,0,P|168:384|112:368,1,100,2|0,0:0|0:0,0:0:0:0:
92,352,638292,1,0,0:0:0:0:
92,352,638361,2,0,P|72:304|80:248,1,100,2|0,0:0|0:0,0:0:0:0:
164,136,638633,2,0,P|168:86|148:41,1,100,2|0,0:0|0:0,0:0:0:0:
0,12,638906,1,8,0:0:0:0:
32,156,639042,1,0,0:0:0:0:
148,41,639179,6,0,L|312:24,1,150,2|0,0:0|0:0,0:0:0:0:
336,20,639451,1,2,0:0:0:0:
292,164,639588,1,0,0:0:0:0:
440,148,639724,2,0,P|468:200|472:240,1,100,2|0,0:0|0:0,0:0:0:0:
320,384,639997,2,0,P|292:332|288:292,1,100,8|0,0:0|0:0,0:0:0:0:
440,148,640270,5,2,0:0:0:0:
224,72,640406,1,0,0:0:0:0:
224,72,640474,1,0,0:0:0:0:
224,72,640542,2,0,L|112:88,1,100,2|0,0:0|0:0,0:0:0:0:
41,260,640815,2,0,L|153:276,1,100,2|0,0:0|0:0,0:0:0:0:
289,292,641088,1,8,0:0:0:0:
232,152,641224,1,0,0:0:0:0:
380,176,641361,6,0,P|408:120|384:28,1,150,2|0,0:0|0:0,0:0:0:0:
356,16,641633,1,2,0:0:0:0:
496,136,641770,1,0,0:0:0:0:
278,194,641906,2,0,L|180:180,1,100,2|0,0:0|0:0,0:0:0:0:
80,352,642179,2,0,L|178:337,1,100,8|0,0:0|0:0,0:0:0:0:
328,316,642451,5,2,0:0:0:0:
476,288,642588,1,0,0:0:0:0:
476,288,642656,1,0,0:0:0:0:
476,288,642724,2,0,P|480:224|468:184,1,100,2|0,0:0|0:0,0:0:0:0:
308,72,642997,2,0,P|304:136|316:176,1,100,2|0,0:0|0:0,0:0:0:0:
504,108,643270,1,8,0:0:0:0:
268,64,643406,1,0,0:0:0:0:
372,264,643542,6,0,L|180:304,1,150,2|0,0:0|0:0,0:0:0:0:
184,304,643815,1,2,0:0:0:0:
40,268,643951,1,0,0:0:0:0:
148,164,644088,1,2,0:0:0:0:
148,164,644156,1,0,0:0:0:0:
148,164,644224,1,0,0:0:0:0:
88,364,644361,1,8,0:0:0:0:
16,232,644497,1,0,0:0:0:0:
225,294,644633,6,0,L|357:267,1,100,2|0,0:0|0:0,0:0:0:0:
364,264,644838,1,0,0:0:0:0:
364,264,644906,2,0,P|384:304|384:364,1,100,2|0,0:0|0:0,0:0:0:0:
263,192,645179,2,0,P|263:142|284:97,1,100,2|0,0:0|0:0,0:0:0:0:
460,44,645451,1,8,0:0:0:0:
372,168,645588,1,0,0:0:0:0:
196,24,645724,6,0,B|112:16|112:16|48:44,1,150,4|0,0:0|0:0,0:0:0:0:
16,60,645997,2,0,L|36:176,1,100,2|0,0:0|0:0,0:0:0:0:
132,272,646270,2,0,L|152:156,1,100,2|0,0:0|0:0,0:0:0:0:
276,92,646542,1,8,0:0:0:0:
260,240,646679,1,0,0:0:0:0:
344,364,646815,6,0,P|416:376|500:336,1,150,2|0,0:0|0:0,0:0:0:0:
508,312,647088,1,2,0:0:0:0:
400,208,647224,1,0,0:0:0:0:
456,68,647361,2,0,L|356:36,1,100,2|0,0:0|0:0,0:0:0:0:
184,136,647633,2,0,L|284:168,1,100,8|0,0:0|0:0,0:0:0:0:
192,12,647906,5,2,0:0:0:0:
52,64,648042,1,0,0:0:0:0:
184,136,648179,2,0,P|192:216|184:244,1,100,2|0,0:0|0:0,0:0:0:0:
48,284,648451,2,0,P|40:204|48:176,1,100,2|0,0:0|0:0,0:0:0:0:
187,234,648724,2,0,P|195:314|187:342,1,100,8|0,0:0|0:0,0:0:0:0:
45,186,648997,6,0,L|209:146,1,150,2|0,0:0|0:0,0:0:0:0:
232,140,649270,1,2,0:0:0:0:
276,284,649406,1,0,0:0:0:0:
420,240,649542,1,2,0:0:0:0:
376,96,649679,1,0,0:0:0:0:
276,284,649815,2,0,P|272:344|288:388,1,100,8|0,0:0|0:0,0:0:0:0:
376,96,650088,6,0,L|212:56,1,150,2|0,0:0|0:0,0:0:0:0:
192,52,650361,1,2,0:0:0:0:
332,0,650497,1,0,0:0:0:0:
420,192,650633,6,0,L|256:152,1,150,2|0,0:0|0:0,0:0:0:0:
236,148,650906,1,2,0:0:0:0:
376,96,651042,1,0,0:0:0:0:
464,288,651179,6,0,L|300:248,1,150,2|0,0:0|0:0,0:0:0:0:
280,244,651452,1,2,0:0:0:0:
420,192,651588,1,0,0:0:0:0:
508,384,651724,6,0,L|402:358,1,100,2|0,0:0|0:0,0:0:0:0:
323,169,651997,2,0,L|428:194,1,100,8|0,0:0|0:0,0:0:0:0:
184,288,652270,6,0,L|20:328,1,150,2|0,0:0|0:0,0:0:0:0:
0,332,652543,1,2,0:0:0:0:
140,384,652679,1,0,0:0:0:0:
228,192,652815,6,0,L|64:232,1,150,2|0,0:0|0:0,0:0:0:0:
44,236,653088,1,2,0:0:0:0:
184,288,653224,1,0,0:0:0:0:
272,96,653361,6,0,L|108:136,1,150,2|0,0:0|0:0,0:0:0:0:
88,140,653634,1,2,0:0:0:0:
228,192,653770,1,0,0:0:0:0:
316,0,653906,6,0,L|210:25,1,100,2|0,0:0|0:0,0:0:0:0:
131,215,654179,2,0,L|236:189,1,100,8|0,0:0|0:0,0:0:0:0:
416,148,654451,6,0,L|456:312,1,150,2|0,0:0|0:0,0:0:0:0:
460,332,654724,1,2,0:0:0:0:
512,192,654860,1,0,0:0:0:0:
320,104,654996,6,0,L|360:268,1,150,2|0,0:0|0:0,0:0:0:0:
364,288,655269,1,2,0:0:0:0:
416,148,655405,1,0,0:0:0:0:
224,60,655542,6,0,L|264:224,1,150,2|0,0:0|0:0,0:0:0:0:
268,244,655815,1,2,0:0:0:0:
320,104,655951,1,0,0:0:0:0:
128,16,656087,6,0,L|153:121,1,100,2|0,0:0|0:0,0:0:0:0:
343,201,656360,2,0,L|317:95,1,100,8|0,0:0|0:0,0:0:0:0:
128,280,656633,5,4,0:0:0:0:
128,280,657724,6,0,P|192:304|276:288,1,150,2|0,3:0|0:0,0:0:0:0:
304,268,657997,2,0,L|340:376,1,100,0|2,3:0|3:0,0:0:0:0:
448,236,658270,1,2,3:0:0:0:
452,196,658338,1,0,3:0:0:0:
444,156,658406,1,0,3:0:0:0:
420,124,658474,1,2,3:0:0:0:
388,104,658542,1,12,3:0:0:0:
192,68,658679,1,4,3:0:0:0:
52,204,658815,6,0,P|48:252|70:313,1,100,4|0,0:0|0:0,0:0:0:0:
196,372,659088,1,2,0:0:0:0:
256,236,659224,1,0,0:0:0:0:
384,312,659361,2,0,L|504:304,1,100,2|0,0:0|0:0,0:0:0:0:
512,132,659633,1,8,0:0:0:0:
364,168,659770,1,0,0:0:0:0:
364,168,659838,1,0,0:0:0:0:
364,168,659906,6,0,P|300:164|264:140,1,100,2|0,0:0|0:0,0:0:0:0:
180,24,660179,1,0,0:0:0:0:
80,212,660315,2,0,P|144:208|180:184,1,100,2|0,0:0|0:0,0:0:0:0:
264,68,660588,1,0,0:0:0:0:
264,68,660656,1,0,0:0:0:0:
264,68,660724,1,8,0:0:0:0:
292,264,660861,1,0,0:0:0:0:
292,264,660929,1,0,0:0:0:0:
292,264,660997,6,0,L|272:376,1,100,2|0,0:0|0:0,0:0:0:0:
420,324,661270,1,0,0:0:0:0:
184,248,661406,2,0,L|204:136,1,100,2|0,0:0|0:0,0:0:0:0:
228,0,661679,1,0,0:0:0:0:
88,56,661815,1,8,0:0:0:0:
312,96,661951,1,0,0:0:0:0:
352,104,662020,1,0,0:0:0:0:
392,112,662088,6,0,L|504:96,1,100,2|0,0:0|0:0,0:0:0:0:
424,276,662361,2,0,L|312:260,1,100,2|0,0:0|0:0,0:0:0:0:
176,244,662633,1,2,0:0:0:0:
104,112,662770,1,0,0:0:0:0:
96,72,662838,1,0,0:0:0:0:
100,32,662906,1,8,0:0:0:0:
176,244,663042,1,0,0:0:0:0:
184,284,663110,1,0,0:0:0:0:
180,324,663179,6,0,P|136:348|68:352,1,100,2|0,0:0|0:0,0:0:0:0:
104,112,663451,1,2,0:0:0:0:
256,100,663588,1,0,0:0:0:0:
384,176,663724,1,2,0:0:0:0:
440,316,663861,1,0,0:0:0:0:
292,300,663997,1,8,0:0:0:0:
384,176,664133,1,0,0:0:0:0:
384,176,664201,1,0,0:0:0:0:
384,176,664270,6,0,P|392:112|380:72,1,100,2|0,0:0|0:0,0:0:0:0:
236,52,664542,1,0,0:0:0:0:
88,24,664679,2,0,P|80:88|92:128,1,100,2|0,0:0|0:0,0:0:0:0:
176,244,664951,1,0,0:0:0:0:
168,284,665020,1,0,0:0:0:0:
160,324,665088,1,8,0:0:0:0:
340,256,665224,1,0,0:0:0:0:
332,216,665293,1,0,0:0:0:0:
324,176,665361,6,0,P|316:116|328:76,1,100,2|0,0:0|0:0,0:0:0:0:
464,24,665633,1,0,0:0:0:0:
432,172,665770,2,0,L|464:288,1,100,2|0,0:0|0:0,0:0:0:0:
348,372,666042,1,0,0:0:0:0:
240,268,666179,2,0,L|208:152,1,100,8|0,0:0|0:0,0:0:0:0:
204,132,666383,1,0,0:0:0:0:
204,132,666451,6,0,P|144:136|104:160,1,100,2|0,0:0|0:0,0:0:0:0:
360,260,666724,2,0,P|420:256|460:232,1,100,2|0,0:0|0:0,0:0:0:0:
336,64,666997,1,2,0:0:0:0:
288,344,667133,1,0,0:0:0:0:
288,344,667201,1,0,0:0:0:0:
288,344,667270,1,8,0:0:0:0:
213,171,667406,1,0,0:0:0:0:
460,80,667542,6,0,L|494:173,1,100,2|0,0:0|0:0,0:0:0:0:
440,312,667815,1,2,0:0:0:0:
340,204,667951,1,0,0:0:0:0:
288,344,668088,1,2,0:0:0:0:
188,236,668224,1,0,0:0:0:0:
120,368,668361,2,0,L|4:344,1,100,8|0,0:0|0:0,0:0:0:0:
8,312,668565,1,0,0:0:0:0:
8,312,668633,6,0,P|0:248|8:208,1,100,2|0,0:0|0:0,0:0:0:0:
144,156,668906,1,0,0:0:0:0:
284,100,669042,2,0,P|292:36|284:-4,1,100,2|0,0:0|0:0,0:0:0:0:
144,156,669315,1,0,0:0:0:0:
152,196,669383,1,0,0:0:0:0:
160,236,669451,1,8,0:0:0:0:
354,289,669588,1,0,0:0:0:0:
362,249,669656,1,0,0:0:0:0:
370,209,669724,6,0,L|390:105,1,100,2|0,0:0|0:0,0:0:0:0:
286,1,669997,1,0,0:0:0:0:
228,140,670133,2,0,P|184:164|128:164,1,100,2|0,0:0|0:0,0:0:0:0:
8,88,670406,1,0,0:0:0:0:
60,304,670542,1,8,0:0:0:0:
147,177,670679,1,0,0:0:0:0:
147,177,670747,1,0,0:0:0:0:
147,177,670815,6,0,P|155:125|147:73,1,100,2|0,0:0|0:0,0:0:0:0:
280,252,671088,2,0,P|272:304|280:356,1,100,2|0,0:0|0:0,0:0:0:0:
472,284,671361,1,2,0:0:0:0:
216,188,671497,1,0,0:0:0:0:
216,188,671565,1,0,0:0:0:0:
216,188,671633,1,8,0:0:0:0:
504,108,671770,1,0,0:0:0:0:
504,108,671838,1,0,0:0:0:0:
504,108,671906,6,0,P|512:48|496:8,1,100,2|0,0:0|0:0,0:0:0:0:
380,104,672179,1,2,0:0:0:0:
256,20,672315,1,0,0:0:0:0:
132,104,672451,2,0,L|24:84,1,100,2|0,0:0|0:0,0:0:0:0:
33,298,672724,2,0,L|132:280,1,100,8|0,0:0|0:0,0:0:0:0:
172,272,672929,1,0,0:0:0:0:
172,272,672997,6,0,P|184:328|176:376,1,100,2|0,0:0|0:0,0:0:0:0:
312,220,673270,1,0,0:0:0:0:
88,168,673406,2,0,P|76:112|84:64,1,100,2|0,0:0|0:0,0:0:0:0:
276,8,673679,1,0,0:0:0:0:
316,16,673747,1,0,0:0:0:0:
356,24,673815,1,8,0:0:0:0:
472,192,673951,1,0,0:0:0:0:
432,200,674019,1,0,0:0:0:0:
392,208,674088,6,0,L|288:228,1,100,2|0,0:0|0:0,0:0:0:0:
188,120,674361,1,2,0:0:0:0:
81,225,674498,1,0,0:0:0:0:
186,332,674633,2,0,L|290:312,1,100,2|0,0:0|0:0,0:0:0:0:
188,120,674906,2,0,L|84:140,1,100,8|0,0:0|0:0,0:0:0:0:
50,146,675111,1,0,0:0:0:0:
50,146,675179,5,2,0:0:0:0:
100,4,675315,1,0,0:0:0:0:
232,276,675588,2,0,P|312:288|412:224,1,200,2|0,0:0|0:0,0:0:0:0:
464,88,675997,1,2,0:0:0:0:
512,344,676133,1,0,0:0:0:0:
312,136,676270,6,0,L|196:112,1,100,4|0,0:0|0:0,0:0:0:0:
20,76,676542,1,2,0:0:0:0:
153,222,676679,1,0,0:0:0:0:
131,25,676815,1,2,0:0:0:0:
33,197,676951,1,0,0:0:0:0:
214,115,677088,2,0,L|312:136,1,100,8|0,0:0|0:0,0:0:0:0:
352,144,677292,1,0,0:0:0:0:
352,144,677361,6,0,P|372:96|368:40,1,100,2|0,0:0|0:0,0:0:0:0:
184,124,677633,1,2,0:0:0:0:
356,228,677770,1,0,0:0:0:0:
172,300,677906,1,2,0:0:0:0:
352,384,678042,1,0,0:0:0:0:
392,380,678111,1,0,0:0:0:0:
432,376,678179,2,0,P|444:324|432:272,1,100,8|0,0:0|0:0,0:0:0:0:
424,240,678383,1,0,0:0:0:0:
412,204,678451,6,0,L|304:180,1,100,2|0,0:0|0:0,0:0:0:0:
116,144,678724,1,2,0:0:0:0:
228,308,678861,1,0,0:0:0:0:
328,60,678997,2,0,L|220:36,1,100,2|0,0:0|0:0,0:0:0:0:
32,0,679270,1,8,0:0:0:0:
200,108,679407,1,0,0:0:0:0:
204,148,679474,1,0,0:0:0:0:
196,188,679542,5,2,0:0:0:0:
16,276,679679,1,0,0:0:0:0:
120,108,679815,1,2,0:0:0:0:
208,288,679952,1,0,0:0:0:0:
312,120,680088,2,0,L|436:148,1,100,2|0,0:0|0:0,0:0:0:0:
448,152,680292,1,0,0:0:0:0:
448,152,680361,2,0,L|420:276,1,100,8|0,0:0|0:0,0:0:0:0:
416,288,680565,1,0,0:0:0:0:
416,288,680633,6,0,L|292:260,1,100,2|0,0:0|0:0,0:0:0:0:
120,228,680906,1,2,0:0:0:0:
252,80,681042,1,0,0:0:0:0:
212,304,681179,2,0,P|168:340|116:344,1,100,2|0,0:0|0:0,0:0:0:0:
16,148,681451,2,0,P|60:112|112:108,1,100,8|0,0:0|0:0,0:0:0:0:
140,120,681656,1,0,0:0:0:0:
176,136,681724,6,0,L|280:116,1,100,2|0,0:0|0:0,0:0:0:0:
472,76,681997,1,2,0:0:0:0:
336,225,682133,1,0,0:0:0:0:
358,24,682270,1,2,0:0:0:0:
458,199,682406,1,0,0:0:0:0:
470,235,682474,1,0,0:0:0:0:
470,275,682542,1,8,0:0:0:0:
244,352,682679,1,0,0:0:0:0:
232,316,682747,1,0,0:0:0:0:
232,276,682815,6,0,L|256:172,1,100,2|0,0:0|0:0,0:0:0:0:
432,84,683088,1,2,0:0:0:0:
244,16,683224,1,0,0:0:0:0:
368,176,683361,2,0,L|392:280,1,100,2|0,0:0|0:0,0:0:0:0:
121,273,683633,2,0,L|144:176,1,100,8|0,0:0|0:0,0:0:0:0:
156,136,683838,1,0,0:0:0:0:
156,136,683906,6,0,P|96:120|56:128,1,100,2|0,0:0|0:0,0:0:0:0:
144,364,684179,2,0,P|193:370|240:354,1,100,2|0,0:0|0:0,0:0:0:0:
452,244,684451,1,2,0:0:0:0:
340,56,684588,1,0,0:0:0:0:
300,44,684656,1,0,0:0:0:0:
264,32,684724,1,8,0:0:0:0:
408,160,684861,1,0,0:0:0:0:
448,148,684929,1,0,0:0:0:0:
484,136,684997,6,0,P|492:80|480:40,1,100,2|0,0:0|0:0,0:0:0:0:
296,120,685270,1,2,0:0:0:0:
452,244,685406,1,0,0:0:0:0:
272,332,685542,2,0,L|160:316,1,100,2|0,0:0|0:0,0:0:0:0:
52,156,685815,2,0,L|164:140,1,100,8|0,0:0|0:0,0:0:0:0:
192,136,686020,1,0,0:0:0:0:
192,136,686088,6,0,P|204:188|192:236,1,100,2|0,0:0|0:0,0:0:0:0:
356,116,686361,2,0,P|344:64|356:16,1,100,2|0,0:0|0:0,0:0:0:0:
504,152,686633,1,2,0:0:0:0:
312,208,686770,1,0,0:0:0:0:
272,200,686838,1,0,0:0:0:0:
232,192,686906,1,8,0:0:0:0:
124,24,687042,1,0,0:0:0:0:
84,32,687110,1,0,0:0:0:0:
44,40,687179,6,0,P|28:92|40:148,1,100,2|0,0:0|0:0,0:0:0:0:
108,324,687451,1,2,0:0:0:0:
256,188,687588,1,0,0:0:0:0:
404,324,687724,1,2,0:0:0:0:
477,136,687861,1,0,0:0:0:0:
256,188,687997,2,0,L|144:168,1,100,8|0,0:0|0:0,0:0:0:0:
120,164,688201,1,0,0:0:0:0:
120,164,688270,6,0,P|108:108|124:68,1,100,2|0,0:0|0:0,0:0:0:0:
389,69,688542,2,0,P|404:116|392:164,1,100,2|0,0:0|0:0,0:0:0:0:
304,344,688815,1,2,0:0:0:0:
112,288,688951,1,0,0:0:0:0:
112,288,689020,1,0,0:0:0:0:
112,288,689088,1,8,0:0:0:0:
256,148,689224,1,0,0:0:0:0:
256,148,689292,1,0,0:0:0:0:
256,148,689361,6,0,L|256:48,1,100,2|0,0:0|0:0,0:0:0:0:
60,0,689633,1,0,0:0:0:0:
112,188,689770,2,0,L|112:288,1,100,2|0,0:0|0:0,0:0:0:0:
292,376,690042,1,0,0:0:0:0:
408,212,690179,1,8,0:0:0:0:
208,262,690315,1,0,0:0:0:0:
208,262,690383,1,0,0:0:0:0:
208,262,690451,6,0,L|104:290,1,100,2|0,0:0|0:0,0:0:0:0:
200,88,690724,2,0,L|304:116,1,100,2|0,0:0|0:0,0:0:0:0:
488,172,690997,1,2,0:0:0:0:
429,363,691133,1,0,0:0:0:0:
429,363,691201,1,0,0:0:0:0:
429,363,691270,1,8,0:0:0:0:
238,304,691406,1,0,0:0:0:0:
238,304,691474,1,0,0:0:0:0:
238,304,691542,6,0,P|176:304|128:320,1,100,2|0,0:0|0:0,0:0:0:0:
60,128,691815,2,0,P|122:128|170:112,1,100,2|0,0:0|0:0,0:0:0:0:
328,8,692088,1,2,0:0:0:0:
388,200,692224,1,0,0:0:0:0:
236,72,692361,1,8,0:0:0:0:
432,28,692497,1,0,0:0:0:0:
432,28,692565,1,0,0:0:0:0:
432,28,692633,5,12,3:0:0:0:
256,192,692701,12,4,693724,0:0:0:0:
372,328,710088,6,0,P|436:256|412:148,1,200,2|4,3:0|3:0,0:0:0:0:
392,132,710429,1,0,3:0:0:0:
352,128,710498,1,2,3:0:0:0:
168,220,710634,1,2,3:0:0:0:
176,260,710702,1,0,3:0:0:0:
184,300,710770,1,0,3:0:0:0:
192,340,710838,1,2,3:0:0:0:
200,380,710907,1,12,3:0:0:0:
304,256,711043,1,4,3:0:0:0:
36,180,711179,6,0,L|16:72,1,100,4|0,0:0|0:0,0:0:0:0:
212,124,711451,1,2,0:0:0:0:
72,272,711588,1,0,0:0:0:0:
18,82,711724,1,2,0:0:0:0:
168,220,711861,1,0,0:0:0:0:
320,88,711997,2,0,P|368:76|416:88,1,100,8|0,0:0|0:0,0:0:0:0:
448,112,712201,1,0,0:0:0:0:
448,112,712270,6,0,L|432:8,1,100,2|0,0:0|0:0,0:0:0:0:
360,232,712542,2,0,L|376:336,1,100,2|0,0:0|0:0,0:0:0:0:
180,292,712815,1,2,0:0:0:0:
316,148,712951,1,0,0:0:0:0:
324,108,713020,1,0,0:0:0:0:
316,68,713088,1,8,0:0:0:0:
52,4,713224,1,0,0:0:0:0:
44,44,713293,1,0,0:0:0:0:
52,84,713361,6,0,L|160:64,1,100,2|0,0:0|0:0,0:0:0:0:
348,32,713633,1,2,0:0:0:0:
508,152,713770,1,0,0:0:0:0:
324,224,713906,1,2,0:0:0:0:
460,44,714042,1,0,0:0:0:0:
436,243,714179,1,8,0:0:0:0:
282,119,714315,1,0,0:0:0:0:
244,112,714383,1,0,0:0:0:0:
204,120,714451,6,0,P|168:156|156:208,1,100,2|0,0:0|0:0,0:0:0:0:
389,325,714724,2,0,P|425:289|437:237,1,100,2|0,0:0|0:0,0:0:0:0:
364,56,714997,1,2,0:0:0:0:
256,224,715133,1,0,0:0:0:0:
268,264,715201,1,0,0:0:0:0:
280,304,715270,1,8,0:0:0:0:
72,264,715406,1,0,0:0:0:0:
60,224,715474,1,0,0:0:0:0:
48,184,715542,6,0,L|72:80,1,100,2|0,0:0|0:0,0:0:0:0:
256,8,715815,1,2,0:0:0:0:
256,224,715951,1,0,0:0:0:0:
464,184,716088,2,0,L|440:80,1,100,2|0,0:0|0:0,0:0:0:0:
256,8,716361,1,8,0:0:0:0:
256,224,716497,1,0,0:0:0:0:
256,264,716565,1,0,0:0:0:0:
256,304,716633,6,0,P|208:312|148:280,1,100,2|0,0:0|0:0,0:0:0:0:
80,108,716906,1,2,0:0:0:0:
276,144,717042,1,0,0:0:0:0:
8,240,717179,1,2,0:0:0:0:
116,24,717315,1,0,0:0:0:0:
116,24,717383,1,0,0:0:0:0:
116,24,717451,1,8,0:0:0:0:
161,293,717588,1,0,0:0:0:0:
161,293,717656,1,0,0:0:0:0:
161,293,717724,6,0,P|207:311|256:304,1,100,2|0,0:0|0:0,0:0:0:0:
440,220,717997,1,2,0:0:0:0:
244,176,718133,1,0,0:0:0:0:
364,336,718270,1,2,0:0:0:0:
364,336,718338,1,0,0:0:0:0:
364,336,718406,1,0,0:0:0:0:
356,136,718542,1,8,0:0:0:0:
255,304,718679,1,0,0:0:0:0:
255,304,718747,1,0,0:0:0:0:
255,304,718815,6,0,P|207:311|161:293,1,100,2|0,0:0|0:0,0:0:0:0:
72,112,719088,1,2,0:0:0:0:
8,360,719224,1,0,0:0:0:0:
208,200,719361,1,2,0:0:0:0:
4,80,719497,1,0,0:0:0:0:
0,40,719565,1,0,0:0:0:0:
16,4,719633,1,8,0:0:0:0:
220,124,719770,1,0,0:0:0:0:
224,164,719838,1,0,0:0:0:0:
208,200,719906,6,0,L|96:224,1,100,4|0,0:0|0:0,0:0:0:0:
320,300,720179,2,0,L|432:276,1,100,2|0,0:0|0:0,0:0:0:0:
484,92,720451,1,2,0:0:0:0:
412,300,720588,1,0,0:0:0:0:
204,228,720724,1,8,0:0:0:0:
276,20,720861,1,0,0:0:0:0:
276,20,720929,1,0,0:0:0:0:
276,20,720997,6,0,P|316:60|324:112,1,100,2|0,0:0|0:0,0:0:0:0:
236,364,721270,2,0,P|196:324|188:272,1,100,2|0,0:0|0:0,0:0:0:0:
148,88,721542,1,2,0:0:0:0:
344,220,721679,1,0,0:0:0:0:
384,212,721747,1,0,0:0:0:0:
424,204,721815,1,8,0:0:0:0:
276,20,721951,1,0,0:0:0:0:
236,28,722019,1,0,0:0:0:0:
196,36,722088,6,0,L|76:24,1,100,2|0,0:0|0:0,0:0:0:0:
0,216,722361,2,0,L|120:228,1,100,2|0,0:0|0:0,0:0:0:0:
296,248,722633,1,2,0:0:0:0:
120,348,722770,1,0,0:0:0:0:
332,228,722906,1,8,0:0:0:0:
68,120,723042,1,0,0:0:0:0:
68,120,723111,1,0,0:0:0:0:
68,120,723179,6,0,P|60:68|76:24,1,100,2|0,0:0|0:0,0:0:0:0:
436,24,723451,2,0,P|452:71|444:120,1,100,2|0,0:0|0:0,0:0:0:0:
192,280,723724,1,2,0:0:0:0:
256,20,723861,1,0,0:0:0:0:
256,20,723929,1,0,0:0:0:0:
256,20,723997,1,8,0:0:0:0:
320,280,724133,1,0,0:0:0:0:
320,280,724201,1,0,0:0:0:0:
320,280,724270,6,0,P|368:316|468:308,1,150,2|0,0:0|0:0,0:0:0:0:
488,292,724542,1,2,0:0:0:0:
308,380,724679,1,0,0:0:0:0:
392,152,724815,6,0,P|344:116|244:124,1,150,2|0,0:0|0:0,0:0:0:0:
224,140,725087,1,8,0:0:0:0:
404,52,725224,1,0,0:0:0:0:
320,280,725361,6,0,P|368:316|468:308,1,150,2|0,0:0|0:0,0:0:0:0:
488,292,725633,1,2,0:0:0:0:
308,380,725770,1,0,0:0:0:0:
391,151,725906,1,2,0:0:0:0:
168,240,726042,1,0,0:0:0:0:
168,240,726111,1,0,0:0:0:0:
168,240,726179,1,8,0:0:0:0:
392,152,726315,1,0,0:0:0:0:
392,152,726383,1,0,0:0:0:0:
392,152,726451,6,0,P|428:200|420:300,1,150,2|0,0:0|0:0,0:0:0:0:
403,319,726723,1,2,0:0:0:0:
491,139,726860,1,0,0:0:0:0:
263,223,726996,6,0,P|227:175|235:75,1,150,2|0,0:0|0:0,0:0:0:0:
251,55,727270,1,8,0:0:0:0:
163,235,727405,1,0,0:0:0:0:
391,151,727542,6,0,P|427:199|419:299,1,150,2|0,0:0|0:0,0:0:0:0:
403,319,727814,1,2,0:0:0:0:
491,139,727951,1,0,0:0:0:0:
263,222,728087,1,2,0:0:0:0:
351,0,728223,1,0,0:0:0:0:
351,0,728292,1,0,0:0:0:0:
351,0,728360,1,8,0:0:0:0:
274,233,728497,1,0,0:0:0:0:
274,233,728565,1,0,0:0:0:0:
274,233,728633,6,0,L|111:223,1,150,2|0,0:0|0:0,0:0:0:0:
84,221,728906,1,2,0:0:0:0:
200,60,729042,1,0,0:0:0:0:
320,288,729179,6,0,L|483:278,1,150,2|0,0:0|0:0,0:0:0:0:
511,276,729452,1,8,0:0:0:0:
383,126,729588,1,0,0:0:0:0:
263,354,729724,6,0,L|100:344,1,150,2|0,0:0|0:0,0:0:0:0:
72,341,729997,1,2,0:0:0:0:
200,192,730133,1,0,0:0:0:0:
12,120,730270,1,2,0:0:0:0:
80,348,730406,1,0,0:0:0:0:
80,348,730474,1,0,0:0:0:0:
80,348,730542,1,8,0:0:0:0:
140,44,730679,1,0,0:0:0:0:
140,44,730747,1,0,0:0:0:0:
140,44,730815,5,4,0:0:0:0:
140,44,731906,6,0,P|116:108|132:192,1,150,2|0,3:0|0:0,0:0:0:0:
152,220,732179,2,0,L|44:256,1,100,0|2,3:0|3:0,0:0:0:0:
184,364,732452,1,2,3:0:0:0:
224,368,732520,1,0,3:0:0:0:
264,360,732588,1,0,3:0:0:0:
296,336,732656,1,2,3:0:0:0:
316,304,732724,1,12,3:0:0:0:
352,108,732861,1,4,3:0:0:0:
152,220,732997,6,0,L|64:208,1,75.0000028610231,4|0,0:0|0:0,0:0:0:0:
16,116,733270,1,2,0:0:0:0:
80,24,733406,1,0,0:0:0:0:
180,76,733542,2,0,P|216:80|268:64,1,75.0000028610231,2|0,0:0|0:0,0:0:0:0:
344,4,733815,2,0,P|380:0|432:16,1,75.0000028610231,2|0,0:0|0:0,0:0:0:0:
488,96,734088,6,0,B|500:192|500:192|464:248,1,150.000005722046,2|0,0:0|0:0,0:0:0:0:
396,320,734497,2,0,L|308:312,1,75.0000028610231,2|0,0:0|0:0,0:0:0:0:
208,304,734770,1,0,0:0:0:0:
268,208,734906,2,0,L|356:216,1,75.0000028610231,2|0,0:0|0:0,0:0:0:0:
208,304,735179,6,0,B|111:292|111:292|66:243,1,150.000005722046,2|0,0:0|0:0,0:0:0:0:
8,164,735588,1,0,0:0:0:0:
76,76,735724,2,0,P|84:32|80:0,1,75.0000028610231,2|0,0:0|0:0,0:0:0:0:
184,96,735997,2,0,P|176:140|180:172,1,75.0000028610231,2|0,0:0|0:0,0:0:0:0:
268,240,736270,5,2,0:0:0:0:
372,284,736406,1,0,0:0:0:0:
476,240,736542,1,2,0:0:0:0:
476,240,736815,2,0,P|496:152|476:20,1,225.000008583069,2|0,0:0|0:0,0:0:0:0:
384,84,737361,6,0,L|296:72,1,75.0000028610231,2|0,0:0|0:0,0:0:0:0:
200,56,737633,1,2,0:0:0:0:
88,40,737770,1,0,0:0:0:0:
128,144,737906,2,0,P|128:188|116:232,1,75.0000028610231,2|0,0:0|0:0,0:0:0:0:
12,248,738179,2,0,P|12:204|24:160,1,75.0000028610231,2|0,0:0|0:0,0:0:0:0:
121,218,738451,6,0,P|189:226|269:186,1,150.000005722046,2|0,0:0|0:0,0:0:0:0:
316,92,738861,2,0,P|384:84|464:124,1,150.000005722046,2|0,0:0|0:0,0:0:0:0:
504,220,739270,1,2,0:0:0:0:
464,324,739406,1,0,0:0:0:0:
356,360,739542,6,0,L|272:348,1,75.0000028610231,2|0,0:0|0:0,0:0:0:0:
168,332,739815,1,0,0:0:0:0:
236,244,739951,2,0,L|320:232,1,75.0000028610231,2|0,0:0|0:0,0:0:0:0:
424,216,740224,1,0,0:0:0:0:
344,136,740361,2,0,P|328:88|328:60,1,75.0000028610231,2|0,0:0|0:0,0:0:0:0:
228,16,740633,6,0,B|152:8|152:8|80:44,1,150.000005722046,2|0,0:0|0:0,0:0:0:0:
24,136,741042,1,0,0:0:0:0:
84,232,741179,2,0,B|194:243|194:243|298:191,1,225.000008583069,2|0,0:0|0:0,0:0:0:0:
396,140,741724,6,0,L|480:144,1,75.0000028610231,2|0,0:0|0:0,0:0:0:0:
500,252,741997,2,0,L|416:256,1,75.0000028610231,2|0,0:0|0:0,0:0:0:0:
388,364,742270,2,0,L|472:368,2,75.0000028610231,2|0|2,0:0|0:0|0:0,0:0:0:0:
276,360,742679,1,0,0:0:0:0:
164,352,742815,6,0,P|152:300|176:192,1,150.000005722046,2|0,0:0|0:0,0:0:0:0:
264,148,743224,2,0,P|281:75|268:2,1,150.000005722046,2|0,0:0|0:0,0:0:0:0:
164,48,743633,2,0,L|80:36,1,75.0000028610231,2|0,0:0|0:0,0:0:0:0:
36,136,743906,6,0,L|185:157,1,150.000005722046,2|0,0:0|0:0,0:0:0:0:
260,244,744315,2,0,L|409:222,1,150.000005722046,2|0,0:0|0:0,0:0:0:0:
464,124,744724,2,0,P|468:80|456:40,1,75.0000028610231,2|0,0:0|0:0,0:0:0:0:
356,8,744997,5,2,0:0:0:0:
248,32,745133,1,0,0:0:0:0:
140,60,745270,1,2,0:0:0:0:
140,60,745542,2,0,L|120:136,1,75.0000028610231,2|0,0:0|0:0,0:0:0:0:
176,232,745815,2,0,L|156:308,1,75.0000028610231,2|0,0:0|0:0,0:0:0:0:
176,232,746088,6,0,P|252:216|328:268,1,150.000005722046,2|2,0:0|0:0,0:0:0:0:
384,336,746497,1,0,0:0:0:0:
484,288,746633,2,0,L|464:208,1,75.0000028610231,2|0,0:0|0:0,0:0:0:0:
360,176,746906,2,0,L|340:96,1,75.0000028610231,2|0,0:0|0:0,0:0:0:0:
231,80,747179,5,2,0:0:0:0:
136,141,747315,1,0,0:0:0:0:
232,198,747451,1,0,0:0:0:0:
231,80,747588,2,0,P|171:33|101:36,1,150.000005722046,2|0,0:0|0:0,0:0:0:0:
17,112,747997,1,2,0:0:0:0:
102,184,748133,1,0,0:0:0:0:
64,288,748270,6,0,L|84:368,1,75.0000028610231,2|0,0:0|0:0,0:0:0:0:
184,312,748542,2,0,L|204:232,1,75.0000028610231,2|0,0:0|0:0,0:0:0:0:
300,292,748815,2,0,L|456:292,1,150.000005722046,2|2,0:0|0:0,0:0:0:0:
496,188,749224,1,0,0:0:0:0:
396,132,749361,6,0,P|388:80|392:48,1,75.0000028610231,0|0,1:0|0:0,0:0:0:0:
396,132,749770,1,2,0:0:0:0:
396,132,750179,1,2,0:0:0:0:
108,44,750451,6,0,L|88:148,1,100,4|0,0:0|0:0,0:0:0:0:
56,340,750724,1,2,0:0:0:0:
244,270,750861,1,0,0:0:0:0:
15,231,750997,1,2,0:0:0:0:
170,359,751133,1,0,0:0:0:0:
203,161,751270,1,8,0:0:0:0:
357,288,751406,1,0,0:0:0:0:
357,288,751474,1,0,0:0:0:0:
357,288,751542,6,0,P|416:304|460:296,1,100,2|0,0:0|0:0,0:0:0:0:
453,85,751815,2,0,P|404:80|357:96,1,100,2|0,0:0|0:0,0:0:0:0:
180,192,752088,1,2,0:0:0:0:
380,192,752224,1,0,0:0:0:0:
380,192,752292,1,0,0:0:0:0:
380,192,752361,1,8,0:0:0:0:
276,20,752497,1,0,0:0:0:0:
276,20,752565,1,0,0:0:0:0:
276,20,752633,6,0,P|248:72|248:120,1,100,2|0,0:0|0:0,0:0:0:0:
284,308,752906,1,2,0:0:0:0:
96,244,753042,1,0,0:0:0:0:
247,112,753179,2,0,L|364:128,1,100,2|0,0:0|0:0,0:0:0:0:
468,332,753451,2,0,L|351:316,1,100,8|0,0:0|0:0,0:0:0:0:
320,312,753656,1,0,0:0:0:0:
320,312,753724,6,0,P|312:260|328:208,1,100,2|0,0:0|0:0,0:0:0:0:
496,44,753997,2,0,P|504:96|488:148,1,100,2|0,0:0|0:0,0:0:0:0:
320,312,754270,1,2,0:0:0:0:
100,224,754406,1,0,0:0:0:0:
92,184,754474,1,0,0:0:0:0:
84,144,754542,1,8,0:0:0:0:
300,44,754679,1,0,0:0:0:0:
292,84,754747,1,0,0:0:0:0:
284,124,754815,6,0,L|300:232,1,100,2|0,0:0|0:0,0:0:0:0:
460,344,755088,1,2,0:0:0:0:
500,148,755224,1,0,0:0:0:0:
368,300,755361,1,2,0:0:0:0:
408,104,755497,1,0,0:0:0:0:
276,256,755633,2,0,P|216:260|172:248,1,100,8|0,0:0|0:0,0:0:0:0:
144,228,755838,1,0,0:0:0:0:
144,228,755906,6,0,L|120:332,1,100,2|0,0:0|0:0,0:0:0:0:
4,160,756179,2,0,L|28:56,1,100,2|0,0:0|0:0,0:0:0:0:
216,8,756451,1,2,0:0:0:0:
400,84,756588,1,0,0:0:0:0:
412,124,756656,1,0,0:0:0:0:
408,164,756724,1,8,0:0:0:0:
168,264,756861,1,0,0:0:0:0:
156,304,756929,1,0,0:0:0:0:
160,344,756997,6,0,L|264:364,1,100,2|0,0:0|0:0,0:0:0:0:
436,280,757270,1,2,0:0:0:0:
248,220,757406,1,0,0:0:0:0:
364,384,757542,1,2,0:0:0:0:
360,184,757679,1,0,0:0:0:0:
258,362,757815,2,0,L|160:344,1,100,8|0,0:0|0:0,0:0:0:0:
120,336,758020,1,0,0:0:0:0:
120,336,758088,6,0,P|112:280|124:228,1,100,2|0,0:0|0:0,0:0:0:0:
272,28,758361,2,0,P|280:84|268:136,1,100,2|0,0:0|0:0,0:0:0:0:
121,237,758633,1,2,0:0:0:0:
92,48,758770,1,0,0:0:0:0:
92,48,758838,1,0,0:0:0:0:
92,48,758906,1,8,0:0:0:0:
256,256,759042,1,0,0:0:0:0:
256,256,759111,1,0,0:0:0:0:
256,256,759179,6,0,L|384:240,1,100,2|0,0:0|0:0,0:0:0:0:
460,84,759451,2,0,L|332:68,1,100,2|0,0:0|0:0,0:0:0:0:
172,48,759724,1,2,0:0:0:0:
328,160,759861,1,0,0:0:0:0:
139,136,759997,1,8,0:0:0:0:
295,248,760134,1,0,0:0:0:0:
295,248,760201,1,0,0:0:0:0:
295,248,760270,6,0,P|304:308|296:348,1,100,2|0,0:0|0:0,0:0:0:0:
44,300,760542,2,0,P|35:240|43:200,1,100,2|0,0:0|0:0,0:0:0:0:
100,20,760815,1,2,0:0:0:0:
156,264,760951,1,0,0:0:0:0:
156,264,761020,1,0,0:0:0:0:
156,264,761088,1,8,0:0:0:0:
339,93,761224,1,0,0:0:0:0:
339,93,761293,1,0,0:0:0:0:
339,93,761361,6,0,P|396:88|440:108,1,100,2|0,0:0|0:0,0:0:0:0:
272,328,761633,2,0,P|239:281|234:233,1,100,2|0,0:0|0:0,0:0:0:0:
510,269,761906,2,0,P|485:320|446:348,1,100,2|0,0:0|0:0,0:0:0:0:
339,93,762179,1,8,0:0:0:0:
176,318,762315,1,0,0:0:0:0:
176,318,762383,1,0,0:0:0:0:
176,318,762451,6,0,L|64:336,1,100,2|0,0:0|0:0,0:0:0:0:
8,80,762724,2,0,L|120:98,1,100,2|0,0:0|0:0,0:0:0:0:
304,124,762997,1,2,0:0:0:0:
72,208,763133,1,0,0:0:0:0:
72,208,763201,1,0,0:0:0:0:
72,208,763270,1,8,0:0:0:0:
208,16,763406,1,0,0:0:0:0:
208,16,763474,1,0,0:0:0:0:
208,16,763542,6,0,P|248:0|320:8,1,100,2|0,0:0|0:0,0:0:0:0:
424,180,763815,2,0,P|384:196|312:188,1,100,2|0,0:0|0:0,0:0:0:0:
140,128,764088,1,2,0:0:0:0:
208,316,764224,1,0,0:0:0:0:
296,96,764361,1,8,0:0:0:0:
56,224,764497,1,0,0:0:0:0:
56,224,764565,1,0,0:0:0:0:
56,224,764633,6,0,P|40:276|48:332,1,100,2|0,0:0|0:0,0:0:0:0:
140,128,764906,2,0,P|143:78|128:31,1,100,2|0,0:0|0:0,0:0:0:0:
56,224,765179,1,2,0:0:0:0:
272,152,765315,1,0,0:0:0:0:
272,152,765383,1,0,0:0:0:0:
272,152,765451,1,8,0:0:0:0:
226,375,765588,1,0,0:0:0:0:
226,375,765656,1,0,0:0:0:0:
226,375,765724,6,0,P|216:316|228:264,1,100,2|0,0:0|0:0,0:0:0:0:
488,144,765997,2,0,P|498:203|488:240,1,100,2|0,0:0|0:0,0:0:0:0:
223,106,766270,2,0,P|215:57|226:9,1,100,2|0,0:0|0:0,0:0:0:0:
356,192,766542,1,8,0:0:0:0:
44,192,766679,1,0,0:0:0:0:
44,192,766747,1,0,0:0:0:0:
44,192,766815,5,4,0:0:0:0:
256,192,766883,12,4,767880,0:0:0:0:
64,48,776607,6,0,L|76:144,1,75.0000028610231,4|0,0:0|0:0,0:0:0:0:
88,236,776880,1,2,0:0:0:0:
180,172,777016,1,0,0:0:0:0:
192,284,777152,1,2,0:0:0:0:
284,216,777289,1,0,0:0:0:0:
292,328,777425,1,8,0:0:0:0:
192,284,777561,1,0,0:0:0:0:
192,284,777630,1,0,0:0:0:0:
192,284,777698,6,0,P|180:328|184:364,1,75.0000028610231,2|0,0:0|0:0,0:0:0:0:
284,216,777970,2,0,P|296:172|292:136,1,75.0000028610231,2|0,0:0|0:0,0:0:0:0:
228,52,778243,1,2,0:0:0:0:
336,20,778380,1,0,0:0:0:0:
364,24,778448,1,0,0:0:0:0:
392,28,778516,1,8,0:0:0:0:
480,136,778652,1,0,0:0:0:0:
452,140,778720,1,0,0:0:0:0:
424,144,778789,6,0,P|416:192|428:240,1,75.0000028610231,2|0,0:0|0:0,0:0:0:0:
311,264,779061,2,0,P|319:312|307:360,1,75.0000028610231,2|0,0:0|0:0,0:0:0:0:
196,337,779334,2,0,P|192:299|200:263,1,75.0000028610231,2|0,0:0|0:0,0:0:0:0:
92,217,779607,2,0,P|95:180|88:144,1,75.0000028610231,8|0,0:0|0:0,0:0:0:0:
68,120,779811,1,0,0:0:0:0:
68,120,779880,6,0,L|88:36,1,75.0000028610231,2|0,0:0|0:0,0:0:0:0:
192,8,780152,1,2,0:0:0:0:
220,116,780289,1,0,0:0:0:0:
328,80,780425,1,2,0:0:0:0:
364,184,780561,1,0,0:0:0:0:
364,184,780630,1,0,0:0:0:0:
364,184,780698,2,0,L|352:268,1,75.0000028610231,8|0,0:0|0:0,0:0:0:0:
348,288,780902,1,0,0:0:0:0:
348,288,780970,6,0,L|336:372,1,75.0000028610231,2|0,0:0|0:0,0:0:0:0:
236,308,781243,2,0,L|248:224,1,75.0000028610231,2|0,0:0|0:0,0:0:0:0:
136,260,781516,2,0,L|124:344,1,75.0000028610231,2|0,0:0|0:0,0:0:0:0:
24,280,781789,2,0,L|36:196,1,75.0000028610231,8|0,0:0|0:0,0:0:0:0:
40,176,781993,1,0,0:0:0:0:
40,176,782061,6,0,L|52:92,1,75.0000028610231,2|0,0:0|0:0,0:0:0:0:
144,36,782334,1,2,0:0:0:0:
184,140,782470,1,0,0:0:0:0:
272,68,782607,2,0,P|312:64|352:72,1,75.0000028610231,2|0,0:0|0:0,0:0:0:0:
376,80,782811,1,0,0:0:0:0:
376,80,782880,2,0,P|416:84|456:76,1,75.0000028610231,8|0,0:0|0:0,0:0:0:0:
480,68,783084,1,0,0:0:0:0:
480,68,783152,6,0,L|500:152,1,75.0000028610231,2|0,0:0|0:0,0:0:0:0:
392,188,783425,2,0,L|412:272,1,75.0000028610231,2|0,0:0|0:0,0:0:0:0:
304,308,783698,2,0,L|324:392,1,75.0000028610231,2|0,0:0|0:0,0:0:0:0:
280,208,783970,1,8,0:0:0:0:
168,312,784107,1,0,0:0:0:0:
168,312,784175,1,0,0:0:0:0:
168,312,784243,6,0,P|149:263|161:200,1,112.500004291535,2|0,3:0|0:0,0:0:0:0:
177,179,784516,2,0,L|95:151,1,75.0000028610231,0|2,3:0|3:0,0:0:0:0:
201,71,784789,1,2,3:0:0:0:
231,68,784857,1,0,3:0:0:0:
261,74,784925,1,0,3:0:0:0:
285,92,784993,1,0,3:0:0:0:
300,116,785061,1,12,3:0:0:0:
327,263,785198,1,4,3:0:0:0:
384,24,785334,5,4,1:0:0:0:
128,360,785607,1,4,1:0:0:0:
236,120,792970,6,0,B|410:120|410:120|358:100,1,225.000008583069,2|0,0:0|0:0,0:0:0:0:
304,264,793516,2,0,B|129:264|129:264|181:283,1,225.000008583069,2|0,0:0|0:0,0:0:0:0:
284,340,794061,5,4,0:1:0:0:
228,44,794334,1,4,0:1:0:0:
276,264,801698,38,0,B|101:264|101:264|153:283,1,225.000008583069,2|0,0:0|0:0,0:0:0:0:
208,120,802244,2,0,B|382:120|382:120|330:100,1,225.000008583069,2|0,0:0|0:0,0:0:0:0:
228,44,802789,6,0,L|140:44,1,75.0000028610231,4|0,0:1|0:0,0:0:0:0:
32,44,803061,1,0,0:0:0:0:
92,148,803198,1,2,0:0:0:0:
92,148,803607,1,2,0:0:0:0:
92,148,803675,1,0,0:0:0:0:
92,148,803743,1,2,0:0:0:0:
28,252,803880,1,2,0:0:0:0:
28,252,803948,1,0,0:0:0:0:
28,252,804016,1,2,0:0:0:0:
120,328,804152,2,0,L|200:328,1,75.0000028610231,2|2,0:0|0:0,0:0:0:0:
316,328,804425,2,0,L|396:328,2,75.0000028610231,2|0|0,0:0|0:0|0:0,0:0:0:0:
256,224,804834,1,2,0:0:0:0:
256,224,805107,5,0,0:0:0:0:
256,224,805380,1,2,0:0:0:0:
72,136,805789,1,2,0:0:0:0:
72,136,805857,1,0,0:0:0:0:
72,136,805925,1,2,0:0:0:0:
308,84,806198,1,2,0:0:0:0:
308,84,806266,1,0,0:0:0:0:
308,84,806334,1,2,0:0:0:0:
416,136,806470,1,0,0:0:0:0:
352,236,806607,2,0,L|352:328,1,75.0000028610231,2|0,0:0|0:0,0:0:0:0:
464,352,806880,1,2,0:0:0:0:
48,352,807289,5,0,0:0:0:0:
116,124,807561,1,2,0:0:0:0:
116,124,807970,1,2,0:0:0:0:
116,124,808039,1,0,0:0:0:0:
116,124,808107,1,2,0:0:0:0:
164,232,808243,1,2,0:0:0:0:
164,232,808311,1,0,0:0:0:0:
164,232,808380,1,2,0:0:0:0:
260,160,808516,1,2,0:0:0:0:
304,272,808652,1,0,0:0:0:0:
396,196,808789,2,0,L|480:196,2,75.0000028610231,2|0|0,0:0|0:0|0:0,0:0:0:0:
360,80,809198,1,2,0:0:0:0:
360,80,809470,6,0,L|272:80,1,75.0000028610231,2|0,0:0|0:0,0:0:0:0:
172,40,809743,2,0,L|136:192,1,150.000005722046,2|0,0:0|0:0,0:0:0:0:
24,148,810152,2,0,L|3:236,1,75.0000028610231,2|0,0:0|0:0,0:0:0:0:
52,332,810425,1,2,0:0:0:0:
164,296,810561,2,0,L|184:384,1,75.0000028610231,2|0,0:0|0:0,0:0:0:0:
296,332,810834,1,0,0:0:0:0:
412,368,810970,2,0,L|496:368,2,75.0000028610231,2|0|2,0:0|0:0|0:0,0:0:0:0:
164,296,811516,5,2,0:0:0:0:
64,232,811652,2,0,L|56:156,1,75.0000028610231
44,36,811925,1,2,0:0:0:0:
44,36,812334,1,2,0:0:0:0:
44,36,812402,1,0,0:0:0:0:
44,36,812470,1,2,0:0:0:0:
150,96,812607,1,2,0:0:0:0:
150,96,812675,1,0,0:0:0:0:
150,96,812743,1,2,0:0:0:0:
256,36,812880,1,2,0:0:0:0:
362,96,813016,1,0,0:0:0:0:
468,36,813152,2,0,L|488:128,2,75.0000028610231,2|0|0,0:0|0:0|0:0,0:0:0:0:
362,96,813561,1,2,0:0:0:0:
362,96,813834,6,0,L|340:168,1,75.0000028610231,2|0,0:0|0:0,0:0:0:0:
304,284,814107,2,0,L|132:284,1,150.000005722046,2|0,0:0|0:0,0:0:0:0:
40,248,814516,1,2,0:0:0:0:
40,248,814584,1,0,0:0:0:0:
40,248,814652,1,2,0:0:0:0:
252,140,814925,1,2,0:0:0:0:
252,140,814993,1,0,0:0:0:0:
252,140,815061,1,2,0:0:0:0:
136,112,815198,1,0,0:0:0:0:
228,32,815334,2,0,L|304:32,1,75.0000028610231,2|0,0:0|0:0,0:0:0:0:
424,32,815607,1,2,0:0:0:0:
424,32,816016,6,0,L|448:112,1,75.0000028610231,2|0,0:0|0:0,0:0:0:0:
476,220,816289,2,0,L|324:184,1,150.000005722046,2|0,0:0|0:0,0:0:0:0:
212,156,816698,1,2,0:0:0:0:
212,156,816766,1,0,0:0:0:0:
212,156,816834,1,2,0:0:0:0:
124,240,816970,1,2,0:0:0:0:
124,240,817038,1,0,0:0:0:0:
124,240,817106,1,2,0:0:0:0:
40,152,817243,1,2,0:0:0:0:
128,68,817380,1,0,0:0:0:0:
124,240,817516,2,0,L|124:328,2,75.0000028610231,2|0|0,0:0|0:0|0:0,0:0:0:0:
40,152,817925,1,2,0:0:0:0:
200,56,818061,38,4,B|274:46|304:138|238:232|182:189|121:237|121:237|86:169|17:185|-5:72|59:1|124:39,1,600.000022888185,4|2,0:1|0:0,0:0:0:0:
121,38,819698,1,4,0:0:0:0:
340,132,819834,1,0,0:0:0:0:
168,184,819970,2,0,L|88:212,1,75.0000028610231,2|0,0:0|0:0,0:0:0:0:
340,132,820243,5,4,0:0:0:0:
400,336,820380,1,0,0:0:0:0:
400,336,820448,1,0,0:0:0:0:
400,336,820516,1,2,0:0:0:0:
224,220,820652,1,0,0:0:0:0:
468,140,820789,1,2,0:0:0:0:
468,140,820857,1,0,0:0:0:0:
468,140,820925,1,0,0:0:0:0:
296,24,821061,1,0,0:0:0:0:
224,220,821198,2,0,P|220:288|232:328,1,100,2|0,0:0|0:0,0:0:0:0:
424,244,821470,5,2,0:0:0:0:
424,244,821539,1,0,0:0:0:0:
424,244,821607,1,0,0:0:0:0:
296,24,821743,1,0,0:0:0:0:
228,318,821880,1,2,0:0:0:0:
228,318,821948,1,0,0:0:0:0:
228,318,822016,1,0,0:0:0:0:
460,236,822152,1,0,1:0:0:0:
120,192,822289,1,0,1:0:0:0:
372,96,822425,5,4,0:0:0:0:
228,318,822561,1,2,0:0:0:0:
228,318,822630,1,0,0:0:0:0:
228,318,822698,2,0,L|112:300,1,100
64,56,822970,1,2,0:0:0:0:
64,56,823039,1,0,0:0:0:0:
64,56,823107,2,0,L|180:38,1,100
420,8,823380,1,2,0:0:0:0:
420,8,823448,1,0,0:0:0:0:
420,8,823516,5,0,0:0:0:0:
319,246,823652,1,2,0:0:0:0:
319,246,823720,1,0,0:0:0:0:
319,246,823789,2,0,P|236:248|208:236,1,100
63,64,824061,1,2,0:0:0:0:
63,64,824130,1,0,0:0:0:0:
63,64,824198,1,0,0:0:0:0:
24,344,824334,1,0,1:0:0:0:
68,30,824470,1,0,1:0:0:0:
222,243,824607,5,4,0:0:0:0:
0,160,824743,1,2,0:0:0:0:
0,160,824811,1,0,0:0:0:0:
0,160,824880,2,0,L|108:128,1,100
344,44,825152,1,2,0:0:0:0:
344,44,825220,1,0,0:0:0:0:
344,44,825288,2,0,L|439:72,1,100
496,340,825561,1,2,0:0:0:0:
496,340,825630,1,0,0:0:0:0:
496,340,825698,5,0,0:0:0:0:
222,243,825834,1,2,0:0:0:0:
222,243,825902,1,0,0:0:0:0:
222,243,825970,2,0,P|212:180|220:132,1,100
480,56,826243,1,2,0:0:0:0:
480,56,826311,1,0,0:0:0:0:
480,56,826380,1,0,0:0:0:0:
380,312,826516,1,0,1:0:0:0:
272,4,826652,1,0,1:0:0:0:
272,4,826720,1,0,0:0:0:0:
272,4,826789,5,4,0:0:0:0:
488,168,826925,1,2,0:0:0:0:
488,168,826993,1,0,0:0:0:0:
488,168,827061,2,0,P|498:231|490:279,1,100
200,384,827334,1,2,0:0:0:0:
200,384,827402,1,0,0:0:0:0:
200,384,827470,2,0,P|190:321|198:273,1,100
356,148,827743,1,2,0:0:0:0:
356,148,827811,1,0,0:0:0:0:
356,148,827880,5,0,0:0:0:0:
308,352,828016,1,2,0:0:0:0:
308,352,828084,1,0,0:0:0:0:
308,352,828152,1,0,0:0:0:0:
104,304,828289,1,0,0:0:0:0:
152,100,828425,1,2,0:0:0:0:
152,100,828493,1,0,0:0:0:0:
152,100,828561,1,0,0:0:0:0:
308,352,828698,1,0,1:0:0:0:
60,296,828834,1,0,1:0:0:0:
348,164,828970,5,4,0:0:0:0:
180,368,829107,1,2,0:0:0:0:
180,368,829175,1,0,0:0:0:0:
180,368,829243,2,0,L|160:256,1,100
116,48,829516,1,2,0:0:0:0:
116,48,829584,1,0,0:0:0:0:
116,48,829652,2,0,L|96:160,1,100
64,356,829925,1,2,0:0:0:0:
64,356,829993,1,0,0:0:0:0:
64,356,830061,5,0,0:0:0:0:
288,280,830198,1,2,0:0:0:0:
288,280,830266,1,0,0:0:0:0:
288,280,830334,2,0,P|340:276|392:292,1,100
480,68,830607,1,2,0:0:0:0:
480,68,830675,1,0,0:0:0:0:
480,68,830743,1,0,0:0:0:0:
504,348,830880,1,0,1:0:0:0:
348,112,831016,1,0,1:0:0:0:
348,112,831084,1,0,0:0:0:0:
348,112,831152,6,0,P|296:116|244:100,1,100,4|2,0:0|0:0,0:0:0:0:
184,56,831357,1,0,0:0:0:0:
184,56,831425,2,0,L|168:164,1,100
48,336,831698,1,2,0:0:0:0:
48,336,831766,1,0,0:0:0:0:
48,336,831834,2,0,L|32:228,1,100
232,312,832107,1,2,0:0:0:0:
232,312,832175,1,0,0:0:0:0:
232,312,832243,5,0,0:0:0:0:
80,132,832380,1,2,0:0:0:0:
80,132,832448,1,0,0:0:0:0:
80,132,832516,1,0,0:0:0:0:
140,360,832652,1,0,0:0:0:0:
232,144,832789,2,0,P|236:92|220:40,1,100,2|0,0:0|0:0,0:0:0:0:
72,228,833061,1,0,1:0:0:0:
364,148,833198,1,0,1:0:0:0:
20,84,833334,5,4,0:0:0:0:
104,320,833470,1,2,0:0:0:0:
104,320,833539,1,0,0:0:0:0:
104,320,833607,2,0,L|216:296,1,100
364,148,833880,1,2,0:0:0:0:
364,148,833949,1,0,0:0:0:0:
364,148,834017,2,0,L|252:124,1,100
52,80,834289,1,2,0:0:0:0:
52,80,834357,1,0,0:0:0:0:
52,80,834425,5,0,0:0:0:0:
320,12,834561,1,2,0:0:0:0:
320,12,834630,1,0,0:0:0:0:
320,12,834698,1,0,0:0:0:0:
256,276,834834,1,0,0:0:0:0:
192,12,834970,1,2,0:0:0:0:
192,12,835039,1,0,0:0:0:0:
192,12,835107,1,0,0:0:0:0:
460,80,835243,1,0,1:0:0:0:
256,276,835380,1,0,1:0:0:0:
256,276,835448,1,0,0:0:0:0:
256,276,835516,6,0,L|152:256,1,100,4|2,0:0|0:0,0:0:0:0:
80,240,835720,1,0,0:0:0:0:
80,240,835789,1,0,0:0:0:0:
320,168,835925,1,0,0:0:0:0:
168,367,836061,1,2,0:0:0:0:
168,367,836130,1,0,0:0:0:0:
168,367,836198,1,0,0:0:0:0:
174,116,836334,1,0,0:0:0:0:
316,322,836470,1,2,0:0:0:0:
316,322,836539,1,0,0:0:0:0:
316,322,836607,6,0,P|376:328|420:312,1,100,0|2,0:0|0:0,0:0:0:0:
480,264,836811,1,0,0:0:0:0:
480,264,836880,2,0,L|504:368,1,100
256,256,837152,1,2,0:0:0:0:
232,212,837220,1,0,0:0:0:0:
224,160,837289,1,0,1:0:0:0:
240,112,837357,1,0,1:0:0:0:
280,84,837425,1,0,1:0:0:0:
508,20,837561,1,0,1:0:0:0:
413,316,837698,5,4,0:0:0:0:
280,84,837834,1,2,0:0:0:0:
280,84,837902,1,0,0:0:0:0:
280,84,837970,2,0,L|172:64,1,100
64,268,838243,1,2,0:0:0:0:
64,268,838311,1,0,0:0:0:0:
64,268,838379,2,0,L|172:248,1,100
376,216,838652,1,2,0:0:0:0:
376,216,838720,1,0,0:0:0:0:
376,216,838789,5,0,0:0:0:0:
124,140,838925,1,2,0:0:0:0:
124,140,838993,1,0,0:0:0:0:
124,140,839061,1,0,0:0:0:0:
216,376,839198,1,0,0:0:0:0:
312,120,839334,1,2,0:0:0:0:
312,120,839402,1,0,0:0:0:0:
312,120,839470,1,0,0:0:0:0:
416,384,839607,2,0,P|444:344|452:280,1,100,0|0,1:0|1:0,0:0:0:0:
432,220,839811,1,0,0:0:0:0:
432,220,839880,5,4,0:0:0:0:
156,288,840016,1,2,0:0:0:0:
156,288,840084,1,0,0:0:0:0:
156,288,840152,1,0,0:0:0:0:
312,120,840289,1,0,0:0:0:0:
272,384,840425,1,2,0:0:0:0:
272,384,840493,1,0,0:0:0:0:
272,384,840561,1,0,0:0:0:0:
204,172,840698,1,0,0:0:0:0:
432,220,840834,1,2,0:0:0:0:
432,220,840902,1,0,0:0:0:0:
432,220,840970,6,0,L|456:116,1,100,0|2,0:0|0:0,0:0:0:0:
472,44,841175,1,0,0:0:0:0:
472,44,841243,2,0,P|424:16|376:20,1,100
152,96,841516,1,2,0:0:0:0:
152,96,841584,1,0,0:0:0:0:
152,96,841652,1,0,0:0:0:0:
360,164,841789,1,0,1:0:0:0:
76,248,841925,1,0,1:0:0:0:
180,8,842061,5,4,0:0:0:0:
292,248,842198,1,2,0:0:0:0:
292,248,842266,1,0,0:0:0:0:
292,248,842334,2,0,L|276:352,1,100
56,164,842607,1,2,0:0:0:0:
56,164,842675,1,0,0:0:0:0:
56,164,842743,2,0,L|72:60,1,100
284,8,843016,1,2,0:0:0:0:
284,8,843084,1,0,0:0:0:0:
284,8,843152,5,0,0:0:0:0:
184,204,843289,1,2,0:0:0:0:
184,204,843357,1,0,0:0:0:0:
184,204,843425,1,0,0:0:0:0:
396,144,843561,1,0,0:0:0:0:
160,32,843698,1,2,0:0:0:0:
160,32,843766,1,0,0:0:0:0:
160,32,843834,1,0,0:0:0:0:
196,248,843970,2,0,P|200:304|184:356,1,100,0|0,1:0|1:0,1:0:0:0:
64,164,844243,5,4,0:0:0:0:
312,112,844380,1,2,0:0:0:0:
312,112,844448,1,0,0:0:0:0:
312,112,844516,1,0,0:0:0:0:
104,40,844652,1,0,0:0:0:0:
156,288,844789,1,2,0:0:0:0:
156,288,844857,1,0,0:0:0:0:
156,288,844925,1,0,0:0:0:0:
312,112,845061,1,0,0:0:0:0:
364,360,845198,1,2,0:0:0:0:
364,360,845266,1,0,0:0:0:0:
364,360,845334,5,0,0:0:0:0:
164,296,845470,1,2,0:0:0:0:
164,296,845539,1,0,0:0:0:0:
164,296,845607,1,0,0:0:0:0:
400,200,845743,1,0,0:0:0:0:
84,132,845880,1,2,0:0:0:0:
84,132,845948,1,0,0:0:0:0:
84,132,846016,1,0,0:0:0:0:
184,368,846152,1,0,1:0:0:0:
256,68,846289,1,0,1:0:0:0:
40,292,846425,5,4,0:0:0:0:
316,228,846561,1,2,0:0:0:0:
316,228,846630,1,0,0:0:0:0:
316,228,846698,2,0,L|428:252,1,100
512,0,846970,1,2,0:0:0:0:
512,0,847039,1,0,0:0:0:0:
512,0,847107,2,0,L|414:20,1,100
316,228,847380,1,2,0:0:0:0:
316,228,847449,1,0,0:0:0:0:
316,228,847517,6,0,L|218:207,1,100,0|2,0:0|0:0,0:0:0:0:
144,192,847720,1,0,0:0:0:0:
144,192,847789,2,0,P|140:136|156:96,1,100
228,344,848061,1,2,0:0:0:0:
228,344,848130,1,0,0:0:0:0:
228,344,848198,1,0,0:0:0:0:
36,292,848334,1,0,1:0:0:0:
316,228,848470,1,0,1:0:0:0:
156,96,848607,5,4,0:0:0:0:
228,344,848743,1,2,0:0:0:0:
228,344,848811,1,0,0:0:0:0:
228,344,848880,2,0,P|280:348|324:328,1,100
416,76,849152,1,2,0:0:0:0:
416,76,849220,1,0,0:0:0:0:
416,76,849289,2,0,P|364:72|320:92,1,100
228,344,849561,1,2,0:0:0:0:
228,344,849630,1,0,0:0:0:0:
228,344,849698,5,0,0:0:0:0:
440,252,849834,1,2,0:0:0:0:
440,252,849902,1,0,0:0:0:0:
440,252,849970,1,0,0:0:0:0:
168,192,850107,1,0,0:0:0:0:
344,356,850243,1,2,0:0:0:0:
344,356,850311,1,0,0:0:0:0:
344,356,850380,1,0,0:0:0:0:
464,132,850516,2,0,P|472:80|460:20,1,100,0|0,1:0|1:0,1:0:0:0:
228,0,850789,5,4,0:0:0:0:
372,180,850925,1,2,0:0:0:0:
372,180,850993,1,0,0:0:0:0:
372,180,851061,1,0,0:0:0:0:
121,136,851198,1,0,0:0:0:0:
372,180,851334,1,2,0:0:0:0:
372,180,851402,1,0,0:0:0:0:
372,180,851470,1,0,0:0:0:0:
125,316,851607,1,0,0:0:0:0:
372,180,851743,1,2,0:0:0:0:
372,180,851811,1,0,0:0:0:0:
372,180,851880,5,0,0:0:0:0:
77,129,852016,1,2,0:0:0:0:
77,129,852084,1,0,0:0:0:0:
77,129,852152,1,0,0:0:0:0:
188,344,852289,1,0,0:0:0:0:
294,79,852425,1,2,0:0:0:0:
294,79,852493,1,0,0:0:0:0:
294,79,852561,1,0,0:0:0:0:
417,384,852698,1,0,1:0:0:0:
80,316,852834,1,0,1:0:0:0:
80,316,852902,1,0,0:0:0:0:
80,316,852970,6,0,P|72:256|84:216,1,100,4|2,0:0|0:0,0:0:0:0:
120,152,853175,1,0,0:0:0:0:
120,152,853243,2,0,L|228:144,1,100
456,36,853516,1,2,0:0:0:0:
456,36,853584,1,0,0:0:0:0:
456,36,853652,2,0,L|348:28,1,100
112,12,853925,1,2,0:0:0:0:
112,12,853993,1,0,0:0:0:0:
112,12,854061,5,0,0:0:0:0:
256,256,854198,1,2,0:0:0:0:
256,256,854266,1,0,0:0:0:0:
256,256,854334,1,0,0:0:0:0:
24,152,854470,1,0,0:0:0:0:
272,56,854607,1,2,0:0:0:0:
320,48,854675,1,0,0:0:0:0:
368,52,854743,1,0,1:0:0:0:
408,80,854811,1,0,1:0:0:0:
428,128,854880,1,0,1:0:0:0:
380,368,855016,1,0,1:0:0:0:
272,56,855152,5,4,0:0:0:0:
272,56,855289,2,0,P|208:40|124:56,1,150.000005722046,2|0,0:0|0:0,0:0:0:0:
68,152,855698,2,0,P|132:168|216:152,1,150.000005722046,2|0,0:0|0:0,0:0:0:0:
308,212,856107,2,0,P|372:196|456:212,1,150.000005722046,2|0,0:0|0:0,0:0:0:0:
512,308,856516,2,0,P|448:324|364:308,2,150.000005722046,2|2|0,0:0|0:0|0:0,0:0:0:0:
512,82,857334,5,0,0:0:0:0:
424,12,857470,2,0,L|248:24,1,150.000005722046,2|0,0:0|0:0,0:0:0:0:
354,102,857880,2,0,L|178:114,1,150.000005722046,2|0,0:0|0:0,0:0:0:0:
284,192,858289,2,0,L|108:204,1,150.000005722046,2|0,0:0|0:0,0:0:0:0:
214,282,858698,2,0,L|38:294,2,150.000005722046,2|2|0,0:0|0:0|0:0,0:0:0:0:
424,360,859516,5,0,0:0:0:0:
424,360,859652,2,0,B|460:292|460:292|448:208,1,150.000005722046,2|0,0:0|0:0,0:0:0:0:
340,192,860061,2,0,B|304:260|304:260|316:344,1,150.000005722046,2|0,0:0|0:0,0:0:0:0:
197,332,860470,2,0,B|208:260|208:260|172:192,1,150.000005722046,2|0,0:0|0:0,0:0:0:0:
62,219,860879,2,0,B|52:292|52:292|88:360,2,150.000005722046,2|2|0,0:0|0:0|0:0,0:0:0:0:
156,16,861698,5,0,0:0:0:0:
156,16,861834,2,0,B|227:-11|227:43|303:16,1,150.000005722046,2|0,0:0|0:0,0:0:0:0:
328,128,862243,2,0,B|254:154|254:100|182:127,1,150.000005722046,2|0,0:0|0:0,0:0:0:0:
192,240,862652,1,2,0:0:0:0:
192,240,862789,6,0,B|372:232|372:232|336:276,1,225.000008583069,2|0,0:0|0:0,0:0:0:0:
320,144,863334,2,0,B|140:152|140:152|176:108,1,225.000008583069,2|0,0:0|0:0,0:0:0:0:
252,40,863880,5,0,0:0:0:0:
252,40,864016,2,0,B|404:33,1,150.000005722046,2|0,0:0|0:0,0:0:0:0:
348,132,864425,2,0,B|195:125,1,150.000005722046,2|0,0:0|0:0,0:0:0:0:
252,224,864834,2,0,B|404:217,1,150.000005722046,2|0,0:0|0:0,0:0:0:0:
348,316,865243,2,0,B|195:309,2,150.000005722046,2|2|0,0:0|0:0|0:0,0:0:0:0:
504,196,866061,5,0,0:0:0:0:
504,196,866198,2,0,P|504:120|456:52,1,150.000005722046,2|0,0:0|0:0,0:0:0:0:
360,96,866607,2,0,P|360:172|408:240,1,150.000005722046,2|0,0:0|0:0,0:0:0:0:
336,328,867016,2,0,P|273:367|199:366,1,150.000005722046,2|0,0:0|0:0,0:0:0:0:
162,261,867425,2,0,P|224:221|298:222,2,150.000005722046,2|2|0,0:0|0:0|0:0,0:0:0:0:
4,72,868243,6,0,B|48:32|64:4|64:4|92:216,1,300.000011444092,2|0,0:0|0:0,0:0:0:0:
148,40,869334,2,0,B|204:-12|284:20|296:96|248:136|196:200|200:248|200:248|312:212,1,450.000017166138,2|0,0:0|0:0,0:0:0:0:
360,72,870425,2,0,B|409:45|472:67|490:134|476:169|427:212|427:212|491:217|521:278|503:345|461:387|374:353,1,525.000020027161,2|0,0:0|0:0,0:0:0:0:
232,288,871516,6,0,B|52:280|52:280|88:324,1,225.000008583069,2|0,0:0|0:0,0:0:0:0:
148,192,872061,2,0,P|152:148|144:112,1,75.0000028610231,2|0,0:0|0:0,0:0:0:0:
28,28,872334,1,2,0:0:0:0:
28,28,872402,1,0,0:0:0:0:
28,28,872470,1,0,0:0:0:0:
272,104,872607,6,0,L|384:120,1,100,4|0,0:0|0:0,0:0:0:0:
448,352,872880,1,2,0:0:0:0:
512,180,873016,1,0,0:0:0:0:
252,208,873152,2,0,L|140:224,1,100,2|0,0:0|0:0,0:0:0:0:
56,24,873425,1,2,0:0:0:0:
94,13,873493,1,0,0:0:0:0:
134,12,873561,1,2,0:0:0:0:
172,23,873629,1,0,0:0:0:0:
210,34,873698,5,4,0:0:0:0:
250,35,873765,1,0,0:0:0:0:
289,26,873834,1,2,0:0:0:0:
496,4,873970,1,2,0:0:0:0:
411,194,874107,1,0,0:0:0:0:
289,26,874243,1,2,0:0:0:0:
496,160,874380,1,2,0:0:0:0:
504,200,874448,1,0,0:0:0:0:
496,240,874516,1,0,1:0:0:0:
472,272,874584,1,0,0:0:0:0:
436,288,874652,1,0,1:0:0:0:
216,211,874789,6,0,L|104:227,1,100,4|0,0:0|0:0,0:0:0:0:
172,23,875061,1,2,0:0:0:0:
8,144,875198,1,0,0:0:0:0:
216,211,875334,2,0,P|232:267|224:315,1,100,2|0,0:0|0:0,0:0:0:0:
128,128,875607,1,2,0:0:0:0:
168,120,875675,1,0,0:0:0:0:
208,112,875743,1,0,0:0:0:0:
412,64,875880,5,4,0:0:0:0:
352,264,876016,1,2,0:0:0:0:
352,304,876084,1,0,0:0:0:0:
368,344,876152,1,2,0:0:0:0:
512,224,876289,1,0,0:0:0:0:
244,128,876425,1,2,0:0:0:0:
164,356,876561,1,2,0:0:0:0:
124,364,876630,1,0,0:0:0:0:
84,356,876698,1,0,1:0:0:0:
52,336,876766,1,0,0:0:0:0:
32,304,876834,1,0,1:0:0:0:
4,104,876970,6,0,P|0:32|8:0,1,100,4|0,0:0|0:0,0:0:0:0:
256,72,877243,1,2,0:0:0:0:
88,220,877380,1,0,0:0:0:0:
308,312,877516,2,0,L|444:296,1,100,2|0,0:0|0:0,0:0:0:0:
508,92,877789,1,2,0:0:0:0:
488,56,877857,1,0,0:0:0:0:
452,36,877925,1,2,0:0:0:0:
412,36,877993,1,0,0:0:0:0:
388,68,878061,5,4,0:0:0:0:
352,84,878130,1,0,0:0:0:0:
312,80,878198,1,2,0:0:0:0:
136,32,878334,2,0,L|24:48,1,100,2|0,0:0|0:0,0:0:0:0:
16,292,878607,1,2,0:0:0:0:
136,148,878743,1,2,0:0:0:0:
176,140,878811,1,0,0:0:0:0:
216,148,878880,1,0,1:0:0:0:
248,172,878948,1,0,0:0:0:0:
264,208,879016,1,0,1:0:0:0:
96,384,879152,5,4,0:0:0:0:
136,148,879289,1,2,0:0:0:0:
136,148,879357,1,0,0:0:0:0:
136,148,879425,1,0,0:0:0:0:
296,304,879561,1,2,0:0:0:0:
336,308,879630,1,0,0:0:0:0:
376,300,879698,1,2,0:0:0:0:
408,276,879766,1,0,0:0:0:0:
428,244,879834,1,0,0:0:0:0:
336,40,879970,1,2,0:0:0:0:
296,36,880039,1,0,0:0:0:0:
256,44,880107,1,2,0:0:0:0:
224,68,880175,1,0,0:0:0:0:
204,100,880243,5,4,0:0:0:0:
152,344,880380,1,2,0:0:0:0:
152,344,880448,1,0,0:0:0:0:
152,344,880516,1,2,0:0:0:0:
48,188,880652,1,0,0:0:0:0:
288,268,880789,1,2,0:0:0:0:
325,281,880857,1,0,0:0:0:0:
365,284,880925,1,2,0:0:0:0:
404,276,880993,1,0,0:0:0:0:
439,258,881061,1,0,1:0:0:0:
468,230,881129,1,0,0:0:0:0:
489,196,881198,1,0,1:0:0:0:
499,158,881266,1,0,0:0:0:0:
496,120,881334,6,0,P|486:87|476:64,2,50,4|0|0,0:0|0:0|0:0,0:0:0:0:
468,364,881607,1,0,0:0:0:0:
336,164,881743,2,0,P|326:140|320:116,2,50,2|0|0,0:0|0:0|0:0,0:0:0:0:
468,364,882016,1,0,0:0:0:0:
284,280,882152,1,2,0:0:0:0:
244,272,882220,1,0,0:0:0:0:
204,276,882289,1,2,0:0:0:0:
168,292,882357,1,0,0:0:0:0:
136,316,882425,5,4,0:0:0:0:
96,324,882493,1,0,0:0:0:0:
56,320,882562,1,2,0:0:0:0:
20,304,882630,1,0,0:0:0:0:
4,268,882698,2,0,P|0:212|12:168,1,100,2|0,0:0|0:0,0:0:0:0:
220,60,882970,1,2,0:0:0:0:
56,0,883107,1,2,0:0:0:0:
64,40,883175,1,0,0:0:0:0:
72,80,883243,1,0,1:0:0:0:
80,120,883311,1,0,0:0:0:0:
88,160,883380,1,0,1:0:0:0:
284,264,883516,6,0,L|404:244,1,100,4|0,0:0|0:0,0:0:0:0:
484,80,883789,1,2,0:0:0:0:
456,344,883925,1,0,0:0:0:0:
288,176,884061,2,0,L|168:156,1,100,2|0,0:0|0:0,0:0:0:0:
0,124,884334,1,2,0:0:0:0:
0,84,884402,1,0,0:0:0:0:
16,48,884470,1,2,0:0:0:0:
248,4,884607,5,4,0:0:0:0:
144,232,884743,1,2,0:0:0:0:
144,272,884811,1,0,0:0:0:0:
160,308,884879,1,2,0:0:0:0:
392,352,885016,1,0,0:0:0:0:
316,132,885152,1,2,0:0:0:0:
160,308,885289,1,2,0:0:0:0:
124,320,885357,1,0,0:0:0:0:
84,316,885425,1,0,1:0:0:0:
48,296,885493,1,0,0:0:0:0:
24,264,885561,1,0,1:0:0:0:
0,40,885698,5,4,0:0:0:0:
220,128,885834,1,0,0:0:0:0:
24,264,885970,1,2,0:0:0:0:
125,48,886107,1,0,0:0:0:0:
261,243,886243,2,0,P|264:296|248:344,1,100,2|0,0:0|0:0,0:0:0:0:
220,128,886516,1,2,0:0:0:0:
256,116,886584,1,0,0:0:0:0:
292,104,886652,1,2,0:0:0:0:
328,92,886720,1,0,0:0:0:0:
365,80,886789,5,4,0:0:0:0:
402,92,886857,1,0,0:0:0:0:
438,104,886925,1,0,0:0:0:0:
512,280,887061,2,0,P|516:340|504:380,1,100,2|0,0:0|0:0,0:0:0:0:
240,292,887334,1,2,0:0:0:0:
449,115,887470,1,2,0:0:0:0:
449,115,887539,1,0,0:0:0:0:
449,115,887607,1,0,1:0:0:0:
364,380,887743,1,0,1:0:0:0:
288,164,887880,6,0,P|280:104|288:64,1,100,4|0,0:0|0:0,0:0:0:0:
456,8,888152,1,0,0:0:0:0:
180,104,888289,1,2,0:0:0:0:
140,108,888357,1,0,0:0:0:0:
100,100,888425,1,2,0:0:0:0:
64,80,888493,1,0,0:0:0:0:
36,52,888561,1,0,0:0:0:0:
284,0,888698,1,2,0:0:0:0:
312,28,888766,1,0,0:0:0:0:
332,64,888834,1,2,0:0:0:0:
340,104,888902,1,0,0:0:0:0:
336,144,888970,5,4,0:0:0:0:
272,352,889107,1,2,0:0:0:0:
272,352,889175,1,0,0:0:0:0:
272,352,889243,1,2,0:0:0:0:
100,236,889380,6,0,L|-4:244,2,100,2|0|2,0:0|0:0|0:0,0:0:0:0:
208,232,889789,1,0,0:0:0:0:
208,232,890061,5,4,0:0:0:0:
376,336,890198,1,2,0:0:0:0:
424,320,890266,1,0,0:0:0:0:
472,304,890334,1,0,0:0:0:0:
500,72,890470,1,0,0:0:0:0:
340,212,890607,1,2,0:0:0:0:
292,220,890675,1,0,0:0:0:0:
244,216,890743,1,0,0:0:0:0:
200,192,890811,1,0,0:0:0:0:
164,156,890880,2,0,L|144:96,1,50,2|0,0:0|0:0,0:0:0:0:
216,48,891016,2,0,L|236:108,1,50,2|0,0:0|0:0,0:0:0:0:
324,116,891152,6,0,L|304:56,1,50,4|0,0:0|0:0,0:0:0:0:
376,8,891288,2,0,L|396:68,1,50,2|0,0:0|0:0,0:0:0:0:
420,144,891425,2,0,P|420:200|392:240,1,100,2|0,0:0|0:0,0:0:0:0:
128,328,891698,1,2,0:0:0:0:
220,144,891834,1,2,0:0:0:0:
224,96,891902,1,0,0:0:0:0:
204,52,891970,1,0,1:0:0:0:
164,20,892039,1,0,0:0:0:0:
116,12,892107,1,0,1:0:0:0:
12,196,892243,6,0,P|4:220|0:244,2,50,4|0|0,0:0|0:0|0:0,0:0:0:0:
220,144,892516,1,0,0:0:0:0:
144,336,892652,2,0,P|136:360|132:384,2,50,2|0|0,0:0|0:0|0:0,0:0:0:0:
352,284,892925,1,0,0:0:0:0:
220,144,893061,1,2,0:0:0:0:
203,96,893130,1,0,0:0:0:0:
214,47,893198,1,2,0:0:0:0:
251,14,893266,1,0,0:0:0:0:
300,6,893334,5,4,0:0:0:0:
322,50,893402,1,0,0:0:0:0:
362,79,893470,1,2,0:0:0:0:
412,86,893539,1,0,0:0:0:0:
459,70,893607,2,0,P|479:134|470:171,1,100,2|0,0:0|0:0,0:0:0:0:
234,284,893880,1,2,0:0:0:0:
408,384,894016,1,2,0:0:0:0:
394,336,894084,1,0,0:0:0:0:
380,287,894152,1,0,1:0:0:0:
366,238,894220,1,0,0:0:0:0:
352,189,894289,1,0,1:0:0:0:
146,87,894425,6,0,L|39:105,1,100,4|0,0:0|0:0,0:0:0:0:
1,341,894698,1,2,0:0:0:0:
260,211,894834,1,0,0:0:0:0:
48,103,894970,1,2,0:0:0:0:
48,103,895039,1,0,0:0:0:0:
48,103,895107,1,0,0:0:0:0:
167,345,895243,1,2,0:0:0:0:
214,358,895311,1,0,0:0:0:0:
264,361,895380,1,2,0:0:0:0:
312,348,895448,1,0,0:0:0:0:
354,322,895516,5,4,0:0:0:0:
380,279,895584,1,0,0:0:0:0:
383,229,895652,1,2,0:0:0:0:
308,25,895789,1,2,0:0:0:0:
488,114,895925,1,0,0:0:0:0:
276,190,896061,1,2,0:0:0:0:
439,31,896198,1,2,0:0:0:0:
473,67,896266,1,0,0:0:0:0:
488,114,896334,1,0,1:0:0:0:
490,163,896402,1,0,0:0:0:0:
476,211,896470,1,0,1:0:0:0:
312,348,896607,6,0,L|196:340,1,100,4|0,0:0|0:0,0:0:0:0:
10,327,896880,1,0,0:0:0:0:
223,190,897016,1,2,0:0:0:0:
234,141,897084,1,0,0:0:0:0:
222,92,897152,1,2,0:0:0:0:
189,54,897220,1,0,0:0:0:0:
141,37,897289,1,0,0:0:0:0:
25,221,897425,1,2,0:0:0:0:
14,270,897493,1,0,0:0:0:0:
26,319,897561,1,2,0:0:0:0:
59,357,897629,1,0,0:0:0:0:
107,374,897698,5,4,0:0:0:0:
292,296,897834,1,2,0:0:0:0:
337,275,897902,1,0,0:0:0:0:
388,276,897970,1,2,0:0:0:0:
432,300,898038,1,0,0:0:0:0:
458,344,898107,5,0,1:0:0:0:
203,268,898243,1,0,1:0:0:0:
441,175,898380,1,0,1:0:0:0:
447,125,898448,1,0,0:0:0:0:
434,76,898516,1,0,1:0:0:0:
400,39,898584,1,0,0:0:0:0:
353,20,898652,1,0,1:0:0:0:
303,23,898720,1,0,0:0:0:0:
258,47,898789,6,0,B|210:65|210:65|152:58,1,100,4|0,0:0|0:0,0:0:0:0:
32,260,899061,1,0,0:0:0:0:
10,2,899198,1,2,0:0:0:0:
10,2,899266,1,0,0:0:0:0:
10,2,899334,1,0,0:0:0:0:
233,132,899470,1,0,0:0:0:0:
32,260,899607,1,2,0:0:0:0:
50,306,899675,1,0,0:0:0:0:
87,338,899743,1,2,0:0:0:0:
133,355,899811,1,0,0:0:0:0:
183,359,899880,5,4,0:0:0:0:
216,320,899948,1,0,0:0:0:0:
248,284,900016,1,2,0:0:0:0:
373,121,900152,1,2,0:0:0:0:
415,364,900289,1,0,0:0:0:0:
176,252,900425,1,2,0:0:0:0:
470,167,900561,1,2,0:0:0:0:
481,117,900630,1,0,0:0:0:0:
463,70,900698,1,0,1:0:0:0:
428,34,900766,1,0,0:0:0:0:
378,26,900834,1,0,1:0:0:0:
132,107,900970,6,0,L|112:218,1,100,4|0,0:0|0:0,0:0:0:0:
76,381,901243,1,0,0:0:0:0:
32,136,901380,1,0,0:0:0:0:
235,275,901516,2,0,P|290:279|348:265,1,100,2|0,0:0|0:0,0:0:0:0:
488,162,901789,1,2,0:0:0:0:
490,112,901857,1,0,0:0:0:0:
473,64,901925,1,2,0:0:0:0:
438,28,901993,1,0,0:0:0:0:
391,10,902061,6,0,L|317:22,1,50,4|0,0:0|0:0,0:0:0:0:
326,108,902198,2,0,L|376:100,1,50,2|0,0:0|0:0,0:0:0:0:
360,189,902334,2,0,L|256:206,1,100,2|0,0:0|0:0,0:0:0:0:
16,246,902607,1,2,0:0:0:0:
97,43,902743,1,2,0:0:0:0:
146,34,902811,1,0,0:0:0:0:
196,41,902880,1,0,1:0:0:0:
235,71,902948,1,0,0:0:0:0:
257,115,903016,1,0,1:0:0:0:
181,360,903152,5,4,0:0:0:0:
97,153,903289,1,2,0:0:0:0:
97,153,903357,1,0,0:0:0:0:
97,153,903425,1,0,0:0:0:0:
18,360,903561,1,0,0:0:0:0:
202,228,903698,2,0,P|259:226|313:240,1,100,2|0,0:0|0:0,0:0:0:0:
475,299,903970,1,2,0:0:0:0:
489,250,904039,1,0,0:0:0:0:
486,200,904107,1,2,0:0:0:0:
460,157,904175,1,0,0:0:0:0:
416,133,904243,5,4,0:0:0:0:
434,86,904311,1,0,0:0:0:0:
424,36,904380,1,2,0:0:0:0:
202,2,904516,2,0,L|83:23,1,100,2|0,0:0|0:0,0:0:0:0:
14,254,904789,1,2,0:0:0:0:
184,126,904925,1,2,0:0:0:0:
233,119,904993,1,0,0:0:0:0:
280,134,905061,1,0,1:0:0:0:
314,171,905130,1,0,0:0:0:0:
329,218,905198,1,0,1:0:0:0:
149,347,905334,6,0,L|35:331,1,100,4|0,0:0|0:0,0:0:0:0:
116,80,905607,1,0,0:0:0:0:
329,218,905743,1,2,0:0:0:0:
280,228,905811,1,0,0:0:0:0:
230,239,905880,1,2,0:0:0:0:
181,250,905948,1,0,0:0:0:0:
132,261,906016,1,0,0:0:0:0:
202,48,906152,1,2,0:0:0:0:
251,58,906220,1,0,0:0:0:0:
301,69,906289,1,2,0:0:0:0:
350,80,906357,1,0,0:0:0:0:
399,91,906425,5,4,0:0:0:0:
501,324,906561,1,2,0:0:0:0:
452,334,906629,1,0,0:0:0:0:
402,345,906698,1,2,0:0:0:0:
353,356,906766,1,0,0:0:0:0:
304,367,906834,1,0,0:0:0:0:
51,254,906970,1,2,0:0:0:0:
275,91,907107,1,0,0:0:0:0:
163,345,907243,1,0,1:0:0:0:
163,345,907516,6,0,L|152:239,1,100,4|0,0:0|0:0,0:0:0:0:
349,39,907789,2,0,L|360:145,1,100,4|0,0:0|0:0,0:0:0:0:
371,258,908061,5,2,0:0:0:0:
371,258,908334,2,0,P|328:266|276:243,1,100,2|0,0:0|0:0,0:0:0:0:
217,164,908880,2,0,P|132:160|45:231,1,200,2|0,0:0|0:0,0:0:0:0:
26,327,909698,1,0,0:0:0:0:
26,327,910243,6,0,L|130:348,1,100,2|0,0:0|0:0,0:0:0:0:
204,286,910789,1,0,0:0:0:0:
204,286,911061,2,0,P|292:313|388:246,1,200,2|0,0:0|0:0,0:0:0:0:
362,161,911880,1,0,0:0:0:0:
362,161,912425,6,0,L|464:133,1,100,2|0,0:0|0:0,0:0:0:0:
383,67,912970,1,0,0:0:0:0:
336,265,913243,2,0,L|438:237,1,100,2|0,0:0|0:0,0:0:0:0:
301,163,913789,6,0,P|240:215|338:373,1,300,2|0,0:0|0:0,0:0:0:0:
436,250,914880,2,0,P|497:198|399:40,1,300,2|2,0:0|0:0,0:0:0:0:
405,40,916243,5,0,0:0:0:0:
405,40,916789,2,0,L|385:141,1,100,2|0,0:0|0:0,0:0:0:0:
361,235,917334,1,0,0:0:0:0:
286,167,917607,2,0,P|211:163|110:231,1,200,2|0,0:0|0:0,0:0:0:0:
83,326,918425,1,0,0:0:0:0:
83,326,918970,6,0,L|63:225,1,100,2|0,0:0|0:0,0:0:0:0:
104,136,919515,1,0,0:0:0:0:
179,204,919788,2,0,P|254:208|355:140,1,200,2|0,0:0|0:0,0:0:0:0:
382,45,920606,1,0,0:0:0:0:
256,192,921152,12,2,923743,0:0:0:0:
309,82,924425,5,0,1:0:0:0:
366,245,924561,1,0,1:0:0:0:
203,302,924698,1,0,1:0:0:0:
146,139,924834,1,0,1:0:0:0:
366,245,924970,5,4,1:2:0:0:
256,192,933698,12,2,937516,0:0:0:0:
0,72,938061,6,0,B|44:32|60:4|60:4|88:216,1,300.000011444092,2|0,0:0|0:0,0:0:0:0:
148,40,939152,2,0,B|204:-12|284:20|296:96|248:136|196:200|200:248|200:248|312:212,1,450.000017166138,2|0,0:0|0:0,0:0:0:0:
360,72,940243,2,0,B|411:43|477:66|495:136|481:173|430:218|430:218|496:223|528:287|509:357|465:401|374:365,1,550,2|0,0:0|0:0,0:0:0:0:
134,289,941880,5,2,0:0:0:0:
134,289,941948,1,0,0:0:0:0:
134,289,942016,1,0,0:0:0:0:
337,218,942152,1,0,1:0:0:0:
55,154,942289,1,0,0:0:0:0:
176,376,942425,5,4,0:0:0:0:
248,88,942561,1,2,0:0:0:0:
248,88,942630,1,0,0:0:0:0:
248,88,942698,1,0,0:0:0:0:
452,288,942834,1,0,0:0:0:0:
164,216,942970,1,2,0:0:0:0:
164,216,943039,1,0,0:0:0:0:
164,216,943107,1,0,0:0:0:0:
480,140,943243,1,2,0:0:0:0:
488,92,943311,1,0,0:0:0:0:
476,44,943380,1,2,0:0:0:0:
444,4,943448,1,0,0:0:0:0:
396,0,943516,6,0,L|344:20,1,50,4|0,0:0|0:0,0:0:0:0:
370,102,943652,2,0,L|324:120,1,50,2|0,0:0|0:0,0:0:0:0:
344,204,943789,2,0,L|251:239,1,100,2|0,0:0|0:0,0:0:0:0:
8,336,944061,1,2,0:0:0:0:
160,132,944198,1,2,0:0:0:0:
164,84,944266,1,0,0:0:0:0:
144,40,944334,1,0,1:0:0:0:
104,12,944402,1,0,0:0:0:0:
56,4,944470,1,0,1:0:0:0:
4,216,944607,5,4,0:0:0:0:
52,232,944675,1,0,0:0:0:0:
100,248,944743,1,0,0:0:0:0:
384,335,944880,1,2,0:0:0:0:
325,65,945016,1,0,0:0:0:0:
242,329,945152,1,2,0:0:0:0:
512,268,945289,1,0,0:0:0:0:
248,185,945425,1,2,0:0:0:0:
200,166,945493,1,0,0:0:0:0:
151,164,945561,1,2,0:0:0:0:
103,176,945629,1,0,0:0:0:0:
60,202,945698,5,4,0:0:0:0:
27,239,945765,1,0,0:0:0:0:
8,285,945834,1,2,0:0:0:0:
9,335,945902,1,0,0:0:0:0:
32,379,945970,2,0,L|145:358,1,100,2|0,0:0|0:0,0:0:0:0:
388,310,946243,1,2,0:0:0:0:
60,202,946380,1,2,0:0:0:0:
44,155,946448,1,0,0:0:0:0:
44,105,946516,1,0,1:0:0:0:
58,57,946584,1,0,0:0:0:0:
95,24,946652,1,0,1:0:0:0:
408,12,946789,6,0,L|461:21,2,50,4|0|0,0:0|0:0|0:0,0:0:0:0:
173,113,947061,1,2,0:0:0:0:
408,218,947198,2,0,L|461:209,2,50,2|0|0,0:0|0:0|0:0,0:0:0:0:
173,319,947470,1,2,0:0:0:0:
43,109,947607,1,2,0:0:0:0:
57,61,947675,1,0,0:0:0:0:
91,24,947743,1,2,0:0:0:0:
138,8,947811,1,0,0:0:0:0:
188,13,947880,5,4,0:0:0:0:
231,37,947948,1,0,0:0:0:0:
255,80,948016,1,2,0:0:0:0:
336,287,948152,1,2,0:0:0:0:
404,18,948289,1,0,0:0:0:0:
202,195,948425,1,2,0:0:0:0:
457,151,948561,1,2,0:0:0:0:
482,194,948630,1,0,0:0:0:0:
489,243,948698,1,0,1:0:0:0:
483,292,948766,1,0,0:0:0:0:
459,335,948834,1,0,1:0:0:0:
167,282,948970,6,0,L|56:265,1,100,4|0,0:0|0:0,0:0:0:0:
7,66,949243,1,2,0:0:0:0:
225,199,949380,1,2,0:0:0:0:
274,204,949448,1,0,0:0:0:0:
322,192,949516,1,2,0:0:0:0:
363,164,949584,1,0,0:0:0:0:
386,119,949652,1,0,0:0:0:0:
189,11,949789,1,2,0:0:0:0:
140,6,949857,1,0,0:0:0:0:
92,18,949925,1,2,0:0:0:0:
51,46,949993,1,0,0:0:0:0:
28,91,950061,5,4,0:0:0:0:
161,350,950198,1,2,0:0:0:0:
208,334,950266,1,0,0:0:0:0:
255,318,950334,1,2,0:0:0:0:
302,302,950402,1,0,0:0:0:0:
349,286,950470,1,0,0:0:0:0:
454,64,950607,1,2,0:0:0:0:
509,337,950743,1,0,0:0:0:0:
243,230,950880,1,0,1:0:0:0:
196,214,950948,1,0,0:0:0:0:
149,198,951016,1,0,1:0:0:0:
102,182,951084,1,0,0:0:0:0:
55,166,951152,6,0,L|6:150,2,50,4|0|0,0:0|0:0|0:0,0:0:0:0:
282,84,951425,1,0,0:0:0:0:
163,315,951561,1,2,0:0:0:0:
115,329,951629,1,0,0:0:0:0:
64,324,951698,1,0,0:0:0:0:
7,68,951834,1,0,0:0:0:0:
265,172,951970,1,2,0:0:0:0:
315,179,952039,1,0,0:0:0:0:
363,169,952107,1,2,0:0:0:0:
402,138,952175,1,0,0:0:0:0:
427,94,952243,6,0,L|435:38,1,50,4|0,0:0|0:0,0:0:0:0:
486,162,952380,2,0,L|478:218,1,50,2|0,0:0|0:0,0:0:0:0:
431,98,952516,2,0,L|311:80,1,100,2|0,0:0|0:0,0:0:0:0:
45,35,952789,1,2,0:0:0:0:
215,209,952925,1,2,0:0:0:0:
223,258,952993,1,0,0:0:0:0:
216,307,953061,1,0,1:0:0:0:
190,350,953130,1,0,0:0:0:0:
149,378,953198,1,0,1:0:0:0:
6,240,953334,5,4,0:0:0:0:
15,190,953402,1,0,0:0:0:0:
24,140,953470,1,0,0:0:0:0:
216,11,953607,1,2,0:0:0:0:
232,242,953743,1,0,0:0:0:0:
424,113,953880,2,0,P|434:55|417:4,1,100,2|0,0:0|0:0,0:0:0:0:
232,242,954152,1,2,0:0:0:0:
254,286,954220,1,0,0:0:0:0:
294,316,954289,1,2,0:0:0:0:
343,325,954357,1,0,0:0:0:0:
392,320,954425,5,4,0:0:0:0:
436,296,954493,1,0,0:0:0:0:
462,253,954561,1,2,0:0:0:0:
467,202,954630,1,0,0:0:0:0:
449,155,954698,2,0,L|334:127,1,100,2|0,0:0|0:0,0:0:0:0:
87,75,954970,1,2,0:0:0:0:
385,3,955107,1,2,0:0:0:0:
385,3,955175,1,0,0:0:0:0:
385,3,955243,1,0,1:0:0:0:
289,268,955380,1,0,1:0:0:0:
87,75,955516,6,0,L|78:21,2,50,4|0|0,0:0|0:0|0:0,0:0:0:0:
127,360,955789,1,2,0:0:0:0:
306,75,955925,2,0,L|315:21,2,50,2|0|0,0:0|0:0|0:0,0:0:0:0:
266,360,956198,1,0,0:0:0:0:
17,218,956334,1,2,0:0:0:0:
8,168,956402,1,0,0:0:0:0:
13,118,956470,1,2,0:0:0:0:
36,73,956539,1,0,0:0:0:0:
75,43,956607,5,4,0:0:0:0:
123,31,956675,1,0,0:0:0:0:
172,39,956743,1,2,0:0:0:0:
331,256,956880,2,0,B|383:262|383:262|430:242,1,100,2|0,0:0|0:0,0:0:0:0:
496,11,957152,1,2,0:0:0:0:
246,118,957289,1,2,0:0:0:0:
236,166,957357,1,0,0:0:0:0:
226,214,957425,1,0,1:0:0:0:
216,262,957493,1,0,0:0:0:0:
206,310,957561,1,0,1:0:0:0:
14,162,957698,5,4,0:0:0:0:
292,104,957834,1,0,0:0:0:0:
59,25,957970,1,2,0:0:0:0:
118,271,958107,1,2,0:0:0:0:
153,306,958175,1,0,0:0:0:0:
200,320,958243,1,2,0:0:0:0:
249,315,958311,1,0,0:0:0:0:
296,296,958380,1,0,0:0:0:0:
394,113,958516,1,2,0:0:0:0:
359,78,958584,1,0,0:0:0:0:
312,64,958652,1,2,0:0:0:0:
263,69,958720,1,0,0:0:0:0:
216,88,958789,5,4,0:0:0:0:
296,296,958925,1,2,0:0:0:0:
331,331,958993,1,0,0:0:0:0:
378,345,959061,1,2,0:0:0:0:
427,340,959129,1,0,0:0:0:0:
474,321,959198,1,0,0:0:0:0:
312,64,959334,1,2,0:0:0:0:
150,321,959470,1,0,0:0:0:0:
0,0,959607,1,0,1:0:0:0:
505,150,959880,5,4,0:0:0:0:
505,150,960016,2,0,P|439:141|366:181,1,150.000005722046,2|0,0:0|0:0,0:0:0:0:
321,282,960425,2,0,P|255:291|182:251,1,150.000005722046,2|0,0:0|0:0,0:0:0:0:
134,150,960834,2,0,P|200:141|273:181,1,150.000005722046,2|0,0:0|0:0,0:0:0:0:
321,282,961243,2,0,P|387:291|460:251,2,150.000005722046,2|2|0,0:0|0:0|0:0,0:0:0:0:
204,43,962061,5,0,0:0:0:0:
204,43,962198,2,0,L|356:22,1,150.000005722046,2|0,0:0|0:0,0:0:0:0:
269,155,962607,2,0,L|117:134,1,150.000005722046,2|0,0:0|0:0,0:0:0:0:
204,267,963016,2,0,L|356:246,1,150.000005722046,2|0,0:0|0:0,0:0:0:0:
269,379,963425,2,0,L|117:358,2,150.000005722046,2|2|0,0:0|0:0|0:0,0:0:0:0:
475,288,964243,5,0,0:0:0:0:
475,288,964380,2,0,B|486:210|486:210|458:134,1,150.000005722046,2|0,0:0|0:0,0:0:0:0:
351,115,964789,2,0,B|340:193|340:193|368:269,1,150.000005722046,2|0,0:0|0:0,0:0:0:0:
263,329,965198,2,0,B|274:251|274:251|246:175,1,150.000005722046,2|0,0:0|0:0,0:0:0:0:
139,156,965607,2,0,B|128:234|128:234|156:310,2,150.000005722046,2|2|0,0:0|0:0|0:0,0:0:0:0:
307,6,966425,5,0,0:0:0:0:
307,6,966561,2,0,B|334:77|280:77|307:153,1,150.000005722046,2|0,0:0|0:0,0:0:0:0:
411,109,966970,2,0,B|438:180|384:180|411:256,1,150.000005722046,2|0,0:0|0:0,0:0:0:0:
456,359,967380,2,0,B|385:386|385:332|309:359,1,150.000005722046,2|0,0:0|0:0,0:0:0:0:
228,280,967789,2,0,B|157:307|157:253|81:280,2,150.000005722046,2|2|0,0:0|0:0|0:0,0:0:0:0:
494,201,968607,5,0,0:0:0:0:
494,201,968743,2,0,P|501:121|464:52,1,150.000005722046,2|0,0:0|0:0,0:0:0:0:
366,14,969152,2,0,L|314:155,1,150.000005722046,2|0,0:0|0:0,0:0:0:0:
198,155,969561,2,0,L|146:14,1,150.000005722046,2|0,0:0|0:0,0:0:0:0:
40,59,969970,2,0,P|9:127|18:201,2,150.000005722046,2|2|0,0:0|0:0|0:0,0:0:0:0:
96,280,970789,5,0,0:0:0:0:
96,280,970925,2,0,B|149:335|149:335|200:280,1,150.000005722046,2|0,0:0|0:0,0:0:0:0:
316,280,971334,2,0,B|366:333|366:333|419:278,1,150.000005722046,2|0,0:0|0:0,0:0:0:0:
456,172,971743,2,0,L|300:128,1,150.000005722046,2|0,0:0|0:0,0:0:0:0:
200,132,972152,2,0,L|55:172,2,150.000005722046,2|2|0,0:0|0:0|0:0,0:0:0:0:
256,348,972970,5,0,0:0:0:0:
256,348,973107,2,0,P|328:352|392:292,1,150.000005722046,2|0,0:0|0:0,0:0:0:0:
420,196,973516,2,0,P|348:192|284:252,1,150.000005722046,2|0,0:0|0:0,0:0:0:0:
256,348,973925,2,0,P|184:352|120:292,1,150.000005722046,2|0,0:0|0:0,0:0:0:0:
92,196,974334,2,0,P|164:192|228:252,2,150.000005722046,2|2|0,0:0|0:0|0:0,0:0:0:0:
32,32,975152,5,0,0:0:0:0:
32,32,975289,2,0,L|188:0,1,150.000005722046,2|0,0:0|0:0,0:0:0:0:
133,105,975698,2,0,L|289:73,1,150.000005722046,2|0,0:0|0:0,0:0:0:0:
234,178,976107,2,0,L|390:146,1,150.000005722046,2|0,0:0|0:0,0:0:0:0:
335,251,976516,2,0,L|491:219,2,150.000005722046,2|0|0,0:0|0:0|0:0,0:0:0:0:
72,304,977334,5,4,1:0:0:0:
208,76,986061,6,0,P|144:60|36:136,1,200,4|0,0:0|0:0,0:0:0:0:
304,308,986470,2,0,P|368:324|476:248,1,200,4|0,0:0|0:0,0:0:0:0:
404,52,986880,2,0,L|368:152,1,100,2|0,0:0|0:0,0:0:0:0:
200,240,987152,6,0,B|120:264|120:264|88:236|88:236|12:260,1,200,4|0,0:0|0:0,0:0:0:0:
312,144,987561,2,0,B|392:120|392:120|424:148|424:148|500:124,1,200,4|0,0:0|0:0,0:0:0:0:
440,320,987970,2,0,P|396:352|344:356,1,100,2|0,0:0|0:0,0:0:0:0:
158,215,988243,6,0,B|126:99|126:99|162:23,1,200,4|0,0:0|0:0,0:0:0:0:
354,169,988652,2,0,B|386:285|386:285|350:361,1,200,4|0,0:0|0:0,0:0:0:0:
158,215,989061,2,0,P|137:161|160:96,1,100,2|0,0:0|0:0,0:0:0:0:
328,88,989334,6,0,B|480:120|480:120|428:144,1,200,4|0,0:0|0:0,0:0:0:0:
184,296,989743,2,0,B|32:264|32:264|84:240,1,200,4|0,0:0|0:0,0:0:0:0:
252,180,990152,1,2,0:0:0:0:
196,368,990289,1,0,0:0:0:0:
108,148,990425,6,0,B|80:80|80:80|128:20|200:44,1,200,4|0,0:0|0:0,0:0:0:0:
404,236,990834,2,0,B|432:304|432:304|384:364|312:340,1,200,4|0,0:0|0:0,0:0:0:0:
64,308,991243,2,0,P|56:252|80:204,1,100,2|0,0:0|0:0,0:0:0:0:
300,100,991516,6,0,B|396:57|396:148|493:100,1,200,4|0,0:0|0:0,0:0:0:0:
212,284,991925,2,0,B|115:326|115:235|18:284,1,200,4|0,0:0|0:0,0:0:0:0:
168,212,992334,2,0,P|176:160|160:108,1,100,2|0,0:0|0:0,0:0:0:0:
308,4,992607,6,0,L|352:204,1,200,4|0,0:0|0:0,0:0:0:0:
204,380,993016,2,0,L|160:180,1,200,4|0,0:0|0:0,0:0:0:0:
124,16,993425,1,2,0:0:0:0:
72,248,993561,1,0,0:0:0:0:
298,177,993698,6,0,P|384:160|476:228,1,200,4|0,0:0|0:0,0:0:0:0:
296,336,994107,1,0,0:0:0:0:
296,336,994243,5,2,0:0:0:0:
112,232,994380,1,2,0:0:0:0:
216,48,994516,1,2,0:0:0:0:
400,152,994653,1,2,0:0:0:0:
112,232,994789,6,0,L|12:208,1,100,4|0,0:0|0:0,0:0:0:0:
108,80,995061,1,2,0:0:0:0:
220,196,995198,1,0,0:0:0:0:
220,196,995266,1,0,0:0:0:0:
220,196,995334,2,0,P|224:256|204:304,1,100,2|0,0:0|0:0,0:0:0:0:
108,80,995607,1,2,0:0:0:0:
108,80,995675,1,0,0:0:0:0:
108,80,995743,1,0,0:0:0:0:
312,24,995880,6,0,L|420:44,1,100,2|0,0:0|0:0,0:0:0:0:
472,188,996152,1,0,0:0:0:0:
316,156,996289,2,0,L|208:176,1,100,2|0,0:0|0:0,0:0:0:0:
60,200,996561,1,2,0:0:0:0:
248,264,996698,1,0,0:0:0:0:
209,69,996834,1,0,0:0:0:0:
134,296,996970,6,0,P|88:320|40:320,1,100,2|0,0:0|0:0,0:0:0:0:
20,240,997175,1,0,0:0:0:0:
20,240,997243,2,0,P|66:216|114:216,1,100,2|0,0:0|0:0,0:0:0:0:
378,296,997516,2,0,P|424:320|472:320,1,100,2|0,0:0|0:0,0:0:0:0:
492,240,997721,1,0,0:0:0:0:
492,240,997789,2,0,P|446:216|398:216,1,100,2|0,0:0|0:0,0:0:0:0:
200,360,998061,5,2,0:0:0:0:
284,132,998198,1,0,0:0:0:0:
72,248,998334,1,2,0:0:0:0:
304,104,998470,1,0,0:0:0:0:
304,104,998539,1,0,0:0:0:0:
304,104,998607,1,2,0:0:0:0:
200,360,998743,1,0,0:0:0:0:
200,360,998811,1,0,0:0:0:0:
200,360,998880,1,2,0:0:0:0:
133,91,999016,1,0,0:0:0:0:
345,269,999152,6,0,P|404:276|448:264,1,100,4|0,0:0|0:0,0:0:0:0:
500,116,999425,1,2,0:0:0:0:
376,16,999561,1,0,0:0:0:0:
376,16,999630,1,0,0:0:0:0:
376,16,999698,2,0,P|317:9|273:21,1,100,2|0,0:0|0:0,0:0:0:0:
184,148,999970,1,2,0:0:0:0:
192,188,1000039,1,0,0:0:0:0:
200,228,1000107,1,0,0:0:0:0:
40,352,1000243,6,0,L|12:248,1,100,2|0,0:0|0:0,0:0:0:0:
92,116,1000516,1,0,0:0:0:0:
304,252,1000652,2,0,L|332:148,1,100,2|0,0:0|0:0,0:0:0:0:
252,16,1000925,1,2,0:0:0:0:
164,212,1001061,1,0,0:0:0:0:
360,300,1001198,1,0,0:0:0:0:
448,104,1001334,6,0,P|408:80|336:88,1,100,2|0,0:0|0:0,0:0:0:0:
328,116,1001539,1,0,0:0:0:0:
288,132,1001607,1,2,0:0:0:0:
244,136,1001675,1,0,0:0:0:0:
200,128,1001743,1,0,0:0:0:0:
40,40,1001880,1,2,0:0:0:0:
72,216,1002016,1,0,0:0:0:0:
72,216,1002084,1,0,0:0:0:0:
72,216,1002152,1,2,0:0:0:0:
164,16,1002289,1,0,0:0:0:0:
256,268,1002425,6,0,L|240:372,1,100,2|0,0:0|0:0,0:0:0:0:
0,156,1002698,2,0,L|16:52,1,100,2|0,0:0|0:0,0:0:0:0:
100,28,1002902,1,0,0:0:0:0:
100,28,1002970,2,0,L|84:132,1,100,2|0,0:0|0:0,0:0:0:0:
72,216,1003175,1,0,0:0:0:0:
72,216,1003243,2,0,L|81:278,1,50,2|0,0:0|0:0,0:0:0:0:
168,288,1003380,2,0,L|158:225,1,50
232,184,1003516,6,0,P|288:172|332:184,1,100,4|0,0:0|0:0,0:0:0:0:
484,272,1003789,1,2,0:0:0:0:
280,340,1003925,1,0,0:0:0:0:
280,340,1003993,1,0,0:0:0:0:
280,340,1004061,1,2,0:0:0:0:
484,272,1004198,1,0,0:0:0:0:
329,183,1004334,2,0,P|313:119|329:55,1,100,2|0,0:0|0:0,0:0:0:0:
108,16,1004607,6,0,P|111:65|96:113,1,100,2|0,0:0|0:0,0:0:0:0:
16,276,1004880,1,0,0:0:0:0:
200,384,1005016,2,0,P|196:334|211:286,1,100,2|0,0:0|0:0,0:0:0:0:
292,124,1005289,1,2,0:0:0:0:
88,208,1005425,1,0,0:0:0:0:
400,208,1005561,1,0,0:0:0:0:
208,64,1005698,6,0,L|84:84,1,100,2|0,0:0|0:0,0:0:0:0:
20,92,1005902,1,0,0:0:0:0:
20,92,1005970,2,0,P|8:156|20:196,1,100,2|0,0:0|0:0,0:0:0:0:
184,368,1006243,2,0,L|308:348,1,100,2|0,0:0|0:0,0:0:0:0:
372,340,1006447,1,0,0:0:0:0:
372,340,1006515,2,0,P|384:276|372:236,1,100,2|0,0:0|0:0,0:0:0:0:
280,48,1006789,5,2,0:0:0:0:
216,276,1006925,1,0,0:0:0:0:
288,20,1007061,1,2,0:0:0:0:
80,164,1007198,1,0,0:0:0:0:
68,200,1007266,1,0,0:0:0:0:
68,240,1007334,1,2,0:0:0:0:
268,124,1007470,1,2,0:0:0:0:
280,88,1007538,1,0,0:0:0:0:
280,48,1007606,1,0,0:0:0:0:
28,4,1007743,1,0,0:0:0:0:
164,216,1007880,6,0,P|172:276|160:316,1,100,4|0,0:0|0:0,0:0:0:0:
12,176,1008152,1,2,0:0:0:0:
216,104,1008289,1,0,0:0:0:0:
216,104,1008357,1,0,0:0:0:0:
216,104,1008425,2,0,L|332:120,1,100,2|0,0:0|0:0,0:0:0:0:
428,308,1008698,2,0,L|312:324,1,100,2|0,0:0|0:0,0:0:0:0:
92,352,1008970,5,2,0:0:0:0:
188,168,1009107,1,0,0:0:0:0:
218,373,1009243,1,0,0:0:0:0:
72,224,1009380,1,2,0:0:0:0:
228,384,1009516,1,0,0:0:0:0:
188,152,1009652,1,2,0:0:0:0:
85,366,1009789,1,0,0:0:0:0:
294,253,1009925,1,0,0:0:0:0:
32,144,1010061,6,0,P|24:96|44:44,1,100,2|0,0:0|0:0,0:0:0:0:
108,8,1010266,1,0,0:0:0:0:
108,8,1010334,2,0,L|220:20,1,100,2|0,0:0|0:0,0:0:0:0:
384,168,1010607,2,0,P|392:216|372:268,1,100,2|0,0:0|0:0,0:0:0:0:
308,304,1010812,1,0,0:0:0:0:
308,304,1010880,2,0,L|196:292,1,100,2|0,0:0|0:0,0:0:0:0:
60,128,1011152,5,2,0:0:0:0:
144,376,1011289,1,0,0:0:0:0:
224,56,1011425,1,2,0:0:0:0:
308,304,1011561,2,0,P|336:320|360:328,1,50,2|0,0:0|0:0,0:0:0:0:
428,336,1011698,5,4,3:0:0:0:
455,307,1011766,1,4,3:0:0:0:
469,269,1011834,1,4,3:0:0:0:
473,229,1011902,1,4,3:0:0:0:
463,190,1011970,1,4,3:0:0:0:
446,152,1012039,1,4,3:0:0:0:
450,112,1012107,1,4,3:0:0:0:
464,74,1012175,1,4,3:0:0:0:
491,45,1012243,6,0,L|377:18,1,100,4|0,0:0|0:0,0:0:0:0:
198,69,1012516,1,2,0:0:0:0:
334,214,1012652,1,2,0:0:0:0:
334,214,1012720,1,0,0:0:0:0:
334,214,1012789,2,0,P|340:267|329:315,1,100
302,341,1012993,1,0,0:0:0:0:
265,357,1013061,1,2,0:0:0:0:
224,358,1013130,1,0,0:0:0:0:
185,347,1013198,1,0,0:0:0:0:
27,224,1013334,5,2,0:0:0:0:
37,184,1013403,1,0,0:0:0:0:
47,145,1013471,1,0,0:0:0:0:
211,31,1013607,2,0,L|230:135,1,100
265,357,1013880,1,2,0:0:0:0:
265,357,1013948,1,0,0:0:0:0:
265,357,1014016,1,0,0:0:0:0:
444,211,1014152,1,2,0:0:0:0:
148,160,1014289,1,0,0:0:0:0:
473,215,1014425,6,0,P|485:269|474:314,1,100,2|0,0:0|0:0,0:0:0:0:
443,337,1014630,1,0,0:0:0:0:
403,341,1014698,1,2,0:0:0:0:
364,329,1014766,1,0,0:0:0:0:
335,301,1014834,1,0,0:0:0:0:
259,71,1014970,2,0,L|363:46,1,100,2|0,0:0|0:0,0:0:0:0:
261,253,1015243,1,2,0:0:0:0:
183,3,1015380,1,2,0:0:0:0:
393,159,1015516,6,0,P|409:215|403:262,1,100,2|0,0:0|0:0,0:0:0:0:
118,362,1015789,2,0,P|102:306|108:259,1,100,2|0,0:0|0:0,0:0:0:0:
200,49,1016061,1,2,0:0:0:0:
312,335,1016198,1,2,0:0:0:0:
312,335,1016266,1,2,0:0:0:0:
312,335,1016334,1,0,0:0:0:0:
106,265,1016470,1,2,0:0:0:0:
393,159,1016607,6,0,L|496:184,1,100,2|0,0:0|0:0,0:0:0:0:
312,335,1016880,1,2,0:0:0:0:
234,122,1017016,1,0,0:0:0:0:
232,82,1017084,1,0,0:0:0:0:
246,44,1017152,1,2,0:0:0:0:
291,235,1017289,1,0,0:0:0:0:
254,251,1017357,1,0,0:0:0:0:
214,251,1017425,1,2,0:0:0:0:
177,233,1017493,1,0,0:0:0:0:
148,204,1017561,1,0,0:0:0:0:
246,44,1017698,5,2,0:0:0:0:
246,44,1017766,1,0,0:0:0:0:
246,44,1017834,1,0,0:0:0:0:
393,159,1017970,2,0,P|400:211|389:264,1,100
126,374,1018243,2,0,P|119:322|130:269,1,100,0|2,0:0|0:0,0:0:0:0:
393,159,1018516,1,2,0:0:0:0:
267,376,1018652,1,0,0:0:0:0:
174,73,1018789,5,2,0:0:0:0:
393,159,1018925,1,0,0:0:0:0:
432,151,1018993,1,0,0:0:0:0:
471,144,1019061,1,2,0:0:0:0:
402,332,1019198,1,0,0:0:0:0:
292,129,1019334,2,0,P|283:79|296:16,1,100,2|0,0:0|0:0,0:0:0:0:
127,185,1019607,2,0,P|136:235|123:298,1,100,2|0,0:0|0:0,0:0:0:0:
33,73,1019880,5,2,0:0:0:0:
292,129,1020016,1,0,0:0:0:0:
28,261,1020152,1,2,0:0:0:0:
287,317,1020288,1,0,0:0:0:0:
205,64,1020425,5,2,0:0:0:0:
183,99,1020493,1,2,0:0:0:0:
170,138,1020561,1,2,0:0:0:0:
164,179,1020630,1,2,0:0:0:0:
168,220,1020698,1,2,0:0:0:0:
184,258,1020766,1,2,0:0:0:0:
209,290,1020834,1,2,0:0:0:0:
244,311,1020902,1,2,0:0:0:0:
287,317,1020970,6,0,L|401:296,1,100,2|0,0:0|0:0,0:0:0:0:
489,123,1021243,1,2,0:0:0:0:
225,67,1021380,1,0,0:0:0:0:
225,67,1021448,1,0,0:0:0:0:
225,67,1021516,2,0,L|111:88,1,100,2|0,0:0|0:0,0:0:0:0:
101,116,1021720,1,0,0:0:0:0:
90,155,1021789,1,2,0:0:0:0:
92,194,1021857,1,0,0:0:0:0:
107,230,1021925,1,0,0:0:0:0:
287,317,1022061,5,2,0:0:0:0:
326,309,1022130,1,0,0:0:0:0:
365,302,1022198,1,0,0:0:0:0:
472,117,1022334,2,0,P|479:66|466:15,1,100
290,135,1022607,1,0,0:0:0:0:
251,127,1022676,1,0,0:0:0:0:
212,120,1022744,1,2,0:0:0:0:
5,88,1022880,1,2,0:0:0:0:
265,12,1023016,1,0,0:0:0:0:
140,247,1023152,6,0,P|135:301|157:348,1,100,2|0,0:0|0:0,0:0:0:0:
226,372,1023357,1,0,0:0:0:0:
226,372,1023425,2,0,L|331:344,1,100
425,128,1023698,1,2,0:0:0:0:
446,371,1023834,1,0,0:0:0:0:
430,98,1023970,1,2,0:0:0:0:
323,346,1024107,1,0,0:0:0:0:
97,261,1024243,6,0,P|72:207|75:158,1,100,2|0,0:0|0:0,0:0:0:0:
256,8,1024516,1,2,0:0:0:0:
439,167,1024652,1,0,0:0:0:0:
148,92,1024789,1,2,0:0:0:0:
256,344,1024925,1,2,0:0:0:0:
256,344,1024993,1,2,0:0:0:0:
256,344,1025061,1,0,0:0:0:0:
364,92,1025198,1,2,0:0:0:0:
97,261,1025334,6,0,P|98:310|121:354,1,100,2|0,0:0|0:0,0:0:0:0:
372,284,1025607,1,2,0:0:0:0:
176,200,1025743,1,0,0:0:0:0:
164,160,1025811,1,0,0:0:0:0:
168,120,1025880,1,2,0:0:0:0:
328,8,1026016,1,0,0:0:0:0:
368,4,1026084,1,0,0:0:0:0:
408,12,1026152,1,2,0:0:0:0:
440,36,1026220,1,0,0:0:0:0:
460,72,1026289,1,0,0:0:0:0:
461,274,1026425,5,2,0:0:0:0:
432,304,1026493,1,0,0:0:0:0:
395,320,1026562,1,0,0:0:0:0:
210,244,1026698,2,0,L|90:262,1,100
192,25,1026970,2,0,L|312:43,1,100
510,66,1027243,1,2,0:0:0:0:
249,129,1027380,1,0,0:0:0:0:
468,155,1027516,6,0,P|476:216|461:264,1,100,2|0,0:0|0:0,0:0:0:0:
394,286,1027720,1,0,0:0:0:0:
394,286,1027789,2,0,L|413:387,1,100,2|0,0:0|0:0,0:0:0:0:
162,345,1028061,2,0,L|143:244,1,100,2|0,0:0|0:0,0:0:0:0:
205,44,1028334,1,2,0:0:0:0:
265,300,1028470,1,0,0:0:0:0:
265,300,1029152,5,2,0:0:0:0:
295,274,1029220,1,2,0:0:0:0:
332,259,1029288,1,2,0:0:0:0:
372,255,1029356,1,2,0:0:0:0:
411,263,1029424,1,2,0:0:0:0:
446,282,1029492,1,2,0:0:0:0:
474,310,1029561,1,2,0:0:0:0:
492,346,1029629,1,2,0:0:0:0:
507,383,1029698,6,0,L|324:368,1,150,4|0,0:0|0:0,0:0:0:0:
245,358,1030107,1,0,0:0:0:0:
285,253,1030243,2,0,P|291:200|277:158,1,75.0000028610231,2|0,0:0|0:0,0:0:0:0:
286,179,1030652,2,0,P|363:179|420:135,1,150.000005722046,2|0,0:0|0:0,0:0:0:0:
426,23,1031061,2,0,L|348:10,1,75.0000028610231,2|0,0:0|0:0,0:0:0:0:
267,86,1031334,5,2,0:0:0:0:
161,124,1031470,1,0,0:0:0:0:
87,38,1031607,1,2,0:0:0:0:
193,0,1031743,1,0,0:0:0:0:
161,124,1031880,2,0,P|150:201|182:290,1,150.000005722046,2|0,0:0|0:0,0:0:0:0:
169,269,1032425,6,0,L|267:238,1,75.0000028610231,2|0,0:0|0:0,0:0:0:0:
346,207,1032698,1,2,0:0:0:0:
447,158,1032834,2,0,P|463:211|414:316,1,150.000005722046
338,359,1033243,2,0,L|240:328,1,75.0000028610231,2|0,0:0|0:0,0:0:0:0:
158,303,1033516,1,2,0:0:0:0:
249,238,1033652,1,2,0:0:0:0:
143,278,1033789,1,0,0:0:0:0:
234,213,1033925,1,0,0:0:0:0:
127,249,1034061,5,2,0:0:0:0:
131,253,1034334,2,0,P|102:182|112:95,1,150.000005722046,2|0,0:0|0:0,0:0:0:0:
166,12,1034743,2,0,L|246:33,1,75.0000028610231,2|0,0:0|0:0,0:0:0:0:
347,62,1035016,2,0,P|436:60|497:5,1,150.000005722046,2|0,0:0|0:0,0:0:0:0:
504,136,1035425,2,0,L|490:211,1,75.0000028610231,2|0,0:0|0:0,0:0:0:0:
377,198,1035698,2,0,L|391:273,1,75.0000028610231,2|0,0:0|0:0,0:0:0:0:
497,307,1035970,2,0,L|483:382,1,75.0000028610231,2|0,0:0|0:0,0:0:0:0:
391,271,1036243,6,0,P|310:259|244:297,1,150.000005722046,2|0,0:0|0:0,0:0:0:0:
178,375,1036652,1,0,0:0:0:0:
72,333,1036789,2,0,P|59:290|63:250,1,75.0000028610231,2|0,0:0|0:0,0:0:0:0:
136,177,1037061,1,2,0:0:0:0:
136,177,1037198,2,0,P|147:104|88:35,1,150.000005722046
136,177,1037607,2,0,L|219:189,1,75.0000028610231,2|0,0:0|0:0,0:0:0:0:
322,195,1037880,5,2,0:0:0:0:
362,186,1037948,1,0,0:0:0:0:
402,177,1038016,1,2,0:0:0:0:
442,168,1038084,1,0,0:0:0:0:
482,158,1038152,2,0,L|486:130,2,18.7500007152558,2|2|0,0:0|0:0|0:0,0:0:0:0:
512,241,1038289,2,0,L|507:267,2,18.7500007152558,2|2|0,0:0|0:0|0:0,0:0:0:0:
484,368,1038425,5,4,0:0:0:0:
392,296,1038561,1,0,0:0:0:0:
300,368,1038698,1,2,0:0:0:0:
300,368,1038766,1,0,0:0:0:0:
300,368,1038834,1,0,0:0:0:0:
300,368,1038902,1,0,0:0:0:0:
300,368,1038970,1,2,0:0:0:0:
212,296,1039107,1,0,0:0:0:0:
212,296,1039175,1,0,0:0:0:0:
212,296,1039243,1,0,0:0:0:0:
212,296,1039311,1,0,0:0:0:0:
212,296,1039379,1,2,0:0:0:0:
120,368,1039516,5,0,0:0:0:0:
120,368,1039584,1,0,0:0:0:0:
120,368,1039652,1,2,0:0:0:0:
24,296,1039789,2,0,L|12:204,1,75.0000028610231
97,138,1040061,2,0,L|85:46,1,75.0000028610231,0|2,0:0|0:0,0:0:0:0:
196,16,1040334,1,2,0:0:0:0:
312,28,1040470,1,2,0:0:0:0:
428,44,1040607,5,2,0:0:0:0:
356,136,1040743,1,0,0:0:0:0:
356,136,1040811,1,0,0:0:0:0:
356,136,1040880,1,2,0:0:0:0:
356,136,1040948,1,0,0:0:0:0:
356,136,1041016,1,0,0:0:0:0:
356,136,1041084,1,0,0:0:0:0:
356,136,1041152,2,0,P|340:176|340:232,1,75.0000028610231,2|0,0:0|0:0,0:0:0:0:
393,311,1041425,2,0,P|388:348|374:382,1,75.0000028610231,2|2,0:0|0:0,0:0:0:0:
260,356,1041698,5,0,0:0:0:0:
144,336,1041834,1,0,0:0:0:0:
168,220,1041970,1,0,0:0:0:0:
284,240,1042106,1,0,0:0:0:0:
144,336,1042243,2,0,L|56:320,1,75.0000028610231,2|2,0:0|0:0,0:0:0:0:
28,312,1042448,1,2,0:0:0:0:
28,312,1042516,2,0,P|16:264|24:228,1,75.0000028610231,0|2,0:0|0:0,0:0:0:0:
60,128,1042789,5,0,0:0:0:0:
160,64,1042925,1,0,0:0:0:0:
220,164,1043061,1,2,0:0:0:0:
320,100,1043198,1,0,0:0:0:0:
320,100,1043266,1,0,0:0:0:0:
320,100,1043334,1,2,0:0:0:0:
380,200,1043470,1,0,0:0:0:0:
380,200,1043539,1,0,0:0:0:0:
380,200,1043607,1,0,0:0:0:0:
380,200,1043675,1,0,0:0:0:0:
380,200,1043743,1,2,0:0:0:0:
480,136,1043880,5,0,0:0:0:0:
480,136,1043948,1,0,0:0:0:0:
480,136,1044016,1,2,0:0:0:0:
420,36,1044152,2,0,L|336:20,1,75.0000028610231
248,84,1044425,2,0,L|164:68,1,75.0000028610231,0|2,0:0|0:0,0:0:0:0:
60,44,1044698,1,2,0:0:0:0:
92,156,1044834,1,2,0:0:0:0:
124,268,1044970,5,2,0:0:0:0:
216,196,1045107,1,0,0:0:0:0:
216,196,1045175,1,0,0:0:0:0:
216,196,1045243,1,0,0:0:0:0:
216,196,1045311,1,0,0:0:0:0:
216,196,1045380,1,0,0:0:0:0:
216,196,1045448,1,0,0:0:0:0:
216,196,1045516,2,0,L|312:176,1,75.0000028610231,2|0,0:0|0:0,0:0:0:0:
332,200,1045720,1,0,0:0:0:0:
332,200,1045789,2,0,L|428:180,1,75.0000028610231,2|2,0:0|0:0,0:0:0:0:
452,40,1046061,5,0,0:0:0:0:
256,0,1046198,1,0,0:0:0:0:
216,196,1046334,1,0,0:0:0:0:
412,236,1046470,1,0,0:0:0:0:
256,0,1046607,1,2,0:0:0:0:
212,12,1046675,1,2,0:0:0:0:
168,24,1046743,1,2,0:0:0:0:
124,36,1046811,1,2,0:0:0:0:
80,48,1046880,2,0,P|64:88|72:128,1,75.0000028610231,2|0,0:0|0:0,0:0:0:0:
144,328,1047152,5,4,0:0:0:0:
372,268,1047289,1,0,0:0:0:0:
108,196,1047425,2,0,L|4:220,1,100,2|0,0:0|0:0,0:0:0:0:
220,376,1047698,1,0,0:0:0:0:
165,96,1047834,2,0,L|61:120,1,100,2|0,0:0|0:0,0:0:0:0:
277,276,1048107,1,2,0:0:0:0:
224,16,1048243,5,0,0:0:0:0:
36,208,1048380,1,0,0:0:0:0:
32,256,1048448,1,0,0:0:0:0:
48,304,1048516,1,2,0:0:0:0:
280,380,1048652,1,0,0:0:0:0:
165,96,1048789,2,0,L|61:120,1,100,2|0,0:0|0:0,0:0:0:0:
347,288,1049061,1,2,0:0:0:0:
396,278,1049130,1,0,0:0:0:0:
444,268,1049198,1,0,0:0:0:0:
496,48,1049334,6,0,L|392:32,1,100,2|0,0:0|0:0,0:0:0:0:
184,220,1049607,2,0,L|288:236,1,100
196,40,1049880,1,2,0:0:0:0:
116,320,1050016,1,0,0:0:0:0:
44,48,1050152,1,0,0:0:0:0:
324,128,1050288,1,0,0:0:0:0:
116,320,1050425,5,2,0:0:0:0:
44,48,1050561,1,0,0:0:0:0:
84,28,1050630,1,0,0:0:0:0:
128,28,1050698,1,2,0:0:0:0:
324,128,1050834,1,0,0:0:0:0:
32,212,1050970,1,2,0:0:0:0:
224,308,1051107,1,0,0:0:0:0:
268,312,1051176,1,0,0:0:0:0:
308,296,1051244,1,2,0:0:0:0:
456,120,1051380,1,0,0:0:0:0:
504,380,1051516,6,0,P|456:384|396:360,1,100,4|0,0:0|0:0,0:0:0:0:
276,136,1051789,1,2,0:0:0:0:
496,224,1051925,1,0,0:0:0:0:
244,368,1052061,2,0,P|196:372|136:348,1,100,0|2,0:0|0:0,0:0:0:0:
16,124,1052334,1,0,0:0:0:0:
236,212,1052470,1,2,0:0:0:0:
4,384,1052607,5,0,0:0:0:0:
136,152,1052743,1,0,0:0:0:0:
152,112,1052811,1,0,0:0:0:0:
156,68,1052880,1,2,0:0:0:0:
4,232,1053016,1,0,0:0:0:0:
276,136,1053152,2,0,L|384:148,1,100,2|0,0:0|0:0,0:0:0:0:
504,376,1053425,1,2,0:0:0:0:
460,372,1053493,1,0,0:0:0:0:
416,368,1053561,1,0,0:0:0:0:
184,344,1053698,5,2,0:0:0:0:
208,112,1053834,1,0,0:0:0:0:
440,136,1053970,1,0,0:0:0:0:
416,368,1054106,1,0,0:0:0:0:
184,344,1054243,2,0,P|168:288|184:236,1,100,2|0,0:0|0:0,0:0:0:0:
296,28,1054516,1,0,0:0:0:0:
336,276,1054652,1,0,0:0:0:0:
96,128,1054789,5,2,0:0:0:0:
388,72,1054925,1,0,0:0:0:0:
432,80,1054993,1,0,0:0:0:0:
476,88,1055061,1,2,0:0:0:0:
508,352,1055198,1,0,0:0:0:0:
260,220,1055334,1,2,0:0:0:0:
217,205,1055402,1,0,0:0:0:0:
172,202,1055470,1,2,0:0:0:0:
128,210,1055538,1,0,0:0:0:0:
87,228,1055606,1,2,0:0:0:0:
52,256,1055674,1,0,0:0:0:0:
24,291,1055743,1,2,0:0:0:0:
6,332,1055811,1,0,0:0:0:0:
8,380,1055880,6,0,L|116:360,1,100,4|0,0:0|0:0,0:0:0:0:
376,300,1056152,1,2,0:0:0:0:
128,210,1056289,1,0,0:0:0:0:
393,307,1056425,1,0,0:0:0:0:
300,44,1056561,2,0,P|268:84|264:148,1,100,2|0,0:0|0:0,0:0:0:0:
344,372,1056834,1,2,0:0:0:0:
424,80,1056970,5,0,0:0:0:0:
192,212,1057107,1,0,0:0:0:0:
148,204,1057175,1,0,0:0:0:0:
104,196,1057243,1,2,0:0:0:0:
8,8,1057380,1,0,0:0:0:0:
4,264,1057516,2,0,L|32:364,1,100,2|0,0:0|0:0,0:0:0:0:
168,128,1057789,1,2,0:0:0:0:
156,84,1057857,1,0,0:0:0:0:
144,40,1057925,1,0,0:0:0:0:
88,288,1058061,5,2,0:0:0:0:
368,224,1058198,1,0,0:0:0:0:
56,176,1058334,1,0,0:0:0:0:
312,320,1058470,1,0,0:0:0:0:
220,44,1058607,2,0,L|112:20,1,100,2|0,0:0|0:0,0:0:0:0:
204,240,1058880,1,0,0:0:0:0:
328,4,1059016,1,0,0:0:0:0:
372,12,1059084,1,0,0:0:0:0:
416,20,1059152,6,0,P|436:72|432:120,1,100,2|0,0:0|0:0,0:0:0:0:
420,160,1059357,1,0,0:0:0:0:
384,188,1059425,2,0,P|382:237|401:283,1,100,2|0,0:0|0:0,0:0:0:0:
180,384,1059698,1,2,0:0:0:0:
120,120,1059834,1,2,0:0:0:0:
120,120,1059902,1,0,0:0:0:0:
120,120,1059970,2,0,P|121:70|102:24,1,100,2|0,0:0|0:0,0:0:0:0:
8,240,1060243,5,4,0:0:0:0:
288,176,1060380,1,0,0:0:0:0:
88,380,1060516,2,0,B|80:332|80:332|100:272,1,100,2|0,0:0|0:0,0:0:0:0:
292,88,1060789,1,0,0:0:0:0:
12,24,1060926,1,2,0:0:0:0:
212,228,1061062,2,0,B|220:180|220:180|200:120,1,100
12,24,1061334,5,2,0:0:0:0:
96,283,1061470,1,0,0:0:0:0:
140,295,1061539,1,0,0:0:0:0:
184,307,1061607,1,2,0:0:0:0:
448,364,1061743,1,0,0:0:0:0:
336,128,1061880,2,0,B|328:80|328:80|348:20,1,100,2|0,0:0|0:0,0:0:0:0:
503,231,1062152,1,2,0:0:0:0:
459,243,1062221,1,0,0:0:0:0:
415,255,1062289,1,0,0:0:0:0:
168,331,1062425,5,2,0:0:0:0:
324,125,1062561,1,0,0:0:0:0:
320,384,1062698,1,0,0:0:0:0:
172,172,1062834,1,0,0:0:0:0:
415,255,1062970,2,0,P|436:208|424:136,1,100,2|0,0:0|0:0,0:0:0:0:
191,77,1063243,2,0,P|170:124|182:196,1,100
192,212,1063448,1,0,0:0:0:0:
192,212,1063516,6,0,L|76:204,1,100,2|0,0:0|0:0,0:0:0:0:
56,232,1063720,1,0,0:0:0:0:
56,232,1063789,2,0,P|57:281|37:326,1,100,2|0,0:0|0:0,0:0:0:0:
17,60,1064061,5,4,3:0:0:0:
66,52,1064130,1,4,3:0:0:0:
115,46,1064198,1,4,3:0:0:0:
164,40,1064266,1,4,3:0:0:0:
214,34,1064334,1,4,3:0:0:0:
263,28,1064402,1,4,3:0:0:0:
312,22,1064470,1,4,3:0:0:0:
362,16,1064538,1,4,3:0:0:0:
410,10,1064607,6,0,P|429:56|423:113,1,100,4|0,0:0|0:0,0:0:0:0:
295,303,1064880,1,2,0:0:0:0:
263,28,1065016,1,0,0:0:0:0:
132,225,1065152,2,0,L|24:244,1,100,0|2,0:0|0:0,0:0:0:0:
165,11,1065425,2,0,L|273:30,1,100
512,73,1065698,5,2,0:0:0:0:
326,250,1065834,1,0,0:0:0:0:
317,294,1065902,1,0,0:0:0:0:
326,337,1065970,1,2,0:0:0:0:
512,168,1066107,1,0,0:0:0:0:
263,28,1066243,2,0,L|164:45,1,100,2|0,0:0|0:0,0:0:0:0:
10,240,1066516,1,2,0:0:0:0:
54,247,1066584,1,0,0:0:0:0:
98,255,1066652,1,0,0:0:0:0:
377,163,1066789,6,0,P|389:115|378:59,1,100,2|0,0:0|0:0,0:0:0:0:
98,255,1067061,2,0,P|86:303|97:359,1,100
392,384,1067334,1,2,0:0:0:0:
114,355,1067470,1,0,0:0:0:0:
376,284,1067607,1,0,0:0:0:0:
98,255,1067743,1,0,0:0:0:0:
262,28,1067880,5,2,0:0:0:0:
376,284,1068016,1,0,0:0:0:0:
333,298,1068084,1,0,0:0:0:0:
288,299,1068152,1,2,0:0:0:0:
7,231,1068289,1,0,0:0:0:0:
7,231,1068357,1,0,0:0:0:0:
7,231,1068425,2,0,B|-2:180|-2:180|17:125,1,100,2|0,0:0|0:0,0:0:0:0:
38,96,1068630,1,0,0:0:0:0:
38,96,1068698,2,0,B|53:50|53:50|44:0,1,100,2|0,0:0|0:0,0:0:0:0:
136,231,1068970,5,4,0:0:0:0:
377,189,1069107,1,0,0:0:0:0:
220,1,1069243,2,0,P|207:55|223:107,1,100,2|0,0:0|0:0,0:0:0:0:
327,304,1069516,1,0,0:0:0:0:
444,52,1069652,2,0,L|343:35,1,100,2|0,0:0|0:0,0:0:0:0:
87,0,1069925,1,2,0:0:0:0:
185,241,1070061,5,2,0:0:0:0:
443,206,1070198,1,0,0:0:0:0:
452,162,1070266,1,0,0:0:0:0:
447,117,1070334,1,2,0:0:0:0:
189,152,1070470,1,0,0:0:0:0:
392,330,1070607,2,0,L|495:309,1,100,2|0,0:0|0:0,0:0:0:0:
253,269,1070880,1,2,0:0:0:0:
208,276,1070948,1,0,0:0:0:0:
163,283,1071016,1,0,0:0:0:0:
44,81,1071152,5,2,0:0:0:0:
0,330,1071289,1,0,0:0:0:0:
44,81,1071425,1,0,0:0:0:0:
0,330,1071562,1,0,0:0:0:0:
237,243,1071698,2,0,B|250:197|250:197|239:138,1,100,2|0,0:0|0:0,0:0:0:0:
454,4,1071970,2,0,B|441:50|441:50|452:109,1,100
463,144,1072175,1,0,0:0:0:0:
463,144,1072243,6,0,L|351:129,1,100,2|0,0:0|0:0,0:0:0:0:
327,103,1072448,1,0,0:0:0:0:
327,103,1072516,2,0,L|215:118,1,100,2|0,0:0|0:0,0:0:0:0:
183,124,1072720,1,0,0:0:0:0:
183,124,1072789,1,2,0:0:0:0:
319,331,1072925,1,2,0:0:0:0:
363,322,1072993,1,0,0:0:0:0:
407,313,1073061,1,0,0:0:0:0:
460,64,1073198,1,0,0:0:0:0:
228,259,1073334,6,0,P|170:267|116:251,1,100,4|0,0:0|0:0,0:0:0:0:
37,26,1073607,1,2,0:0:0:0:
2,306,1073743,1,0,0:0:0:0:
242,150,1073880,2,0,P|300:142|354:158,1,100,0|2,0:0|0:0,0:0:0:0:
433,383,1074153,1,0,0:0:0:0:
468,103,1074289,1,2,0:0:0:0:
228,258,1074425,5,0,0:0:0:0:
485,84,1074561,1,0,0:0:0:0:
442,68,1074630,1,0,0:0:0:0:
399,52,1074698,1,2,0:0:0:0:
303,328,1074834,1,0,0:0:0:0:
111,106,1074970,2,0,L|132:1,1,100,2|0,0:0|0:0,0:0:0:0:
339,139,1075243,1,2,0:0:0:0:
347,182,1075311,1,0,0:0:0:0:
339,226,1075380,1,0,0:0:0:0:
95,282,1075516,5,2,0:0:0:0:
39,38,1075652,1,0,0:0:0:0:
278,84,1075789,1,0,0:0:0:0:
222,328,1075925,1,0,0:0:0:0:
461,282,1076061,2,0,P|468:220|461:177,1,100,2|0,0:0|0:0,0:0:0:0:
157,57,1076334,2,0,P|150:119|157:162,1,100
176,196,1076539,1,0,0:0:0:0:
176,196,1076607,6,0,P|183:258|176:301,1,100,2|0,0:0|0:0,0:0:0:0:
157,335,1076811,1,0,0:0:0:0:
157,335,1076880,2,0,L|279:312,1,100,2|0,0:0|0:0,0:0:0:0:
299,306,1077084,1,0,0:0:0:0:
299,306,1077152,1,2,0:0:0:0:
407,102,1077289,1,0,0:0:0:0:
415,57,1077357,1,0,0:0:0:0:
407,12,1077425,1,2,0:0:0:0:
157,57,1077561,1,0,0:0:0:0:
363,229,1077698,6,0,L|481:208,1,100,4|0,0:0|0:0,0:0:0:0:
233,126,1077970,1,2,0:0:0:0:
345,361,1078107,1,0,0:0:0:0:
220,103,1078243,2,0,L|102:82,1,100,0|2,0:0|0:0,0:0:0:0:
350,0,1078515,1,0,0:0:0:0:
238,235,1078652,1,2,0:0:0:0:
90,20,1078789,5,0,0:0:0:0:
326,133,1078925,1,0,0:0:0:0:
370,140,1078993,1,0,0:0:0:0:
414,132,1079061,2,0,P|425:76|419:31,1,100,2|0,0:0|0:0,0:0:0:0:
101,141,1079334,2,0,P|90:197|96:242,1,100,2|0,0:0|0:0,0:0:0:0:
331,374,1079607,1,2,0:0:0:0:
331,374,1079675,1,0,0:0:0:0:
331,374,1079743,1,0,0:0:0:0:
420,34,1079880,5,2,0:0:0:0:
375,26,1079948,1,0,0:0:0:0:
333,44,1080016,1,2,0:0:0:0:
288,36,1080084,1,0,0:0:0:0:
246,54,1080152,1,2,0:0:0:0:
201,46,1080220,1,0,0:0:0:0:
159,64,1080289,1,2,0:0:0:0:
114,56,1080357,1,0,0:0:0:0:
72,74,1080425,2,0,L|48:183,1,100,2|0,0:0|0:0,0:0:0:0:
257,319,1080698,2,0,L|281:210,1,100,2|0,0:0|0:0,0:0:0:0:
83,339,1080970,5,2,0:0:0:0:
128,347,1081038,1,0,0:0:0:0:
170,329,1081106,1,2,0:0:0:0:
215,337,1081174,1,0,0:0:0:0:
257,319,1081242,1,2,0:0:0:0:
302,327,1081310,1,0,0:0:0:0:
344,309,1081379,1,2,0:0:0:0:
389,317,1081447,1,0,0:0:0:0:
431,299,1081515,2,0,L|455:190,1,100,2|0,0:0|0:0,0:0:0:0:
488,4,1081789,1,2,0:0:0:0:
488,4,1082061,5,4,1:0:0:0:
76,108,1099516,6,0,L|96:213,1,100,2|0,0:0|0:0,0:0:0:0:
128,364,1100061,1,0,0:0:0:0:
411,209,1101698,6,0,P|421:166|414:111,1,100,2|0,0:0|0:0,0:0:0:0:
355,63,1102107,1,0,0:0:0:0:
355,63,1102243,2,0,L|250:54,1,100,2|0,0:0|0:0,0:0:0:0:
21,29,1103061,5,2,0:0:0:0:
99,156,1103334,2,0,L|87:218,1,50,2|0,0:0|0:0,0:0:0:0:
72,278,1103607,1,0,0:0:0:0:
211,333,1103880,5,2,0:0:0:0:
357,309,1104152,1,0,0:0:0:0:
503,285,1104425,1,0,0:0:0:0:
503,285,1106061,6,0,P|485:242|485:183,1,100,2|0,0:0|0:0,0:0:0:0:
505,110,1106470,1,0,0:0:0:0:
505,110,1106607,2,0,L|390:89,1,100,2|0,0:0|0:0,0:0:0:0:
109,51,1107425,5,2,0:0:0:0:
122,200,1107698,1,2,0:0:0:0:
194,220,1107834,1,0,0:0:0:0:
174,292,1107970,1,0,0:0:0:0:
102,272,1108107,1,0,0:0:0:0:
122,200,1108243,6,0,P|143:161|156:151,2,50,2|0|0,0:0|0:0|0:0,0:0:0:0:
200,328,1108789,1,0,0:0:0:0:
437,259,1110425,6,0,P|448:213|442:161,1,100,2|0,0:0|0:0,0:0:0:0:
408,93,1110834,1,0,0:0:0:0:
408,93,1110970,2,0,L|306:121,1,100,2|0,0:0|0:0,0:0:0:0:
25,211,1111789,5,2,0:0:0:0:
134,312,1112061,1,2,0:0:0:0:
207,326,1112198,1,0,0:0:0:0:
280,341,1112334,2,0,L|352:331,1,50
404,322,1112607,6,0,P|415:282|405:218,1,100,2|0,0:0|0:0,0:0:0:0:
340,80,1113152,1,0,0:0:0:0:
256,192,1114380,12,2,1115743,0:0:0:0:
77,55,1116970,6,0,P|59:107|66:160,1,100,4|0,0:0|0:0,0:0:0:0:
138,292,1117243,1,2,0:0:0:0:
280,218,1117380,1,0,0:0:0:0:
280,218,1117448,1,0,0:0:0:0:
280,218,1117516,2,0,L|401:231,1,100,2|0,0:0|0:0,0:0:0:0:
327,76,1117789,1,2,0:0:0:0:
175,126,1117925,1,0,0:0:0:0:
380,229,1118061,6,0,P|390:292|381:337,1,100,2|0,0:0|0:0,0:0:0:0:
228,367,1118334,1,0,0:0:0:0:
104,265,1118470,2,0,P|94:202|103:157,1,100,2|0,0:0|0:0,0:0:0:0:
256,127,1118743,1,0,0:0:0:0:
228,367,1118880,1,2,0:0:0:0:
34,222,1119016,1,0,0:0:0:0:
256,127,1119152,6,0,L|370:141,1,100,2|0,0:0|0:0,0:0:0:0:
395,142,1119357,1,0,0:0:0:0:
434,145,1119425,2,0,P|441:198|420:244,1,100,2|0,0:0|0:0,0:0:0:0:
272,363,1119698,2,0,L|158:349,1,100,2|0,0:0|0:0,0:0:0:0:
133,348,1119903,1,0,0:0:0:0:
94,345,1119971,2,0,P|87:292|108:246,1,100,2|0,0:0|0:0,0:0:0:0:
233,71,1120243,5,2,0:0:0:0:
234,291,1120379,1,0,0:0:0:0:
103,113,1120516,1,2,0:0:0:0:
314,180,1120652,1,0,0:0:0:0:
353,187,1120720,1,0,0:0:0:0:
393,181,1120789,1,2,0:0:0:0:
499,7,1120925,1,2,0:0:0:0:
460,0,1120993,1,0,0:0:0:0:
420,6,1121061,2,0,P|406:60|416:109,1,100,0|2,0:0|0:0,0:0:0:0:
500,311,1121334,5,2,0:0:0:0:
346,267,1121470,1,0,0:0:0:0:
230,379,1121607,2,0,L|125:363,1,100,2|0,0:0|0:0,0:0:0:0:
91,359,1121811,1,0,0:0:0:0:
50,354,1121880,2,0,P|42:301|57:252,1,100,2|0,0:0|0:0,0:0:0:0:
205,206,1122152,1,2,0:0:0:0:
205,206,1122220,1,0,0:0:0:0:
205,206,1122289,1,0,0:0:0:0:
125,67,1122425,6,0,L|20:83,1,100,2|0,0:0|0:0,0:0:0:0:
205,206,1122698,1,0,0:0:0:0:
387,67,1122834,2,0,L|492:83,1,100,2|0,0:0|0:0,0:0:0:0:
307,206,1123107,1,2,0:0:0:0:
256,8,1123243,1,0,0:0:0:0:
195,255,1123380,1,0,0:0:0:0:
439,184,1123516,5,2,0:0:0:0:
193,124,1123652,1,0,0:0:0:0:
193,124,1123720,1,0,0:0:0:0:
193,124,1123789,2,0,P|137:119|83:140,1,100,2|0,0:0|0:0,0:0:0:0:
235,344,1124061,1,2,0:0:0:0:
295,98,1124197,1,0,0:0:0:0:
295,98,1124265,1,0,0:0:0:0:
295,98,1124334,2,0,P|300:42|279:-12,1,100,2|0,0:0|0:0,0:0:0:0:
0,139,1124607,6,0,P|-5:195|16:249,1,100,2|0,0:0|0:0,0:0:0:0:
235,344,1124880,1,2,0:0:0:0:
130,126,1125016,1,2,0:0:0:0:
130,126,1125084,1,0,0:0:0:0:
130,126,1125152,1,2,0:0:0:0:
51,380,1125289,1,0,0:0:0:0:
139,96,1125425,1,2,0:0:0:0:
60,350,1125562,1,0,0:0:0:0:
319,291,1125698,6,0,P|386:288|429:304,1,100,2|0,0:0|0:0,0:0:0:0:
511,156,1125970,1,2,0:0:0:0:
392,47,1126107,1,0,0:0:0:0:
392,47,1126175,1,0,0:0:0:0:
392,47,1126243,2,0,L|281:58,1,100,2|0,0:0|0:0,0:0:0:0:
132,72,1126516,1,2,0:0:0:0:
132,72,1126584,1,0,0:0:0:0:
132,72,1126652,1,0,0:0:0:0:
238,192,1126789,6,0,P|241:246|225:292,1,100,2|0,0:0|0:0,0:0:0:0:
83,217,1127061,1,0,0:0:0:0:
292,56,1127198,2,0,P|337:26|385:17,1,100,2|0,0:0|0:0,0:0:0:0:
391,177,1127470,1,0,0:0:0:0:
148,78,1127607,2,0,P|99:53|67:16,1,100,2|0,0:0|0:0,0:0:0:0:
238,192,1127880,6,0,P|241:246|225:292,1,100,2|0,0:0|0:0,0:0:0:0:
201,319,1128084,1,0,0:0:0:0:
201,319,1128152,2,0,L|316:338,1,100,2|0,0:0|0:0,0:0:0:0:
496,257,1128425,2,0,P|499:203|483:157,1,100,2|0,0:0|0:0,0:0:0:0:
456,130,1128630,1,0,0:0:0:0:
456,130,1128698,2,0,L|341:111,1,100,2|0,0:0|0:0,0:0:0:0:
121,83,1128970,5,2,0:0:0:0:
339,0,1129107,1,0,0:0:0:0:
211,195,1129243,2,0,P|206:249|217:292,1,100,2|0,0:0|0:0,0:0:0:0:
246,320,1129448,1,0,0:0:0:0:
283,333,1129516,2,0,L|386:328,1,100,2|0,0:0|0:0,0:0:0:0:
418,310,1129720,1,0,0:0:0:0:
442,277,1129789,2,0,P|447:223|436:180,1,100,2|0,0:0|0:0,0:0:0:0:
304,25,1130061,5,2,0:0:0:0:
256,209,1130198,1,0,0:0:0:0:
125,117,1130334,2,0,L|17:131,1,100,2|0,0:0|0:0,0:0:0:0:
11,167,1130539,1,0,0:0:0:0:
11,167,1130607,2,0,P|7:220|24:265,1,100,2|0,0:0|0:0,0:0:0:0:
159,347,1130880,1,2,0:0:0:0:
318,347,1131016,1,0,0:0:0:0:
465,286,1131152,6,0,L|483:168,1,100,2|0,0:0|0:0,0:0:0:0:
323,150,1131425,1,0,0:0:0:0:
176,211,1131561,2,0,L|158:329,1,100,2|0,0:0|0:0,0:0:0:0:
318,347,1131834,1,0,0:0:0:0:
323,150,1131970,2,0,P|321:92|295:43,1,100,2|0,0:0|0:0,0:0:0:0:
66,7,1132243,5,2,0:0:0:0:
153,141,1132380,1,0,0:0:0:0:
153,141,1132448,1,0,0:0:0:0:
153,141,1132516,2,0,L|159:248,1,100,2|0,0:0|0:0,0:0:0:0:
305,370,1132789,1,2,0:0:0:0:
392,236,1132926,1,0,0:0:0:0:
392,236,1132994,1,0,0:0:0:0:
392,236,1133062,2,0,L|398:129,1,100,2|0,0:0|0:0,0:0:0:0:
194,51,1133334,5,2,0:0:0:0:
292,264,1133470,1,0,0:0:0:0:
385,2,1133607,1,2,0:0:0:0:
228,173,1133743,2,0,L|165:181,1,50,2|0,0:0|0:0,0:0:0:0:
99,159,1133880,1,4,3:0:0:0:
69,186,1133948,1,4,3:0:0:0:
53,222,1134016,1,4,3:0:0:0:
47,261,1134084,1,4,3:0:0:0:
52,300,1134152,1,4,3:0:0:0:
70,335,1134220,1,4,3:0:0:0:
99,362,1134289,1,4,3:0:0:0:
136,376,1134357,1,4,3:0:0:0:
175,376,1134425,6,0,L|278:357,1,100,4|0,0:0|0:0,0:0:0:0:
512,307,1134698,1,2,0:0:0:0:
222,246,1134834,1,0,0:0:0:0:
222,246,1134902,1,0,0:0:0:0:
222,246,1134970,2,0,P|213:190|221:135,1,100,2|0,0:0|0:0,0:0:0:0:
416,11,1135243,1,2,0:0:0:0:
445,252,1135380,1,0,0:0:0:0:
218,147,1135516,6,0,L|99:178,1,100,2|0,0:0|0:0,0:0:0:0:
284,384,1135789,2,0,L|403:353,1,100,2|0,0:0|0:0,0:0:0:0:
450,96,1136061,1,2,0:0:0:0:
239,267,1136198,1,0,0:0:0:0:
510,252,1136334,1,2,0:0:0:0:
281,104,1136470,1,0,0:0:0:0:
381,358,1136607,5,2,0:0:0:0:
450,96,1136743,1,0,0:0:0:0:
450,96,1136811,1,0,0:0:0:0:
450,96,1136880,2,0,P|455:42|436:0,1,100,2|0,0:0|0:0,0:0:0:0:
196,68,1137152,2,0,P|191:122|210:164,1,100,2|0,0:0|0:0,0:0:0:0:
339,343,1137425,1,2,0:0:0:0:
388,64,1137561,1,0,0:0:0:0:
194,251,1137698,6,0,L|83:238,1,100,2|0,0:0|0:0,0:0:0:0:
6,44,1137970,1,2,0:0:0:0:
2,298,1138107,1,0,0:0:0:0:
223,174,1138243,1,2,0:0:0:0:
6,44,1138380,1,2,0:0:0:0:
6,44,1138448,1,0,0:0:0:0:
6,44,1138516,2,0,P|-1:98|19:150,1,100,0|2,0:0|0:0,0:0:0:0:
128,345,1138789,5,2,0:0:0:0:
276,263,1138925,1,0,0:0:0:0:
436,317,1139061,2,0,L|465:202,1,100,2|0,0:0|0:0,0:0:0:0:
472,181,1139266,1,0,0:0:0:0:
480,141,1139334,2,0,L|451:26,1,100,2|0,0:0|0:0,0:0:0:0:
289,3,1139607,1,2,0:0:0:0:
249,9,1139675,1,0,0:0:0:0:
209,15,1139743,1,0,0:0:0:0:
6,44,1139880,6,0,P|4:103|28:147,1,100,2|0,0:0|0:0,0:0:0:0:
222,258,1140152,2,0,P|241:303|237:352,1,100,2|0,0:0|0:0,0:0:0:0:
8,241,1140425,1,2,0:0:0:0:
287,180,1140561,1,2,0:0:0:0:
103,368,1140698,1,2,0:0:0:0:
42,89,1140834,1,2,0:0:0:0:
287,180,1140970,6,0,P|338:179|383:150,1,100,2|0,0:0|0:0,0:0:0:0:
396,118,1141175,1,0,0:0:0:0:
394,78,1141243,1,2,0:0:0:0:
172,24,1141380,1,0,0:0:0:0:
273,264,1141516,2,0,L|254:368,1,100,2|0,0:0|0:0,0:0:0:0:
9,285,1141789,1,2,0:0:0:0:
287,180,1141925,1,2,0:0:0:0:
53,0,1142061,6,0,L|34:104,1,100,2|0,0:0|0:0,0:0:0:0:
255,362,1142334,2,0,L|274:258,1,100,2|0,0:0|0:0,0:0:0:0:
310,25,1142607,1,2,0:0:0:0:
347,11,1142675,1,2,0:0:0:0:
386,14,1142743,1,2,0:0:0:0:
421,33,1142811,1,2,0:0:0:0:
446,64,1142879,1,2,0:0:0:0:
455,102,1142947,1,2,0:0:0:0:
449,142,1143016,1,2,0:0:0:0:
426,174,1143084,1,2,0:0:0:0:
393,196,1143152,6,0,P|348:205|276:179,1,100,2|0,0:0|0:0,0:0:0:0:
54,107,1143425,1,2,0:0:0:0:
148,278,1143561,1,0,0:0:0:0:
248,27,1143698,1,2,0:0:0:0:
27,116,1143834,1,0,0:0:0:0:
148,278,1143970,2,0,P|161:352|152:382,1,100,2|0,0:0|0:0,0:0:0:0:
27,116,1144243,6,0,L|149:80,1,100,2|0,0:0|0:0,0:0:0:0:
358,255,1144516,2,0,L|236:291,1,100,2|0,0:0|0:0,0:0:0:0:
27,116,1144789,1,2,0:0:0:0:
290,36,1144925,1,0,0:0:0:0:
108,263,1145061,1,2,0:0:0:0:
28,0,1145197,1,2,0:0:0:0:
290,36,1145334,6,0,L|419:22,1,100,2|0,0:0|0:0,0:0:0:0:
428,34,1145539,1,0,0:0:0:0:
428,34,1145607,2,0,P|447:90|438:131,1,100,2|0,0:0|0:0,0:0:0:0:
163,290,1145880,2,0,P|155:338|174:384,1,100,2|0,0:0|0:0,0:0:0:0:
344,262,1146152,1,2,0:0:0:0:
86,201,1146289,1,0,0:0:0:0:
377,270,1146425,6,0,L|492:244,1,100,2|0,0:0|0:0,0:0:0:0:
308,380,1146698,1,2,0:0:0:0:
160,175,1146834,1,0,0:0:0:0:
159,135,1146902,1,0,0:0:0:0:
169,96,1146970,1,2,0:0:0:0:
189,61,1147038,1,0,0:0:0:0:
217,33,1147106,1,2,0:0:0:0:
252,14,1147174,1,0,0:0:0:0:
290,4,1147243,1,2,0:0:0:0:
330,4,1147311,1,0,0:0:0:0:
369,15,1147379,1,0,0:0:0:0:
401,40,1147448,1,0,0:0:0:0:
420,74,1147516,6,0,L|401:176,1,100,4|0,3:0|0:0,0:0:0:0:
374,356,1147789,2,0,L|272:337,1,100,4|0,3:0|0:0,0:0:0:0:
92,310,1148061,2,0,L|111:208,1,100,4|0,3:0|0:0,0:0:0:0:
138,28,1148334,2,0,L|240:47,1,100,4|0,3:0|0:0,0:0:0:0:
420,74,1148607,6,0,P|420:128|401:176,1,100,4|0,3:0|0:0,0:0:0:0:
374,356,1148880,2,0,P|320:356|272:337,1,100,4|0,3:0|0:0,0:0:0:0:
92,310,1149152,2,0,P|92:256|111:208,1,100,4|0,3:0|0:0,0:0:0:0:
138,28,1149425,2,0,P|192:28|240:47,1,100,4|0,3:0|0:0,0:0:0:0:
396,232,1149698,5,4,3:0:0:0:
216,332,1149834,1,4,3:0:0:0:
116,152,1149970,1,4,3:0:0:0:
296,52,1150106,1,4,3:0:0:0:
342,347,1150243,5,4,3:0:0:0:
100,278,1150379,1,4,3:0:0:0:
169,36,1150515,1,4,3:0:0:0:
411,105,1150651,1,4,3:0:0:0:
100,278,1150789,5,4,3:0:0:0:
84,241,1150857,1,4,3:0:0:0:
77,201,1150925,1,4,3:0:0:0:
77,161,1150993,1,4,3:0:0:0:
84,121,1151061,1,4,3:0:0:0:
97,82,1151130,1,4,3:0:0:0:
121,50,1151198,1,4,3:0:0:0:
152,26,1151266,1,4,3:0:0:0:
189,13,1151334,6,0,L|270:20,1,50,2|0,0:0|0:0,0:0:0:0:
270,98,1151470,2,0,L|189:105,1,50,2|0,0:0|0:0,0:0:0:0:
189,183,1151607,6,0,L|229:186,6,25,2|0|2|0|2|0|2,0:0|0:0|0:0|0:0|0:0|0:0|0:0,0:0:0:0:
160,180,1151880,6,0,P|140:228|160:320,1,150.000005722046,4|0,0:0|0:0,0:0:0:0:
293,281,1152289,2,0,P|345:274|414:211,1,150.000005722046,2|0,0:0|0:0,0:0:0:0:
314,114,1152698,2,0,P|282:73|193:44,1,150.000005722046,2|0,0:0|0:0,0:0:0:0:
72,108,1153107,2,0,P|52:156|52:200,2,75.0000028610231,2|2|0,0:0|0:0|0:0,0:0:0:0:
172,200,1153516,2,0,P|166:236|150:270,1,75.0000028610231,2|2,0:0|0:0,0:0:0:0:
32,340,1153789,1,0,0:0:0:0:
32,340,1154198,6,0,L|192:364,1,150.000005722046,2|0,0:0|0:0,0:0:0:0:
232,236,1154607,2,0,L|392:260,1,150.000005722046,2|0,0:0|0:0,0:0:0:0:
428,132,1155016,1,0,0:0:0:0:
428,132,1155289,2,0,L|408:44,1,75.0000028610231,2|2,0:0|0:0,0:0:0:0:
280,36,1155561,1,0,0:0:0:0:
280,36,1155698,2,0,L|300:124,2,75.0000028610231,2|2|0,0:0|0:0|0:0,0:0:0:0:
12,4,1156243,6,0,L|45:151,1,150.000005722046,4|0,0:0|0:0,0:0:0:0:
176,188,1156652,2,0,L|142:335,1,150.000005722046,2|0,0:0|0:0,0:0:0:0:
12,372,1157061,1,2,0:0:0:0:
12,372,1157470,2,0,L|28:298,1,75.0000028610231,2|2,0:0|0:0,0:0:0:0:
56,164,1157743,1,0,0:0:0:0:
160,261,1157880,2,0,L|143:334,2,75.0000028610231,2|2|0,0:0|0:0|0:0,0:0:0:0:
160,261,1158561,6,0,P|220:248|312:296,1,150.000005722046,2|0,0:0|0:0,0:0:0:0:
408,364,1158970,2,0,L|436:180,1,150.000005722046,2|0,0:0|0:0,0:0:0:0:
452,80,1159380,1,2,0:0:0:0:
452,80,1159652,2,0,P|416:64|376:68,1,75.0000028610231,0|2,0:0|0:0,0:0:0:0:
264,132,1159925,1,0,0:0:0:0:
332,248,1160061,6,0,B|340:284|340:284|332:324,1,75.0000028610231,8|0,0:0|0:0,0:0:0:0:
180,248,1160334,2,0,B|172:284|172:284|180:324,1,75.0000028610231,8|0,0:0|0:0,0:0:0:0:
264,132,1160607,6,0,P|200:104|112:120,1,150.000005722046,4|0,0:0|0:0,0:0:0:0:
32,216,1161016,1,2,0:0:0:0:
0,80,1161152,2,0,L|12:0,1,75.0000028610231
32,216,1161425,2,0,L|20:296,1,75.0000028610231,2|0,0:0|0:0,0:0:0:0:
16,320,1161630,1,0,0:0:0:0:
16,320,1161698,6,0,P|60:328|92:316,1,75.0000028610231,0|2,0:0|0:0,0:0:0:0:
216,280,1161970,2,0,P|260:272|292:284,1,75.0000028610231,2|0,0:0|0:0,0:0:0:0:
408,344,1162243,1,2,0:0:0:0:
456,216,1162380,1,2,0:0:0:0:
504,376,1162516,1,0,0:0:0:0:
504,376,1162789,5,0,0:0:0:0:
504,376,1162925,2,0,L|456:216,1,150.000005722046,2|0,0:0|0:0,0:0:0:0:
340,168,1163334,2,0,L|292:328,1,150.000005722046,2|0,0:0|0:0,0:0:0:0:
172,368,1163743,1,0,0:0:0:0:
172,368,1163811,1,0,0:0:0:0:
172,368,1163880,6,0,P|128:368|88:348,1,75.0000028610231,2|0,0:0|0:0,0:0:0:0:
120,224,1164152,2,0,P|164:224|204:244,1,75.0000028610231,2|0,0:0|0:0,0:0:0:0:
44,288,1164425,1,2,0:0:0:0:
24,156,1164561,1,2,0:0:0:0:
4,24,1164698,1,0,0:0:0:0:
4,24,1164970,6,0,P|96:56|152:36,1,150.000005722046,4|0,0:0|0:0,0:0:0:0:
232,144,1165380,2,0,P|298:112|371:126,1,150.000005722046,2|0,0:0|0:0,0:0:0:0:
480,208,1165789,1,2,0:0:0:0:
356,260,1165925,1,0,0:0:0:0:
356,260,1165993,1,0,0:0:0:0:
356,260,1166061,6,0,P|348:308|352:336,1,75.0000028610231,2|0,0:0|0:0,0:0:0:0:
224,380,1166334,2,0,P|232:332|228:304,1,75.0000028610231,2|0,0:0|0:0,0:0:0:0:
128,212,1166607,2,0,P|96:276|104:356,1,150.000005722046,2|0,0:0|0:0,0:0:0:0:
128,212,1167152,5,0,0:0:0:0:
128,212,1167289,2,0,L|80:64,1,150.000005722046,2|0,0:0|0:0,0:0:0:0:
216,92,1167698,2,0,L|264:240,1,150.000005722046,2|0,0:0|0:0,0:0:0:0:
308,360,1168107,1,2,0:0:0:0:
308,360,1168175,1,0,0:0:0:0:
308,360,1168243,6,0,L|392:336,1,75.0000028610231,8|0,0:0|0:0,0:0:0:0:
448,112,1168516,2,0,L|364:136,1,75.0000028610231,8|0,0:0|0:0,0:0:0:0:
132,200,1168789,2,0,L|120:264,1,37.5000014305115,2|0,0:0|0:0,0:0:0:0:
88,124,1168925,2,0,L|100:60,1,37.5000014305115,2|0,0:0|0:0,0:0:0:0:
44,200,1169061,2,0,L|32:264,1,37.5000014305115,2|0,0:0|0:0,0:0:0:0:
0,124,1169197,2,0,L|12:60,1,37.5000014305115,2|0,0:0|0:0,0:0:0:0:
88,124,1169334,6,0,L|200:100,1,100,4|0,0:0|0:0,0:0:0:0:
380,60,1169607,1,2,0:0:0:0:
408,88,1169675,1,0,0:0:0:0:
428,123,1169743,1,0,0:0:0:0:
428,164,1169811,1,0,0:0:0:0:
420,204,1169880,2,0,B|412:256|412:256|432:312,1,100,2|0,0:0|0:0,0:0:0:0:
224,384,1170152,2,0,B|232:332|232:332|212:276,1,100,2|0,0:0|0:0,0:0:0:0:
188,260,1170357,1,0,0:0:0:0:
188,260,1170425,6,0,L|200:152,1,100,2|0,0:0|0:0,0:0:0:0:
72,24,1170698,1,2,0:0:0:0:
8,212,1170834,1,0,0:0:0:0:
23,248,1170902,1,0,0:0:0:0:
38,284,1170970,1,2,0:0:0:0:
53,321,1171039,1,0,0:0:0:0:
68,357,1171107,1,0,0:0:0:0:
246,277,1171243,2,0,P|291:270|354:292,1,100,2|0,0:0|0:0,0:0:0:0:
377,304,1171448,1,0,0:0:0:0:
377,304,1171516,6,0,B|402:257|402:257|395:198,1,100,4|0,0:0|0:0,0:0:0:0:
370,26,1171789,1,2,0:0:0:0:
225,142,1171925,1,0,0:0:0:0:
187,154,1171993,1,0,0:0:0:0:
147,154,1172061,1,2,0:0:0:0:
108,140,1172130,1,0,0:0:0:0:
79,111,1172198,1,0,0:0:0:0:
241,14,1172334,1,2,0:0:0:0:
283,206,1172470,1,0,0:0:0:0:
283,206,1172539,1,0,0:0:0:0:
283,206,1172607,6,0,L|263:311,1,100,2|0,0:0|0:0,0:0:0:0:
85,338,1172880,1,2,0:0:0:0:
321,375,1173016,1,0,0:0:0:0:
360,379,1173084,1,0,0:0:0:0:
398,369,1173152,1,2,0:0:0:0:
428,343,1173220,1,0,0:0:0:0:
442,305,1173289,1,0,0:0:0:0:
358,105,1173425,1,2,0:0:0:0:
358,105,1173493,1,0,0:0:0:0:
358,105,1173561,1,0,0:0:0:0:
208,275,1173698,6,0,L|108:267,1,100,4|0,0:0|0:0,0:0:0:0:
24,108,1173970,1,2,0:0:0:0:
60,90,1174039,1,0,0:0:0:0:
99,88,1174107,1,0,0:0:0:0:
135,104,1174175,1,0,0:0:0:0:
157,137,1174243,1,2,0:0:0:0:
89,306,1174380,1,0,0:0:0:0:
24,108,1174516,2,0,L|45:11,1,100,2|0,0:0|0:0,0:0:0:0:
157,137,1174789,6,0,P|234:136|285:108,1,100,2|0,0:0|0:0,0:0:0:0:
400,23,1175061,1,2,0:0:0:0:
376,202,1175198,1,0,0:0:0:0:
390,239,1175266,1,0,0:0:0:0:
404,276,1175334,1,2,0:0:0:0:
418,313,1175402,1,0,0:0:0:0:
433,349,1175470,1,0,0:0:0:0:
264,284,1175607,2,0,P|187:285|136:313,1,100,2|0,0:0|0:0,0:0:0:0:
248,100,1175880,6,0,P|325:99|376:71,1,100,4|0,0:0|0:0,0:0:0:0:
504,7,1176152,1,2,0:0:0:0:
504,7,1176220,1,0,0:0:0:0:
504,7,1176289,1,0,0:0:0:0:
429,170,1176425,1,2,0:0:0:0:
416,208,1176493,1,0,0:0:0:0:
424,246,1176561,1,0,0:0:0:0:
443,281,1176630,1,0,0:0:0:0:
474,305,1176698,2,0,L|380:347,1,100,2|0,0:0|0:0,0:0:0:0:
135,280,1176970,5,4,0:0:0:0:
339,173,1177107,1,0,0:0:0:0:
225,373,1177243,1,2,0:0:0:0:
203,133,1177380,1,0,0:0:0:0:
169,111,1177448,1,0,0:0:0:0:
130,100,1177516,1,2,0:0:0:0:
90,104,1177584,1,0,0:0:0:0:
54,122,1177652,1,0,0:0:0:0:
28,152,1177720,1,0,0:0:0:0:
17,190,1177789,2,0,B|10:240|10:240|28:291,1,100,2|0,0:0|0:0,0:0:0:0:
225,373,1178061,6,0,L|331:357,1,100,4|0,0:0|0:0,0:0:0:0:
364,352,1178266,1,0,0:0:0:0:
403,346,1178334,1,2,0:0:0:0:
474,181,1178470,1,0,0:0:0:0:
449,148,1178539,1,0,0:0:0:0:
413,130,1178607,1,2,0:0:0:0:
374,120,1178675,1,0,0:0:0:0:
334,120,1178743,1,0,0:0:0:0:
294,126,1178811,1,0,0:0:0:0:
258,145,1178880,2,0,B|211:160|211:160|158:155,1,100,2|0,0:0|0:0,0:0:0:0:
19,43,1179152,5,2,0:0:0:0:
82,256,1179289,1,0,0:0:0:0:
82,256,1179357,1,0,0:0:0:0:
82,256,1179425,1,2,0:0:0:0:
183,61,1179561,1,0,0:0:0:0:
221,48,1179630,1,0,0:0:0:0:
260,48,1179698,1,2,0:0:0:0:
296,63,1179766,1,0,0:0:0:0:
321,93,1179834,1,0,0:0:0:0:
389,268,1179970,2,0,L|282:305,1,100,2|0,0:0|0:0,0:0:0:0:
82,256,1180243,6,0,L|189:219,1,100,4|0,0:0|0:0,0:0:0:0:
377,154,1180516,1,2,0:0:0:0:
377,154,1180584,1,0,0:0:0:0:
377,154,1180652,1,0,0:0:0:0:
255,327,1180788,1,2,0:0:0:0:
255,327,1180857,1,0,0:0:0:0:
255,327,1180925,1,0,0:0:0:0:
255,327,1180993,1,0,0:0:0:0:
255,327,1181061,1,2,0:0:0:0:
252,115,1181198,1,0,0:0:0:0:
379,284,1181334,6,0,P|441:284|495:255,1,100,2|0,0:0|0:0,0:0:0:0:
511,73,1181607,1,2,0:0:0:0:
471,64,1181675,1,0,0:0:0:0:
431,55,1181743,1,0,0:0:0:0:
391,46,1181811,1,0,0:0:0:0:
351,37,1181880,2,0,P|289:37|235:66,1,100,2|0,0:0|0:0,0:0:0:0:
222,74,1182084,1,0,0:0:0:0:
222,74,1182152,2,0,P|175:90|125:88,1,100,2|0,0:0|0:0,0:0:0:0:
0,2,1182425,5,4,0:0:0:0:
29,167,1182561,1,0,0:0:0:0:
29,167,1182630,1,0,0:0:0:0:
29,167,1182698,1,2,0:0:0:0:
185,232,1182834,1,0,0:0:0:0:
185,232,1182902,1,0,0:0:0:0:
185,232,1182970,1,2,0:0:0:0:
185,232,1183039,1,0,0:0:0:0:
185,232,1183107,1,0,0:0:0:0:
348,205,1183243,1,2,0:0:0:0:
348,205,1183311,1,0,0:0:0:0:
348,205,1183380,1,0,0:0:0:0:
455,73,1183516,6,0,L|477:193,1,100,2|0,0:0|0:0,0:0:0:0:
482,210,1183720,1,0,0:0:0:0:
488,250,1183789,1,2,0:0:0:0:
358,364,1183925,1,0,0:0:0:0:
318,368,1183993,1,0,0:0:0:0:
278,363,1184061,1,2,0:0:0:0:
240,348,1184130,1,0,0:0:0:0:
208,323,1184198,1,0,0:0:0:0:
187,288,1184266,1,0,0:0:0:0:
179,248,1184334,2,0,L|201:128,1,100,2|0,0:0|0:0,0:0:0:0:
370,29,1184607,5,4,0:0:0:0:
300,248,1184743,1,0,0:0:0:0:
300,248,1184811,1,0,0:0:0:0:
300,248,1184880,1,2,0:0:0:0:
58,157,1185016,1,0,0:0:0:0:
58,157,1185084,1,0,0:0:0:0:
58,157,1185152,1,2,0:0:0:0:
58,157,1185220,1,0,0:0:0:0:
58,157,1185289,1,0,0:0:0:0:
128,376,1185425,2,0,L|230:350,1,100,2|0,0:0|0:0,0:0:0:0:
256,192,1185698,12,4,1186789,0:0:0:0:
34,89,1195516,6,0,L|127:77,1,75.0000028610231,2|0,0:0|0:0,0:0:0:0:
210,128,1195789,2,0,L|210:167,2,37.5000014305115,2|0|0,0:0|0:0|0:0,0:0:0:0:
315,90,1196061,2,0,L|315:51,2,37.5000014305115,2|0|0,0:0|0:0|0:0,0:0:0:0:
409,151,1196334,2,0,L|409:190,2,37.5000014305115,2|0|0,0:0|0:0|0:0,0:0:0:0:
313,210,1196607,6,0,P|312:258|328:291,1,75.0000028610231,2|0,0:0|0:0,0:0:0:0:
403,360,1196880,2,0,L|450:360,2,37.5000014305115,2|0|0,0:0|0:0|0:0,0:0:0:0:
292,381,1197152,2,0,L|214:380,1,75.0000028610231,2|0,0:0|0:0,0:0:0:0:
139,297,1197425,2,0,L|92:297,2,37.5000014305115,2|0|0,0:0|0:0|0:0,0:0:0:0:
193,198,1197698,6,0,L|240:198,2,37.5000014305115,2|0|0,0:0|0:0|0:0,0:0:0:0:
171,87,1197970,2,0,L|214:68,2,37.5000014305115,2|0|0,0:0|0:0|0:0,0:0:0:0:
65,47,1198243,2,0,P|47:80|46:123,1,75.0000028610231,2|0,0:0|0:0,0:0:0:0:
63,228,1198516,2,0,L|63:275,2,37.5000014305115,2|0|0,0:0|0:0|0:0,0:0:0:0:
157,165,1198789,6,0,L|157:118,2,37.5000014305115,2|0|0,0:0|0:0|0:0,0:0:0:0:
206,265,1199061,2,0,L|206:312,2,37.5000014305115,2|0|0,0:0|0:0|0:0,0:0:0:0:
300,202,1199334,2,0,L|300:155,2,37.5000014305115,2|0|0,0:0|0:0|0:0,0:0:0:0:
353,301,1199607,2,0,L|434:295,1,75.0000028610231,2|0,0:0|0:0,0:0:0:0:
457,186,1199880,6,0,P|475:181|501:180,2,37.5000014305115,2|0|0,0:0|0:0|0:0,0:0:0:0:
361,127,1200152,2,0,P|370:110|387:91,2,37.5000014305115,2|0|0,0:0|0:0|0:0,0:0:0:0:
251,153,1200425,2,0,P|242:121|240:76,1,75.0000028610231,2|0,0:0|0:0,0:0:0:0:
191,249,1200698,2,0,P|174:239|155:222,2,37.5000014305115,2|0|0,0:0|0:0|0:0,0:0:0:0:
217,359,1200971,6,0,P|198:363|173:365,2,37.5000014305115,2|0|0,0:0|0:0|0:0,0:0:0:0:
321,318,1201243,2,0,P|339:313|365:312,2,37.5000014305115,2|0|0,0:0|0:0|0:0,0:0:0:0:
221,264,1201516,2,0,B|211:225|211:225|221:174,1,75.0000028610231,2|0,0:0|0:0,0:0:0:0:
261,86,1201789,2,0,B|271:47|271:47|261:-4,1,75.0000028610231,2|0,0:0|0:0,0:0:0:0:
161,57,1202061,6,0,L|124:48,2,37.5000014305115,2|0|0,0:0|0:0|0:0,0:0:0:0:
120,162,1202334,2,0,L|83:153,2,37.5000014305115,2|0|0,0:0|0:0|0:0,0:0:0:0:
79,267,1202607,2,0,L|5:250,1,75.0000028610231,2|0,0:0|0:0,0:0:0:0:
38,372,1202880,2,0,L|1:363,2,37.5000014305115,2|0|0,0:0|0:0|0:0,0:0:0:0:
247,290,1203289,5,2,0:0:0:0:
353,324,1203425,1,0,0:0:0:0:
388,217,1203561,1,2,0:0:0:0:
282,183,1203698,2,0,P|271:135|274:104,1,75.0000028610231,2|0,0:0|0:0,0:0:0:0:
336,17,1203970,1,2,0:0:0:0:
336,17,1204243,5,4,0:0:0:0:
81,162,1204925,1,8,0:0:0:0:
81,162,1205334,2,0,L|177:171,1,75.0000028610231,2|2,0:0|0:0,0:0:0:0:
268,176,1205607,1,0,0:0:0:0:
268,176,1206016,1,4,0:0:0:0:
268,176,1206425,6,0,P|276:215|270:259,1,75.0000028610231,2|2,0:0|0:0,0:0:0:0:
119,335,1206698,2,0,P|111:296|117:252,1,75.0000028610231,2|0,0:0|0:0,0:0:0:0:
268,176,1206970,2,0,L|361:183,1,75.0000028610231,2|0,0:0|0:0,0:0:0:0:
182,18,1207243,2,0,L|89:25,1,75.0000028610231,2|0,0:0|0:0,0:0:0:0:
34,109,1207516,5,2,0:0:0:0:
30,221,1207652,1,2,0:0:0:0:
88,317,1207789,1,2,0:0:0:0:
194,351,1207925,1,0,0:0:0:0:
303,324,1208061,2,0,L|389:311,1,75.0000028610231,2|0,0:0|0:0,0:0:0:0:
488,294,1208334,1,2,0:0:0:0:
488,294,1208607,5,2,0:0:0:0:
163,201,1209016,1,0,0:0:0:0:
374,123,1209289,1,8,0:0:0:0:
374,123,1209698,6,0,L|274:100,1,75.0000028610231,2|2,0:0|0:0,0:0:0:0:
191,79,1209970,1,0,0:0:0:0:
276,366,1210380,1,4,0:0:0:0:
276,366,1210789,6,0,P|278:324|263:282,1,75.0000028610231,2|2,0:0|0:0,0:0:0:0:
158,269,1211061,2,0,P|156:227|171:185,1,75.0000028610231,2|0,0:0|0:0,0:0:0:0:
255,127,1211334,1,2,0:0:0:0:
194,32,1211470,1,0,0:0:0:0:
119,116,1211607,1,2,0:0:0:0:
58,21,1211743,1,0,0:0:0:0:
0,118,1211880,6,0,L|23:200,1,75.0000028610231,2|2,0:0|0:0,0:0:0:0:
0,312,1212152,2,0,L|23:394,1,75.0000028610231,2|0,0:0|0:0,0:0:0:0:
188,363,1212425,1,0,1:0:0:0:
224,353,1212493,1,0,1:0:0:0:
260,343,1212561,1,2,0:0:0:0:
345,208,1212698,2,0,L|352:184,4,18.7500007152558,0|0|0|0|0,1:0|0:0|0:0|0:0|0:0,0:0:0:0:
203,240,1212970,6,0,L|112:228,1,75.0000028610231,4|0,0:0|0:0,0:0:0:0:
16,216,1213243,1,0,0:0:0:0:
85,126,1213380,1,0,0:0:0:0:
85,126,1213448,1,0,0:0:0:0:
85,126,1213516,2,0,P|92:85|83:51,1,75.0000028610231,2|0,0:0|0:0,0:0:0:0:
188,9,1213789,2,0,P|181:50|190:84,1,75.0000028610231
279,148,1214061,5,2,0:0:0:0:
390,129,1214198,1,2,0:0:0:0:
501,110,1214334,1,2,0:0:0:0:
494,139,1214402,1,0,0:0:0:0:
488,168,1214470,1,0,0:0:0:0:
482,197,1214539,1,0,0:0:0:0:
476,226,1214607,2,0,P|473:277|483:316,1,75.0000028610231,2|0,0:0|0:0,0:0:0:0:
380,357,1214880,2,0,P|383:306|373:267,1,75.0000028610231,2|0,0:0|0:0,0:0:0:0:
285,220,1215152,5,2,0:0:0:0:
174,239,1215289,1,2,0:0:0:0:
63,258,1215425,1,2,0:0:0:0:
50,230,1215493,1,0,0:0:0:0:
48,200,1215561,1,0,0:0:0:0:
54,170,1215630,1,0,0:0:0:0:
67,143,1215698,2,0,B|77:105|77:105|66:55,1,75.0000028610231,2|0,0:0|0:0,0:0:0:0:
164,5,1215970,2,0,B|154:43|154:43|165:93,1,75.0000028610231,2|0,0:0|0:0,0:0:0:0:
242,167,1216243,5,2,0:0:0:0:
294,58,1216380,1,2,0:0:0:0:
363,155,1216516,1,2,0:0:0:0:
242,167,1216652,1,0,0:0:0:0:
212,165,1216720,1,0,0:0:0:0:
181,167,1216789,1,2,0:0:0:0:
153,178,1216857,1,0,0:0:0:0:
127,194,1216925,1,0,0:0:0:0:
49,275,1217061,2,0,L|63:364,1,75.0000028610231,2|0,0:0|0:0,0:0:0:0:
190,377,1217334,6,0,L|204:288,1,75.0000028610231,2|0,0:0|0:0,0:0:0:0:
299,245,1217607,1,2,0:0:0:0:
398,297,1217743,1,0,0:0:0:0:
427,298,1217811,1,0,0:0:0:0:
456,292,1217880,1,2,0:0:0:0:
482,277,1217948,1,0,0:0:0:0:
502,254,1218016,1,0,0:0:0:0:
508,141,1218152,2,0,P|500:100|481:62,1,75.0000028610231,2|0,0:0|0:0,0:0:0:0:
384,20,1218425,5,2,0:0:0:0:
273,37,1218561,1,2,0:0:0:0:
161,54,1218698,1,2,0:0:0:0:
234,138,1218834,1,0,0:0:0:0:
263,140,1218902,1,0,0:0:0:0:
292,142,1218970,1,2,0:0:0:0:
322,145,1219039,1,0,0:0:0:0:
351,148,1219107,1,0,0:0:0:0:
397,250,1219243,2,0,L|308:265,1,75.0000028610231,2|0,0:0|0:0,0:0:0:0:
248,347,1219516,5,2,0:0:0:0:
138,324,1219652,1,2,0:0:0:0:
27,301,1219789,1,2,0:0:0:0:
21,271,1219857,1,0,0:0:0:0:
21,241,1219925,1,0,0:0:0:0:
29,212,1219993,1,0,0:0:0:0:
43,185,1220061,2,0,P|50:148|46:106,1,75.0000028610231,2|0,0:0|0:0,0:0:0:0:
160,53,1220334,2,0,P|153:90|157:132,1,75.0000028610231,2|0,0:0|0:0,0:0:0:0:
201,239,1220607,5,2,0:0:0:0:
201,239,1220675,1,2,0:0:0:0:
201,239,1220743,1,2,0:0:0:0:
309,75,1220880,1,2,0:0:0:0:
356,273,1221016,2,0,L|368:319,1,37.5000014305115,2|0,0:0|0:0,0:0:0:0:
390,377,1221152,2,0,P|428:373|468:360,1,75.0000028610231,2|0,0:0|0:0,0:0:0:0:
495,146,1221425,1,2,0:0:0:0:
495,146,1221493,1,0,0:0:0:0:
495,146,1221561,1,2,0:0:0:0:
268,262,1221698,6,0,L|154:253,1,100,4|0,0:0|0:0,0:0:0:0:
35,104,1221970,1,0,0:0:0:0:
35,104,1222039,1,0,0:0:0:0:
35,104,1222107,1,2,0:0:0:0:
35,104,1222175,1,0,0:0:0:0:
35,104,1222243,2,0,L|149:95,1,100
335,80,1222516,1,2,0:0:0:0:
353,115,1222584,1,0,0:0:0:0:
355,154,1222652,1,0,0:0:0:0:
168,254,1222789,6,0,P|157:301|167:360,1,100,2|0,0:0|0:0,0:0:0:0:
332,377,1223061,1,0,0:0:0:0:
372,378,1223130,1,0,0:0:0:0:
410,366,1223198,1,2,0:0:0:0:
442,343,1223266,1,0,0:0:0:0:
463,309,1223334,1,0,0:0:0:0:
303,238,1223470,1,0,0:0:0:0:
497,157,1223607,2,0,P|508:110|498:51,1,100,2|0,0:0|0:0,0:0:0:0:
326,13,1223880,5,2,0:0:0:0:
174,110,1224016,1,2,0:0:0:0:
303,238,1224152,2,0,L|283:351,1,100,2|0,0:0|0:0,0:0:0:0:
274,376,1224357,1,0,0:0:0:0:
274,376,1224425,2,0,P|221:381|177:358,1,100,2|0,0:0|0:0,0:0:0:0:
66,220,1224698,1,2,0:0:0:0:
98,43,1224834,1,0,0:0:0:0:
251,135,1224970,6,0,L|366:114,1,100,2|0,0:0|0:0,0:0:0:0:
491,5,1225243,1,0,0:0:0:0:
475,185,1225380,1,0,0:0:0:0:
482,224,1225448,1,0,0:0:0:0:
489,263,1225516,1,2,0:0:0:0:
496,302,1225584,1,0,0:0:0:0:
503,341,1225652,1,0,0:0:0:0:
330,286,1225789,2,0,L|215:307,1,100,2|0,0:0|0:0,0:0:0:0:
8,247,1226061,6,0,P|-4:189|9:135,1,100,4|0,0:0|0:0,0:0:0:0:
122,13,1226334,1,2,0:0:0:0:
122,13,1226402,1,0,0:0:0:0:
122,13,1226470,1,0,0:0:0:0:
203,174,1226607,1,2,0:0:0:0:
237,180,1226675,1,0,0:0:0:0:
271,178,1226743,1,0,0:0:0:0:
303,166,1226811,1,0,0:0:0:0:
330,144,1226880,2,0,P|343:100|334:46,1,100,2|0,0:0|0:0,0:0:0:0:
112,185,1227152,6,0,L|135:293,1,100,2|0,0:0|0:0,0:0:0:0:
298,360,1227425,1,2,0:0:0:0:
332,366,1227493,1,0,0:0:0:0:
366,364,1227561,1,0,0:0:0:0:
398,352,1227629,1,0,0:0:0:0:
425,330,1227698,2,0,P|438:286|429:232,1,100,2|0,0:0|0:0,0:0:0:0:
208,106,1227970,2,0,P|195:150|204:204,1,100,2|0,0:0|0:0,0:0:0:0:
455,109,1228243,5,2,0:0:0:0:
301,13,1228380,1,2,0:0:0:0:
296,202,1228516,1,2,0:0:0:0:
455,109,1228652,1,0,0:0:0:0:
455,109,1228720,1,0,0:0:0:0:
455,109,1228789,1,2,0:0:0:0:
301,13,1228925,1,0,0:0:0:0:
296,202,1229061,2,0,L|332:323,1,100,2|0,0:0|0:0,0:0:0:0:
84,276,1229334,6,0,L|48:155,1,100,2|2,0:0|0:0,0:0:0:0:
128,14,1229607,1,2,0:0:0:0:
284,101,1229743,1,2,0:0:0:0:
323,107,1229811,1,0,0:0:0:0:
363,105,1229880,1,0,0:0:0:0:
401,95,1229948,1,0,0:0:0:0:
435,74,1230016,1,0,0:0:0:0:
500,241,1230152,2,0,L|471:336,1,100,2|0,0:0|0:0,0:0:0:0:
306,261,1230425,6,0,P|237:249|129:315,1,200,4|0,0:0|0:0,0:0:0:0:
10,177,1230834,1,0,0:0:0:0:
10,177,1230902,1,0,0:0:0:0:
10,177,1230970,2,0,L|29:77,1,100,2|0,0:0|0:0,0:0:0:0:
197,14,1231243,2,0,L|216:114,1,100,2|0,0:0|0:0,0:0:0:0:
252,289,1231516,5,2,0:0:0:0:
79,239,1231652,1,2,0:0:0:0:
215,112,1231789,1,2,0:0:0:0:
254,108,1231857,1,0,0:0:0:0:
293,113,1231925,1,0,0:0:0:0:
328,130,1231993,1,0,0:0:0:0:
357,156,1232061,1,2,0:0:0:0:
427,322,1232198,1,0,0:0:0:0:
483,122,1232334,2,0,P|491:58|481:18,1,100,2|0,0:0|0:0,0:0:0:0:
254,108,1232607,6,0,P|246:172|256:212,1,100,2|2,0:0|0:0,0:0:0:0:
321,373,1232880,1,2,0:0:0:0:
145,336,1233016,1,0,0:0:0:0:
134,297,1233084,1,0,0:0:0:0:
123,258,1233152,1,2,0:0:0:0:
112,219,1233220,1,0,0:0:0:0:
101,180,1233289,1,0,0:0:0:0:
50,7,1233425,2,0,L|24:118,1,100,2|0,0:0|0:0,0:0:0:0:
198,47,1233698,5,2,0:0:0:0:
372,89,1233834,1,2,0:0:0:0:
330,263,1233970,1,2,0:0:0:0:
156,221,1234107,1,2,0:0:0:0:
116,217,1234175,1,0,0:0:0:0:
77,226,1234243,1,0,0:0:0:0:
45,250,1234311,1,0,0:0:0:0:
28,286,1234380,1,0,0:0:0:0:
188,366,1234516,2,0,L|296:348,1,100,2|0,0:0|0:0,0:0:0:0:
389,113,1234789,6,0,L|281:95,1,100,4|0,0:0|0:0,0:0:0:0:
113,66,1235061,1,2,0:0:0:0:
89,99,1235130,1,0,0:0:0:0:
77,137,1235198,1,0,0:0:0:0:
76,176,1235266,1,0,0:0:0:0:
83,215,1235334,1,2,0:0:0:0:
188,366,1235470,1,0,0:0:0:0:
300,194,1235607,2,0,P|303:141|284:83,1,100,2|0,0:0|0:0,0:0:0:0:
439,0,1235880,6,0,P|436:53|455:111,1,100,2|2,0:0|0:0,0:0:0:0:
501,269,1236152,1,2,0:0:0:0:
341,354,1236289,1,2,0:0:0:0:
341,354,1236357,1,0,0:0:0:0:
341,354,1236425,1,0,0:0:0:0:
346,174,1236561,1,0,0:0:0:0:
501,269,1236698,1,2,0:0:0:0:
341,354,1236834,1,0,0:0:0:0:
191,254,1236970,6,0,P|171:202|177:153,1,100,2|2,0:0|0:0,0:0:0:0:
327,61,1237243,1,2,0:0:0:0:
364,73,1237311,1,0,0:0:0:0:
402,85,1237380,1,0,0:0:0:0:
439,97,1237448,1,0,0:0:0:0:
476,109,1237516,1,2,0:0:0:0:
509,305,1237652,1,0,0:0:0:0:
326,219,1237789,2,0,L|208:251,1,100,2|0,0:0|0:0,0:0:0:0:
35,289,1238061,5,2,0:0:0:0:
186,78,1238198,1,2,0:0:0:0:
293,314,1238334,1,2,0:0:0:0:
35,289,1238470,5,0,0:0:0:0:
60,31,1238607,1,2,0:0:0:0:
318,56,1238743,1,2,0:0:0:0:
293,314,1238880,1,0,0:0:0:0:
177,173,1239016,5,2,0:0:0:0:
256,192,1239084,12,0,1240243,0:0:0:0:
