osu file format v14

[General]
AudioFilename: audio.mp3
AudioLeadIn: 0
PreviewTime: 693767
Countdown: 0
SampleSet: None
StackLeniency: 0.7
Mode: 1
LetterboxInBreaks: 0
WidescreenStoryboard: 0

[Editor]
DistanceSpacing: 1
BeatDivisor: 4
GridSize: 32
TimelineZoom: 1

[Metadata]
Title:Because Maybe! Pt. 1
TitleUnicode:Because Maybe! Pt. 1
Artist:Renard
ArtistUnicode:Renard
Creator:mikku1
Version:Go To The Taiko
Source:
Tags:breakcore renard ren queenston dave remmler lapfox trax halley labs best of vol. 1 volume because maybe full album go to the party dracula i'm a blind cave salamander sean paul opens a mfing casino with me banned forever wrecka team murder namx sinisterrrrrrrr push cycles smoke tower spacedragonstyle raggamissile bumblefuck fuck your rails too dear spark chelsea smile lets move tu4ar the entire world
BeatmapID:1686764
BeatmapSetID:803645

[Difficulty]
HPDrainRate:6
CircleSize:5
OverallDifficulty:8
ApproachRate:9
SliderMultiplier:1.4
SliderTickRate:1

[Events]
//Background and Video events
0,0,"cover.jpg",0,0
//Break Periods
//Storyboard Layer 0 (Background)
//Storyboard Layer 1 (Fail)
//Storyboard Layer 2 (Pass)
//Storyboard Layer 3 (Foreground)
//Storyboard Sound Samples

[TimingPoints]
39.8855580729144,272.727142857144,4,1,0,100,1,0
17477,272.727142857144,4,1,0,100,1,0
25676,1000000000000,1,1,0,100,1,0
25676,-50,4,1,0,100,0,0
25721,-52.6315789473684,4,1,0,100,0,0
25766,-55.5555555555556,4,1,0,100,0,0
25812,-58.8235294117647,4,1,0,100,0,0
25857,-62.5,4,1,0,100,0,0
25903,-66.6666666666667,4,1,0,100,0,0
25948,-71.4285714285714,4,1,0,100,0,0
25994,-76.9230769230769,4,1,0,100,0,0
26039,-83.3333333333333,4,1,0,100,0,0
26085,-90.9090909090909,4,1,0,100,0,0
26130,-93.7500585937866,4,1,0,100,0,0
26175,-96.7741935483871,4,1,0,100,0,0
26210,272.727142857144,4,1,0,100,1,0
33857,272.727142857144,4,1,0,100,1,0
33993,272.727142857144,4,1,0,100,1,0
34061,272.727142857144,4,1,0,100,1,0
34129,272.727142857144,4,1,0,100,1,0
34265,272.727142857144,4,1,0,100,1,0
34401,272.727142857144,4,1,0,100,1,0
34930,272.727142857144,4,1,0,100,1,0
51293,272.727142857144,4,1,0,100,1,0
51429,272.727142857144,4,1,0,100,1,0
51497,272.727142857144,4,1,0,100,1,0
51565,272.727142857144,4,1,0,100,1,0
51701,272.727142857144,4,1,0,100,1,0
51837,272.727142857144,4,1,0,100,1,0
52155,-90.9090909090909,4,1,0,100,0,0
52200,-83.3333333333333,4,1,0,100,0,0
52246,-76.9230769230769,4,1,0,100,0,0
52291,-71.4285714285714,4,1,0,100,0,0
52336,-66.6666666666667,4,1,0,100,0,0
52382,272.727142857144,4,1,0,100,1,0
52382,-66.6666666666667,4,1,0,100,0,0
52450,-67.7966101694915,4,1,0,100,0,0
52518,-68.9655172413793,4,1,0,100,0,0
52586,-70.1754385964912,4,1,0,100,0,0
52654,-71.4285714285714,4,1,0,100,0,0
52722,-72.7272727272727,4,1,0,100,0,0
52791,-74.0740740740741,4,1,0,100,0,0
52859,-75.4716981132076,4,1,0,100,0,0
52927,-76.9230769230769,4,1,0,100,0,0
52995,-78.4313725490196,4,1,0,100,0,0
53063,-80,4,1,0,100,0,0
53131,-81.6326530612245,4,1,0,100,0,0
53200,-83.3333333333333,4,1,0,100,0,0
53268,-85.1063829787234,4,1,0,100,0,0
53336,-86.9565217391304,4,1,0,100,0,0
53404,-88.8888888888889,4,1,0,100,0,0
53472,-90.9090909090909,4,1,0,100,0,0
53541,-93.0232558139535,4,1,0,100,0,0
53609,-95.2380952380952,4,1,0,100,0,0
53677,-97.5609756097561,4,1,0,100,0,0
53745,-100,4,1,0,100,0,0
70109,-400,4,2,0,75,0,0
78018,1000000000000,4,1,0,100,1,0
78563,272.727142857144,4,1,0,100,1,0
93839,-50,4,1,0,100,0,0
94109,-66.6666666666667,4,1,0,100,0,0
94381,-80,4,1,0,100,0,0
94654,-100,4,1,0,100,0,0
94927,272.727142857144,4,1,0,100,1,0
95063,272.727142857144,4,1,0,100,1,0
95131,272.727142857144,4,1,0,100,1,0
95199,272.727142857144,4,1,0,100,1,0
95335,272.727142857144,4,1,0,100,1,0
95471,272.727142857144,4,1,0,100,1,0
96016,272.727142857144,4,1,0,100,1,0
131743,-400,4,1,0,100,0,0
148379,-100,4,1,0,100,0,1
163106,-90.9090909090909,4,1,0,100,0,0
163379,-83.3333333333333,4,1,0,100,0,0
163652,-76.9230769230769,4,1,0,100,0,0
163925,-71.4285714285714,4,1,0,100,0,0
164197,-66.6666666666667,4,1,0,100,0,0
164470,-62.5,4,1,0,100,0,0
164743,-58.8235294117647,4,1,0,100,0,0
165015,-55.5555555555556,4,1,0,100,0,0
165288,-52.6315789473684,4,1,0,100,0,0
165561,-50,4,1,0,100,0,0
165834,-200,4,1,0,100,0,0
174561,-100,4,1,0,100,0,1
192015,-100,4,1,0,100,0,0
209480,272.727142857144,4,1,0,100,1,0
330570,-100,4,2,0,50,0,0
331661,-100,4,1,0,100,0,1
346934,-100,4,1,0,100,0,0
349116,-100,4,1,0,100,0,1
364389,-100,4,1,0,100,0,0
366570,-100,4,2,0,75,0,0
386210,272.727142857144,4,1,0,100,1,0
403664,-133.333333333333,4,2,0,40,0,0
412391,-100,4,1,0,100,0,0
421391,-133.333333333333,4,2,0,100,0,0
423300,-100,4,1,0,90,0,0
432028,-100,4,1,0,100,0,0
439664,-100,4,2,0,70,0,0
440755,-100,4,1,0,100,0,1
457119,-100,4,1,0,90,0,0
458209,-100,4,2,0,100,0,0
466937,-100,4,1,0,100,0,0
477846,-100,4,2,0,75,0,0
486573,-100,4,1,0,100,0,0
495300,-100,4,1,0,80,0,0
504028,-100,4,1,0,90,0,0
512755,-100,4,1,0,100,0,1
530209,-100,4,1,0,80,0,0
538937,-100,4,1,0,90,0,0
549846,-100,4,1,0,100,0,0
567290,272.727142857144,4,1,0,50,1,0
571653,-100,4,1,0,65,0,0
573835,-100,4,1,0,70,0,0
576017,-100,4,1,0,75,0,0
578199,-100,4,1,0,85,0,0
580380,-100,4,1,0,95,0,0
584744,-100,4,1,0,100,0,1
602199,-100,4,1,0,100,0,0
619653,-100,4,1,0,100,0,1
656744,-100,4,1,0,50,0,0
658926,-100,4,1,0,100,0,0
693835,-100,4,1,0,75,0,0
711289,-100,4,1,0,100,0,1
730926,-100,4,1,0,100,0,0
768017,-100,4,2,0,90,0,0
776744,-100,4,1,0,95,0,0
820380,-100,4,1,0,100,0,1
855289,-100,4,1,0,100,0,0
872744,-100,4,1,0,100,0,1
907653,-100,4,1,0,75,0,0
942562,-100,4,1,0,100,0,0
960017,-100,4,2,0,80,0,0
977471,-100,4,1,0,100,0,0
994926,-100,4,1,0,100,0,1
1012380,-100,4,1,0,100,0,0
1029835,-100,4,1,0,75,0,0
1047289,-100,4,1,0,100,0,0
1064744,-100,4,1,0,100,0,1
1080017,-100,4,1,0,100,0,0
1082198,-100,4,2,0,75,0,0
1099653,-100,4,1,0,75,0,0
1117107,-100,4,1,0,100,0,0
1134562,-100,4,1,0,100,0,1
1152000,272.727142857144,4,1,0,100,1,0
1186909,-100,4,2,0,75,0,0
1195636,-100,4,2,0,85,0,0
1213090,-100,4,1,0,90,0,0
1221818,-100,4,1,0,100,0,0
1241454,-100,4,2,0,5,0,0
1241727,-100,4,2,0,10,0,0
1241999,-100,4,2,0,15,0,0
1242272,-100,4,2,0,25,0,0
1242545,-100,4,2,0,35,0,0
1242818,-100,4,2,0,45,0,0
1243090,-100,4,2,0,55,0,0
1243363,-100,4,2,0,65,0,0
1243630,272.727142857144,4,1,0,100,1,0
1243636,-100,4,2,0,75,0,0
1252363,-100,4,1,0,100,0,0
1309090,-100,4,1,0,100,0,1
1326545,-100,4,2,0,100,0,0
1335272,-100,4,1,0,100,0,0
1418727,-100,4,2,0,70,0,0
1435636,-100,4,1,0,100,0,0
1444397,-100,4,1,0,100,0,1
1470545,-100,4,1,0,100,0,0
1479260,272.727142857144,4,1,0,100,1,0
1549090,-100,4,1,0,100,0,1
1565454,-100,4,2,0,90,0,0
1566545,-100,4,1,0,100,0,0
1588363,-100,4,1,0,100,0,1
1601454,-100,4,1,0,80,0,0
1618908,-100,4,1,0,100,0,1
1653817,-100,4,1,0,100,0,0
1723636,-100,4,1,0,100,0,1
1756363,-100,4,1,0,100,0,0
1793454,-100,4,1,0,100,0,1
1810908,-100,4,1,0,100,0,0
1828363,-100,4,1,0,100,0,1
1861090,-100,4,1,0,100,0,0
1915630,272.727142857144,4,1,0,100,1,0
2057440,272.727142857144,4,1,0,100,1,0
2074908,-100,4,1,0,100,0,1
2092363,-100,4,1,0,100,0,0
2127272,-100,4,1,0,100,0,1
2143635,-100,4,1,0,100,0,0
2162181,-100,4,1,0,100,0,1
2179635,-100,4,1,0,100,0,0
2249400,272.727142857144,4,1,0,100,1,0
2249400,-133.333333333333,4,2,0,70,0,0
2257036,-100,4,1,0,80,0,0
2258127,-100,4,1,0,100,0,0
2336672,-133.333333333333,4,2,0,80,0,0
2344309,-111.111111111111,4,1,0,90,0,0
2353036,-100,4,1,0,100,0,0
2379218,-100,4,1,0,100,0,1
2396672,-133.333333333333,4,2,0,90,0,0
2404309,-100,4,1,0,100,0,0
2439230,272.727142857144,4,1,0,100,1,0
2447957,-100,4,1,0,100,0,1
2465411,-200,4,1,0,100,0,0
2474139,-100,4,1,0,100,0,0
2479729,-95.2380952380952,4,1,0,100,0,0
2479866,-90.9090909090909,4,1,0,100,0,0
2480002,-86.9565217391304,4,1,0,100,0,0
2480139,-83.3333333333333,4,1,0,100,0,0
2480275,-80,4,1,0,100,0,0
2480411,-76.9230769230769,4,1,0,100,0,0
2480548,-74.0740740740741,4,1,0,100,0,0
2480684,-71.4285714285714,4,1,0,100,0,0
2480820,-68.9655172413793,4,1,0,100,0,0
2480957,-66.6666666666667,4,1,0,100,0,0
2481093,-64.5161290322581,4,1,0,100,0,0
2481229,-62.5,4,1,0,100,0,0
2481366,-60.6060606060606,4,1,0,100,0,0
2481502,-58.8235294117647,4,1,0,100,0,0
2481639,-57.1428571428571,4,1,0,100,0,0
2481775,-55.5555555555556,4,1,0,100,0,0
2481911,-54.054054054054,4,1,0,100,0,0
2482048,-52.6315789473684,4,1,0,100,0,0
2482184,-51.2820512820513,4,1,0,100,0,0
2482320,-50,4,1,0,100,0,0
2482866,-100,4,1,0,100,0,0
2538502,-100,4,2,0,100,0,0
2547229,-100,4,1,0,100,0,1
2563593,-100,4,1,0,100,0,0
2564120,272.727142857144,4,1,0,100,1,0
2564665,272.727142857144,4,1,0,100,1,0
2617029,-66.6666666666667,4,1,0,100,0,0
2625756,-100,4,1,0,100,0,0
2627938,-66.6666666666667,4,1,0,100,0,0
2630119,-100,4,1,0,100,0,0
2632301,-66.6666666666667,4,1,0,100,0,0
2634483,-100,4,1,0,100,0,0
2704301,-200,4,1,0,100,0,0
2721210,-100,4,1,0,100,0,1
2739210,-100,4,1,0,100,0,0
2739755,-200,4,1,0,100,0,0
2757210,-250,4,1,0,100,0,0
2759392,-333.333333333333,4,1,0,100,0,0
2761573,-500,4,1,0,100,0,0
2765392,-100,4,1,0,100,0,1
2787210,-100,4,1,0,100,0,0
2824301,-200,4,1,0,100,0,0
2857028,-100,4,1,0,100,0,1
2878846,-200,4,1,0,100,0,0
2881020,249.999890873012,4,1,0,100,1,0
2897019,-200,4,1,0,100,0,0
2905019,-133.333333333333,4,1,0,100,0,0
2913019,-100,4,1,0,100,0,0
2945019,-200,4,1,0,100,0,0
2953019,-100,4,1,0,100,0,0
2977010,249.999890873012,4,1,0,100,1,0
3025009,-200,4,1,0,100,0,0
3033009,-100,4,1,0,100,0,0
3057009,-100,4,1,0,100,0,1
3089009,-100,4,1,0,100,0,0
3121009,-200,4,1,0,100,0,0
3129009,-100,4,1,0,100,0,0
3137009,-100,4,1,0,100,0,1
3153009,-200,4,1,0,100,0,0
3168009,-100,4,1,0,100,0,0
3217259,-200,4,1,0,100,0,0
3233009,-100,4,1,0,100,0,0
3250980,249.999890873012,4,1,0,100,1,0
3336979,-100,4,1,0,100,0,1
3384979,-100,4,1,0,100,0,0
3385229,251.046025104603,4,1,0,100,1,8
3385480,252.100840336134,4,1,0,100,1,8
3385732,253.164556962025,4,1,0,100,1,8
3385985,254.237288135593,4,1,0,100,1,8
3386239,255.31914893617,4,1,0,100,1,8
3386494,256.410256410256,4,1,0,100,1,8
3386750,257.510729613734,4,1,0,100,1,8
3387007,258.620689655172,4,1,0,100,1,8
3387265,259.74025974026,4,1,0,100,1,8
3387524,260.869565217391,4,1,0,100,1,8
3387784,262.008733624454,4,1,0,100,1,8
3388046,263.157894736842,4,1,0,100,1,8
3388309,264.31718061674,4,1,0,100,1,8
3388573,265.486725663717,4,1,0,100,1,8
3388838,266.666666666667,4,1,0,100,1,8
3389104,267.857142857143,4,1,0,100,1,8
3389371,269.058295964126,4,1,0,100,1,8
3389640,270.27027027027,4,1,0,100,1,8
3389910,271.493212669683,4,1,0,100,1,8
3390181,272.727272727273,4,1,0,100,1,8
3390453,273.972602739726,4,1,0,100,1,8
3390726,275.229357798165,4,1,0,100,1,8
3391001,276.497695852535,4,1,0,100,1,8
3391277,277.777777777778,4,1,0,100,1,8
3391554,279.06976744186,4,1,0,100,1,8
3391833,280.373831775701,4,1,0,100,1,8
3392113,281.69014084507,4,1,0,100,1,8
3392394,283.018867924528,4,1,0,100,1,8
3392677,284.36018957346,4,1,0,100,1,8
3392961,285.714285714286,4,1,0,100,1,8
3393246,287.081339712919,4,1,0,100,1,8
3393533,288.461538461538,4,1,0,100,1,8
3393821,289.855072463768,4,1,0,100,1,8
3393979,249.999890873012,4,1,0,100,1,0
3393979,-200,4,1,0,100,0,0

[Colours]
Combo1 : 0,255,255
Combo2 : 128,0,128

[HitObjects]
256,192,2221,5,8,0:0:0:0:
256,192,2494,1,8,0:0:0:0:
256,192,2630,1,0,0:0:0:0:
256,192,2767,1,8,0:0:0:0:
256,192,3039,1,0,0:0:0:0:
256,192,3073,1,8,0:0:0:0:
256,192,3312,1,0,0:0:0:0:
256,192,3346,1,0,0:0:0:0:
256,192,3585,1,8,0:0:0:0:
256,192,3858,1,8,0:0:0:0:
256,192,4403,1,8,0:0:0:0:
256,192,4676,1,8,0:0:0:0:
256,192,4948,1,8,0:0:0:0:
256,192,5221,1,8,0:0:0:0:
256,192,5358,1,0,0:0:0:0:
256,192,5494,1,0,0:0:0:0:
256,192,5630,1,0,0:0:0:0:
256,192,5767,1,8,0:0:0:0:
256,192,6039,1,8,0:0:0:0:
256,192,6585,1,8,0:0:0:0:
256,192,6858,1,8,0:0:0:0:
256,192,6994,1,0,0:0:0:0:
256,192,7130,1,8,0:0:0:0:
256,192,7403,1,0,0:0:0:0:
256,192,7437,1,8,0:0:0:0:
256,192,7676,1,0,0:0:0:0:
256,192,7710,1,0,0:0:0:0:
256,192,7948,1,8,0:0:0:0:
256,192,8221,1,8,0:0:0:0:
256,192,8767,1,8,0:0:0:0:
256,192,9039,1,8,0:0:0:0:
256,192,9312,1,8,0:0:0:0:
256,192,9585,1,8,0:0:0:0:
256,192,9721,1,0,0:0:0:0:
256,192,9858,1,0,0:0:0:0:
256,192,9994,1,0,0:0:0:0:
256,192,10130,1,8,0:0:0:0:
256,192,10403,1,8,0:0:0:0:
256,192,10948,1,8,0:0:0:0:
256,192,11221,1,8,0:0:0:0:
256,192,11358,1,0,0:0:0:0:
256,192,11494,1,8,0:0:0:0:
256,192,11767,1,0,0:0:0:0:
256,192,11801,1,8,0:0:0:0:
256,192,12039,1,0,0:0:0:0:
256,192,12073,1,0,0:0:0:0:
256,192,12312,1,8,0:0:0:0:
256,192,12585,1,8,0:0:0:0:
256,192,13130,1,8,0:0:0:0:
256,192,13403,1,8,0:0:0:0:
256,192,13676,1,8,0:0:0:0:
256,192,13948,1,8,0:0:0:0:
256,192,14085,1,0,0:0:0:0:
256,192,14221,1,0,0:0:0:0:
256,192,14358,1,0,0:0:0:0:
256,192,14494,1,8,0:0:0:0:
256,192,14767,1,8,0:0:0:0:
256,192,15312,1,8,0:0:0:0:
256,192,15585,1,8,0:0:0:0:
256,192,15721,1,0,0:0:0:0:
256,192,15858,1,8,0:0:0:0:
256,192,16130,1,0,0:0:0:0:
256,192,16164,1,8,0:0:0:0:
256,192,16403,1,0,0:0:0:0:
256,192,16437,1,0,0:0:0:0:
256,192,16676,1,0,0:0:0:0:
256,192,16710,1,8,0:0:0:0:
256,192,16948,1,0,0:0:0:0:
256,192,16983,1,0,0:0:0:0:
256,192,17221,1,8,0:0:0:0:
256,192,17477,1,0,0:0:0:0:
256,192,17613,1,0,0:0:0:0:
256,192,17749,1,0,0:0:0:0:
256,192,17886,1,0,0:0:0:0:
256,192,18022,1,8,0:0:0:0:
256,192,18158,1,0,0:0:0:0:
256,192,18294,1,0,0:0:0:0:
256,192,18430,1,8,0:0:0:0:
260,192,18567,1,0,0:0:0:0:
260,192,18703,1,8,0:0:0:0:
260,192,18840,1,0,0:0:0:0:
260,192,18976,1,8,0:0:0:0:
260,192,19112,1,8,0:0:0:0:
260,192,19249,1,0,0:0:0:0:
260,192,19385,1,0,0:0:0:0:
260,192,19521,1,0,0:0:0:0:
260,192,19658,1,0,0:0:0:0:
260,192,19930,1,0,0:0:0:0:
260,192,20067,1,0,0:0:0:0:
260,192,20203,1,8,0:0:0:0:
256,192,20340,1,0,0:0:0:0:
256,192,20476,1,8,0:0:0:0:
256,192,20612,1,0,0:0:0:0:
256,192,20749,1,8,0:0:0:0:
256,192,20885,1,0,0:0:0:0:
256,192,21021,1,8,0:0:0:0:
256,192,21158,1,0,0:0:0:0:
256,192,21294,1,8,0:0:0:0:
256,192,21430,1,0,0:0:0:0:
256,192,21567,1,0,0:0:0:0:
256,192,21840,1,0,0:0:0:0:
256,192,22112,1,0,0:0:0:0:
256,192,22249,1,0,0:0:0:0:
256,192,22385,1,8,0:0:0:0:
256,192,22521,1,0,0:0:0:0:
256,192,22658,1,0,0:0:0:0:
256,192,22930,1,0,0:0:0:0:
256,192,23067,1,8,0:0:0:0:
256,192,23203,1,0,0:0:0:0:
256,192,23340,1,0,0:0:0:0:
256,192,23476,1,8,0:0:0:0:
256,192,23612,1,0,0:0:0:0:
256,192,23749,1,0,0:0:0:0:
256,192,23885,1,0,0:0:0:0:
256,192,24021,1,0,0:0:0:0:
256,192,24294,1,0,0:0:0:0:
256,192,24430,1,0,0:0:0:0:
256,192,24567,1,8,0:0:0:0:
256,192,24703,1,0,0:0:0:0:
256,192,24840,1,8,0:0:0:0:
256,192,24976,1,0,0:0:0:0:
256,192,25112,1,8,0:0:0:0:
272,168,25249,1,0,0:0:0:0:
256,192,25385,1,0,0:0:0:0:
256,192,25521,1,0,0:0:0:0:
256,192,25676,1,0,0:0:0:0:
256,192,25744,1,0,0:0:0:0:
256,192,25812,1,0,0:0:0:0:
256,192,25880,1,0,0:0:0:0:
256,192,25948,1,0,0:0:0:0:
256,192,26016,1,0,0:0:0:0:
256,192,26085,1,0,0:0:0:0:
256,192,26153,1,0,0:0:0:0:
256,192,26210,1,0,0:0:0:0:
256,192,26482,1,0,0:0:0:0:
256,192,26618,1,0,0:0:0:0:
256,192,26754,1,8,0:0:0:0:
256,192,26891,1,0,0:0:0:0:
256,192,27027,1,0,0:0:0:0:
256,192,27300,1,0,0:0:0:0:
256,188,27573,5,0,0:0:0:0:
256,188,27709,1,0,0:0:0:0:
256,188,27845,1,8,0:0:0:0:
256,188,27982,1,0,0:0:0:0:
256,188,28118,1,0,0:0:0:0:
256,188,28391,1,0,0:0:0:0:
256,188,28663,1,0,0:0:0:0:
256,188,28800,1,0,0:0:0:0:
256,188,28936,1,8,0:0:0:0:
256,188,29073,1,0,0:0:0:0:
256,188,29209,1,8,0:0:0:0:
256,188,29345,1,0,0:0:0:0:
256,188,29482,1,8,0:0:0:0:
256,188,29618,1,0,0:0:0:0:
256,188,29754,1,8,0:0:0:0:
256,188,29891,1,0,0:0:0:0:
256,188,30027,1,8,0:0:0:0:
256,188,30163,1,0,0:0:0:0:
256,188,30300,1,0,0:0:0:0:
256,188,30436,1,8,0:0:0:0:
256,188,30573,1,0,0:0:0:0:
256,188,30845,1,0,0:0:0:0:
256,188,30982,1,0,0:0:0:0:
256,188,31118,1,8,0:0:0:0:
256,188,31254,1,0,0:0:0:0:
256,188,31391,1,0,0:0:0:0:
256,188,31527,1,0,0:0:0:0:
256,188,31663,1,0,0:0:0:0:
256,188,31800,1,0,0:0:0:0:
256,188,31936,1,0,0:0:0:0:
256,188,32073,1,8,0:0:0:0:
256,188,32210,1,8,0:0:0:0:
256,188,32278,1,0,0:0:0:0:
256,188,32346,1,0,0:0:0:0:
256,188,32414,1,0,0:0:0:0:
256,188,32483,1,0,0:0:0:0:
256,188,32551,1,0,0:0:0:0:
256,188,32619,1,0,0:0:0:0:
256,188,32687,1,0,0:0:0:0:
256,188,32766,1,8,0:0:0:0:
256,192,33175,1,0,0:0:0:0:
256,188,33448,1,0,0:0:0:0:
256,188,33585,1,8,0:0:0:0:
256,188,33721,1,0,0:0:0:0:
256,184,33857,1,0,0:0:0:0:
256,184,33994,1,0,0:0:0:0:
256,184,34062,1,0,0:0:0:0:
256,184,34130,1,0,0:0:0:0:
256,188,34266,1,0,0:0:0:0:
256,188,34403,1,0,0:0:0:0:
256,188,34675,1,8,0:0:0:0:
256,184,34812,1,0,0:0:0:0:
256,192,34930,1,4,0:0:0:0:
256,192,35066,1,0,0:0:0:0:
256,192,35202,1,8,0:0:0:0:
256,192,35339,1,0,0:0:0:0:
256,192,35475,1,0,0:0:0:0:
256,192,35611,1,8,0:0:0:0:
256,192,35748,1,0,0:0:0:0:
252,192,35816,1,8,0:0:0:0:
252,192,35884,1,0,0:0:0:0:
252,192,35952,1,8,0:0:0:0:
252,192,36020,1,0,0:0:0:0:
252,192,36157,1,0,0:0:0:0:
252,192,36293,1,8,0:0:0:0:
252,192,36429,1,0,0:0:0:0:
252,192,36566,1,0,0:0:0:0:
252,192,36702,1,8,0:0:0:0:
252,192,36839,1,0,0:0:0:0:
252,192,36907,1,8,0:0:0:0:
252,192,36975,1,0,0:0:0:0:
252,192,37043,1,8,0:0:0:0:
252,192,37111,1,0,0:0:0:0:
252,192,37248,1,0,0:0:0:0:
252,192,37384,1,8,0:0:0:0:
252,192,37520,1,0,0:0:0:0:
252,192,37657,1,0,0:0:0:0:
252,192,37793,1,8,0:0:0:0:
252,192,37929,1,0,0:0:0:0:
252,192,37998,1,8,0:0:0:0:
252,192,38066,1,0,0:0:0:0:
252,192,38134,1,8,0:0:0:0:
252,192,38202,1,0,0:0:0:0:
252,192,38339,1,0,0:0:0:0:
256,192,38475,1,8,0:0:0:0:
252,192,38611,1,0,0:0:0:0:
256,192,38748,1,0,0:0:0:0:
256,192,38884,1,8,0:0:0:0:
256,192,39020,1,0,0:0:0:0:
256,192,39089,1,8,0:0:0:0:
256,192,39157,1,0,0:0:0:0:
256,192,39225,1,8,0:0:0:0:
256,192,39293,1,0,0:0:0:0:
256,192,39429,1,0,0:0:0:0:
256,192,39566,1,8,0:0:0:0:
256,192,39702,1,0,0:0:0:0:
256,192,39839,1,0,0:0:0:0:
256,192,39975,1,8,0:0:0:0:
256,192,40111,1,0,0:0:0:0:
256,192,40179,1,8,0:0:0:0:
256,192,40248,1,0,0:0:0:0:
256,192,40316,1,8,0:0:0:0:
256,192,40384,1,0,0:0:0:0:
256,192,40520,1,0,0:0:0:0:
256,192,40657,1,8,0:0:0:0:
256,192,40793,1,0,0:0:0:0:
256,192,40929,1,0,0:0:0:0:
256,192,41066,1,8,0:0:0:0:
256,192,41202,1,0,0:0:0:0:
256,192,41270,1,8,0:0:0:0:
256,192,41339,1,0,0:0:0:0:
256,192,41407,1,8,0:0:0:0:
256,192,41475,1,0,0:0:0:0:
256,192,41611,1,0,0:0:0:0:
256,192,41748,1,8,0:0:0:0:
256,192,41884,1,0,0:0:0:0:
256,192,42020,1,0,0:0:0:0:
256,192,42157,1,8,0:0:0:0:
256,192,42293,1,0,0:0:0:0:
256,192,42361,1,8,0:0:0:0:
256,192,42429,1,0,0:0:0:0:
256,192,42498,1,8,0:0:0:0:
256,192,42566,1,0,0:0:0:0:
256,192,42702,1,0,0:0:0:0:
256,192,42839,1,8,0:0:0:0:
256,192,42975,1,0,0:0:0:0:
256,192,43111,1,0,0:0:0:0:
256,192,43248,1,8,0:0:0:0:
256,192,43384,1,0,0:0:0:0:
256,192,43452,1,8,0:0:0:0:
256,192,43520,1,0,0:0:0:0:
256,192,43589,1,8,0:0:0:0:
256,192,43657,1,0,0:0:0:0:
256,192,43793,1,0,0:0:0:0:
256,192,43929,1,8,0:0:0:0:
256,192,44066,1,0,0:0:0:0:
256,192,44202,1,0,0:0:0:0:
256,192,44339,1,8,0:0:0:0:
256,192,44475,1,0,0:0:0:0:
256,192,44543,1,8,0:0:0:0:
256,192,44611,1,0,0:0:0:0:
256,192,44679,1,8,0:0:0:0:
256,192,44748,1,0,0:0:0:0:
256,192,44884,1,0,0:0:0:0:
256,192,45020,1,8,0:0:0:0:
256,192,45157,1,0,0:0:0:0:
256,192,45293,1,0,0:0:0:0:
256,192,45429,1,8,0:0:0:0:
256,192,45566,1,0,0:0:0:0:
256,192,45634,1,8,0:0:0:0:
256,192,45702,1,0,0:0:0:0:
256,192,45770,1,8,0:0:0:0:
256,192,45839,1,0,0:0:0:0:
256,192,45975,1,0,0:0:0:0:
256,192,46111,1,8,0:0:0:0:
256,192,46248,1,0,0:0:0:0:
256,192,46384,1,0,0:0:0:0:
256,192,46520,1,8,0:0:0:0:
256,192,46657,1,0,0:0:0:0:
256,192,46725,1,8,0:0:0:0:
256,192,46793,1,0,0:0:0:0:
256,192,46861,1,8,0:0:0:0:
256,192,46929,1,0,0:0:0:0:
256,192,47066,1,0,0:0:0:0:
256,192,47202,1,8,0:0:0:0:
256,192,47339,1,0,0:0:0:0:
256,192,47475,1,0,0:0:0:0:
256,192,47611,1,8,0:0:0:0:
256,192,47748,1,0,0:0:0:0:
256,192,47816,1,8,0:0:0:0:
256,192,47884,1,0,0:0:0:0:
256,192,47952,1,8,0:0:0:0:
256,192,48020,1,0,0:0:0:0:
256,192,48157,1,0,0:0:0:0:
256,192,48293,1,8,0:0:0:0:
256,192,48429,1,0,0:0:0:0:
256,192,48566,1,0,0:0:0:0:
256,192,48702,1,8,0:0:0:0:
256,192,48839,1,0,0:0:0:0:
256,192,48907,1,8,0:0:0:0:
256,192,48975,1,0,0:0:0:0:
256,192,49043,1,8,0:0:0:0:
256,192,49111,1,0,0:0:0:0:
256,192,49248,1,0,0:0:0:0:
256,192,49384,1,8,0:0:0:0:
256,192,49520,1,0,0:0:0:0:
256,192,49657,1,0,0:0:0:0:
256,192,49793,1,8,0:0:0:0:
256,192,49929,1,0,0:0:0:0:
256,192,49998,1,8,0:0:0:0:
256,192,50066,1,0,0:0:0:0:
256,192,50134,1,8,0:0:0:0:
256,192,50202,1,0,0:0:0:0:
256,192,50339,1,0,0:0:0:0:
256,192,50475,1,8,0:0:0:0:
256,192,50611,1,0,0:0:0:0:
256,192,50748,1,0,0:0:0:0:
256,192,50884,1,8,0:0:0:0:
256,192,51020,1,0,0:0:0:0:
256,192,51089,1,8,0:0:0:0:
256,192,51157,1,0,0:0:0:0:
256,192,51225,1,8,0:0:0:0:
256,192,51293,1,0,0:0:0:0:
256,192,51429,1,0,0:0:0:0:
256,192,51498,1,0,0:0:0:0:
256,192,51566,1,0,0:0:0:0:
256,192,51702,1,0,0:0:0:0:
256,192,51839,1,0,0:0:0:0:
256,192,52111,1,0,0:0:0:0:
256,192,52155,1,0,0:0:0:0:
256,192,52200,1,8,0:0:0:0:
256,192,52246,1,8,0:0:0:0:
256,192,52291,1,8,0:0:0:0:
256,192,52336,1,8,0:0:0:0:
256,192,52382,1,0,0:0:0:0:
256,192,52518,1,0,0:0:0:0:
256,192,52654,1,8,0:0:0:0:
256,192,52791,1,0,0:0:0:0:
256,192,52927,1,0,0:0:0:0:
256,192,53063,1,8,0:0:0:0:
256,192,53200,1,0,0:0:0:0:
256,192,53268,1,8,0:0:0:0:
256,192,53336,1,0,0:0:0:0:
256,192,53404,1,8,0:0:0:0:
256,192,53472,1,0,0:0:0:0:
256,192,53609,1,0,0:0:0:0:
256,192,53745,1,8,0:0:0:0:
256,192,53881,1,0,0:0:0:0:
256,192,54018,1,0,0:0:0:0:
256,192,54154,1,8,0:0:0:0:
256,192,54291,1,0,0:0:0:0:
256,192,54359,1,8,0:0:0:0:
256,192,54427,1,0,0:0:0:0:
256,192,54495,1,8,0:0:0:0:
256,192,54563,1,0,0:0:0:0:
256,192,54700,1,0,0:0:0:0:
256,192,54836,1,8,0:0:0:0:
256,192,54972,1,0,0:0:0:0:
256,192,55109,1,0,0:0:0:0:
256,192,55245,1,8,0:0:0:0:
256,192,55381,1,8,0:0:0:0:
256,192,55450,1,8,0:0:0:0:
256,192,55518,1,0,0:0:0:0:
256,192,55586,1,8,0:0:0:0:
256,192,55654,1,8,0:0:0:0:
256,192,55791,1,0,0:0:0:0:
256,192,55927,1,8,0:0:0:0:
256,192,56063,1,0,0:0:0:0:
256,192,56200,1,0,0:0:0:0:
256,192,56336,1,8,0:0:0:0:
256,192,56472,1,0,0:0:0:0:
256,192,56541,1,8,0:0:0:0:
256,192,56609,1,0,0:0:0:0:
256,192,56677,1,8,0:0:0:0:
256,192,56745,1,0,0:0:0:0:
256,192,56881,1,0,0:0:0:0:
256,192,57018,1,8,0:0:0:0:
256,192,57154,1,0,0:0:0:0:
256,192,57291,1,0,0:0:0:0:
256,192,57427,1,8,0:0:0:0:
256,192,57563,1,0,0:0:0:0:
256,192,57631,1,8,0:0:0:0:
256,192,57700,1,0,0:0:0:0:
256,192,57768,1,8,0:0:0:0:
256,192,57836,1,0,0:0:0:0:
256,192,57972,1,0,0:0:0:0:
256,192,58109,1,8,0:0:0:0:
256,192,58245,1,0,0:0:0:0:
256,192,58381,1,0,0:0:0:0:
256,192,58518,1,8,0:0:0:0:
256,192,58654,1,0,0:0:0:0:
256,192,58722,1,8,0:0:0:0:
256,192,58791,1,0,0:0:0:0:
256,192,58859,1,8,0:0:0:0:
256,192,58927,1,0,0:0:0:0:
256,192,59063,1,0,0:0:0:0:
256,192,59200,1,8,0:0:0:0:
256,192,59336,1,0,0:0:0:0:
256,192,59472,1,0,0:0:0:0:
256,192,59609,1,8,0:0:0:0:
256,192,59745,1,8,0:0:0:0:
256,192,59813,1,8,0:0:0:0:
256,192,59881,1,0,0:0:0:0:
256,192,59950,1,8,0:0:0:0:
256,192,60018,1,8,0:0:0:0:
256,192,60154,1,0,0:0:0:0:
256,192,60291,1,8,0:0:0:0:
256,192,60427,1,0,0:0:0:0:
256,192,60563,1,0,0:0:0:0:
256,192,60700,1,8,0:0:0:0:
256,192,60836,1,0,0:0:0:0:
256,192,60904,1,8,0:0:0:0:
256,192,60972,1,0,0:0:0:0:
256,192,61041,1,8,0:0:0:0:
256,192,61109,1,0,0:0:0:0:
256,192,61245,1,0,0:0:0:0:
256,192,61381,1,8,0:0:0:0:
256,192,61518,1,0,0:0:0:0:
256,192,61654,1,0,0:0:0:0:
256,192,61791,1,8,0:0:0:0:
256,192,61927,1,0,0:0:0:0:
256,192,61995,1,8,0:0:0:0:
256,192,62063,1,0,0:0:0:0:
256,192,62131,1,8,0:0:0:0:
256,192,62200,1,0,0:0:0:0:
256,192,62336,1,0,0:0:0:0:
256,192,62472,1,8,0:0:0:0:
256,192,62609,1,0,0:0:0:0:
256,192,62745,1,0,0:0:0:0:
256,192,62881,1,8,0:0:0:0:
256,192,63018,1,0,0:0:0:0:
256,192,63086,1,8,0:0:0:0:
256,192,63154,1,0,0:0:0:0:
256,192,63222,1,8,0:0:0:0:
256,192,63291,1,0,0:0:0:0:
256,192,63427,1,0,0:0:0:0:
256,192,63563,1,8,0:0:0:0:
256,192,63700,1,0,0:0:0:0:
256,192,63836,1,0,0:0:0:0:
256,192,63972,1,8,0:0:0:0:
256,192,64109,1,8,0:0:0:0:
256,192,64177,1,8,0:0:0:0:
256,192,64245,1,0,0:0:0:0:
256,192,64313,1,8,0:0:0:0:
256,192,64381,1,8,0:0:0:0:
256,192,64518,1,0,0:0:0:0:
256,192,64654,1,8,0:0:0:0:
256,192,64791,1,0,0:0:0:0:
256,192,64927,1,0,0:0:0:0:
256,192,65063,1,8,0:0:0:0:
256,192,65200,1,0,0:0:0:0:
256,192,65268,1,8,0:0:0:0:
256,192,65336,1,0,0:0:0:0:
256,192,65404,1,8,0:0:0:0:
256,192,65472,1,0,0:0:0:0:
256,192,65609,1,0,0:0:0:0:
256,192,65745,1,8,0:0:0:0:
256,192,65881,1,0,0:0:0:0:
256,192,66018,1,0,0:0:0:0:
256,192,66154,1,8,0:0:0:0:
256,192,66291,1,0,0:0:0:0:
256,192,66359,1,8,0:0:0:0:
256,192,66427,1,0,0:0:0:0:
256,192,66495,1,8,0:0:0:0:
256,192,66563,1,0,0:0:0:0:
256,192,66700,1,0,0:0:0:0:
256,192,66836,1,8,0:0:0:0:
256,192,66972,1,0,0:0:0:0:
256,192,67109,1,0,0:0:0:0:
256,192,67245,1,8,0:0:0:0:
256,192,67381,1,0,0:0:0:0:
256,192,67450,1,8,0:0:0:0:
256,192,67518,1,0,0:0:0:0:
256,192,67586,1,8,0:0:0:0:
256,192,67654,1,0,0:0:0:0:
256,192,67791,1,0,0:0:0:0:
256,192,67927,1,8,0:0:0:0:
256,192,68063,1,0,0:0:0:0:
256,192,68200,1,0,0:0:0:0:
256,192,68336,1,8,0:0:0:0:
256,192,68472,1,8,0:0:0:0:
256,192,68541,1,8,0:0:0:0:
256,192,68609,1,0,0:0:0:0:
256,192,68677,1,8,0:0:0:0:
256,192,68745,1,8,0:0:0:0:
256,192,68881,1,0,0:0:0:0:
256,192,69018,1,8,0:0:0:0:
256,192,69154,1,0,0:0:0:0:
256,192,69291,1,8,0:0:0:0:
256,192,69359,1,8,0:0:0:0:
256,192,69427,1,8,0:0:0:0:
256,192,69495,1,8,0:0:0:0:
256,192,69563,1,8,0:0:0:0:
256,192,69631,1,8,0:0:0:0:
256,192,69700,1,8,0:0:0:0:
256,192,69768,1,8,0:0:0:0:
256,192,69836,1,8,0:0:0:0:
256,192,70109,1,8,0:0:0:0:
256,192,70381,1,0,0:0:0:0:
256,192,70518,1,8,0:0:0:0:
256,192,70791,1,0,0:0:0:0:
256,192,70927,1,8,0:0:0:0:
256,192,71200,1,0,0:0:0:0:
256,192,71336,1,8,0:0:0:0:
256,192,71609,1,0,0:0:0:0:
256,192,71745,1,0,0:0:0:0:
256,192,72018,1,8,0:0:0:0:
256,192,72154,1,8,0:0:0:0:
256,192,72427,1,8,0:0:0:0:
256,192,72563,1,0,0:0:0:0:
256,192,72700,1,8,0:0:0:0:
256,192,72836,1,0,0:0:0:0:
256,192,73109,1,0,0:0:0:0:
256,192,73245,1,8,0:0:0:0:
256,192,73518,1,8,0:0:0:0:
256,192,73790,1,0,0:0:0:0:
256,192,73927,1,8,0:0:0:0:
256,192,74063,1,0,0:0:0:0:
256,192,74200,1,0,0:0:0:0:
256,192,74472,1,8,0:0:0:0:
256,192,74745,1,0,0:0:0:0:
256,192,74881,1,8,0:0:0:0:
256,192,75154,1,0,0:0:0:0:
256,192,75291,1,8,0:0:0:0:
256,192,75563,1,0,0:0:0:0:
256,192,75700,1,8,0:0:0:0:
256,192,75972,1,0,0:0:0:0:
256,192,76109,1,0,0:0:0:0:
256,192,76381,1,8,0:0:0:0:
256,192,76518,1,8,0:0:0:0:
256,192,76791,1,8,0:0:0:0:
256,192,76927,1,0,0:0:0:0:
256,192,77063,1,8,0:0:0:0:
256,192,77200,1,0,0:0:0:0:
256,192,77472,1,0,0:0:0:0:
256,192,77609,1,8,0:0:0:0:
256,192,77881,1,8,0:0:0:0:
256,192,78018,5,0,0:0:0:0:
256,192,78154,1,0,0:0:0:0:
256,192,78222,1,0,0:0:0:0:
256,192,78291,1,0,0:0:0:0:
256,192,78427,1,0,0:0:0:0:
256,192,78563,1,4,0:0:0:0:
256,192,78700,1,0,0:0:0:0:
256,192,78836,1,8,0:0:0:0:
256,192,78972,1,0,0:0:0:0:
256,192,79109,1,0,0:0:0:0:
256,192,79245,1,8,0:0:0:0:
256,192,79381,1,0,0:0:0:0:
256,192,79450,1,8,0:0:0:0:
256,192,79518,1,0,0:0:0:0:
256,192,79586,1,8,0:0:0:0:
256,192,79654,1,0,0:0:0:0:
256,192,79791,1,0,0:0:0:0:
256,192,79927,1,8,0:0:0:0:
256,192,80063,1,0,0:0:0:0:
256,192,80200,1,0,0:0:0:0:
256,192,80336,1,8,0:0:0:0:
256,192,80472,1,0,0:0:0:0:
256,192,80541,1,8,0:0:0:0:
256,192,80609,1,0,0:0:0:0:
256,192,80677,1,8,0:0:0:0:
256,192,80745,1,0,0:0:0:0:
256,192,80881,1,0,0:0:0:0:
256,192,81018,1,8,0:0:0:0:
256,192,81154,1,0,0:0:0:0:
256,192,81291,1,0,0:0:0:0:
256,192,81427,1,8,0:0:0:0:
256,192,81563,1,0,0:0:0:0:
256,192,81631,1,8,0:0:0:0:
256,192,81700,1,0,0:0:0:0:
256,192,81768,1,8,0:0:0:0:
256,192,81836,1,0,0:0:0:0:
256,192,81972,1,0,0:0:0:0:
256,192,82109,1,8,0:0:0:0:
256,192,82245,1,0,0:0:0:0:
256,192,82381,1,0,0:0:0:0:
256,192,82518,1,8,0:0:0:0:
256,192,82654,1,0,0:0:0:0:
256,192,82722,1,8,0:0:0:0:
256,192,82791,1,0,0:0:0:0:
256,192,82859,1,8,0:0:0:0:
256,192,82927,1,0,0:0:0:0:
256,192,83063,1,0,0:0:0:0:
256,192,83200,1,8,0:0:0:0:
256,192,83336,1,0,0:0:0:0:
256,192,83472,1,0,0:0:0:0:
256,192,83609,1,8,0:0:0:0:
256,192,83745,1,0,0:0:0:0:
256,192,83813,1,8,0:0:0:0:
256,192,83881,1,0,0:0:0:0:
256,192,83950,1,8,0:0:0:0:
256,192,84018,1,0,0:0:0:0:
256,192,84154,1,0,0:0:0:0:
256,192,84291,1,8,0:0:0:0:
256,192,84427,1,0,0:0:0:0:
256,192,84563,1,0,0:0:0:0:
256,192,84700,1,8,0:0:0:0:
256,192,84836,1,0,0:0:0:0:
256,192,84904,1,8,0:0:0:0:
256,192,84972,1,0,0:0:0:0:
256,192,85041,1,8,0:0:0:0:
256,192,85109,1,0,0:0:0:0:
256,192,85245,1,0,0:0:0:0:
256,192,85381,1,8,0:0:0:0:
256,192,85518,1,0,0:0:0:0:
256,192,85654,1,0,0:0:0:0:
256,192,85791,1,8,0:0:0:0:
256,192,85927,1,0,0:0:0:0:
256,192,85995,1,8,0:0:0:0:
256,192,86063,1,0,0:0:0:0:
256,192,86131,1,8,0:0:0:0:
256,192,86200,1,0,0:0:0:0:
256,192,86336,1,0,0:0:0:0:
256,192,86472,1,8,0:0:0:0:
256,192,86609,1,0,0:0:0:0:
256,192,86677,1,8,0:0:0:0:
256,192,86745,1,0,0:0:0:0:
256,192,86881,1,8,0:0:0:0:
256,192,87018,1,0,0:0:0:0:
256,192,87086,1,8,0:0:0:0:
256,192,87154,1,0,0:0:0:0:
256,192,87222,1,8,0:0:0:0:
256,192,87291,1,0,0:0:0:0:
256,192,87427,1,0,0:0:0:0:
256,192,87563,1,8,0:0:0:0:
256,192,87700,1,0,0:0:0:0:
256,192,87836,1,0,0:0:0:0:
256,192,87972,1,8,0:0:0:0:
256,192,88109,1,0,0:0:0:0:
256,192,88177,1,8,0:0:0:0:
256,192,88245,1,0,0:0:0:0:
256,192,88313,1,8,0:0:0:0:
256,192,88381,1,0,0:0:0:0:
256,192,88518,1,0,0:0:0:0:
256,192,88654,1,8,0:0:0:0:
256,192,88791,1,0,0:0:0:0:
256,192,88927,1,0,0:0:0:0:
256,192,89063,1,8,0:0:0:0:
256,192,89200,1,0,0:0:0:0:
256,192,89268,1,8,0:0:0:0:
256,192,89336,1,0,0:0:0:0:
256,192,89404,1,8,0:0:0:0:
256,192,89472,1,0,0:0:0:0:
256,192,89609,1,0,0:0:0:0:
256,192,89745,1,8,0:0:0:0:
256,192,89881,1,0,0:0:0:0:
256,192,90018,1,0,0:0:0:0:
256,192,90154,1,8,0:0:0:0:
256,192,90291,1,0,0:0:0:0:
256,192,90359,1,8,0:0:0:0:
256,192,90427,1,0,0:0:0:0:
256,192,90495,1,8,0:0:0:0:
256,192,90563,1,0,0:0:0:0:
256,192,90700,1,0,0:0:0:0:
256,192,90836,1,8,0:0:0:0:
256,192,90972,1,0,0:0:0:0:
256,192,91109,1,0,0:0:0:0:
256,192,91245,1,8,0:0:0:0:
256,192,91381,1,0,0:0:0:0:
256,192,91450,1,8,0:0:0:0:
256,192,91518,1,0,0:0:0:0:
256,192,91586,1,8,0:0:0:0:
256,192,91654,1,0,0:0:0:0:
256,192,91791,1,0,0:0:0:0:
256,192,91927,1,8,0:0:0:0:
256,192,92063,1,0,0:0:0:0:
256,192,92200,1,0,0:0:0:0:
256,192,92336,1,8,0:0:0:0:
256,192,92472,1,0,0:0:0:0:
256,192,92541,1,8,0:0:0:0:
256,192,92609,1,0,0:0:0:0:
256,192,92677,1,8,0:0:0:0:
256,192,92745,1,0,0:0:0:0:
256,192,92881,1,0,0:0:0:0:
256,192,93018,1,8,0:0:0:0:
256,192,93154,1,0,0:0:0:0:
256,192,93291,1,0,0:0:0:0:
256,192,93427,1,8,0:0:0:0:
256,192,93563,1,0,0:0:0:0:
256,192,93631,1,8,0:0:0:0:
256,192,93700,1,0,0:0:0:0:
256,192,93768,1,8,0:0:0:0:
256,192,93836,1,8,0:0:0:0:
256,192,93904,1,8,0:0:0:0:
256,192,93972,1,8,0:0:0:0:
256,192,94041,1,8,0:0:0:0:
256,192,94109,1,8,0:0:0:0:
256,192,94177,1,8,0:0:0:0:
256,192,94245,1,8,0:0:0:0:
256,192,94313,1,8,0:0:0:0:
256,192,94381,1,8,0:0:0:0:
256,192,94450,1,8,0:0:0:0:
256,192,94518,1,8,0:0:0:0:
256,192,94586,1,8,0:0:0:0:
256,192,94654,1,8,0:0:0:0:
256,192,94722,1,8,0:0:0:0:
256,192,94791,1,0,0:0:0:0:
256,192,94859,1,0,0:0:0:0:
256,192,94927,1,0,0:0:0:0:
256,192,95063,1,0,0:0:0:0:
256,192,95131,1,0,0:0:0:0:
256,192,95200,1,0,0:0:0:0:
256,192,95336,1,0,0:0:0:0:
256,192,95472,1,0,0:0:0:0:
256,192,95745,1,8,0:0:0:0:
256,192,95881,1,0,0:0:0:0:
256,192,96016,1,4,0:0:0:0:
256,192,96152,1,0,0:0:0:0:
256,192,96288,1,8,0:0:0:0:
256,192,96425,1,0,0:0:0:0:
256,192,96561,1,0,0:0:0:0:
256,192,96697,1,8,0:0:0:0:
256,192,96834,1,0,0:0:0:0:
256,192,96902,1,8,0:0:0:0:
256,192,96970,1,0,0:0:0:0:
256,192,97038,1,8,0:0:0:0:
256,192,97106,1,0,0:0:0:0:
256,192,97243,1,0,0:0:0:0:
256,192,97379,1,8,0:0:0:0:
256,192,97515,1,0,0:0:0:0:
256,192,97652,1,0,0:0:0:0:
256,192,97788,1,8,0:0:0:0:
256,192,97925,1,0,0:0:0:0:
256,192,97993,1,8,0:0:0:0:
256,192,98061,1,0,0:0:0:0:
256,192,98129,1,8,0:0:0:0:
256,192,98197,1,0,0:0:0:0:
256,192,98334,1,0,0:0:0:0:
256,192,98470,1,8,0:0:0:0:
256,192,98606,1,0,0:0:0:0:
256,192,98743,1,0,0:0:0:0:
256,192,98879,1,8,0:0:0:0:
256,192,99015,1,0,0:0:0:0:
256,192,99084,1,8,0:0:0:0:
256,192,99152,1,0,0:0:0:0:
256,192,99220,1,8,0:0:0:0:
256,192,99288,1,0,0:0:0:0:
256,192,99425,1,0,0:0:0:0:
256,192,99561,1,8,0:0:0:0:
256,192,99697,1,0,0:0:0:0:
256,192,99834,1,0,0:0:0:0:
256,192,99970,1,8,0:0:0:0:
256,192,100106,1,0,0:0:0:0:
256,192,100175,1,8,0:0:0:0:
256,192,100243,1,0,0:0:0:0:
256,192,100311,1,8,0:0:0:0:
256,192,100379,1,0,0:0:0:0:
256,192,100515,1,0,0:0:0:0:
256,192,100652,1,8,0:0:0:0:
256,192,100788,1,0,0:0:0:0:
256,192,100925,1,0,0:0:0:0:
256,192,101061,1,8,0:0:0:0:
256,192,101197,1,0,0:0:0:0:
256,192,101265,1,8,0:0:0:0:
256,192,101334,1,0,0:0:0:0:
256,192,101402,1,8,0:0:0:0:
256,192,101470,1,0,0:0:0:0:
256,192,101606,1,0,0:0:0:0:
256,192,101743,1,8,0:0:0:0:
256,192,101879,1,0,0:0:0:0:
256,192,102015,1,0,0:0:0:0:
256,192,102152,1,8,0:0:0:0:
256,192,102288,1,0,0:0:0:0:
256,192,102356,1,8,0:0:0:0:
256,192,102425,1,0,0:0:0:0:
256,192,102493,1,8,0:0:0:0:
256,192,102561,1,0,0:0:0:0:
256,192,102697,1,0,0:0:0:0:
256,192,102834,1,8,0:0:0:0:
256,192,102970,1,0,0:0:0:0:
256,192,103106,1,0,0:0:0:0:
256,192,103243,1,8,0:0:0:0:
256,192,103379,1,0,0:0:0:0:
256,192,103447,1,8,0:0:0:0:
256,192,103515,1,0,0:0:0:0:
256,192,103584,1,8,0:0:0:0:
256,192,103652,1,0,0:0:0:0:
256,192,103788,1,0,0:0:0:0:
256,192,103925,1,8,0:0:0:0:
256,192,104061,1,0,0:0:0:0:
256,192,104197,1,0,0:0:0:0:
256,192,104334,1,8,0:0:0:0:
256,192,104470,1,0,0:0:0:0:
256,192,104538,1,8,0:0:0:0:
256,192,104606,1,0,0:0:0:0:
256,192,104675,1,8,0:0:0:0:
256,192,104743,1,0,0:0:0:0:
256,192,104879,1,0,0:0:0:0:
256,192,105015,1,8,0:0:0:0:
256,192,105152,1,0,0:0:0:0:
256,192,105288,1,0,0:0:0:0:
256,192,105425,1,8,0:0:0:0:
256,192,105561,1,0,0:0:0:0:
256,192,105629,1,8,0:0:0:0:
256,192,105697,1,0,0:0:0:0:
256,192,105765,1,8,0:0:0:0:
256,192,105834,1,0,0:0:0:0:
256,192,105970,1,0,0:0:0:0:
256,192,106106,1,8,0:0:0:0:
256,192,106243,1,0,0:0:0:0:
256,192,106379,1,0,0:0:0:0:
256,192,106515,1,8,0:0:0:0:
256,192,106652,1,0,0:0:0:0:
256,192,106720,1,8,0:0:0:0:
256,192,106788,1,0,0:0:0:0:
256,192,106856,1,8,0:0:0:0:
256,192,106925,1,0,0:0:0:0:
256,192,107061,1,0,0:0:0:0:
256,192,107197,1,8,0:0:0:0:
256,192,107334,1,0,0:0:0:0:
256,192,107470,1,0,0:0:0:0:
256,192,107606,1,8,0:0:0:0:
256,192,107743,1,0,0:0:0:0:
256,192,107811,1,8,0:0:0:0:
256,192,107879,1,0,0:0:0:0:
256,192,107947,1,8,0:0:0:0:
256,192,108015,1,0,0:0:0:0:
256,192,108152,1,0,0:0:0:0:
256,192,108288,1,8,0:0:0:0:
256,192,108425,1,0,0:0:0:0:
256,192,108561,1,0,0:0:0:0:
256,192,108697,1,8,0:0:0:0:
256,192,108834,1,0,0:0:0:0:
256,192,108902,1,8,0:0:0:0:
256,192,108970,1,0,0:0:0:0:
256,192,109038,1,8,0:0:0:0:
256,192,109106,1,0,0:0:0:0:
256,192,109243,1,0,0:0:0:0:
256,192,109379,1,8,0:0:0:0:
256,192,109515,1,0,0:0:0:0:
256,192,109652,1,0,0:0:0:0:
256,192,109788,1,8,0:0:0:0:
256,192,109925,1,0,0:0:0:0:
256,192,109993,1,8,0:0:0:0:
256,192,110061,1,0,0:0:0:0:
256,192,110129,1,8,0:0:0:0:
256,192,110197,1,0,0:0:0:0:
256,192,110334,1,0,0:0:0:0:
256,192,110470,1,8,0:0:0:0:
256,192,110606,1,0,0:0:0:0:
256,192,110743,1,0,0:0:0:0:
256,192,110879,1,8,0:0:0:0:
256,192,111015,1,0,0:0:0:0:
256,192,111084,1,8,0:0:0:0:
256,192,111152,1,0,0:0:0:0:
256,192,111220,1,8,0:0:0:0:
256,192,111288,1,0,0:0:0:0:
256,192,111425,1,0,0:0:0:0:
256,192,111561,1,8,0:0:0:0:
256,192,111697,1,0,0:0:0:0:
256,192,111834,1,0,0:0:0:0:
256,192,111970,1,8,0:0:0:0:
256,192,112106,1,0,0:0:0:0:
256,192,112175,1,8,0:0:0:0:
256,192,112243,1,0,0:0:0:0:
256,192,112311,1,8,0:0:0:0:
256,192,112379,1,0,0:0:0:0:
256,192,112447,1,0,0:0:0:0:
256,192,112515,1,0,0:0:0:0:
256,192,112584,1,0,0:0:0:0:
256,192,112652,1,0,0:0:0:0:
256,192,112720,1,0,0:0:0:0:
256,192,112788,1,0,0:0:0:0:
256,192,112856,1,0,0:0:0:0:
256,192,112925,1,8,0:0:0:0:
256,192,112993,1,8,0:0:0:0:
256,192,113061,1,8,0:0:0:0:
256,192,113129,1,8,0:0:0:0:
256,192,113197,1,8,0:0:0:0:
256,192,113265,1,8,0:0:0:0:
256,192,113334,1,8,0:0:0:0:
256,192,113402,1,8,0:0:0:0:
256,192,113470,1,0,0:0:0:0:
256,192,113606,1,0,0:0:0:0:
256,192,113743,1,0,0:0:0:0:
256,192,113879,1,0,0:0:0:0:
256,192,114015,1,8,0:0:0:0:
256,192,114152,1,0,0:0:0:0:
256,192,114288,1,0,0:0:0:0:
256,192,114425,1,0,0:0:0:0:
256,192,114561,1,0,0:0:0:0:
256,192,114697,1,0,0:0:0:0:
256,192,114834,1,0,0:0:0:0:
256,192,114970,1,0,0:0:0:0:
256,192,115106,1,8,0:0:0:0:
256,192,115243,1,0,0:0:0:0:
256,192,115379,1,0,0:0:0:0:
256,192,115515,1,0,0:0:0:0:
256,192,115652,1,0,0:0:0:0:
256,192,115788,1,0,0:0:0:0:
256,192,115925,1,0,0:0:0:0:
256,192,116061,1,0,0:0:0:0:
256,192,116197,1,0,0:0:0:0:
256,192,116334,1,0,0:0:0:0:
256,192,116470,1,8,0:0:0:0:
256,192,116606,1,0,0:0:0:0:
256,192,116743,1,8,0:0:0:0:
256,192,116879,1,0,0:0:0:0:
256,192,117015,1,8,0:0:0:0:
256,192,117152,1,0,0:0:0:0:
256,192,117288,1,8,0:0:0:0:
256,192,117425,1,8,0:0:0:0:
256,192,117561,1,0,0:0:0:0:
256,192,117697,1,8,0:0:0:0:
256,192,117765,1,0,0:0:0:0:
256,192,117834,1,0,0:0:0:0:
256,192,117970,1,0,0:0:0:0:
256,192,118106,1,8,0:0:0:0:
256,192,118243,1,0,0:0:0:0:
256,192,118379,1,8,0:0:0:0:
256,192,118515,1,0,0:0:0:0:
256,192,118652,1,0,0:0:0:0:
256,192,118788,1,8,0:0:0:0:
256,192,118925,1,0,0:0:0:0:
256,192,119061,1,8,0:0:0:0:
256,192,119197,1,0,0:0:0:0:
256,192,119334,1,8,0:0:0:0:
256,192,119470,1,8,0:0:0:0:
256,192,119606,1,0,0:0:0:0:
256,192,119743,1,8,0:0:0:0:
256,192,119879,1,0,0:0:0:0:
256,192,120015,1,8,0:0:0:0:
256,192,120152,1,0,0:0:0:0:
256,192,120288,1,0,0:0:0:0:
256,192,120425,1,0,0:0:0:0:
256,192,120561,1,8,0:0:0:0:
256,192,120697,1,0,0:0:0:0:
256,192,120834,1,8,0:0:0:0:
256,192,120970,1,0,0:0:0:0:
256,192,121106,1,8,0:0:0:0:
256,192,121243,1,0,0:0:0:0:
256,192,121379,1,8,0:0:0:0:
256,192,121515,1,0,0:0:0:0:
256,192,121652,1,8,0:0:0:0:
256,192,121788,1,8,0:0:0:0:
256,192,121925,1,0,0:0:0:0:
256,192,122061,1,0,0:0:0:0:
256,192,122197,1,0,0:0:0:0:
256,192,122334,1,0,0:0:0:0:
256,192,122470,1,8,0:0:0:0:
256,192,122606,1,0,0:0:0:0:
256,192,122743,1,8,0:0:0:0:
256,192,122879,1,0,0:0:0:0:
256,192,123015,1,8,0:0:0:0:
256,192,123152,1,8,0:0:0:0:
256,192,123288,1,8,0:0:0:0:
256,192,123425,1,8,0:0:0:0:
256,192,123561,1,0,0:0:0:0:
256,192,123697,1,8,0:0:0:0:
256,192,123834,1,0,0:0:0:0:
256,192,123970,1,8,0:0:0:0:
256,192,124106,1,0,0:0:0:0:
256,192,124243,1,8,0:0:0:0:
256,192,124379,1,0,0:0:0:0:
256,192,124515,1,8,0:0:0:0:
256,192,124652,1,0,0:0:0:0:
256,192,124788,1,0,0:0:0:0:
256,192,124925,1,8,0:0:0:0:
256,192,125061,1,0,0:0:0:0:
256,192,125197,1,8,0:0:0:0:
256,192,125334,1,0,0:0:0:0:
256,192,125470,1,8,0:0:0:0:
256,192,125606,1,0,0:0:0:0:
256,192,125743,1,8,0:0:0:0:
256,192,125879,1,0,0:0:0:0:
256,192,126015,1,0,0:0:0:0:
256,192,126152,1,8,0:0:0:0:
256,192,126288,1,0,0:0:0:0:
256,192,126425,1,8,0:0:0:0:
256,192,126561,1,0,0:0:0:0:
256,192,126697,1,0,0:0:0:0:
256,192,126834,1,8,0:0:0:0:
256,192,126970,1,0,0:0:0:0:
256,192,127106,1,8,0:0:0:0:
256,192,127243,1,0,0:0:0:0:
256,192,127379,1,0,0:0:0:0:
256,192,127515,1,0,0:0:0:0:
256,192,127652,1,8,0:0:0:0:
256,192,127788,1,0,0:0:0:0:
256,192,127925,1,8,0:0:0:0:
256,192,128061,1,8,0:0:0:0:
256,192,128197,1,8,0:0:0:0:
256,192,128334,1,0,0:0:0:0:
256,192,128470,1,0,0:0:0:0:
256,192,128606,1,0,0:0:0:0:
256,192,128743,1,8,0:0:0:0:
256,192,128879,1,0,0:0:0:0:
256,192,129015,1,0,0:0:0:0:
256,192,129152,1,0,0:0:0:0:
256,192,129288,1,8,0:0:0:0:
256,192,129425,1,0,0:0:0:0:
256,192,129561,1,8,0:0:0:0:
256,192,129697,1,0,0:0:0:0:
256,192,129834,1,8,0:0:0:0:
256,192,129970,1,0,0:0:0:0:
256,192,130106,1,8,0:0:0:0:
256,192,130515,1,8,0:0:0:0:
256,192,130652,1,8,0:0:0:0:
256,192,130788,1,8,0:0:0:0:
256,192,131061,1,0,0:0:0:0:
256,192,131743,1,8,0:0:0:0:
256,192,131879,1,8,0:0:0:0:
256,192,132152,1,0,0:0:0:0:
256,192,132834,1,0,0:0:0:0:
256,192,132970,1,8,0:0:0:0:
256,192,133243,1,8,0:0:0:0:
256,192,133925,1,0,0:0:0:0:
256,192,134061,1,8,0:0:0:0:
256,192,134334,1,8,0:0:0:0:
256,192,134470,1,0,0:0:0:0:
256,192,134743,1,8,0:0:0:0:
256,192,135015,1,0,0:0:0:0:
256,192,135152,1,8,0:0:0:0:
256,192,135288,1,8,0:0:0:0:
256,192,136106,1,0,0:0:0:0:
256,192,136243,1,8,0:0:0:0:
256,192,136515,1,8,0:0:0:0:
256,192,136652,1,0,0:0:0:0:
256,192,136925,1,8,0:0:0:0:
256,192,137197,1,0,0:0:0:0:
256,192,137334,1,8,0:0:0:0:
256,192,139106,1,8,0:0:0:0:
256,192,139243,1,8,0:0:0:0:
256,192,139652,1,8,0:0:0:0:
256,192,139925,1,0,0:0:0:0:
256,192,140470,1,8,0:0:0:0:
256,192,140606,1,8,0:0:0:0:
256,192,140879,1,0,0:0:0:0:
256,192,141561,1,8,0:0:0:0:
256,192,141697,1,0,0:0:0:0:
256,192,141970,1,8,0:0:0:0:
256,192,142652,1,0,0:0:0:0:
256,192,142788,1,8,0:0:0:0:
256,192,143061,1,8,0:0:0:0:
256,192,143197,1,0,0:0:0:0:
256,192,143470,1,8,0:0:0:0:
256,192,143743,1,0,0:0:0:0:
256,192,143879,1,8,0:0:0:0:
256,192,144015,1,0,0:0:0:0:
256,192,144834,1,0,0:0:0:0:
256,192,144970,1,8,0:0:0:0:
256,192,145243,1,8,0:0:0:0:
256,192,145515,1,0,0:0:0:0:
256,192,145652,1,8,0:0:0:0:
256,192,145925,1,8,0:0:0:0:
256,192,146061,1,8,0:0:0:0:
252,192,147834,1,8,0:0:0:0:
252,192,147970,1,8,0:0:0:0:
252,192,148379,1,0,0:0:0:0:
256,192,148515,1,0,0:0:0:0:
256,192,148652,1,8,0:0:0:0:
256,192,148788,1,0,0:0:0:0:
256,192,148925,1,0,0:0:0:0:
256,192,149061,1,8,0:0:0:0:
256,192,149197,1,0,0:0:0:0:
256,192,149265,1,8,0:0:0:0:
256,192,149334,1,0,0:0:0:0:
256,192,149402,1,8,0:0:0:0:
256,192,149470,1,0,0:0:0:0:
256,192,149606,1,0,0:0:0:0:
256,192,149743,1,8,0:0:0:0:
256,192,149879,1,0,0:0:0:0:
256,192,150015,1,0,0:0:0:0:
256,192,150152,1,8,0:0:0:0:
256,192,150288,1,0,0:0:0:0:
256,192,150356,1,8,0:0:0:0:
256,192,150425,1,0,0:0:0:0:
256,192,150493,1,8,0:0:0:0:
256,192,150561,1,0,0:0:0:0:
256,192,150697,1,0,0:0:0:0:
256,192,150834,1,8,0:0:0:0:
256,192,150970,1,0,0:0:0:0:
256,192,151106,1,0,0:0:0:0:
256,192,151243,1,8,0:0:0:0:
256,192,151379,1,0,0:0:0:0:
256,192,151447,1,8,0:0:0:0:
256,192,151515,1,0,0:0:0:0:
256,192,151584,1,8,0:0:0:0:
256,192,151652,1,0,0:0:0:0:
256,192,151788,1,0,0:0:0:0:
256,192,151925,1,8,0:0:0:0:
256,192,152061,1,0,0:0:0:0:
256,192,152197,1,8,0:0:0:0:
256,192,152334,1,8,0:0:0:0:
256,192,152470,1,0,0:0:0:0:
256,192,152538,1,8,0:0:0:0:
256,192,152606,1,0,0:0:0:0:
256,192,152675,1,8,0:0:0:0:
256,192,152743,1,8,0:0:0:0:
256,192,152879,1,0,0:0:0:0:
256,192,153015,1,8,0:0:0:0:
256,192,153152,1,0,0:0:0:0:
256,192,153288,1,8,0:0:0:0:
256,192,153425,1,8,0:0:0:0:
256,192,153561,1,8,0:0:0:0:
256,192,153629,1,0,0:0:0:0:
256,192,153697,1,8,0:0:0:0:
256,192,153765,1,0,0:0:0:0:
256,192,153834,1,8,0:0:0:0:
256,192,153970,1,8,0:0:0:0:
256,192,154106,1,8,0:0:0:0:
256,192,154243,1,0,0:0:0:0:
256,192,154379,1,8,0:0:0:0:
256,192,154515,1,0,0:0:0:0:
256,192,154652,1,8,0:0:0:0:
256,192,154720,1,0,0:0:0:0:
256,192,154788,1,8,0:0:0:0:
256,192,154856,1,8,0:0:0:0:
256,192,154925,1,0,0:0:0:0:
256,192,155061,1,0,0:0:0:0:
256,192,155197,1,8,0:0:0:0:
256,192,155334,1,0,0:0:0:0:
256,192,155470,1,8,0:0:0:0:
256,192,155606,1,8,0:0:0:0:
256,192,155743,1,8,0:0:0:0:
256,192,155811,1,8,0:0:0:0:
256,192,155879,1,0,0:0:0:0:
256,192,155947,1,8,0:0:0:0:
256,192,156015,1,0,0:0:0:0:
256,192,156152,1,0,0:0:0:0:
256,192,156288,1,8,0:0:0:0:
256,192,156425,1,0,0:0:0:0:
256,192,156561,1,0,0:0:0:0:
256,192,156697,1,8,0:0:0:0:
256,192,156834,1,0,0:0:0:0:
256,192,156902,1,8,0:0:0:0:
256,192,156970,1,0,0:0:0:0:
256,192,157038,1,8,0:0:0:0:
256,192,157106,1,8,0:0:0:0:
256,192,157243,1,0,0:0:0:0:
256,192,157379,1,8,0:0:0:0:
256,192,157515,1,0,0:0:0:0:
256,192,157652,1,0,0:0:0:0:
256,192,157788,1,8,0:0:0:0:
256,192,157925,1,8,0:0:0:0:
256,192,157993,1,8,0:0:0:0:
256,192,158061,1,0,0:0:0:0:
256,192,158129,1,8,0:0:0:0:
256,192,158197,1,8,0:0:0:0:
256,192,158334,1,8,0:0:0:0:
256,192,158470,1,8,0:0:0:0:
256,192,158606,1,0,0:0:0:0:
256,192,158743,1,0,0:0:0:0:
256,192,158879,1,8,0:0:0:0:
256,192,159015,1,8,0:0:0:0:
256,192,159084,1,8,0:0:0:0:
256,192,159152,1,8,0:0:0:0:
256,192,159220,1,8,0:0:0:0:
256,192,159288,1,0,0:0:0:0:
256,192,159425,1,0,0:0:0:0:
256,192,159561,1,8,0:0:0:0:
256,192,159697,1,0,0:0:0:0:
256,192,159834,1,0,0:0:0:0:
256,192,159970,1,8,0:0:0:0:
256,192,160106,1,8,0:0:0:0:
256,192,160175,1,8,0:0:0:0:
256,192,160243,1,8,0:0:0:0:
256,192,160311,1,8,0:0:0:0:
256,192,160379,1,0,0:0:0:0:
256,192,160515,1,8,0:0:0:0:
256,192,160652,1,8,0:0:0:0:
256,192,160788,1,0,0:0:0:0:
256,192,160925,1,0,0:0:0:0:
256,192,161061,1,8,0:0:0:0:
256,192,161197,1,8,0:0:0:0:
256,192,161265,1,8,0:0:0:0:
256,192,161334,1,0,0:0:0:0:
256,192,161402,1,8,0:0:0:0:
256,192,161470,1,0,0:0:0:0:
256,192,161606,1,0,0:0:0:0:
256,192,161743,1,8,0:0:0:0:
256,192,161879,1,0,0:0:0:0:
256,192,162015,1,0,0:0:0:0:
256,192,162152,1,8,0:0:0:0:
256,192,162288,1,8,0:0:0:0:
256,192,162356,1,8,0:0:0:0:
256,192,162425,1,8,0:0:0:0:
256,192,162493,1,8,0:0:0:0:
256,192,162561,1,0,0:0:0:0:
256,192,162697,1,0,0:0:0:0:
256,192,162834,1,8,0:0:0:0:
256,192,162970,1,0,0:0:0:0:
256,192,163106,1,0,0:0:0:0:
256,192,163243,1,8,0:0:0:0:
256,192,163379,1,0,0:0:0:0:
256,192,163447,1,8,0:0:0:0:
256,192,163515,1,0,0:0:0:0:
256,192,163584,1,8,0:0:0:0:
256,192,163652,1,0,0:0:0:0:
256,192,163720,1,0,0:0:0:0:
256,192,163788,1,0,0:0:0:0:
256,192,163856,1,0,0:0:0:0:
256,192,163925,1,0,0:0:0:0:
256,192,163993,1,0,0:0:0:0:
256,192,164061,1,0,0:0:0:0:
256,192,164129,1,0,0:0:0:0:
256,192,164197,1,0,0:0:0:0:
256,192,164265,1,0,0:0:0:0:
256,192,164334,1,0,0:0:0:0:
256,192,164402,1,0,0:0:0:0:
256,192,164470,1,0,0:0:0:0:
256,192,164538,1,0,0:0:0:0:
256,192,164606,1,0,0:0:0:0:
256,192,164675,1,0,0:0:0:0:
256,192,164743,1,0,0:0:0:0:
256,192,164788,1,0,0:0:0:0:
256,192,164834,1,0,0:0:0:0:
256,192,164879,1,0,0:0:0:0:
256,192,164925,1,0,0:0:0:0:
256,192,164970,1,0,0:0:0:0:
256,192,165015,1,8,0:0:0:0:
256,192,165061,1,8,0:0:0:0:
256,192,165106,1,8,0:0:0:0:
256,192,165152,1,8,0:0:0:0:
256,192,165197,1,8,0:0:0:0:
256,192,165243,1,8,0:0:0:0:
256,192,165288,1,8,0:0:0:0:
256,192,165334,1,8,0:0:0:0:
256,192,165379,1,8,0:0:0:0:
256,192,165425,1,8,0:0:0:0:
256,192,165470,1,8,0:0:0:0:
256,192,165515,1,8,0:0:0:0:
256,192,165561,1,8,0:0:0:0:
256,192,165595,1,8,0:0:0:0:
256,192,165629,1,8,0:0:0:0:
256,192,165663,1,8,0:0:0:0:
256,192,165697,1,8,0:0:0:0:
256,192,165731,1,8,0:0:0:0:
256,192,165765,1,8,0:0:0:0:
256,192,165834,1,8,0:0:0:0:
256,192,165970,1,8,0:0:0:0:
256,192,166106,1,8,0:0:0:0:
256,192,166243,1,8,0:0:0:0:
256,192,166515,1,8,0:0:0:0:
256,192,166652,1,8,0:0:0:0:
256,192,166788,1,8,0:0:0:0:
256,192,166925,1,8,0:0:0:0:
256,192,167061,1,8,0:0:0:0:
256,192,167197,1,8,0:0:0:0:
256,192,167334,1,8,0:0:0:0:
256,192,167606,1,8,0:0:0:0:
256,192,167743,1,8,0:0:0:0:
256,192,167879,1,8,0:0:0:0:
256,192,168015,1,8,0:0:0:0:
256,192,168288,1,0,0:0:0:0:
256,192,168425,1,8,0:0:0:0:
256,192,168697,1,0,0:0:0:0:
256,192,168834,1,8,0:0:0:0:
256,192,168970,1,0,0:0:0:0:
256,192,169106,1,8,0:0:0:0:
256,192,169652,1,0,0:0:0:0:
256,192,170197,1,0,0:0:0:0:
256,192,170334,1,8,0:0:0:0:
256,192,170470,1,8,0:0:0:0:
256,192,170606,1,8,0:0:0:0:
256,192,170879,1,8,0:0:0:0:
256,192,171015,1,8,0:0:0:0:
256,192,171152,1,8,0:0:0:0:
256,192,171288,1,8,0:0:0:0:
256,192,171425,1,8,0:0:0:0:
256,192,171561,1,8,0:0:0:0:
256,192,171697,1,8,0:0:0:0:
256,192,171970,1,8,0:0:0:0:
256,192,172106,1,8,0:0:0:0:
256,192,172243,1,8,0:0:0:0:
256,192,172379,1,8,0:0:0:0:
256,192,172652,1,0,0:0:0:0:
256,192,172788,1,8,0:0:0:0:
256,192,173061,1,0,0:0:0:0:
256,192,173197,1,8,0:0:0:0:
256,192,173334,1,0,0:0:0:0:
256,192,173470,1,8,0:0:0:0:
256,192,173606,1,8,0:0:0:0:
256,192,173743,1,8,0:0:0:0:
256,192,173811,1,8,0:0:0:0:
256,192,173879,1,8,0:0:0:0:
256,192,173947,1,8,0:0:0:0:
256,192,174015,1,0,0:0:0:0:
256,192,174084,1,0,0:0:0:0:
256,192,174152,1,0,0:0:0:0:
256,192,174220,1,0,0:0:0:0:
256,192,174288,1,8,0:0:0:0:
256,192,174356,1,8,0:0:0:0:
256,192,174425,1,8,0:0:0:0:
256,192,174493,1,8,0:0:0:0:
256,192,174561,1,0,0:0:0:0:
256,192,174697,1,8,0:0:0:0:
256,192,174834,1,8,0:0:0:0:
256,192,174970,1,0,0:0:0:0:
256,192,175106,1,0,0:0:0:0:
256,192,175243,1,8,0:0:0:0:
256,192,175379,1,8,0:0:0:0:
256,192,175447,1,8,0:0:0:0:
256,192,175515,1,8,0:0:0:0:
256,192,175584,1,8,0:0:0:0:
256,192,175652,1,0,0:0:0:0:
256,192,175788,1,8,0:0:0:0:
256,192,175925,1,8,0:0:0:0:
256,192,176061,1,0,0:0:0:0:
256,192,176197,1,0,0:0:0:0:
256,192,176334,1,8,0:0:0:0:
256,192,176470,1,0,0:0:0:0:
256,192,176538,1,8,0:0:0:0:
256,192,176606,1,0,0:0:0:0:
256,192,176675,1,8,0:0:0:0:
256,192,176743,1,0,0:0:0:0:
256,192,176879,1,0,0:0:0:0:
256,192,177015,1,8,0:0:0:0:
256,192,177152,1,0,0:0:0:0:
256,192,177288,1,0,0:0:0:0:
256,192,177425,1,8,0:0:0:0:
256,192,177561,1,8,0:0:0:0:
256,192,177629,1,8,0:0:0:0:
256,192,177697,1,0,0:0:0:0:
256,192,177765,1,8,0:0:0:0:
256,192,177834,1,8,0:0:0:0:
256,192,177970,1,0,0:0:0:0:
256,192,178106,1,8,0:0:0:0:
256,192,178243,1,0,0:0:0:0:
256,192,178379,1,0,0:0:0:0:
256,192,178515,1,8,0:0:0:0:
256,192,178652,1,8,0:0:0:0:
256,192,178720,1,8,0:0:0:0:
256,192,178788,1,8,0:0:0:0:
256,192,178856,1,8,0:0:0:0:
256,192,178925,1,0,0:0:0:0:
256,192,179061,1,8,0:0:0:0:
256,192,179197,1,8,0:0:0:0:
256,192,179334,1,0,0:0:0:0:
256,192,179470,1,0,0:0:0:0:
256,192,179606,1,8,0:0:0:0:
256,192,179743,1,8,0:0:0:0:
256,192,179811,1,8,0:0:0:0:
256,192,179879,1,8,0:0:0:0:
256,192,179947,1,8,0:0:0:0:
256,192,180015,1,0,0:0:0:0:
256,192,180152,1,0,0:0:0:0:
256,192,180288,1,8,0:0:0:0:
256,192,180425,1,0,0:0:0:0:
256,192,180561,1,0,0:0:0:0:
256,192,180697,1,8,0:0:0:0:
256,192,180834,1,0,0:0:0:0:
256,192,180902,1,8,0:0:0:0:
256,192,180970,1,0,0:0:0:0:
256,192,181038,1,8,0:0:0:0:
256,192,181106,1,0,0:0:0:0:
256,192,181243,1,0,0:0:0:0:
256,192,181379,1,8,0:0:0:0:
256,192,181515,1,0,0:0:0:0:
256,192,181652,1,0,0:0:0:0:
256,192,181788,1,8,0:0:0:0:
256,192,181925,1,8,0:0:0:0:
256,192,181993,1,8,0:0:0:0:
256,192,182061,1,0,0:0:0:0:
256,192,182129,1,8,0:0:0:0:
256,192,182197,1,8,0:0:0:0:
256,192,182334,1,0,0:0:0:0:
256,192,182470,1,8,0:0:0:0:
256,192,182606,1,0,0:0:0:0:
256,192,182743,1,0,0:0:0:0:
256,192,182879,1,8,0:0:0:0:
256,192,183015,1,0,0:0:0:0:
256,192,183084,1,8,0:0:0:0:
256,192,183152,1,8,0:0:0:0:
256,192,183220,1,8,0:0:0:0:
256,192,183288,1,0,0:0:0:0:
256,192,183425,1,8,0:0:0:0:
256,192,183561,1,8,0:0:0:0:
256,192,183697,1,0,0:0:0:0:
256,192,183834,1,0,0:0:0:0:
256,192,183970,1,8,0:0:0:0:
256,192,184106,1,8,0:0:0:0:
256,192,184175,1,8,0:0:0:0:
256,192,184243,1,8,0:0:0:0:
256,192,184311,1,8,0:0:0:0:
256,192,184379,1,0,0:0:0:0:
256,192,184515,1,8,0:0:0:0:
256,192,184652,1,8,0:0:0:0:
256,192,184788,1,0,0:0:0:0:
256,192,184925,1,0,0:0:0:0:
256,192,185061,1,8,0:0:0:0:
256,192,185197,1,0,0:0:0:0:
256,192,185265,1,8,0:0:0:0:
256,192,185334,1,0,0:0:0:0:
256,192,185402,1,8,0:0:0:0:
256,192,185470,1,0,0:0:0:0:
256,192,185606,1,0,0:0:0:0:
256,192,185743,1,8,0:0:0:0:
256,192,185879,1,0,0:0:0:0:
256,192,186015,1,0,0:0:0:0:
256,192,186152,1,8,0:0:0:0:
256,192,186288,1,8,0:0:0:0:
256,192,186356,1,8,0:0:0:0:
256,192,186425,1,0,0:0:0:0:
256,192,186493,1,8,0:0:0:0:
256,192,186561,1,8,0:0:0:0:
256,192,186697,1,0,0:0:0:0:
256,192,186834,1,8,0:0:0:0:
256,192,186970,1,0,0:0:0:0:
256,192,187106,1,0,0:0:0:0:
256,192,187243,1,8,0:0:0:0:
256,192,187379,1,0,0:0:0:0:
256,192,187447,1,8,0:0:0:0:
256,192,187515,1,8,0:0:0:0:
256,192,187584,1,8,0:0:0:0:
256,192,187652,1,0,0:0:0:0:
256,192,187788,1,8,0:0:0:0:
256,192,187925,1,8,0:0:0:0:
256,192,188061,1,0,0:0:0:0:
256,192,188197,1,0,0:0:0:0:
256,192,188334,1,8,0:0:0:0:
256,192,188470,1,8,0:0:0:0:
256,192,188538,1,8,0:0:0:0:
256,192,188606,1,8,0:0:0:0:
256,192,188675,1,8,0:0:0:0:
256,192,188743,1,0,0:0:0:0:
256,192,188879,1,8,0:0:0:0:
256,192,189015,1,8,0:0:0:0:
256,192,189152,1,0,0:0:0:0:
256,192,189288,1,0,0:0:0:0:
256,192,189425,1,8,0:0:0:0:
256,192,189561,1,0,0:0:0:0:
256,192,189629,1,8,0:0:0:0:
256,192,189697,1,0,0:0:0:0:
256,192,189765,1,8,0:0:0:0:
256,192,189834,1,0,0:0:0:0:
256,192,189970,1,0,0:0:0:0:
256,192,190106,1,8,0:0:0:0:
256,192,190243,1,0,0:0:0:0:
256,192,190379,1,0,0:0:0:0:
256,192,190515,1,8,0:0:0:0:
256,192,190652,1,8,0:0:0:0:
256,192,190720,1,8,0:0:0:0:
256,192,190788,1,0,0:0:0:0:
256,192,190856,1,8,0:0:0:0:
256,192,190925,1,8,0:0:0:0:
256,192,191061,1,0,0:0:0:0:
256,192,191197,1,8,0:0:0:0:
256,192,191334,1,0,0:0:0:0:
256,192,191470,1,8,0:0:0:0:
256,192,191538,1,8,0:0:0:0:
256,192,191606,1,8,0:0:0:0:
256,192,191675,1,8,0:0:0:0:
256,192,191743,1,8,0:0:0:0:
256,192,191811,1,8,0:0:0:0:
256,192,191879,1,8,0:0:0:0:
256,192,192015,1,4,0:0:0:0:
256,192,192152,1,0,0:0:0:0:
256,192,192288,1,0,0:0:0:0:
256,192,192425,1,0,0:0:0:0:
256,192,192561,1,0,0:0:0:0:
256,192,192834,1,0,0:0:0:0:
256,192,193106,1,0,0:0:0:0:
256,192,193379,1,0,0:0:0:0:
256,192,193652,1,0,0:0:0:0:
256,192,193925,1,0,0:0:0:0:
256,192,194197,1,0,0:0:0:0:
256,192,194470,1,0,0:0:0:0:
256,192,194606,1,0,0:0:0:0:
256,192,194675,1,0,0:0:0:0:
256,192,194743,1,0,0:0:0:0:
256,192,194811,1,0,0:0:0:0:
256,192,194879,1,0,0:0:0:0:
256,192,195015,1,8,0:0:0:0:
256,192,195152,1,0,0:0:0:0:
256,192,195288,1,0,0:0:0:0:
256,192,195425,1,0,0:0:0:0:
256,192,195561,1,8,0:0:0:0:
256,192,195697,1,0,0:0:0:0:
256,192,195834,1,8,0:0:0:0:
256,192,195970,1,0,0:0:0:0:
256,192,196106,1,0,0:0:0:0:
256,192,196243,1,0,0:0:0:0:
256,192,196379,1,0,0:0:0:0:
256,192,196515,1,0,0:0:0:0:
256,192,196652,1,0,0:0:0:0:
256,192,196788,1,0,0:0:0:0:
256,192,196925,1,0,0:0:0:0:
256,192,197061,1,0,0:0:0:0:
256,192,197197,1,0,0:0:0:0:
256,192,197470,1,0,0:0:0:0:
256,192,197879,1,8,0:0:0:0:
256,192,198561,1,0,0:0:0:0:
256,192,198970,1,0,0:0:0:0:
256,192,199243,1,0,0:0:0:0:
256,192,199379,1,8,0:0:0:0:
256,192,199652,1,0,0:0:0:0:
256,192,199788,1,0,0:0:0:0:
256,192,199925,1,0,0:0:0:0:
256,192,200061,1,0,0:0:0:0:
256,192,200197,1,0,0:0:0:0:
256,192,200470,1,8,0:0:0:0:
256,192,200743,1,0,0:0:0:0:
256,192,200879,1,0,0:0:0:0:
256,192,201015,1,0,0:0:0:0:
256,192,201152,1,0,0:0:0:0:
256,192,201425,1,0,0:0:0:0:
256,192,201561,1,8,0:0:0:0:
256,192,201834,1,8,0:0:0:0:
256,192,202106,1,0,0:0:0:0:
256,192,202197,1,8,0:0:0:0:
256,192,202288,1,0,0:0:0:0:
256,192,202379,1,0,0:0:0:0:
256,192,202652,1,8,0:0:0:0:
256,192,202925,1,0,0:0:0:0:
260,192,203061,1,8,0:0:0:0:
260,192,203197,1,0,0:0:0:0:
260,192,203334,1,0,0:0:0:0:
260,192,203470,1,8,0:0:0:0:
260,192,203606,1,0,0:0:0:0:
260,192,203743,1,0,0:0:0:0:
260,192,204015,1,8,0:0:0:0:
260,192,204288,1,0,0:0:0:0:
256,192,204379,1,8,0:0:0:0:
256,192,204470,1,0,0:0:0:0:
260,192,204561,1,0,0:0:0:0:
256,192,204834,1,8,0:0:0:0:
256,192,205106,1,0,0:0:0:0:
256,192,205243,1,8,0:0:0:0:
256,192,205379,1,0,0:0:0:0:
256,192,205515,1,0,0:0:0:0:
256,192,205652,1,8,0:0:0:0:
256,192,205788,1,0,0:0:0:0:
256,192,205925,1,0,0:0:0:0:
256,192,206197,1,8,0:0:0:0:
256,192,206470,1,0,0:0:0:0:
256,192,206561,1,8,0:0:0:0:
256,192,206652,1,0,0:0:0:0:
256,192,206743,1,0,0:0:0:0:
256,192,207015,1,8,0:0:0:0:
256,192,207288,1,0,0:0:0:0:
256,192,208106,1,8,0:0:0:0:
256,192,208925,1,8,0:0:0:0:
256,192,209334,1,8,0:0:0:0:
256,192,209402,1,0,0:0:0:0:
