osu file format v14

[General]
AudioFilename: audio.mp3
AudioLeadIn: 0
PreviewTime: 693767
Countdown: 3
SampleSet: None
StackLeniency: 0
Mode: 0
LetterboxInBreaks: 0
WidescreenStoryboard: 0

[Editor]
DistanceSpacing: 1
BeatDivisor: 4
GridSize: 8
TimelineZoom: 1

[Metadata]
Title:Because Maybe! Pt. 1
TitleUnicode:Because Maybe! Pt. 1
Artist:Renard
ArtistUnicode:Renard
Creator:mikku1
Version:Go To The Paah-dee
Source:
Tags:breakcore renard ren queenston dave remmler lapfox trax halley labs best of vol. 1 volume because maybe full album go to the party dracula i'm a blind cave salamander sean paul opens a mfing casino with me banned forever wrecka team murder namx sinisterrrrrrrr push cycles smoke tower spacedragonstyle raggamissile bumblefuck fuck your rails too dear spark chelsea smile lets move tu4ar the entire world
BeatmapID:1690310
BeatmapSetID:803645

[Difficulty]
HPDrainRate:4.13
CircleSize:3.3
OverallDifficulty:8
ApproachRate:9.6
SliderMultiplier:1.4
SliderTickRate:1

[Events]
//Background and Video events
0,0,"cover.jpg",0,0
//Break Periods
2,113670,130143
//Storyboard Layer 0 (Background)
//Storyboard Layer 1 (Fail)
//Storyboard Layer 2 (Pass)
//Storyboard Layer 3 (Foreground)
//Storyboard Sound Samples

[TimingPoints]
39.8855580729144,272.727142857144,4,1,0,100,1,0
8767,-100,4,2,0,100,0,0
10948,-100,4,1,0,100,0,0
17477,272.727142857144,4,1,0,100,1,0
25658,272.727142857144,4,1,0,100,1,0
25658,-50,4,1,0,100,0,0
25721,-52.6315789473684,4,1,0,100,0,0
25766,-55.5555555555556,4,1,0,100,0,0
25812,-58.8235294117647,4,1,0,100,0,0
25857,-62.5,4,1,0,100,0,0
25903,-66.6666666666667,4,1,0,100,0,0
25948,-71.4285714285714,4,1,0,100,0,0
25994,-76.9230769230769,4,1,0,100,0,0
26039,-83.3333333333333,4,1,0,100,0,0
26085,-90.9090909090909,4,1,0,100,0,0
26130,-93.7500585937866,4,1,0,100,0,0
26175,-96.7741935483871,4,1,0,100,0,0
26210,272.727142857144,4,1,0,100,1,0
27846,-50,4,1,0,100,0,0
28391,-100,4,1,0,100,0,0
29209,-66.6666666666667,4,1,0,100,0,0
29755,-50,4,1,0,100,0,0
30573,-100,4,1,0,100,0,0
33857,272.727142857144,4,1,0,100,1,0
33993,272.727142857144,4,1,0,100,1,0
34061,272.727142857144,4,1,0,100,1,0
34129,272.727142857144,4,1,0,100,1,0
34265,272.727142857144,4,1,0,100,1,0
34401,272.727142857144,4,1,0,100,1,0
34930,272.727142857144,4,1,0,100,1,0
34930,-66.6666666666667,4,1,0,100,0,0
51293,272.727142857144,4,1,0,100,1,0
51429,272.727142857144,4,1,0,100,1,0
51497,272.727142857144,4,1,0,100,1,0
51565,272.727142857144,4,1,0,100,1,0
51701,272.727142857144,4,1,0,100,1,0
51837,272.727142857144,4,1,0,100,1,0
51973,-100,4,3,4,5,0,0
52177,-74.9625187406297,4,1,0,33,0,0
52246,-59.9880023995201,4,1,0,67,0,0
52314,-50,4,1,0,100,0,0
52382,272.727142857144,4,1,0,100,1,0
52382,-66.6666666666667,4,1,0,100,0,0
69836,-800,4,1,0,100,0,0
78291,-50,4,1,0,100,0,0
78563,-66.6666666666667,4,1,0,100,0,0
93839,-50,4,1,0,100,0,0
94109,-66.6666666666667,4,1,0,100,0,0
94381,-80,4,1,0,100,0,0
94654,-100,4,1,0,100,0,0
94927,272.727142857144,4,1,0,100,1,0
95063,272.727142857144,4,1,0,100,1,0
95131,272.727142857144,4,1,0,100,1,0
95199,272.727142857144,4,1,0,100,1,0
95335,272.727142857144,4,1,0,100,1,0
95471,272.727142857144,4,1,0,100,1,0
96016,272.727142857144,4,1,0,100,1,0
96016,-100,4,1,0,100,0,0
130788,-400,4,2,0,90,0,0
148379,-50,4,1,0,100,0,1
159823,-3.125,4,1,0,100,0,1
160106,1,4,1,0,100,1,1
160379,272.727142857144,4,1,0,100,1,1
160379,-50,4,1,0,100,0,1
163379,-200,4,1,0,100,0,1
163652,-100,4,1,0,100,0,0
164197,-66.6666666666667,4,1,0,100,0,0
164743,-50,4,1,0,100,0,0
165015,-33.3333333333334,4,1,0,100,0,0
165561,-10,4,1,0,100,0,0
165834,-200,4,1,0,100,0,0
174015,-100,4,1,0,100,0,0
174288,-50,4,1,0,100,0,0
174561,-40,4,1,0,100,0,1
192015,-100,4,2,0,60,0,0
207288,-33.3333333333334,4,1,0,100,0,0
209480,272.727142857144,4,1,0,100,1,0
330570,-100,4,2,0,50,0,0
331661,-100,4,1,0,100,0,1
346934,-100,4,1,0,100,0,0
349116,-100,4,1,0,100,0,1
364389,-100,4,1,0,100,0,0
366570,-100,4,2,0,75,0,0
386210,272.727142857144,4,1,0,100,1,0
403664,-133.333333333333,4,2,0,40,0,0
412391,-100,4,1,0,100,0,0
421391,-133.333333333333,4,2,0,100,0,0
423300,-100,4,1,0,90,0,0
432028,-100,4,1,0,100,0,0
439664,-100,4,2,0,70,0,0
440755,-100,4,1,0,100,0,1
457119,-100,4,1,0,90,0,0
458209,-100,4,2,0,100,0,0
466937,-100,4,1,0,100,0,0
477846,-100,4,2,0,75,0,0
486573,-100,4,1,0,100,0,0
495300,-100,4,1,0,80,0,0
504028,-100,4,1,0,90,0,0
512755,-100,4,1,0,100,0,1
530209,-100,4,1,0,80,0,0
538937,-100,4,1,0,90,0,0
549846,-100,4,1,0,100,0,0
567290,272.727142857144,4,1,0,50,1,0
571653,-100,4,1,0,65,0,0
573835,-100,4,1,0,70,0,0
576017,-100,4,1,0,75,0,0
578199,-100,4,1,0,85,0,0
580380,-100,4,1,0,95,0,0
584744,-100,4,1,0,100,0,1
602199,-100,4,1,0,100,0,0
619653,-100,4,1,0,100,0,1
656744,-100,4,1,0,50,0,0
658926,-100,4,1,0,100,0,0
693835,-100,4,1,0,75,0,0
711289,-100,4,1,0,100,0,1
730926,-100,4,1,0,100,0,0
768017,-100,4,2,0,90,0,0
776744,-100,4,1,0,95,0,0
820380,-100,4,1,0,100,0,1
855289,-100,4,1,0,100,0,0
872744,-100,4,1,0,100,0,1
907653,-100,4,1,0,75,0,0
942562,-100,4,1,0,100,0,0
960017,-100,4,2,0,80,0,0
977471,-100,4,1,0,100,0,0
994926,-100,4,1,0,100,0,1
1012380,-100,4,1,0,100,0,0
1029835,-100,4,1,0,75,0,0
1047289,-100,4,1,0,100,0,0
1064744,-100,4,1,0,100,0,1
1080017,-100,4,1,0,100,0,0
1082198,-100,4,2,0,75,0,0
1099653,-100,4,1,0,75,0,0
1117107,-100,4,1,0,100,0,0
1134562,-100,4,1,0,100,0,1
1152000,272.727142857144,4,1,0,100,1,0
1186909,-100,4,2,0,75,0,0
1195636,-100,4,2,0,85,0,0
1213090,-100,4,1,0,90,0,0
1221818,-100,4,1,0,100,0,0
1241454,-100,4,2,0,5,0,0
1241727,-100,4,2,0,10,0,0
1241999,-100,4,2,0,15,0,0
1242272,-100,4,2,0,25,0,0
1242545,-100,4,2,0,35,0,0
1242818,-100,4,2,0,45,0,0
1243090,-100,4,2,0,55,0,0
1243363,-100,4,2,0,65,0,0
1243630,272.727142857144,4,1,0,100,1,0
1243636,-100,4,2,0,75,0,0
1252363,-100,4,1,0,100,0,0
1309090,-100,4,1,0,100,0,1
1326545,-100,4,2,0,100,0,0
1335272,-100,4,1,0,100,0,0
1418727,-100,4,2,0,70,0,0
1435636,-100,4,1,0,100,0,0
1444397,-100,4,1,0,100,0,1
1470545,-100,4,1,0,100,0,0
1479260,272.727142857144,4,1,0,100,1,0
1549090,-100,4,1,0,100,0,1
1565454,-100,4,2,0,90,0,0
1566545,-100,4,1,0,100,0,0
1588363,-100,4,1,0,100,0,1
1601454,-100,4,1,0,80,0,0
1618908,-100,4,1,0,100,0,1
1653817,-100,4,1,0,100,0,0
1723636,-100,4,1,0,100,0,1
1756363,-100,4,1,0,100,0,0
1793454,-100,4,1,0,100,0,1
1810908,-100,4,1,0,100,0,0
1828363,-100,4,1,0,100,0,1
1861090,-100,4,1,0,100,0,0
1915630,272.727142857144,4,1,0,100,1,0
2057440,272.727142857144,4,1,0,100,1,0
2074908,-100,4,1,0,100,0,1
2092363,-100,4,1,0,100,0,0
2127272,-100,4,1,0,100,0,1
2143635,-100,4,1,0,100,0,0
2162181,-100,4,1,0,100,0,1
2179635,-100,4,1,0,100,0,0
2249400,272.727142857144,4,1,0,100,1,0
2249400,-133.333333333333,4,2,0,70,0,0
2257036,-100,4,1,0,80,0,0
2258127,-100,4,1,0,100,0,0
2336672,-133.333333333333,4,2,0,80,0,0
2344309,-111.111111111111,4,1,0,90,0,0
2353036,-100,4,1,0,100,0,0
2379218,-100,4,1,0,100,0,1
2396672,-133.333333333333,4,2,0,90,0,0
2404309,-100,4,1,0,100,0,0
2439230,272.727142857144,4,1,0,100,1,0
2447957,-100,4,1,0,100,0,1
2465411,-200,4,1,0,100,0,0
2474139,-100,4,1,0,100,0,0
2479729,-95.2380952380952,4,1,0,100,0,0
2479866,-90.9090909090909,4,1,0,100,0,0
2480002,-86.9565217391304,4,1,0,100,0,0
2480139,-83.3333333333333,4,1,0,100,0,0
2480275,-80,4,1,0,100,0,0
2480411,-76.9230769230769,4,1,0,100,0,0
2480548,-74.0740740740741,4,1,0,100,0,0
2480684,-71.4285714285714,4,1,0,100,0,0
2480820,-68.9655172413793,4,1,0,100,0,0
2480957,-66.6666666666667,4,1,0,100,0,0
2481093,-64.5161290322581,4,1,0,100,0,0
2481229,-62.5,4,1,0,100,0,0
2481366,-60.6060606060606,4,1,0,100,0,0
2481502,-58.8235294117647,4,1,0,100,0,0
2481639,-57.1428571428571,4,1,0,100,0,0
2481775,-55.5555555555556,4,1,0,100,0,0
2481911,-54.054054054054,4,1,0,100,0,0
2482048,-52.6315789473684,4,1,0,100,0,0
2482184,-51.2820512820513,4,1,0,100,0,0
2482320,-50,4,1,0,100,0,0
2482866,-100,4,1,0,100,0,0
2538502,-100,4,2,0,100,0,0
2547229,-100,4,1,0,100,0,1
2563593,-100,4,1,0,100,0,0
2564120,272.727142857144,4,1,0,100,1,0
2564665,272.727142857144,4,1,0,100,1,0
2617029,-66.6666666666667,4,1,0,100,0,0
2625756,-100,4,1,0,100,0,0
2627938,-66.6666666666667,4,1,0,100,0,0
2630119,-100,4,1,0,100,0,0
2632301,-66.6666666666667,4,1,0,100,0,0
2634483,-100,4,1,0,100,0,0
2704301,-200,4,1,0,100,0,0
2721210,-100,4,1,0,100,0,1
2739210,-100,4,1,0,100,0,0
2739755,-200,4,1,0,100,0,0
2757210,-250,4,1,0,100,0,0
2759392,-333.333333333333,4,1,0,100,0,0
2761573,-500,4,1,0,100,0,0
2765392,-100,4,1,0,100,0,1
2787210,-100,4,1,0,100,0,0
2824301,-200,4,1,0,100,0,0
2857028,-100,4,1,0,100,0,1
2878846,-200,4,1,0,100,0,0
2881020,249.999890873012,4,1,0,100,1,0
2897019,-200,4,1,0,100,0,0
2905019,-133.333333333333,4,1,0,100,0,0
2913019,-100,4,1,0,100,0,0
2945019,-200,4,1,0,100,0,0
2953019,-100,4,1,0,100,0,0
2977010,249.999890873012,4,1,0,100,1,0
3025009,-200,4,1,0,100,0,0
3033009,-100,4,1,0,100,0,0
3057009,-100,4,1,0,100,0,1
3089009,-100,4,1,0,100,0,0
3121009,-200,4,1,0,100,0,0
3129009,-100,4,1,0,100,0,0
3137009,-100,4,1,0,100,0,1
3153009,-200,4,1,0,100,0,0
3168009,-100,4,1,0,100,0,0
3217259,-200,4,1,0,100,0,0
3233009,-100,4,1,0,100,0,0
3250980,249.999890873012,4,1,0,100,1,0
3336979,-100,4,1,0,100,0,1
3384979,-100,4,1,0,100,0,0
3385229,251.046025104603,4,1,0,100,1,8
3385480,252.100840336134,4,1,0,100,1,8
3385732,253.164556962025,4,1,0,100,1,8
3385985,254.237288135593,4,1,0,100,1,8
3386239,255.31914893617,4,1,0,100,1,8
3386494,256.410256410256,4,1,0,100,1,8
3386750,257.510729613734,4,1,0,100,1,8
3387007,258.620689655172,4,1,0,100,1,8
3387265,259.74025974026,4,1,0,100,1,8
3387524,260.869565217391,4,1,0,100,1,8
3387784,262.008733624454,4,1,0,100,1,8
3388046,263.157894736842,4,1,0,100,1,8
3388309,264.31718061674,4,1,0,100,1,8
3388573,265.486725663717,4,1,0,100,1,8
3388838,266.666666666667,4,1,0,100,1,8
3389104,267.857142857143,4,1,0,100,1,8
3389371,269.058295964126,4,1,0,100,1,8
3389640,270.27027027027,4,1,0,100,1,8
3389910,271.493212669683,4,1,0,100,1,8
3390181,272.727272727273,4,1,0,100,1,8
3390453,273.972602739726,4,1,0,100,1,8
3390726,275.229357798165,4,1,0,100,1,8
3391001,276.497695852535,4,1,0,100,1,8
3391277,277.777777777778,4,1,0,100,1,8
3391554,279.06976744186,4,1,0,100,1,8
3391833,280.373831775701,4,1,0,100,1,8
3392113,281.69014084507,4,1,0,100,1,8
3392394,283.018867924528,4,1,0,100,1,8
3392677,284.36018957346,4,1,0,100,1,8
3392961,285.714285714286,4,1,0,100,1,8
3393246,287.081339712919,4,1,0,100,1,8
3393533,288.461538461538,4,1,0,100,1,8
3393821,289.855072463768,4,1,0,100,1,8
3393979,249.999890873012,4,1,0,100,1,0
3393979,-200,4,1,0,100,0,0
3409978,-100,4,1,0,100,0,1
3425978,-200,4,1,0,100,0,0
3449978,-100,4,1,0,100,0,0
3465978,-200,4,1,0,100,0,0
3481478,-166.666666666667,4,1,0,100,0,0
3481603,-142.857142857143,4,1,0,100,0,0
3481728,-125,4,1,0,100,0,0
3481853,-111.111111111111,4,1,0,100,0,0
3481978,-100,4,1,0,100,0,1
3497978,-100,4,1,0,100,0,0
3559978,-100,4,1,0,100,0,1
3591978,-200,4,1,0,100,0,0

[Colours]
Combo1 : 0,255,0
Combo2 : 0,255,255

[HitObjects]
32,160,2221,6,8,P|100:144|176:160,1,140
256,192,2630,1,0,0:0:0:0:
352,160,2767,2,0,B|424:176|424:176|492:160,1,140,8|0,0:0|0:0,0:0:0:0:
492,220,3073,1,8,0:0:0:0:
256,300,3312,6,0,L|256:324,1,17.5
256,96,3585,1,8,0:0:0:0:
256,96,3858,1,8,0:0:0:0:
32,192,4403,37,8,0:0:0:0:
256,36,4676,1,8,0:0:0:0:
480,192,4948,1,8,0:0:0:0:
256,352,5221,2,0,P|248:316|256:280,1,70,8|0,0:0|0:0,0:0:0:0:
256,144,5494,6,0,L|256:232,2,70,0|0|8,0:0|0:0|0:0,0:0:0:0:
256,144,6039,1,8,0:0:0:0:
32,160,6585,38,8,B|104:180|104:180|192:160,1,140
256,192,6994,1,0,0:0:0:0:
352,160,7131,2,0,B|428:140|428:140|508:160,1,140,8|0,0:0|0:0,0:0:0:0:
488,196,7437,1,8,0:0:0:0:
256,304,7676,2,0,B|256:296|256:296|256:304|256:288,1,17.5
256,96,7949,1,8,0:0:0:0:
256,96,8222,1,8,0:0:0:0:
256,192,8767,6,0,L|256:120,1,70
256,192,9039,2,0,L|328:192,1,70
256,192,9312,2,0,L|256:264,1,70
256,192,9585,1,0,0:0:0:0:
256,112,9721,1,0,0:0:0:0:
352,112,9858,38,0,L|352:200,2,70
256,112,10267,1,0,0:0:0:0:
168,112,10403,2,0,L|168:184,1,70
92,112,10676,2,0,L|92:184,1,70
168,192,10948,6,8,P|184:128|256:104,1,140
256,36,11358,1,0,0:0:0:0:
344,192,11494,2,8,P|328:128|256:104,1,140,8|0,0:0|0:0,0:0:0:0:
240,104,11801,1,8,0:0:0:0:
240,104,12039,37,0,0:0:0:0:
263,102,12073,2,8,P|324:88|340:32,1,122.5,0|8,0:0|0:0,0:0:0:0:
340,36,12585,1,8,0:0:0:0:
196,192,13130,6,8,P|256:156|312:192,2,140
108,192,13948,1,8,0:0:0:0:
184,112,14085,1,0,0:0:0:0:
256,192,14221,37,0,0:0:0:0:
331,115,14358,1,0,0:0:0:0:
396,183,14494,2,8,P|336:183|336:111,1,140
212,192,15312,6,0,P|256:240|300:192,1,140,8|8,0:0|0:0,0:0:0:0:
256,144,15721,1,0,0:0:0:0:
212,192,15858,2,0,P|256:240|300:192,1,140,8|0,0:0|0:0,0:0:0:0:
299,198,16164,1,8,0:0:0:0:
212,192,16403,37,0,0:0:0:0:
212,192,16437,1,0,0:0:0:0:
296,192,16676,5,0,0:0:0:0:
296,192,16710,1,8,0:0:0:0:
212,192,16948,37,0,0:0:0:0:
212,192,16983,1,0,0:0:0:0:
256,88,17221,1,8,0:0:0:0:
116,192,17477,6,0,L|188:192,1,70
256,124,17749,1,0,0:0:0:0:
256,124,17886,1,0,0:0:0:0:
340,192,18022,2,0,L|340:112,1,70
256,48,18295,1,0,0:0:0:0:
256,48,18431,1,0,0:0:0:0:
156,224,18567,38,0,B|200:192|224:268|296:224,1,140
230,156,18976,1,0,0:0:0:0:
160,156,19113,2,8,L|240:156,1,70,0|0,0:0|0:0,0:0:0:0:
160,88,19386,1,0,0:0:0:0:
228,88,19522,1,0,0:0:0:0:
256,192,19658,6,0,B|224:148|284:100|256:56,1,140
256,57,20067,1,0,0:0:0:0:
192,56,20204,2,0,L|192:136,1,70
32,192,20476,37,8,0:0:0:0:
128,288,20613,1,0,0:0:0:0:
224,192,20749,1,8,0:0:0:0:
320,288,20886,1,0,0:0:0:0:
448,192,21022,2,8,P|384:192|448:128,2,210,8|8|0,0:0|0:0|0:0,0:0:0:0:
256,192,22113,5,0,0:0:0:0:
256,128,22249,1,0,0:0:0:0:
256,64,22386,2,0,L|352:64,1,70
320,128,22658,2,0,L|416:128,1,70
256,192,22931,38,0,L|256:288,2,70
164,192,23340,1,0,0:0:0:0:
64,192,23476,2,8,L|64:96,1,70,0|0,0:0|0:0,0:0:0:0:
64,64,23749,2,0,L|128:128,1,70
160,224,24022,6,0,B|256:160|256:160|320:160|352:96|352:96|352:96|352:96,1,210
256,96,24567,2,0,L|160:96,1,70
256,128,24840,37,8,0:0:0:0:
256,256,24976,1,0,0:0:0:0:
256,128,25113,1,8,0:0:0:0:
256,256,25249,1,0,0:0:0:0:
220,192,25386,2,0,L|300:192,1,70
64,192,25658,22,0,L|64:156,1,35
120,192,25726,2,0,L|120:128,1,33.2499991121292
176,192,25794,2,0,L|176:156,1,31.4999990386963
232,192,25862,2,0,L|232:152,1,28
284,192,25930,2,0,L|284:224,1,26.2500010013581
340,192,25998,2,0,L|340:216,1,22.7499989585877
396,192,26067,2,0,L|396:224,1,20.9999993591309
452,192,26135,2,0,L|452:212,1,18.6666545138968
419,193,26210,38,0,B|372:184|348:126|348:126|295:126,1,140
240,128,26619,1,0,0:0:0:0:
256,192,26755,2,0,L|256:272,1,70
256,192,27028,2,0,L|256:112,1,70
328,192,27300,38,0,L|184:192,1,140
200,120,27709,1,0,0:0:0:0:
328,192,27846,2,0,L|184:192,1,140
256,120,28119,2,0,L|256:272,1,140
88,192,28391,6,0,L|88:120,2,70
152,192,28800,1,0,0:0:0:0:
216,192,28937,2,0,L|216:264,1,70
256,128,29209,38,8,B|288:104|320:152|360:112,1,105.000004005432,8|0,0:0|0:0,0:0:0:0:
256,256,29482,2,8,B|221:297|189:249|158:272,1,105.000004005432,8|0,0:0|0:0,0:0:0:0:
88,192,29755,2,8,B|168:136|200:192|200:192|232:192|304:112|304:112|344:192|488:64,2,420,8|8|0,0:0|0:0|0:0,0:0:0:0:
256,192,30846,5,0,0:0:0:0:
256,120,30982,1,0,0:0:0:0:
256,48,31119,2,0,L|336:48,1,70
256,120,31391,2,0,L|176:120,1,70
144,192,31664,37,0,0:0:0:0:
208,112,31800,1,0,0:0:0:0:
304,112,31937,1,0,0:0:0:0:
368,192,32073,1,0,0:0:0:0:
416,112,32209,2,0,L|400:128,6,17.5,8|0|0|0|0|0|0,0:0|0:0|0:0|0:0|0:0|0:0|0:0,0:0:0:0:
416,48,32482,2,0,L|432:40,5,17.5
360,48,32755,6,8,B|256:48|256:48|256:160,1,210,8|0,0:0|0:0,0:0:0:0:
256,320,33437,1,0,0:0:0:0:
168,200,33573,1,0,0:0:0:0:
336,200,33709,1,0,0:0:0:0:
32,144,33857,5,0,0:0:0:0:
168,144,33993,5,0,0:0:0:0:
240,144,34061,37,0,0:0:0:0:
312,144,34129,5,0,0:0:0:0:
456,144,34265,37,0,0:0:0:0:
456,144,34401,6,0,P|400:104|328:104,1,140,0|8,0:0|0:0,0:0:0:0:
240,144,34810,1,8,0:0:0:0:
48,192,34930,6,0,L|48:72,1,105.000004005432
48,192,35202,1,0,0:0:0:0:
256,192,35339,2,0,L|256:72,1,105.000004005432
256,192,35611,1,0,0:0:0:0:
464,192,35748,1,0,0:0:0:0:
464,160,35816,1,0,0:0:0:0:
464,192,35884,1,0,0:0:0:0:
464,160,35952,1,0,0:0:0:0:
464,192,36020,6,0,L|464:80,1,105.000004005432
464,87,36293,1,0,0:0:0:0:
256,192,36429,2,0,L|256:80,1,105.000004005432
256,87,36702,1,0,0:0:0:0:
48,87,36839,1,0,0:0:0:0:
48,103,36907,1,0,0:0:0:0:
48,86,36975,1,0,0:0:0:0:
48,103,37043,1,0,0:0:0:0:
48,192,37111,38,0,L|48:80,1,105.000004005432
120,192,37384,1,0,0:0:0:0:
256,192,37520,2,0,L|256:80,1,105.000004005432
328,192,37793,1,0,0:0:0:0:
392,192,37929,1,0,0:0:0:0:
392,176,37998,1,0,0:0:0:0:
392,192,38066,1,0,0:0:0:0:
392,176,38134,1,0,0:0:0:0:
464,192,38202,6,0,L|464:64,1,105.000004005432
464,232,38475,1,0,0:0:0:0:
256,192,38611,2,0,L|256:80,1,105.000004005432
256,232,38884,1,0,0:0:0:0:
48,232,39020,1,0,0:0:0:0:
48,208,39089,1,0,0:0:0:0:
48,232,39157,1,0,0:0:0:0:
48,208,39225,1,0,0:0:0:0:
48,192,39293,38,0,L|48:72,1,105.000004005432
48,192,39565,1,0,0:0:0:0:
256,192,39702,2,0,L|256:72,1,105.000004005432
256,192,39974,1,0,0:0:0:0:
464,192,40111,1,0,0:0:0:0:
464,160,40179,1,0,0:0:0:0:
464,192,40247,1,0,0:0:0:0:
464,160,40315,1,0,0:0:0:0:
464,192,40383,6,0,L|464:80,1,105.000004005432
464,87,40656,1,0,0:0:0:0:
256,192,40792,2,0,L|256:80,1,105.000004005432
256,87,41065,1,0,0:0:0:0:
48,87,41202,1,0,0:0:0:0:
48,103,41270,1,0,0:0:0:0:
48,86,41338,1,0,0:0:0:0:
48,103,41406,1,0,0:0:0:0:
48,192,41474,38,0,L|48:80,1,105.000004005432
120,192,41747,1,0,0:0:0:0:
256,192,41883,2,0,L|256:80,1,105.000004005432
328,192,42156,1,0,0:0:0:0:
392,192,42292,1,0,0:0:0:0:
392,176,42361,1,0,0:0:0:0:
392,192,42429,1,0,0:0:0:0:
392,176,42497,1,0,0:0:0:0:
464,192,42565,6,0,L|464:64,1,105.000004005432
464,232,42838,1,0,0:0:0:0:
256,192,42974,2,0,L|256:80,1,105.000004005432
256,232,43247,1,0,0:0:0:0:
48,232,43383,1,0,0:0:0:0:
48,208,43452,1,0,0:0:0:0:
48,232,43520,1,0,0:0:0:0:
48,208,43588,1,0,0:0:0:0:
48,192,43657,38,0,L|48:72,1,105.000004005432
48,192,43929,1,0,0:0:0:0:
256,192,44066,2,0,L|256:72,1,105.000004005432
256,192,44338,1,0,0:0:0:0:
464,192,44475,1,0,0:0:0:0:
464,160,44543,1,0,0:0:0:0:
464,192,44611,1,0,0:0:0:0:
464,160,44679,1,0,0:0:0:0:
464,192,44747,6,0,L|464:80,1,105.000004005432
464,87,45020,1,0,0:0:0:0:
256,192,45156,2,0,L|256:80,1,105.000004005432
256,87,45429,1,0,0:0:0:0:
48,87,45566,1,0,0:0:0:0:
48,103,45634,1,0,0:0:0:0:
48,86,45702,1,0,0:0:0:0:
48,103,45770,1,0,0:0:0:0:
48,192,45838,38,0,L|48:80,1,105.000004005432
120,192,46111,1,0,0:0:0:0:
256,192,46247,2,0,L|256:80,1,105.000004005432
328,192,46520,1,0,0:0:0:0:
392,192,46656,1,0,0:0:0:0:
392,176,46725,1,0,0:0:0:0:
392,192,46793,1,0,0:0:0:0:
392,176,46861,1,0,0:0:0:0:
464,192,46929,6,0,L|464:64,1,105.000004005432
464,232,47202,1,0,0:0:0:0:
256,192,47338,2,0,L|256:80,1,105.000004005432
256,232,47611,1,0,0:0:0:0:
48,232,47747,1,0,0:0:0:0:
48,208,47816,1,0,0:0:0:0:
48,232,47884,1,0,0:0:0:0:
48,208,47952,1,0,0:0:0:0:
48,192,48020,38,0,L|48:72,1,105.000004005432
48,192,48292,1,0,0:0:0:0:
256,192,48429,2,0,L|256:72,1,105.000004005432
256,192,48701,1,0,0:0:0:0:
464,192,48838,1,0,0:0:0:0:
464,160,48906,1,0,0:0:0:0:
464,192,48974,1,0,0:0:0:0:
464,160,49042,1,0,0:0:0:0:
464,192,49110,6,0,L|464:80,1,105.000004005432
464,87,49383,1,0,0:0:0:0:
256,192,49519,2,0,L|256:80,1,105.000004005432
256,87,49792,1,0,0:0:0:0:
48,87,49929,1,0,0:0:0:0:
48,103,49997,1,0,0:0:0:0:
48,86,50065,1,0,0:0:0:0:
48,103,50133,1,0,0:0:0:0:
48,192,50202,38,0,L|48:80,1,105.000004005432
120,192,50475,1,0,0:0:0:0:
256,192,50611,2,0,L|256:80,1,105.000004005432
328,192,50884,1,0,0:0:0:0:
256,192,51020,1,0,0:0:0:0:
256,176,51089,1,0,0:0:0:0:
256,192,51157,1,0,0:0:0:0:
256,176,51225,5,0,0:0:0:0:
256,192,51293,5,0,0:0:0:0:
256,192,51429,5,0,0:0:0:0:
256,192,51497,37,0,0:0:0:0:
256,192,51565,5,0,0:0:0:0:
256,192,51701,37,0,0:0:0:0:
256,192,51837,2,0,P|200:176|176:120,1,105
184,144,52109,6,0,L|184:120,1,17.5
184,144,52177,22,0,L|184:120,1,23.3450006091301
184,144,52246,38,2,L|184:112,1,29.172499816381
184,144,52314,2,2,L|184:96,1,35
184,144,52382,6,0,B|256:112|328:208|400:144,1,210.000008010865
386,154,52791,1,0,0:0:0:0:
386,49,52927,2,0,L|386:177,1,105.000004005432
280,152,53200,1,0,0:0:0:0:
272,168,53268,1,0,0:0:0:0:
264,192,53336,1,0,0:0:0:0:
272,208,53404,1,0,0:0:0:0:
288,224,53472,38,0,P|280:280|272:208,1,210.000008010865
223,209,53881,1,0,0:0:0:0:
224,112,54018,2,0,L|344:128,1,105.000004005432
328,125,54291,1,0,0:0:0:0:
352,88,54359,1,0,0:0:0:0:
376,128,54427,1,0,0:0:0:0:
400,160,54495,1,0,0:0:0:0:
376,200,54563,6,0,P|304:200|384:232,1,210.000008010865
432,264,54972,1,0,0:0:0:0:
432,192,55109,2,0,L|432:72,1,105.000004005432
432,87,55381,1,0,0:0:0:0:
416,88,55450,1,0,0:0:0:0:
400,88,55518,1,0,0:0:0:0:
384,88,55586,1,0,0:0:0:0:
368,88,55654,38,0,B|288:88|208:120|208:120|208:128,1,157.500006008148
214,117,55927,2,8,B|240:256|240:256|152:288|64:240,1,315.000012016297
96,160,56472,1,0,0:0:0:0:
88,144,56541,1,0,0:0:0:0:
200,160,56609,1,0,0:0:0:0:
208,144,56677,1,0,0:0:0:0:
143,91,56745,6,0,P|144:200|216:268,1,210.000008010865
212,266,57154,1,0,0:0:0:0:
315,223,57291,2,0,L|208:232,1,105.000004005432
212,266,57563,1,0,0:0:0:0:
212,234,57631,1,0,0:0:0:0:
212,266,57700,1,0,0:0:0:0:
212,234,57768,1,0,0:0:0:0:
212,266,57836,38,0,B|292:287|362:224|362:224|309:224,1,210.000008010865
314,224,58245,1,0,0:0:0:0:
256,32,58381,2,0,L|240:176,1,105.000004005432
400,80,58654,1,0,0:0:0:0:
384,80,58722,1,0,0:0:0:0:
368,80,58791,1,0,0:0:0:0:
352,80,58859,1,0,0:0:0:0:
336,80,58927,6,0,L|96:80,1,210.000008010865
128,160,59336,1,0,0:0:0:0:
224,160,59472,2,0,B|304:112|336:192|336:192|304:288,1,210.000008010865,0|8,0:0|0:0,0:0:0:0:
272,288,59813,1,0,0:0:0:0:
224,272,59881,1,0,0:0:0:0:
208,224,59950,1,0,0:0:0:0:
208,176,60018,38,8,L|320:112,1,105.000004005432,8|0,0:0|0:0,0:0:0:0:
272,48,60291,2,8,B|384:80|368:208|368:208|448:288,1,315.000012016297
448,256,60836,1,0,0:0:0:0:
416,224,60904,1,0,0:0:0:0:
384,192,60972,1,0,0:0:0:0:
352,160,61041,1,0,0:0:0:0:
320,128,61109,6,0,B|256:64|192:128|128:48,1,210.000008010865
131,52,61518,1,0,0:0:0:0:
96,128,61654,2,0,P|144:160|192:160,1,105.000004005432
189,160,61927,2,0,L|189:288,1,105.000004005432
189,265,62200,38,0,B|304:256|352:192|352:192|256:80,1,315.000012016297
266,92,62745,2,0,L|336:176,1,105.000004005432
291,237,63018,2,0,P|252:255|184:265,1,105.000004005432
176,96,63291,6,0,B|288:128|384:128|384:128|384:192|464:192|432:272|304:128|304:272,1,420.000016021729
307,240,63972,1,0,0:0:0:0:
224,224,64109,1,8,0:0:0:0:
192,256,64177,1,0,0:0:0:0:
160,256,64245,1,0,0:0:0:0:
128,256,64313,1,0,0:0:0:0:
96,224,64381,38,8,L|64:352,1,105.000004005432,8|0,0:0|0:0,0:0:0:0:
192,256,64654,2,8,B|288:192|288:32|288:32|384:32,1,315.000012016297
348,32,65200,1,0,0:0:0:0:
348,64,65268,1,0,0:0:0:0:
348,96,65336,1,0,0:0:0:0:
348,128,65404,1,0,0:0:0:0:
348,160,65472,6,0,P|380:224|412:128,1,210.000008010865
435,143,65881,1,0,0:0:0:0:
425,261,66018,2,0,L|314:291,1,105.000004005432
256,224,66291,1,0,0:0:0:0:
224,192,66359,1,0,0:0:0:0:
192,224,66427,1,0,0:0:0:0:
160,192,66495,1,0,0:0:0:0:
128,224,66563,38,0,B|64:192|64:192|64:128|160:64,1,210.000008010865
137,80,66972,1,0,0:0:0:0:
256,160,67109,2,0,L|384:128,1,105.000004005432
384,224,67381,1,0,0:0:0:0:
338,224,67450,1,0,0:0:0:0:
338,269,67518,1,0,0:0:0:0:
293,269,67586,1,0,0:0:0:0:
338,269,67654,6,0,B|320:192|288:128|192:192,1,210.000008010865
195,189,68063,1,0,0:0:0:0:
338,269,68200,2,0,L|367:157,1,105.000004005432
352,64,68472,1,8,0:0:0:0:
320,96,68541,1,0,0:0:0:0:
288,96,68609,1,0,0:0:0:0:
256,96,68677,1,0,0:0:0:0:
224,64,68745,2,0,L|192:192,1,105.000004005432,8|0,0:0|0:0,0:0:0:0:
352,64,69018,2,8,B|320:160|320:160|304:192,1,105.000004005432,8|0,0:0|0:0,0:0:0:0:
352,64,69290,5,8,0:0:0:0:
320,96,69359,1,8,0:0:0:0:
288,96,69426,1,8,0:0:0:0:
256,96,69494,1,8,0:0:0:0:
224,64,69563,1,8,0:0:0:0:
198,165,69631,1,8,0:0:0:0:
352,64,69700,1,8,0:0:0:0:
318,163,69768,1,8,0:0:0:0:
368,136,69836,38,0,L|352:128,1,17.5
361,83,70381,1,0,0:0:0:0:
359,91,70518,2,0,L|361:109,1,17.5
352,110,70927,2,0,L|336:118,1,17.5
339,126,71336,2,0,L|343:144,1,17.5
334,141,71745,1,0,0:0:0:0:
316,138,72018,1,0,0:0:0:0:
307,139,72154,2,0,L|306:158,1,17.5
298,151,72563,2,0,L|296:140,2,8.75
280,150,73109,1,0,0:0:0:0:
271,150,73245,2,0,L|253:147,2,17.5
264,156,73927,1,0,0:0:0:0:
257,161,74063,1,0,0:0:0:0:
252,168,74200,38,0,L|232:164,2,17.5
252,176,74881,2,0,L|252:194,1,17.5
260,191,75291,2,0,L|277:196,1,17.5
282,189,75700,2,0,L|296:202,1,17.5
294,192,76109,1,0,0:0:0:0:
306,180,76381,1,0,0:0:0:0:
314,180,76518,2,0,L|317:198,2,17.5
309,172,77200,1,0,0:0:0:0:
326,172,77472,1,0,0:0:0:0:
333,176,77609,2,0,L|343:192,1,17.5
256,344,78018,5,0,0:0:0:0:
256,344,78154,1,2,0:0:0:0:
256,272,78222,1,0,0:0:0:0:
256,200,78291,2,0,P|288:176|328:280,1,140,2|0,0:0|0:0,0:0:0:0:
104,193,78563,38,0,P|138:146|268:64,1,210.000008010865,0|0,0:0|2:0,0:0:0:0:
416,64,78972,2,0,P|323:112|255:191,1,210.000008010865,0|0,0:0|2:0,0:0:0:0:
104,192,79381,1,0,0:0:0:0:
144,192,79450,1,0,0:0:0:0:
176,192,79518,1,0,0:0:0:0:
216,192,79586,1,0,0:0:0:0:
256,191,79654,6,0,P|324:112|416:64,1,210.000008010865,0|0,0:0|2:0,0:0:0:0:
264,65,80063,2,0,P|172:113|104:192,1,210.000008010865,0|0,0:0|2:0,0:0:0:0:
256,191,80472,1,0,0:0:0:0:
216,191,80540,1,0,0:0:0:0:
184,191,80608,1,0,0:0:0:0:
144,191,80677,1,0,0:0:0:0:
104,191,80745,38,0,P|138:238|268:320,1,210.000008010865,0|0,0:0|2:0,0:0:0:0:
416,319,81154,2,0,P|324:271|256:192,1,210.000008010865,0|0,0:0|2:0,0:0:0:0:
104,192,81563,1,0,0:0:0:0:
144,192,81632,1,0,0:0:0:0:
176,192,81700,1,0,0:0:0:0:
216,192,81768,1,0,0:0:0:0:
256,192,81836,6,0,P|324:271|416:319,1,210.000008010865,0|0,0:0|2:0,0:0:0:0:
264,318,82245,2,0,P|172:270|104:191,1,210.000008010865,0|0,0:0|2:0,0:0:0:0:
256,192,82654,1,0,0:0:0:0:
224,168,82722,1,0,0:0:0:0:
192,192,82791,1,0,0:0:0:0:
160,168,82859,1,0,0:0:0:0:
128,192,82927,38,0,B|160:144|160:144|192:184|192:184|224:144|224:144|256:192,1,210.000008010865,0|0,0:0|2:3,0:0:0:0:
251,185,83336,2,0,B|224:144|224:144|192:184|192:184|160:144|160:144|128:192,1,210.000008010865,0|0,0:0|2:3,0:0:0:0:
128,192,83745,1,0,0:0:0:0:
160,240,83813,1,0,0:0:0:0:
192,200,83881,1,0,0:0:0:0:
224,240,83950,1,0,0:0:0:0:
251,185,84018,6,0,B|224:144|224:144|192:184|192:184|160:144|160:144|128:192,1,210.000008010865,0|0,0:0|2:3,0:0:0:0:
128,192,84427,2,0,B|160:144|160:144|192:184|192:184|224:144|224:144|251:185,1,210.000008010865,0|0,0:0|2:3,0:0:0:0:
256,192,84836,1,0,0:0:0:0:
224,240,84904,1,0,0:0:0:0:
192,200,84973,1,0,0:0:0:0:
160,240,85041,1,0,0:0:0:0:
384,192,85109,38,0,B|352:144|352:144|320:184|320:184|288:144|288:144|256:192,1,210.000008010865,0|0,0:0|2:3,0:0:0:0:
260,185,85518,2,0,B|288:144|288:144|320:184|320:184|352:144|352:144|384:192,1,210.000008010865,0|0,0:0|2:3,0:0:0:0:
384,192,85927,1,0,0:0:0:0:
352,240,85995,1,0,0:0:0:0:
320,200,86063,1,0,0:0:0:0:
288,240,86132,1,0,0:0:0:0:
260,185,86200,6,0,B|288:144|288:144|320:184|320:184|352:144|352:144|384:192,1,210.000008010865,0|0,0:0|2:3,0:0:0:0:
384,192,86609,2,0,B|352:144|352:144|320:184|320:184|288:144|288:144|260:185,1,210.000008010865,0|0,0:0|2:3,0:0:0:0:
256,192,87018,1,0,0:0:0:0:
288,240,87086,1,0,0:0:0:0:
320,200,87155,1,0,0:0:0:0:
352,240,87223,1,0,0:0:0:0:
256,192,87291,37,0,0:0:0:0:
256,192,87563,1,0,2:0:0:0:
256,192,87700,1,0,0:0:0:0:
256,192,87972,1,0,2:0:0:0:
256,192,88109,1,0,0:0:0:0:
256,192,88177,1,0,2:0:0:0:
256,192,88245,1,0,0:0:0:0:
256,192,88313,1,0,2:0:0:0:
256,192,88381,5,0,0:0:0:0:
256,192,88653,1,0,2:0:0:0:
256,192,88790,1,0,0:0:0:0:
256,192,89062,1,0,2:0:0:0:
256,192,89199,1,0,0:0:0:0:
256,192,89267,1,0,2:0:0:0:
256,192,89335,1,0,0:0:0:0:
256,192,89403,1,0,2:0:0:0:
256,192,89472,37,0,0:0:0:0:
256,192,89744,1,0,2:0:0:0:
256,192,89881,1,0,0:0:0:0:
256,192,90153,1,0,2:0:0:0:
256,192,90290,1,0,0:0:0:0:
256,192,90358,1,0,2:0:0:0:
256,192,90426,1,0,0:0:0:0:
256,192,90494,1,0,2:0:0:0:
256,192,90562,5,0,0:0:0:0:
256,192,90834,1,0,2:0:0:0:
256,192,90971,1,0,0:0:0:0:
256,192,91243,1,0,2:0:0:0:
256,192,91380,1,0,0:0:0:0:
256,192,91448,1,0,2:0:0:0:
256,192,91516,1,0,0:0:0:0:
256,192,91584,1,0,2:0:0:0:
176,192,91654,38,0,L|32:32,1,210.000008010865,0|0,0:0|2:0,0:0:0:0:
336,192,92063,2,0,L|480:32,1,210.000008010865,0|0,0:0|2:0,0:0:0:0:
208,192,92472,1,0,0:0:0:0:
200,168,92541,1,0,2:0:0:0:
192,192,92609,1,0,0:0:0:0:
184,168,92677,1,0,2:0:0:0:
176,192,92745,6,0,L|32:32,1,210.000008010865,0|0,0:0|2:0,0:0:0:0:
336,192,93154,2,0,L|480:32,1,210.000008010865,0|0,0:0|2:0,0:0:0:0:
32,32,93859,5,0,0:0:0:0:
32,32,93995,1,0,0:0:0:0:
32,32,94132,1,0,0:0:0:0:
112,352,94268,1,0,0:0:0:0:
256,352,94404,2,0,L|256:336,6,14.5833333333333
320,264,94654,1,0,0:0:0:0:
320,264,94722,1,0,0:0:0:0:
344,352,94791,1,0,0:0:0:0:
344,352,94859,1,0,0:0:0:0:
408,352,94927,5,0,0:0:0:0:
408,352,95063,1,0,0:0:0:0:
408,352,95131,1,0,0:0:0:0:
408,352,95199,1,0,0:0:0:0:
408,352,95335,1,0,0:0:0:0:
408,352,95471,2,0,L|408:200,1,151.666666666667
480,272,95902,1,0,0:0:0:0:
456,192,96016,6,0,L|456:48,1,140,0|0,0:0|2:0,0:0:0:0:
384,192,96425,2,0,L|384:48,1,140,0|0,0:0|2:0,0:0:0:0:
312,192,96834,2,0,L|312:136,3,35,0|0|0|0,0:0|2:0|0:0|2:0,0:0:0:0:
240,192,97106,2,0,L|240:48,1,140,0|0,0:0|2:0,0:0:0:0:
168,192,97515,2,0,L|168:40,1,140,0|0,0:0|2:0,0:0:0:0:
96,192,97925,2,0,L|96:136,3,35,0|0|0|0,0:0|2:0|0:0|2:0,0:0:0:0:
56,192,98197,6,0,L|56:48,1,140,0|0,0:0|2:0,0:0:0:0:
128,192,98606,2,0,L|128:48,1,140,0|0,0:0|2:0,0:0:0:0:
200,192,99015,2,0,L|200:136,3,35,0|0|0|0,0:0|2:0|0:0|2:0,0:0:0:0:
272,192,99287,2,0,L|272:48,1,140,0|0,0:0|2:0,0:0:0:0:
344,192,99696,2,0,L|344:40,1,140,0|0,0:0|2:0,0:0:0:0:
416,192,100106,2,0,L|416:136,3,35,0|0|0|0,0:0|0:0|2:0|2:0,0:0:0:0:
456,192,100379,38,0,L|456:48,1,140,0|0,0:0|2:0,0:0:0:0:
384,192,100788,2,0,L|384:48,1,140,0|0,0:0|2:0,0:0:0:0:
312,192,101197,2,0,L|312:152,1,35,0|0,0:0|2:0,0:0:0:0:
312,192,101334,2,0,L|312:152,1,35,0|0,0:0|2:0,0:0:0:0:
240,192,101469,2,0,L|240:48,1,140,0|0,0:0|2:0,0:0:0:0:
168,192,101878,2,0,L|168:40,1,140,0|0,0:0|2:0,0:0:0:0:
96,192,102288,2,0,L|96:152,1,35,0|0,0:0|2:0,0:0:0:0:
96,192,102425,2,0,L|96:152,1,35,0|0,0:0|2:0,0:0:0:0:
56,192,102561,6,0,L|56:48,1,140,0|0,0:0|2:0,0:0:0:0:
128,192,102970,2,0,L|128:48,1,140,0|0,0:0|2:0,0:0:0:0:
200,192,103379,2,0,L|200:152,1,35,0|0,0:0|2:0,0:0:0:0:
200,192,103516,2,0,L|200:152,1,35,0|0,0:0|2:0,0:0:0:0:
272,192,103651,2,0,L|272:48,1,140,0|0,0:0|2:0,0:0:0:0:
344,192,104060,2,0,L|344:40,1,140,0|0,0:0|2:0,0:0:0:0:
416,192,104470,2,0,L|416:152,1,35
416,192,104606,2,0,L|416:144,1,35
256,192,104743,12,0,108834,0:0:0:0:
32,32,109106,38,0,B|480:32|480:32|480:136|480:136|32:136|32:136|32:240|32:240|472:240|472:240|472:352|472:352|448:352,1,1680
256,192,112447,12,0,113470,0:0:0:0:
256,192,130652,5,0,0:0:0:0:
256,176,130788,2,0,L|280:208,1,35
256,256,131743,1,0,0:0:0:0:
256,240,131879,2,0,L|256:280,1,35
288,192,132834,1,0,0:0:0:0:
304,192,132970,2,0,L|344:192,1,35
256,160,133925,1,0,0:0:0:0:
256,144,134061,2,0,L|256:104,1,35
256,88,134470,1,0,0:0:0:0:
288,88,134743,2,0,L|328:88,1,35
344,88,135152,1,0,0:0:0:0:
360,88,135288,37,0,0:0:0:0:
256,96,136106,1,0,0:0:0:0:
256,112,136243,2,0,L|256:152,1,35
256,168,136652,2,0,L|256:208,1,35
256,240,137197,1,0,0:0:0:0:
256,256,137334,1,0,0:0:0:0:
456,144,139106,1,0,0:0:0:0:
435,144,139243,1,0,0:0:0:0:
384,120,139652,6,0,L|344:128,1,35
280,128,140470,1,0,0:0:0:0:
264,128,140606,2,0,L|224:120,1,35
144,144,141561,1,0,0:0:0:0:
160,152,141697,1,0,0:0:0:0:
192,168,141970,2,0,L|240:96,1,87.5
256,96,142788,2,0,L|272:128,1,35
280,144,143197,1,0,0:0:0:0:
248,144,143470,2,0,L|240:184,1,35
224,176,143879,1,0,0:0:0:0:
208,176,144015,2,0,L|104:208,1,105
112,224,144970,1,0,0:0:0:0:
128,224,145106,38,0,L|128:200,2,17.5
160,224,145652,2,0,L|200:216,1,35
208,200,146061,1,0,0:0:0:0:
216,184,146197,2,0,P|246:160|208:184,1,210
212,148,147970,2,0,B|211:147|211:147|214:149|214:149|214:146|214:146|212:150|212:150|213:151|213:151|213:148|213:148|215:149|215:149|210:150|210:150|215:148|215:148|212:151|212:151|216:148|216:148|210:149|210:149|215:153|215:153|214:148,1,52.5
344,200,148515,5,0,0:0:0:0:
432,88,148652,2,0,P|344:56|272:48,1,140
200,144,148925,1,0,0:0:0:0:
280,256,149061,1,0,0:0:0:0:
384,160,149197,1,0,0:0:0:0:
400,128,149265,1,0,0:0:0:0:
408,96,149334,1,0,0:0:0:0:
384,72,149402,1,0,0:0:0:0:
352,80,149470,38,0,P|264:104|224:192,1,140
200,280,149743,2,0,L|176:88,1,140
200,280,150015,2,0,B|280:280|280:280|344:240,1,140
256,128,150288,1,0,0:0:0:0:
280,120,150356,1,0,0:0:0:0:
312,120,150425,1,0,0:0:0:0:
336,136,150493,1,0,0:0:0:0:
336,160,150561,6,0,L|296:296,1,140
192,200,150834,1,0,0:0:0:0:
56,240,150970,1,0,0:0:0:0:
136,128,151106,2,0,L|264:208,1,140
152,304,151379,1,0,0:0:0:0:
160,280,151447,1,0,0:0:0:0:
144,256,151515,1,0,0:0:0:0:
128,240,151584,1,0,0:0:0:0:
112,248,151652,38,0,B|96:160|96:160|192:208,1,140
280,168,151925,1,0,0:0:0:0:
168,88,152061,1,0,0:0:0:0:
152,224,152197,2,0,L|296:160,1,140
376,272,152470,1,0,0:0:0:0:
384,224,152538,1,0,0:0:0:0:
344,200,152606,1,0,0:0:0:0:
296,208,152675,1,0,0:0:0:0:
256,240,152743,6,0,L|64:224,1,140
156,25,153015,1,0,0:0:0:0:
449,188,153152,1,0,0:0:0:0:
161,361,153288,2,0,P|96:304|88:200,1,140
200,176,153561,1,0,0:0:0:0:
208,176,153629,1,0,0:0:0:0:
216,176,153697,1,0,0:0:0:0:
224,176,153765,1,0,0:0:0:0:
232,176,153834,38,0,P|264:96|312:56,1,140
336,200,154106,1,0,0:0:0:0:
240,96,154243,1,0,0:0:0:0:
201,237,154379,2,0,L|345:197,1,140
424,160,154652,1,0,0:0:0:0:
448,184,154720,1,0,0:0:0:0:
424,208,154788,1,0,0:0:0:0:
400,184,154856,1,0,0:0:0:0:
424,160,154925,6,0,B|416:128|416:128|312:96,1,140
256,152,155197,1,0,0:0:0:0:
326,273,155334,1,0,0:0:0:0:
186,273,155470,1,0,0:0:0:0:
256,152,155606,1,0,0:0:0:0:
256,80,155743,37,0,0:0:0:0:
396,322,155879,1,0,0:0:0:0:
115,322,156015,1,0,0:0:0:0:
256,80,156152,1,0,0:0:0:0:
256,8,156288,5,0,0:0:0:0:
456,376,156424,1,0,0:0:0:0:
56,376,156560,1,0,0:0:0:0:
256,8,156697,1,0,0:0:0:0:
256,192,156834,2,0,L|256:120,2,70
24,152,157106,38,0,B|152:152|152:152|88:152|88:152|88:296,1,280
88,240,157515,1,0,0:0:0:0:
200,240,157652,2,0,B|200:144|200:144|256:144|288:160|288:168|256:192|256:192|248:192|248:192|288:240,1,280
284,236,158061,1,0,0:0:0:0:
368,168,158197,6,0,L|368:248,2,70
432,200,158470,2,0,L|504:200,2,70
104,328,158743,2,0,B|256:328|256:328|256:192,1,280
168,312,159152,2,0,B|168:240|168:240|256:240,1,140
304,240,159425,2,0,P|344:168|448:144,1,140
328,112,159697,1,0,0:0:0:0:
256,192,159834,2,0,B|256:176|256:176|256:208|256:208|256:160|256:160|256:224|256:224|256:168|256:168|256:216|256:216|256:184|256:184|256:200|256:200|256:149|256:149|256:226|256:226|256:133|256:133|256:244|256:244|256:140|256:140|256:249|256:249|256:155|256:155|256:248|256:248|256:136|256:136|256:240|256:240|256:144|256:144|256:232|256:232|256:152|256:152|256:237|256:237|256:189,1,1400
256,192,160175,2,0,B|256:0|256:0|256:382|256:382|256:184,1,700
256,192,160246,2,0,B|256:0|256:0|256:384|256:384|256:184,1,700
256,192,160306,2,0,B|256:0|256:0|256:384|256:384|256:184,1,700
256,192,160379,37,0,0:0:0:0:
360,96,160515,1,0,0:0:0:0:
368,232,160651,1,0,0:0:0:0:
224,240,160788,1,0,0:0:0:0:
168,152,160924,2,0,L|120:312,1,140
240,200,161197,1,0,0:0:0:0:
248,192,161265,1,0,0:0:0:0:
256,200,161333,1,0,0:0:0:0:
264,192,161401,1,0,0:0:0:0:
272,200,161469,6,0,P|296:120|352:40,1,140
324,71,161742,1,0,0:0:0:0:
324,71,161878,1,0,0:0:0:0:
464,72,162015,2,0,B|424:144|424:144|424:208,1,140
304,272,162288,1,0,0:0:0:0:
272,264,162356,1,0,0:0:0:0:
240,256,162424,1,0,0:0:0:0:
208,248,162492,1,0,0:0:0:0:
176,240,162560,38,0,P|128:208|104:112,1,140
168,128,162833,1,0,0:0:0:0:
240,120,162969,1,0,0:0:0:0:
312,136,163106,6,0,B|288:208|288:208|232:248,1,140
192,192,163379,38,0,L|192:144,1,35
256,192,163652,22,8,L|256:152,7,35,8|8|8|8|8|8|8|8,3:0|3:0|3:0|3:0|3:0|3:0|3:0|3:0,3:0:0:0:
296,192,164197,2,8,L|296:152,10,35,8|8|8|8|8|8|8|8|8|8|8,3:0|3:0|3:0|3:0|3:0|3:0|3:0|3:0|3:0|3:0|3:0,3:0:0:0:
328,192,164743,2,0,L|328:152,6,35
352,192,165015,2,0,L|352:152,10,35.0000013351441
368,192,165288,2,0,L|368:152,10,35.0000013351441
384,192,165561,2,2,L|384:104,12,87.5,2|2|2|2|2|2|2|2|2|2|2|2|2,3:0|3:0|3:0|3:0|3:0|3:0|3:0|3:0|3:0|3:0|3:0|3:0|3:0,3:0:0:0:
416,192,165833,21,8,0:0:0:0:
384,144,165969,1,8,0:0:0:0:
344,192,166106,1,8,0:0:0:0:
312,144,166242,2,8,L|288:176,1,35,8|8,0:0|3:0,0:0:0:0:
240,144,166515,1,8,0:0:0:0:
208,192,166651,1,8,0:0:0:0:
176,144,166788,1,8,0:0:0:0:
152,192,166924,5,8,0:0:0:0:
152,248,167060,1,8,0:0:0:0:
208,248,167197,1,8,0:0:0:0:
264,248,167333,2,8,L|304:248,1,35,8|8,0:0|3:0,3:0:0:0:
352,248,167606,1,8,0:0:0:0:
408,248,167742,1,8,0:0:0:0:
464,248,167878,1,8,0:0:0:0:
464,192,168015,38,0,L|464:144,1,35,0|0,0:0|3:0,0:0:0:0:
464,192,168288,1,0,0:0:0:0:
408,192,168424,2,0,L|408:144,1,35,0|8,0:0|3:0,0:0:0:0:
408,192,168697,1,0,0:0:0:0:
368,152,168833,1,0,0:0:0:0:
328,192,168969,1,0,0:0:0:0:
288,152,169106,2,0,L|256:184,3,35,0|0|0|0,0:0|3:0|3:0|3:0,0:0:0:0:
208,176,169651,2,0,L|183:151,3,35,8|0|0|0,3:0|3:0|3:0|3:0,0:0:0:0:
152,176,170197,5,0,0:0:0:0:
152,120,170333,1,0,0:0:0:0:
208,120,170469,1,0,0:0:0:0:
248,160,170606,2,0,L|272:120,1,35,0|8,0:0|3:0,0:0:0:0:
320,128,170878,1,0,0:0:0:0:
376,128,171015,1,0,0:0:0:0:
432,128,171151,1,0,0:0:0:0:
432,184,171288,37,0,0:0:0:0:
432,240,171424,1,0,0:0:0:0:
432,296,171560,1,0,0:0:0:0:
376,296,171697,2,0,L|336:296,1,35,0|8,0:0|3:0,0:0:0:0:
328,240,171969,1,0,0:0:0:0:
328,184,172106,1,0,0:0:0:0:
328,128,172242,1,0,0:0:0:0:
272,128,172378,6,0,L|232:128,1,35,0|0,0:0|3:0,0:0:0:0:
272,128,172651,1,0,0:0:0:0:
272,184,172788,2,0,L|232:184,1,35,0|8,0:0|3:0,0:0:0:0:
272,184,173061,1,0,0:0:0:0:
272,240,173197,1,0,0:0:0:0:
272,296,173333,1,0,0:0:0:0:
216,296,173469,5,8,0:0:0:0:
160,296,173606,1,8,0:0:0:0:
160,224,173742,2,8,L|128:224,3,17.5
160,152,174015,2,0,L|136:152,6,17.5,8|0|0|0|0|0|0,3:0|0:0|0:0|0:0|0:0|0:0|0:0,0:0:0:0:
160,80,174288,2,0,L|136:80,14,17.5
192,80,174560,22,0,P|280:64|368:112,1,140
272,248,174833,1,0,0:0:0:0:
96,248,174969,1,0,0:0:0:0:
256,168,175106,2,0,B|272:248|272:248|320:336,1,175,8|0,3:0|0:0,0:0:0:0:
368,160,175378,1,0,0:0:0:0:
360,152,175447,1,0,0:0:0:0:
352,152,175515,1,0,0:0:0:0:
344,160,175583,1,0,0:0:0:0:
336,168,175651,6,0,B|304:160|304:160|272:168|272:168|240:160|240:160|208:168|208:168|176:160|176:160|144:168,1,175
304,272,175924,1,0,0:0:0:0:
408,128,176060,1,0,0:0:0:0:
184,272,176197,2,0,B|120:208|120:208|48:280,1,175,8|0,3:0|0:0,0:0:0:0:
232,272,176469,1,0,0:0:0:0:
232,264,176538,1,0,0:0:0:0:
232,256,176606,1,0,0:0:0:0:
232,248,176674,1,0,0:0:0:0:
232,240,176742,38,0,L|416:240,3,175
232,168,177288,1,8,3:0:0:0:
400,168,177424,1,0,0:0:0:0:
128,96,177560,2,2,L|128:280,1,175,2|0,3:0|0:0,0:0:0:0:
384,96,177833,2,0,L|384:296,1,175,2|0,3:0|0:0,0:0:0:0:
128,96,178106,2,8,B|256:328|256:328|384:96,1,525,4|4,0:0|0:0,3:0:0:0:
256,328,178651,1,0,0:0:0:0:
256,336,178719,1,0,0:0:0:0:
256,344,178788,1,0,0:0:0:0:
256,352,178856,1,0,0:0:0:0:
256,360,178924,6,0,L|256:184,3,175
80,192,179469,1,8,3:0:0:0:
432,192,179606,1,0,0:0:0:0:
256,192,179742,1,0,0:0:0:0:
264,184,179810,1,0,0:0:0:0:
272,176,179878,1,0,0:0:0:0:
280,168,179947,1,0,0:0:0:0:
288,160,180015,38,0,L|488:48,1,175
440,248,180288,2,0,B|288:160|288:160|440:72|440:72|440:248,1,525,4|4,0:0|0:0,0:0:0:0:
384,160,180833,1,0,0:0:0:0:
384,160,180901,1,0,0:0:0:0:
384,160,180969,1,0,0:0:0:0:
384,160,181038,1,0,0:0:0:0:
384,160,181106,6,0,B|360:136|360:136|384:160|384:160|408:136|408:136|384:160|384:160|384:200,3,175
256,80,181651,1,8,3:0:0:0:
256,256,181788,1,0,0:0:0:0:
48,80,181924,2,0,L|112:256,1,175,2|0,2:0|0:0,0:0:0:0:
464,80,182197,2,0,L|400:256,1,175,2|0,2:0|0:0,0:0:0:0:
104,240,182469,2,4,B|256:24|256:24|408:248,1,525
256,240,183015,1,0,0:0:0:0:
256,216,183083,1,0,0:0:0:0:
256,192,183151,1,0,0:0:0:0:
256,168,183219,1,0,0:0:0:0:
256,144,183288,38,0,L|360:0,3,175
358,2,183833,2,0,L|360:184,1,175,8|0,3:0|0:0,0:0:0:0:
359,177,184106,1,0,0:0:0:0:
336,192,184174,1,0,0:0:0:0:
312,208,184242,1,0,0:0:0:0:
288,224,184310,1,0,0:0:0:0:
256,240,184378,6,0,L|80:240,1,175
208,120,184651,1,4,0:0:0:0:
312,264,184788,2,0,L|488:168,1,175,0|8,0:0|3:0,0:0:0:0:
384,24,185060,1,4,0:0:0:0:
480,344,185197,1,0,0:0:0:0:
456,328,185265,1,0,0:0:0:0:
432,312,185333,1,0,0:0:0:0:
408,296,185401,1,0,0:0:0:0:
384,280,185469,38,0,L|144:336,1,175
376,208,185742,2,0,L|136:264,1,175
376,136,186015,1,8,3:0:0:0:
205,175,186151,1,0,0:0:0:0:
200,80,186288,2,0,L|200:264,1,175,2|0,2:0|0:0,0:0:0:0:
312,80,186560,2,0,L|312:256,1,175,2|0,2:0|0:0,0:0:0:0:
200,256,186833,2,4,B|256:312|312:256|312:256|312:80|312:80|256:40|200:80|200:80|200:216,1,525
200,256,187378,1,0,0:0:0:0:
200,240,187447,1,0,0:0:0:0:
200,224,187515,1,0,0:0:0:0:
200,200,187583,1,0,0:0:0:0:
200,176,187651,6,0,L|376:64,3,175
200,104,188197,1,8,3:0:0:0:
344,8,188333,1,0,0:0:0:0:
216,176,188469,1,0,0:0:0:0:
256,152,188538,1,0,0:0:0:0:
288,128,188606,1,0,0:0:0:0:
320,104,188674,1,0,0:0:0:0:
347,82,188742,38,0,L|504:232,1,175
488,384,189015,1,4,0:0:0:0:
352,256,189151,2,0,L|176:256,1,175,0|8,0:0|3:0,0:0:0:0:
176,80,189424,1,4,0:0:0:0:
264,168,189560,1,0,0:0:0:0:
288,144,189628,1,0,0:0:0:0:
320,120,189697,1,0,0:0:0:0:
352,96,189765,1,0,0:0:0:0:
392,80,189833,6,0,P|464:72|472:160,3,175
392,80,190378,2,0,P|396:158|475:156,1,175
256,192,190651,1,2,2:0:0:0:
256,208,190719,1,0,0:0:0:0:
256,224,190788,1,0,0:0:0:0:
256,240,190856,1,0,0:0:0:0:
184,192,190924,2,0,L|184:368,1,175,2|0,2:0|0:0,2:0:0:0:
400,336,191197,1,0,0:0:0:0:
400,184,191333,1,8,0:0:0:0:
256,216,191469,5,8,0:0:0:0:
256,208,191538,1,8,0:0:0:0:
256,200,191606,1,8,0:0:0:0:
256,192,191674,1,8,0:0:0:0:
256,184,191742,1,8,0:0:0:0:
256,176,191810,1,8,0:0:0:0:
256,168,191878,1,8,0:0:0:0:
32,192,192015,22,0,L|32:120,3,70
104,200,192560,2,0,L|104:272,3,70
176,192,193106,2,0,L|176:120,3,70
248,200,193651,2,0,L|248:272,3,70
32,192,194197,6,0,L|32:120,3,70
104,200,194742,2,0,L|104:272,3,70
176,192,195288,2,0,L|176:120,3,70
248,200,195833,2,0,L|248:272,3,70
32,192,196378,38,0,L|32:120,3,70
104,200,196923,2,0,L|104:272,3,70
176,192,197469,2,0,L|176:120,3,70
248,200,198014,2,0,L|248:272,3,70
32,192,198560,6,0,L|32:120,3,70
104,200,199105,2,0,L|104:272,3,70
176,192,199651,2,0,L|176:120,3,70
248,200,200196,2,0,L|248:272,3,70
32,192,200742,37,0,0:0:0:0:
80,136,200878,1,0,0:0:0:0:
128,192,201015,1,0,0:0:0:0:
200,192,201151,1,0,0:0:0:0:
256,144,201288,1,0,0:0:0:0:
312,192,201424,1,0,0:0:0:0:
384,192,201560,1,0,0:0:0:0:
32,136,201833,5,0,0:0:0:0:
80,192,201969,1,0,0:0:0:0:
152,192,202106,1,0,0:0:0:0:
208,136,202242,1,0,0:0:0:0:
232,160,202310,1,0,0:0:0:0:
256,192,202378,1,0,0:0:0:0:
376,136,202651,1,0,0:0:0:0:
32,192,202924,5,0,0:0:0:0:
80,136,203060,1,0,0:0:0:0:
128,192,203197,1,0,0:0:0:0:
200,192,203333,1,0,0:0:0:0:
256,144,203470,1,0,0:0:0:0:
312,192,203606,1,0,0:0:0:0:
384,192,203742,1,0,0:0:0:0:
32,136,204015,5,0,0:0:0:0:
80,192,204151,1,0,0:0:0:0:
152,192,204288,1,0,0:0:0:0:
208,136,204424,1,0,0:0:0:0:
232,160,204492,1,0,0:0:0:0:
256,192,204560,1,0,0:0:0:0:
376,136,204833,1,0,0:0:0:0:
32,192,205106,37,0,0:0:0:0:
80,136,205242,1,0,0:0:0:0:
128,192,205379,1,0,0:0:0:0:
200,192,205515,1,0,0:0:0:0:
256,144,205652,1,0,0:0:0:0:
312,192,205788,1,0,0:0:0:0:
384,192,205924,1,0,0:0:0:0:
32,136,206197,5,0,0:0:0:0:
80,192,206333,1,0,0:0:0:0:
152,192,206470,1,0,0:0:0:0:
208,136,206606,1,0,0:0:0:0:
232,160,206674,1,0,0:0:0:0:
256,192,206742,1,0,0:0:0:0:
376,136,207015,1,0,0:0:0:0:
32,192,207288,6,0,B|104:376|168:192|168:192|256:192|256:192|256:360|368:352|368:352|416:304|416:304|464:352|464:352|464:192|464:192|416:192|336:256|336:256|336:184,1,1050.00004005432,8|0,3:0|3:0,3:0:0:0:
104,192,208106,38,0,B|104:128|104:128|32:128|64:32|64:32|464:32|464:32|464:136|368:112|288:160|288:160|272:88|272:88|224:168|176:96|176:192,1,1050.00004005432,2|0,3:0|3:0,3:0:0:0:
176,192,208924,6,2,B|472:192|472:192|472:160|472:160|472:224|472:224|472:192,1,420.000016021729,2|0,3:0|3:0,0:0:0:0:
336,232,209333,5,2,3:0:0:0:
296,208,209401,1,0,3:0:0:0:
