osu file format v14

[General]
AudioFilename: audio.mp3
AudioLeadIn: 0
PreviewTime: 693767
Countdown: 1
SampleSet: None
StackLeniency: 0
Mode: 0
LetterboxInBreaks: 0
WidescreenStoryboard: 0

[Editor]
DistanceSpacing: 3.9
BeatDivisor: 4
GridSize: 32
TimelineZoom: 1.8

[Metadata]
Title:Because Maybe! Pt. 1
TitleUnicode:Because Maybe! Pt. 1
Artist:Renard
ArtistUnicode:Renard
Creator:mikku1
Version:Droculo
Source:
Tags:breakcore renard ren queenston dave remmler lapfox trax halley labs best of vol. 1 volume because maybe full album go to the party dracula i'm a blind cave salamander sean paul opens a mfing casino with me banned forever wrecka team murder namx sinisterrrrrrrr push cycles smoke tower spacedragonstyle raggamissile bumblefuck fuck your rails too dear spark chelsea smile lets move tu4ar the entire world
BeatmapID:1690309
BeatmapSetID:803645

[Difficulty]
HPDrainRate:3.1
CircleSize:3.3
OverallDifficulty:8
ApproachRate:9.6
SliderMultiplier:1.4
SliderTickRate:1

[Events]
//Background and Video events
0,0,"cover.jpg",0,0
//Break Periods
//Storyboard Layer 0 (Background)
//Storyboard Layer 1 (Fail)
//Storyboard Layer 2 (Pass)
//Storyboard Layer 3 (Foreground)
//Storyboard Sound Samples

[TimingPoints]
39.8855580729144,272.727142857144,4,1,0,100,1,0
8767,-100,4,2,0,100,0,0
10948,-100,4,1,0,100,0,0
17477,272.727142857144,4,1,0,100,1,0
25658,272.727142857144,4,1,0,100,1,0
25658,-50,4,1,0,100,0,0
25721,-52.6315789473684,4,1,0,100,0,0
25766,-55.5555555555556,4,1,0,100,0,0
25812,-58.8235294117647,4,1,0,100,0,0
25857,-62.5,4,1,0,100,0,0
25903,-66.6666666666667,4,1,0,100,0,0
25948,-71.4285714285714,4,1,0,100,0,0
25994,-76.9230769230769,4,1,0,100,0,0
26039,-83.3333333333333,4,1,0,100,0,0
26085,-90.9090909090909,4,1,0,100,0,0
26130,-93.7500585937866,4,1,0,100,0,0
26175,-96.7741935483871,4,1,0,100,0,0
26210,272.727142857144,4,1,0,100,1,0
27846,-50,4,1,0,100,0,0
28391,-100,4,1,0,100,0,0
29209,-66.6666666666667,4,1,0,100,0,0
29755,-50,4,1,0,100,0,0
30573,-100,4,1,0,100,0,0
33857,272.727142857144,4,1,0,100,1,0
33993,272.727142857144,4,1,0,100,1,0
34061,272.727142857144,4,1,0,100,1,0
34129,272.727142857144,4,1,0,100,1,0
34265,272.727142857144,4,1,0,100,1,0
34401,272.727142857144,4,1,0,100,1,0
34930,272.727142857144,4,1,0,100,1,0
34930,-66.6666666666667,4,1,0,100,0,0
51293,272.727142857144,4,1,0,100,1,0
51429,272.727142857144,4,1,0,100,1,0
51497,272.727142857144,4,1,0,100,1,0
51565,272.727142857144,4,1,0,100,1,0
51701,272.727142857144,4,1,0,100,1,0
51837,272.727142857144,4,1,0,100,1,0
51973,-100,4,3,4,5,0,0
52177,-74.9625187406297,4,1,0,33,0,0
52246,-59.9880023995201,4,1,0,67,0,0
52314,-50,4,1,0,100,0,0
52382,272.727142857144,4,1,0,100,1,0
52382,-66.6666666666667,4,1,0,100,0,0
69836,-800,4,1,0,100,0,0
78291,-50,4,1,0,100,0,0
78563,-66.6666666666667,4,1,0,100,0,0
93839,-50,4,1,0,100,0,0
94109,-66.6666666666667,4,1,0,100,0,0
94381,-80,4,1,0,100,0,0
94654,-100,4,1,0,100,0,0
94927,272.727142857144,4,1,0,100,1,0
95063,272.727142857144,4,1,0,100,1,0
95131,272.727142857144,4,1,0,100,1,0
95199,272.727142857144,4,1,0,100,1,0
95335,272.727142857144,4,1,0,100,1,0
95471,272.727142857144,4,1,0,100,1,0
96016,272.727142857144,4,1,0,100,1,0
96016,-100,4,1,0,100,0,0
130788,-400,4,2,0,90,0,0
148379,-50,4,1,0,100,0,1
159823,-3.125,4,1,0,100,0,1
160106,1,4,1,0,100,1,1
160379,272.727142857144,4,1,0,100,1,1
160379,-50,4,1,0,100,0,1
163379,-200,4,1,0,100,0,1
163652,-100,4,1,0,100,0,0
164197,-66.6666666666667,4,1,0,100,0,0
164743,-50,4,1,0,100,0,0
165015,-33.3333333333334,4,1,0,100,0,0
165561,-10,4,1,0,100,0,0
165834,-200,4,1,0,100,0,0
174015,-100,4,1,0,100,0,0
174288,-50,4,1,0,100,0,0
174561,-40,4,1,0,100,0,1
192015,-100,4,2,0,60,0,0
207288,-33.3333333333334,4,1,0,100,0,0
209480,272.727142857144,4,1,0,100,1,0
221479,136.363636363636,4,1,0,100,1,0
221479,-102400,4,1,0,100,0,0
222569,6.81818181818182,4,1,0,100,1,0
222569,-50,4,1,0,100,0,0
225841,272.727272727273,4,1,0,100,1,0
226659,-31.25,4,1,0,100,0,0
226931,-100,4,1,0,100,0,0
228431,-50,4,1,0,100,0,0
229113,-100,4,1,0,100,0,0
230613,-50,4,1,0,100,0,0
232795,-25,4,1,0,100,0,0
232931,-100,4,1,0,100,0,0
235659,-50,4,1,0,100,0,0
237159,-25,4,1,0,100,0,0
237295,-100,4,1,0,100,0,0
240022,136.363636363636,4,1,0,100,1,0
240022,-200,4,1,0,100,0,0
242204,272.727272727273,4,1,0,100,1,0
242204,-33.3333333333334,4,1,0,100,0,0
253795,-100,4,1,0,100,0,0
261840,-66.6666666666667,4,1,0,100,0,0
279294,27272.7272727273,4,1,0,100,1,0
279294,-10000,4,1,0,100,0,0
292384,272.727272727273,4,1,0,100,1,0
298929,-50,4,1,0,100,0,0
301111,-200,4,1,0,100,0,0
303293,-50,4,1,0,100,0,0
308747,-100,4,1,0,100,0,0
309565,-25,4,1,0,100,0,0
330570,-100,4,2,0,50,0,0
331661,-100,4,1,0,100,0,1
346934,-100,4,1,0,100,0,0
349111,-66.6666666666667,4,1,0,100,0,1
356747,-100,4,1,0,100,0,1
364384,-100,4,1,0,100,0,0
366570,-200,4,2,0,75,0,0
384020,-100,4,2,0,75,0,0
386210,272.727142857144,4,1,0,100,1,0
403664,-133.333333333333,4,2,0,40,0,0
412391,-100,4,1,0,100,0,0
421391,-133.333333333333,4,2,0,100,0,0
423300,-100,4,1,0,90,0,0
432028,-100,4,1,0,100,0,0
439664,-100,4,2,0,70,0,0
440755,-100,4,1,0,100,0,1
457119,-100,4,1,0,90,0,0
458209,-100,4,2,0,100,0,0
466937,-100,4,1,0,100,0,0
477846,-100,4,2,0,75,0,0
486573,-100,4,1,0,100,0,0
495300,-100,4,1,0,80,0,0
504028,-100,4,1,0,90,0,0
512755,-100,4,1,0,100,0,1
530209,-100,4,1,0,80,0,0
538937,-100,4,1,0,90,0,0
549846,-100,4,1,0,100,0,0
567290,272.727142857144,4,1,0,50,1,0
571653,-100,4,1,0,65,0,0
573835,-100,4,1,0,70,0,0
576017,-100,4,1,0,75,0,0
578199,-100,4,1,0,85,0,0
580380,-100,4,1,0,95,0,0
584744,-100,4,1,0,100,0,1
602199,-100,4,1,0,100,0,0
619653,-100,4,1,0,100,0,1
656744,-100,4,1,0,50,0,0
658926,-100,4,1,0,100,0,0
693835,-100,4,1,0,75,0,0
711289,-100,4,1,0,100,0,1
730926,-100,4,1,0,100,0,0
768017,-100,4,2,0,90,0,0
776744,-100,4,1,0,95,0,0
820380,-100,4,1,0,100,0,1
855289,-100,4,1,0,100,0,0
872744,-100,4,1,0,100,0,1
907653,-100,4,1,0,75,0,0
942562,-100,4,1,0,100,0,0
960017,-100,4,2,0,80,0,0
977471,-100,4,1,0,100,0,0
994926,-100,4,1,0,100,0,1
1012380,-100,4,1,0,100,0,0
1029835,-100,4,1,0,75,0,0
1047289,-100,4,1,0,100,0,0
1064744,-100,4,1,0,100,0,1
1080017,-100,4,1,0,100,0,0
1082198,-100,4,2,0,75,0,0
1099653,-100,4,1,0,75,0,0
1117107,-100,4,1,0,100,0,0
1134562,-100,4,1,0,100,0,1
1152000,272.727142857144,4,1,0,100,1,0
1186909,-100,4,2,0,75,0,0
1195636,-100,4,2,0,85,0,0
1213090,-100,4,1,0,90,0,0
1221818,-100,4,1,0,100,0,0
1241454,-100,4,2,0,5,0,0
1241727,-100,4,2,0,10,0,0
1241999,-100,4,2,0,15,0,0
1242272,-100,4,2,0,25,0,0
1242545,-100,4,2,0,35,0,0
1242818,-100,4,2,0,45,0,0
1243090,-100,4,2,0,55,0,0
1243363,-100,4,2,0,65,0,0
1243630,272.727142857144,4,1,0,100,1,0
1243636,-100,4,2,0,75,0,0
1252363,-100,4,1,0,100,0,0
1309090,-100,4,1,0,100,0,1
1326545,-100,4,2,0,100,0,0
1335272,-100,4,1,0,100,0,0
1418727,-100,4,2,0,70,0,0
1435636,-100,4,1,0,100,0,0
1444397,-100,4,1,0,100,0,1
1470545,-100,4,1,0,100,0,0
1479260,272.727142857144,4,1,0,100,1,0
1549090,-100,4,1,0,100,0,1
1565454,-100,4,2,0,90,0,0
1566545,-100,4,1,0,100,0,0
1588363,-100,4,1,0,100,0,1
1601454,-100,4,1,0,80,0,0
1618908,-100,4,1,0,100,0,1
1653817,-100,4,1,0,100,0,0
1723636,-100,4,1,0,100,0,1
1756363,-100,4,1,0,100,0,0
1793454,-100,4,1,0,100,0,1
1810908,-100,4,1,0,100,0,0
1828363,-100,4,1,0,100,0,1
1861090,-100,4,1,0,100,0,0
1915630,272.727142857144,4,1,0,100,1,0
2057440,272.727142857144,4,1,0,100,1,0
2074908,-100,4,1,0,100,0,1
2092363,-100,4,1,0,100,0,0
2127272,-100,4,1,0,100,0,1
2143635,-100,4,1,0,100,0,0
2162181,-100,4,1,0,100,0,1
2179635,-100,4,1,0,100,0,0
2249400,272.727142857144,4,1,0,100,1,0
2249400,-133.333333333333,4,2,0,70,0,0
2257036,-100,4,1,0,80,0,0
2258127,-100,4,1,0,100,0,0
2336672,-133.333333333333,4,2,0,80,0,0
2344309,-111.111111111111,4,1,0,90,0,0
2353036,-100,4,1,0,100,0,0
2379218,-100,4,1,0,100,0,1
2396672,-133.333333333333,4,2,0,90,0,0
2404309,-100,4,1,0,100,0,0
2439230,272.727142857144,4,1,0,100,1,0
2447957,-100,4,1,0,100,0,1
2465411,-200,4,1,0,100,0,0
2474139,-100,4,1,0,100,0,0
2479729,-95.2380952380952,4,1,0,100,0,0
2479866,-90.9090909090909,4,1,0,100,0,0
2480002,-86.9565217391304,4,1,0,100,0,0
2480139,-83.3333333333333,4,1,0,100,0,0
2480275,-80,4,1,0,100,0,0
2480411,-76.9230769230769,4,1,0,100,0,0
2480548,-74.0740740740741,4,1,0,100,0,0
2480684,-71.4285714285714,4,1,0,100,0,0
2480820,-68.9655172413793,4,1,0,100,0,0
2480957,-66.6666666666667,4,1,0,100,0,0
2481093,-64.5161290322581,4,1,0,100,0,0
2481229,-62.5,4,1,0,100,0,0
2481366,-60.6060606060606,4,1,0,100,0,0
2481502,-58.8235294117647,4,1,0,100,0,0
2481639,-57.1428571428571,4,1,0,100,0,0
2481775,-55.5555555555556,4,1,0,100,0,0
2481911,-54.054054054054,4,1,0,100,0,0
2482048,-52.6315789473684,4,1,0,100,0,0
2482184,-51.2820512820513,4,1,0,100,0,0
2482320,-50,4,1,0,100,0,0
2482866,-100,4,1,0,100,0,0
2538502,-100,4,2,0,100,0,0
2547229,-100,4,1,0,100,0,1
2563593,-100,4,1,0,100,0,0
2564120,272.727142857144,4,1,0,100,1,0
2564665,272.727142857144,4,1,0,100,1,0
2617029,-66.6666666666667,4,1,0,100,0,0
2625756,-100,4,1,0,100,0,0
2627938,-66.6666666666667,4,1,0,100,0,0
2630119,-100,4,1,0,100,0,0
2632301,-66.6666666666667,4,1,0,100,0,0
2634483,-100,4,1,0,100,0,0
2704301,-200,4,1,0,100,0,0
2721210,-100,4,1,0,100,0,1
2739210,-100,4,1,0,100,0,0
2739755,-200,4,1,0,100,0,0
2757210,-250,4,1,0,100,0,0
2759392,-333.333333333333,4,1,0,100,0,0
2761573,-500,4,1,0,100,0,0
2765392,-100,4,1,0,100,0,1
2787210,-100,4,1,0,100,0,0
2824301,-200,4,1,0,100,0,0
2857028,-100,4,1,0,100,0,1
2878846,-200,4,1,0,100,0,0
2881020,249.999890873012,4,1,0,100,1,0
2897019,-200,4,1,0,100,0,0
2905019,-133.333333333333,4,1,0,100,0,0
2913019,-100,4,1,0,100,0,0
2945019,-200,4,1,0,100,0,0
2953019,-100,4,1,0,100,0,0
2977010,249.999890873012,4,1,0,100,1,0
3025009,-200,4,1,0,100,0,0
3033009,-100,4,1,0,100,0,0
3057009,-100,4,1,0,100,0,1
3089009,-100,4,1,0,100,0,0
3121009,-200,4,1,0,100,0,0
3129009,-100,4,1,0,100,0,0
3137009,-100,4,1,0,100,0,1
3153009,-200,4,1,0,100,0,0
3168009,-100,4,1,0,100,0,0
3217259,-200,4,1,0,100,0,0
3233009,-100,4,1,0,100,0,0
3250980,249.999890873012,4,1,0,100,1,0
3336979,-100,4,1,0,100,0,1
3384979,-100,4,1,0,100,0,0
3385229,251.046025104603,4,1,0,100,1,8
3385480,252.100840336134,4,1,0,100,1,8
3385732,253.164556962025,4,1,0,100,1,8
3385985,254.237288135593,4,1,0,100,1,8
3386239,255.31914893617,4,1,0,100,1,8
3386494,256.410256410256,4,1,0,100,1,8
3386750,257.510729613734,4,1,0,100,1,8
3387007,258.620689655172,4,1,0,100,1,8
3387265,259.74025974026,4,1,0,100,1,8
3387524,260.869565217391,4,1,0,100,1,8
3387784,262.008733624454,4,1,0,100,1,8
3388046,263.157894736842,4,1,0,100,1,8
3388309,264.31718061674,4,1,0,100,1,8
3388573,265.486725663717,4,1,0,100,1,8
3388838,266.666666666667,4,1,0,100,1,8
3389104,267.857142857143,4,1,0,100,1,8
3389371,269.058295964126,4,1,0,100,1,8
3389640,270.27027027027,4,1,0,100,1,8
3389910,271.493212669683,4,1,0,100,1,8
3390181,272.727272727273,4,1,0,100,1,8
3390453,273.972602739726,4,1,0,100,1,8
3390726,275.229357798165,4,1,0,100,1,8
3391001,276.497695852535,4,1,0,100,1,8
3391277,277.777777777778,4,1,0,100,1,8
3391554,279.06976744186,4,1,0,100,1,8
3391833,280.373831775701,4,1,0,100,1,8
3392113,281.69014084507,4,1,0,100,1,8
3392394,283.018867924528,4,1,0,100,1,8
3392677,284.36018957346,4,1,0,100,1,8
3392961,285.714285714286,4,1,0,100,1,8
3393246,287.081339712919,4,1,0,100,1,8
3393533,288.461538461538,4,1,0,100,1,8
3393821,289.855072463768,4,1,0,100,1,8
3393979,249.999890873012,4,1,0,100,1,0
3393979,-200,4,1,0,100,0,0
3409978,-100,4,1,0,100,0,1
3425978,-200,4,1,0,100,0,0
3449978,-100,4,1,0,100,0,0
3465978,-200,4,1,0,100,0,0
3481478,-166.666666666667,4,1,0,100,0,0
3481603,-142.857142857143,4,1,0,100,0,0
3481728,-125,4,1,0,100,0,0
3481853,-111.111111111111,4,1,0,100,0,0
3481978,-100,4,1,0,100,0,1
3497978,-100,4,1,0,100,0,0
3559978,-100,4,1,0,100,0,1
3591978,-200,4,1,0,100,0,0

[Colours]
Combo1 : 0,255,0
Combo2 : 0,255,255

[HitObjects]
256,192,209480,6,0,P|224:152|256:184,1,210,4|4,3:0|3:0,3:0:0:0:
256,32,210298,1,0,3:0:0:0:
256,352,210434,1,0,3:0:0:0:
256,192,210570,6,0,P|288:152|256:184,1,210,4|4,3:0|3:0,3:0:0:0:
256,360,211388,1,2,3:0:0:0:
256,24,211525,1,8,3:0:0:0:
256,192,211661,38,0,P|296:160|264:192,1,210,4|4,3:0|3:0,3:0:0:0:
480,192,212479,1,0,3:0:0:0:
32,192,212615,1,0,3:0:0:0:
256,192,212752,6,0,P|216:160|248:192,1,210,4|4,3:0|3:0,3:0:0:0:
0,192,213570,1,8,3:0:0:0:
512,192,213706,1,2,3:0:0:0:
256,192,213843,38,0,P|224:152|256:184,1,210,4|4,3:0|3:0,3:0:0:0:
256,32,214661,1,0,3:0:0:0:
256,352,214797,1,0,3:0:0:0:
256,192,214933,6,0,P|288:152|256:184,1,210,4|4,3:0|3:0,3:0:0:0:
256,352,215751,1,2,3:0:0:0:
256,32,215889,1,8,3:0:0:0:
256,192,216024,38,0,P|296:160|264:192,1,210,4|4,3:0|3:0,3:0:0:0:
32,0,216843,1,2,2:0:0:0:
480,0,217116,2,2,P|480:48|452:84,2,93.3333333333333,2|2|2,2:0|2:0|2:0,2:0:0:0:
427,165,217660,2,2,P|427:117|455:81,2,93.3333333333333,2|2|2,2:0|2:0|2:0,2:0:0:0:
0,192,218207,5,0,0:0:0:0:
72,120,218343,1,8,0:0:0:0:
144,192,218479,1,0,0:0:0:0:
216,192,218616,1,0,0:0:0:0:
480,384,219025,1,8,3:0:0:0:
480,0,219161,1,2,3:0:0:0:
0,120,219298,37,8,0:0:0:0:
72,192,219434,1,0,0:0:0:0:
144,120,219570,1,8,0:0:0:0:
216,48,219707,1,2,0:0:0:0:
480,0,220116,1,2,3:0:0:0:
480,384,220252,1,8,3:0:0:0:
0,264,220389,5,0,3:0:0:0:
72,192,220525,1,0,0:0:0:0:
144,336,220661,1,0,3:0:0:0:
216,264,220798,1,0,3:0:0:0:
472,192,221207,2,4,L|568:192,1,70,4|4,3:0|3:0,3:0:0:0:
0,192,221479,38,0,B|3:192|3:192|2:192|2:192|5:192|5:192|3:189|3:189|6:190|6:190|4:187|4:187|6:187|6:187|2:189|2:189|1:187|1:187|8:184|8:184|5:185|5:185|0:184,1,42
512,192,222297,2,0,B|504:192|504:192|504:200,1,14,8|2,3:0|3:0,3:0:0:0:
256,192,222569,2,0,B|256:184|256:184|256:200|256:200|256:176|256:176|256:208|256:208|256:168|256:168|256:216|256:216|256:160|256:160|256:224|256:224|256:192,1,315
256,192,222705,2,0,B|256:184|256:184|256:200|256:200|256:176|256:176|256:208|256:208|256:168|256:168|256:216|256:216|256:160|256:160|256:224|256:224|256:192,1,315
256,192,222834,2,0,B|256:184|256:184|256:200|256:200|256:176|256:176|256:208|256:208|256:168|256:168|256:216|256:216|256:160|256:160|256:224|256:224|256:192,1,315
256,192,222971,2,0,B|256:184|256:184|256:200|256:200|256:176|256:176|256:208|256:208|256:168|256:168|256:216|256:216|256:160|256:160|256:224|256:224|256:192,1,315
144,80,223107,2,0,L|144:360,1,280
256,192,223673,6,0,B|264:192|264:192|248:192|248:192|272:192|272:192|240:192|240:192|280:192|280:192|232:192|232:192|288:192|288:192|224:192,91,280
256,192,224307,12,0,225596,0:0:0:0:
40,320,225841,5,0,0:0:0:0:
184,160,226113,1,0,0:0:0:0:
296,160,226250,1,0,0:0:0:0:
408,160,226386,1,0,0:0:0:0:
408,160,226522,1,0,0:0:0:0:
408,160,226591,1,0,0:0:0:0:
408,160,226659,2,6,L|184:160,1,224
0,192,226931,22,0,B|24:160|24:160|40:192,2,70,0|0|8,3:0|3:0|2:0,3:0:0:0:
512,192,227341,2,0,B|488:160|488:160|472:192,2,70,0|2|0,3:0|2:0|3:0,3:0:0:0:
256,192,227750,2,0,B|256:172|256:172|256:208|256:208|256:192,1,70,4|0,0:0|3:0,0:0:0:0:
256,48,228022,2,8,L|256:120,2,70,8|0|0,0:0|0:0|0:0,0:0:0:0:
256,48,228431,2,8,L|256:120,2,70,8|0|0,0:0|0:0|0:0,0:0:0:0:
256,48,228841,2,0,B|256:116|256:116|256:36,1,140,0|0,0:0|3:0,0:0:0:0:
256,192,229113,6,0,B|258:193|258:193|255:191|255:191|259:191|259:191|255:193|255:193|255:192|255:192|256:194|256:194|257:192|257:192|257:191|257:191|255:190|255:190|258:196|258:196|254:195|254:195|258:191|258:191|257:195|257:195|254:192|254:192|255:195|255:195|257:193|257:193|257:196|257:196|254:193|254:193|254:191|254:191|256:191|256:191,2,70,0|0|8,3:0|3:0|2:0,3:0:0:0:
256,192,229522,2,0,B|258:193|258:193|255:191|255:191|259:191|259:191|255:193|255:193|255:192|255:192|256:194|256:194|257:192|257:192|257:191|257:191|255:190|255:190|258:196|258:196|254:195|254:195|258:191|258:191|257:195|257:195|254:192|254:192|255:195|255:195|257:193|257:193|257:196|257:196|254:193|254:193|254:191|254:191|256:191|256:191,2,70,0|2|0,3:0|2:0|3:0,3:0:0:0:
256,192,229931,2,0,B|258:193|258:193|255:191|255:191|259:191|259:191|255:193|255:193|255:192|255:192|256:194|256:194|257:192|257:192|257:191|257:191|255:190|255:190|258:196|258:196|254:195|254:195|258:191|258:191|257:195|257:195|254:192|254:192|255:195|255:195|257:193|257:193|257:196|257:196|254:193|254:193|254:191|254:191|256:191|256:191,1,70,0|0,3:0|3:0,3:0:0:0:
256,192,230204,2,0,B|258:193|258:193|255:191|255:191|259:191|259:191|255:193|255:193|255:192|255:192|256:194|256:194|257:192|257:192|257:191|257:191|255:190|255:190|258:196|258:196|254:195|254:195|258:191|258:191|257:195|257:195|254:192|254:192|255:195|255:195|257:193|257:193|257:196|257:196|254:193|254:193|254:191|254:191|256:191|256:191,2,70,8|0|0,0:0|0:0|0:0,0:0:0:0:
256,192,230613,2,0,B|258:193|258:193|255:191|255:191|259:191|259:191|255:193|255:193|255:192|255:192|256:194|256:194|257:192|257:192|257:191|257:191|255:190|255:190|258:196|258:196|254:195|254:195|258:191|258:191|257:195|257:195|254:192|254:192|255:195|255:195|257:193|257:193|257:196|257:196|254:193|254:193|254:191|254:191|256:191|256:191,2,70,8|0|0,0:0|0:0|0:0,0:0:0:0:
256,192,231022,2,8,B|258:193|258:193|255:191|255:191|259:191|259:191|255:193|255:193|255:192|255:192|256:194|256:194|257:192|257:192|257:191|257:191|255:190|255:190|258:196|258:196|254:195|254:195|258:191|258:191|257:195|257:195|254:192|254:192|255:195|255:195|257:193|257:193|257:196|257:196|254:193|254:193|254:191|254:191|256:191|256:191,3,70
256,192,231295,38,0,L|424:192,2,140,2|0|0,2:0|3:0|3:0,3:0:0:0:
256,192,231704,2,0,L|88:192,2,140,0|2|0,3:0|2:0|3:0,3:0:0:0:
256,192,232113,2,0,B|260:192|260:192|252:192|252:192|264:192|264:192|248:192|248:192|268:192|268:192|244:192|244:192|256:188|256:188|256:196|256:196|256:184|256:184|256:200|256:200|256:180,1,140,0|0,3:0|3:0,3:0:0:0:
256,192,232386,2,0,L|424:192,2,140,2|0|0,2:0|3:0|3:0,3:0:0:0:
256,192,232795,2,0,L|116:192,1,140,0|0,3:0|3:0,3:0:0:0:
256,192,232931,2,0,L|396:192,1,140,2|0,2:0|3:0,0:0:0:0:
256,192,233477,12,2,235659,2:0:0:0:
256,192,235795,6,0,L|374:310,1,140,0|0,3:0|3:0,3:0:0:0:
256,192,236068,2,0,L|137:73,2,140,0|2|0,3:0|2:0|3:0,3:0:0:0:
256,192,236477,2,0,B|258:194|258:194|253:189|253:189|261:197|261:197|250:186|250:186|264:200|264:200|247:183|247:183|258:189|258:189|253:194|253:194|261:186|261:186|250:197|250:197|264:183,1,140,0|0,3:0|3:0,3:0:0:0:
256,192,236750,2,0,L|374:310,2,140,2|0|0,2:0|3:0|3:0,3:0:0:0:
256,192,237159,2,0,L|157:93,1,140,0|0,3:0|3:0,3:0:0:0:
256,192,237295,2,0,L|354:290,1,140,2|0,2:0|3:0,0:0:0:0:
256,192,237841,37,2,0:0:0:0:
256,192,237977,1,0,3:0:0:0:
256,192,238113,1,0,3:0:0:0:
256,192,238250,1,0,3:0:0:0:
256,192,238386,1,2,0:0:0:0:
256,192,238522,1,0,3:0:0:0:
256,192,238659,1,0,3:0:0:0:
256,192,238931,1,2,0:0:0:0:
256,192,239068,1,0,3:0:0:0:
256,192,239204,1,0,3:0:0:0:
256,192,239341,1,0,3:0:0:0:
256,192,239409,1,0,3:0:0:0:
256,192,239477,1,2,0:0:0:0:
256,192,239750,1,0,3:0:0:0:
56,144,240022,6,0,B|104:80|104:80|160:100|160:100|232:236|176:252,1,280,2|2,2:0|2:0,0:0:0:0:
197,232,240703,1,0,3:0:0:0:
197,232,240840,1,0,3:0:0:0:
256,88,241112,2,0,L|408:112,1,140,2|0,2:0|3:0,0:0:0:0:
394,109,241522,1,0,3:0:0:0:
328,100,241590,1,0,3:0:0:0:
256,88,241658,2,0,L|400:112,1,140,2|0,2:0|3:0,0:0:0:0:
0,0,242204,6,14,B|512:0|512:0|512:64|512:64|0:64|0:64|0:124|0:124|512:124|512:124|512:188|512:188|0:188|0:188|0:248|0:248|512:248|512:248|512:308|512:308|12:308,1,3360.00012817383,14|14,2:0|2:0,0:0:0:0:
256,192,244386,12,0,246568,0:0:0:0:
256,192,246568,12,0,248750,0:0:0:0:
256,192,248750,12,0,250932,0:0:0:0:
256,192,250931,12,0,253113,0:0:0:0:
256,192,253113,12,0,253795,0:0:0:0:
0,0,253931,22,4,L|0:72,1,70
256,192,254204,12,0,254886,0:0:0:0:
512,0,255022,6,4,L|512:72,1,70
256,192,255295,12,0,255977,0:0:0:0:
0,384,256113,38,4,L|0:312,1,70
256,192,256386,12,0,257068,0:0:0:0:
512,384,257204,6,4,L|512:312,1,70
256,192,257477,12,0,258159,0:0:0:0:
256,192,258295,38,4,L|184:192,1,70
256,192,258568,12,0,259250,0:0:0:0:
256,192,259386,6,4,L|332:192,1,70
256,192,259659,12,0,260341,0:0:0:0:
32,0,260477,37,2,2:0:0:0:
480,0,260750,2,2,P|480:48|452:84,2,93.3333333333333,2|2|2,2:0|2:0|2:0,2:0:0:0:
427,165,261294,2,2,P|427:117|455:81,2,93.3333333333333,2|2|2,2:0|2:0|2:0,2:0:0:0:
256,384,261840,5,0,0:0:0:0:
256,0,261976,1,0,0:0:0:0:
224,352,262113,1,2,0:0:0:0:
288,32,262249,1,0,0:0:0:0:
192,320,262385,1,2,0:0:0:0:
320,64,262522,1,0,0:0:0:0:
160,288,262658,2,0,L|288:288,1,105.000004005432,4|0,0:0|0:0,0:0:0:0:
282,225,262931,1,2,0:0:0:0:
246,233,263067,1,0,0:0:0:0:
217,210,263204,1,0,0:0:0:0:
217,173,263340,1,2,0:0:0:0:
246,150,263408,1,0,0:0:0:0:
282,158,263476,1,0,0:0:0:0:
298,192,263749,1,0,0:0:0:0:
256,384,264022,37,0,0:0:0:0:
256,0,264158,1,0,0:0:0:0:
288,352,264295,1,2,0:0:0:0:
224,32,264431,1,0,0:0:0:0:
320,320,264567,1,2,0:0:0:0:
192,64,264704,1,0,0:0:0:0:
352,288,264840,2,0,L|224:288,1,105.000004005432,4|0,0:0|0:0,0:0:0:0:
230,225,265113,1,2,0:0:0:0:
266,233,265249,1,0,0:0:0:0:
295,210,265386,1,0,0:0:0:0:
295,173,265522,1,2,0:0:0:0:
266,150,265590,1,0,0:0:0:0:
230,158,265658,1,0,0:0:0:0:
214,192,265931,1,0,0:0:0:0:
256,0,266204,5,0,0:0:0:0:
256,384,266340,1,0,0:0:0:0:
288,32,266477,1,2,0:0:0:0:
224,352,266613,1,0,0:0:0:0:
320,64,266749,1,2,0:0:0:0:
192,320,266886,1,0,0:0:0:0:
352,96,267022,2,0,L|224:96,1,105.000004005432,4|0,0:0|0:0,0:0:0:0:
230,159,267295,1,2,0:0:0:0:
266,151,267431,1,0,0:0:0:0:
295,174,267568,1,0,0:0:0:0:
295,211,267704,1,2,0:0:0:0:
266,234,267772,1,0,0:0:0:0:
230,226,267840,1,0,0:0:0:0:
214,192,268113,1,0,0:0:0:0:
256,352,268385,38,6,L|256:0,2,315.000012016297
256,332,269476,2,2,L|256:192,2,140.000005340576,2|2|2,2:0|2:0|2:0,2:0:0:0:
256,52,270022,2,2,L|256:192,2,140.000005340576,2|2|2,2:0|2:0|2:0,2:0:0:0:
256,192,270567,6,0,L|172:120,1,105.000004005432
256,192,270840,1,2,0:0:0:0:
256,192,270976,2,0,L|340:264,1,105.000004005432,0|2,0:0|0:0,0:0:0:0:
256,192,271249,1,0,0:0:0:0:
256,192,271385,2,0,B|256:112|256:112|256:192,1,157.500006008148,0|0,0:0|3:0,0:0:0:0:
36,192,271658,1,2,0:0:0:0:
108,192,271794,1,0,0:0:0:0:
180,192,271931,1,0,0:0:0:0:
36,192,272067,1,2,0:0:0:0:
108,192,272135,1,0,0:0:0:0:
180,192,272204,2,0,B|288:192|288:192|180:192,1,210.000008010865
256,192,272749,38,0,L|340:120,1,105.000004005432
256,192,273022,1,2,0:0:0:0:
256,192,273158,2,0,L|172:264,1,105.000004005432,0|2,0:0|0:0,0:0:0:0:
256,192,273431,1,0,0:0:0:0:
256,192,273567,2,0,B|256:112|256:112|256:192,1,157.500006008148,0|0,0:0|3:0,0:0:0:0:
476,192,273840,1,2,0:0:0:0:
404,192,273976,1,0,0:0:0:0:
332,192,274113,1,0,0:0:0:0:
476,192,274249,1,2,0:0:0:0:
404,192,274317,1,0,0:0:0:0:
332,192,274386,2,0,B|224:192|224:192|332:192,1,210.000008010865
256,192,274931,6,0,L|340:264,1,105.000004005432
256,192,275204,1,2,0:0:0:0:
256,192,275340,2,0,L|172:120,1,105.000004005432,0|2,0:0|0:0,0:0:0:0:
256,192,275613,1,0,0:0:0:0:
256,192,275749,2,0,B|256:272|256:272|256:192,1,157.500006008148,0|0,0:0|3:0,0:0:0:0:
476,192,276022,1,2,0:0:0:0:
404,192,276158,1,0,0:0:0:0:
332,192,276295,1,0,0:0:0:0:
476,192,276431,1,2,0:0:0:0:
404,192,276499,1,0,0:0:0:0:
332,192,276568,2,0,B|224:192|224:192|332:192,1,210.000008010865
44,192,277113,38,0,L|152:192,3,105.000004005432,0|8|0|0,3:0|2:0|3:0|3:0,3:0:0:0:
149,192,277658,2,0,L|257:192,3,105.000004005432,2|0|8|2,2:0|3:0|3:0|2:0,3:0:0:0:
468,192,278204,2,0,L|360:192,3,105.000004005432,2|2|0|8,2:0|2:0|3:0|2:0,3:0:0:0:
363,192,278749,2,0,L|255:192,3,105.000004005432,0|0|8|0,3:0|3:0|2:0|3:0,3:0:0:0:
258,192,279294,2,4,L|254:188,1,6.125,4|0,0:0|0:0,2:0:0:0:
0,0,292384,5,10,0:0:0:0:
0,0,292520,1,10,0:0:0:0:
0,0,292656,1,10,0:0:0:0:
0,0,292793,1,10,0:0:0:0:
0,192,292929,37,10,0:0:0:0:
0,192,293065,1,10,0:0:0:0:
0,192,293202,1,10,0:0:0:0:
0,192,293338,1,10,0:0:0:0:
512,0,293474,5,10,2:0:0:0:
512,0,293611,1,10,2:0:0:0:
512,0,293747,1,10,2:0:0:0:
512,0,293884,1,10,2:0:0:0:
512,384,294020,37,10,3:0:0:0:
512,384,294156,1,10,3:0:0:0:
512,384,294293,1,10,3:0:0:0:
512,384,294429,1,10,3:0:0:0:
256,192,294565,5,6,0:0:0:0:
256,192,294702,1,6,0:0:0:0:
256,384,294838,2,0,P|176:304|176:280,2,140,0|0|2,0:0|0:0|2:0,0:0:0:0:
256,304,295520,1,0,0:0:0:0:
256,224,295656,2,0,P|336:304|336:328,1,140,2|0,2:0|0:0,0:0:0:0:
256,304,296065,1,2,2:0:0:0:
256,192,296202,1,0,2:0:0:0:
256,192,296338,1,0,2:0:0:0:
280,192,296406,1,0,2:0:0:0:
300,192,296474,1,6,0:0:0:0:
300,192,296611,1,6,0:0:0:0:
160,192,296747,38,0,P|192:128|256:96,1,140
160,96,297156,1,0,0:0:0:0:
160,192,297293,2,0,P|128:128|64:96,1,140
160,192,297702,1,0,0:0:0:0:
320,224,297838,2,0,P|378:183|401:115,1,140
256,192,298247,1,0,0:0:0:0:
224,192,298315,1,0,0:0:0:0:
192,192,298384,2,0,P|160:160|192:128,1,70
160,192,298656,2,0,P|192:160|160:128,1,70
32,192,298929,5,4,0:0:0:0:
32,192,299065,2,4,P|96:128|64:192,1,280
159,191,299474,1,4,0:0:0:0:
196,193,299610,2,4,P|172:289|159:191,1,280
160,160,299952,1,4,0:0:0:0:
160,128,300020,2,4,P|183:31|196:129,2,280,0|4|4,0:0|0:0|0:0,0:0:0:0:
192,320,300838,1,0,0:0:0:0:
224,288,300906,1,8,0:0:0:0:
256,256,300974,1,10,0:0:0:0:
256,224,301043,1,2,0:0:0:0:
256,192,301111,38,0,B|256:193|256:193|257:193|257:193|254:192|254:192|255:192|255:192|254:194|254:194|258:192|258:192|257:191|257:191|254:189|254:189|258:190|258:190|256:191|256:191|259:190|259:190|257:189|257:189|259:194|259:194|259:189|259:189|259:192|259:192|253:189|253:189|259:195|259:195|258:189|258:189|254:193|254:193|259:191|259:191|254:190|254:190,1,70
254,192,301520,1,0,0:0:0:0:
256,192,301656,2,0,B|256:193|256:193|257:193|257:193|254:192|254:192|255:192|255:192|254:194|254:194|258:192|258:192|257:191|257:191|254:189|254:189|258:190|258:190|256:191|256:191|259:190|259:190|257:189|257:189|259:194|259:194|259:189|259:189|259:192|259:192|253:189|253:189|259:195|259:195|258:189|258:189|254:193|254:193|259:191|259:191|254:190|254:190,1,70
254,192,302065,1,0,0:0:0:0:
254,192,302202,2,0,B|304:192|304:192|288:160,1,70
272,192,302611,1,0,0:0:0:0:
288,192,302679,1,0,0:0:0:0:
304,192,302747,2,0,L|352:176,1,35
336,144,303020,2,0,L|368:128,1,35
256,288,303293,5,2,0:0:0:0:
256,288,303429,2,2,B|256:144|256:144|256:288,1,280
256,320,303838,1,2,0:0:0:0:
256,320,303974,2,2,B|256:176|256:176|256:320,1,280
272,320,304315,1,2,0:0:0:0:
288,320,304384,38,2,P|152:288|16:320,2,280
416,288,305202,1,8,2:0:0:0:
416,256,305270,1,8,2:0:0:0:
416,192,305338,1,2,2:0:0:0:
416,96,305406,1,2,2:0:0:0:
416,288,305474,6,0,L|128:288,1,280,0|0,1:0|1:0,1:0:0:0:
136,288,306020,2,0,L|416:288,1,280,0|0,1:0|1:0,1:0:0:0:
512,160,306565,38,0,L|259:278,1,280
512,160,306974,1,0,0:0:0:0:
258,278,307043,1,0,0:0:0:0:
131,337,307111,2,0,L|258:278,1,140
512,160,307384,2,0,L|471:293,1,140
96,96,307656,5,2,2:0:0:0:
192,96,307793,2,2,P|256:160|320:96,1,140,2|0,2:0|2:0,2:0:0:0:
0,96,308065,1,2,2:0:0:0:
96,96,308202,1,2,2:0:0:0:
192,96,308338,2,2,P|256:160|320:96,1,140,2|0,2:0|2:0,2:0:0:0:
0,96,308611,1,2,2:0:0:0:
96,96,308679,1,2,2:0:0:0:
192,96,308747,2,2,P|256:160|320:96,2,140,2|2|2,2:0|2:0|2:0,2:0:0:0:
0,96,309565,1,2,1:0:0:0:
96,96,309633,1,2,1:0:0:0:
192,96,309701,2,2,P|256:160|320:96,1,140,2|2,1:0|1:0,1:0:0:0:
0,0,309838,37,10,0:0:0:0:
0,0,309974,1,10,0:0:0:0:
0,0,310110,1,10,0:0:0:0:
0,0,310247,1,10,0:0:0:0:
0,192,310383,5,10,0:0:0:0:
0,192,310519,1,10,0:0:0:0:
0,192,310656,1,10,0:0:0:0:
0,192,310792,1,10,0:0:0:0:
512,0,310928,37,10,2:0:0:0:
512,0,311065,1,10,2:0:0:0:
512,0,311201,1,10,2:0:0:0:
512,0,311338,1,10,2:0:0:0:
512,384,311474,5,10,3:0:0:0:
512,384,311610,1,10,3:0:0:0:
512,384,311747,1,10,3:0:0:0:
512,384,311883,1,10,3:0:0:0:
256,192,312020,37,2,0:0:0:0:
256,192,312156,1,2,0:0:0:0:
256,192,312293,1,2,0:0:0:0:
256,192,312429,1,2,0:0:0:0:
256,192,312838,22,4,L|256:492,1,280
256,192,313111,37,2,0:0:0:0:
256,192,313247,1,2,0:0:0:0:
256,192,313384,1,2,0:0:0:0:
256,192,313520,1,2,0:0:0:0:
256,192,313929,22,4,L|256:-108,1,280
256,192,314082,12,2,314202,0:0:0:0:
256,192,314474,12,2,314747,0:0:0:0:
256,192,315020,12,2,315292,0:0:0:0:
256,192,315565,12,2,315838,0:0:0:0:
256,192,316111,12,2,316383,0:0:0:0:
256,192,316656,12,2,316929,0:0:0:0:
256,192,317201,12,2,317474,0:0:0:0:
256,192,317747,12,2,318020,0:0:0:0:
256,192,318292,12,2,318565,0:0:0:0:
256,192,318838,12,2,319111,0:0:0:0:
256,192,319383,12,2,319656,0:0:0:0:
256,192,319929,12,2,320201,0:0:0:0:
256,192,320474,12,2,320747,0:0:0:0:
256,192,320764,12,2,321020,0:0:0:0:
256,192,321037,12,2,321293,0:0:0:0:
256,192,321310,12,2,321565,0:0:0:0:
256,192,321582,12,2,321838,0:0:0:0:
256,192,321974,5,2,0:0:0:0:
256,192,322111,2,2,B|392:328|210:146|210:146|438:374,1,420
352,288,322384,1,2,0:0:0:0:
352,288,322452,1,2,0:0:0:0:
352,288,322520,1,2,0:0:0:0:
352,288,322588,1,2,0:0:0:0:
352,288,322656,2,2,L|224:160,1,140
253,189,322793,2,2,L|352:288,1,140
256,192,322878,12,0,322929,0:0:0:0:
256,192,323202,12,2,323475,0:0:0:0:
256,192,323747,5,4,0:0:0:0:
256,192,323884,12,2,324020,0:0:0:0:
256,192,324293,12,2,324566,0:0:0:0:
256,192,324838,37,4,0:0:0:0:
256,192,324974,12,2,325109,0:0:0:0:
256,192,325384,12,2,325657,0:0:0:0:
256,192,325929,5,4,0:0:0:0:
256,192,326066,12,2,326202,0:0:0:0:
256,192,326475,12,2,326748,0:0:0:0:
256,192,327020,37,4,0:0:0:0:
256,192,327156,12,2,327291,0:0:0:0:
256,192,327565,12,2,327838,0:0:0:0:
256,192,328110,5,4,0:0:0:0:
256,192,328247,12,2,328383,0:0:0:0:
256,192,328656,12,2,328929,0:0:0:0:
256,192,329201,37,4,0:0:0:0:
256,192,329337,12,2,329472,0:0:0:0:
256,192,329491,12,2,329746,0:0:0:0:
256,192,329764,12,2,330020,0:0:0:0:
256,192,330037,12,2,330293,0:0:0:0:
256,192,330565,5,2,1:0:0:0:
256,192,330702,1,2,1:0:0:0:
256,192,330838,1,2,1:0:0:0:
256,192,330906,1,2,1:0:0:0:
256,192,330974,1,2,1:0:0:0:
256,192,331111,1,2,1:0:0:0:
256,192,331247,1,2,1:0:0:0:
256,192,331384,1,2,1:0:0:0:
256,192,331520,1,2,1:0:0:0:
64,128,331656,37,4,0:0:0:0:
96,128,331724,1,0,0:0:0:0:
128,160,331793,1,0,0:0:0:0:
160,192,331861,1,0,0:0:0:0:
192,224,331929,1,0,0:0:0:0:
64,64,332065,5,4,0:0:0:0:
96,64,332133,1,0,0:0:0:0:
128,96,332202,1,0,0:0:0:0:
160,128,332270,1,0,0:0:0:0:
192,160,332338,1,0,0:0:0:0:
64,0,332474,1,0,0:0:0:0:
128,32,332543,1,0,0:0:0:0:
192,96,332611,1,0,0:0:0:0:
384,224,332747,37,4,0:0:0:0:
388,255,332815,1,0,0:0:0:0:
361,291,332884,1,0,0:0:0:0:
333,327,332952,1,0,0:0:0:0:
306,364,333020,1,0,0:0:0:0:
447,215,333156,5,4,0:0:0:0:
451,246,333224,1,0,0:0:0:0:
424,282,333293,1,0,0:0:0:0:
397,319,333361,1,0,0:0:0:0:
370,355,333429,1,0,0:0:0:0:
510,206,333565,1,0,0:0:0:0:
487,274,333634,1,0,0:0:0:0:
433,346,333702,1,0,0:0:0:0:
128,192,333838,37,4,0:0:0:0:
384,192,333974,1,0,0:0:0:0:
145,128,334111,1,0,0:0:0:0:
366,256,334247,1,4,0:0:0:0:
192,81,334384,1,0,0:0:0:0:
320,302,334520,1,0,0:0:0:0:
256,64,334656,1,0,0:0:0:0:
256,320,334792,1,0,0:0:0:0:
256,64,334929,5,4,0:0:0:0:
256,320,335065,1,0,0:0:0:0:
320,81,335201,1,0,0:0:0:0:
192,302,335337,1,4,0:0:0:0:
366,128,335474,1,0,0:0:0:0:
145,256,335610,1,0,0:0:0:0:
384,192,335747,1,0,0:0:0:0:
128,192,335883,1,0,0:0:0:0:
448,128,336020,37,4,0:0:0:0:
416,128,336088,1,0,0:0:0:0:
384,160,336157,1,0,0:0:0:0:
352,192,336225,1,0,0:0:0:0:
320,224,336293,1,0,0:0:0:0:
448,64,336429,5,4,0:0:0:0:
416,64,336497,1,0,0:0:0:0:
384,96,336566,1,0,0:0:0:0:
352,128,336634,1,0,0:0:0:0:
320,160,336702,1,0,0:0:0:0:
448,0,336838,1,0,0:0:0:0:
384,32,336907,1,0,0:0:0:0:
320,96,336975,1,0,0:0:0:0:
128,224,337111,37,4,0:0:0:0:
124,255,337179,1,0,0:0:0:0:
151,291,337248,1,0,0:0:0:0:
179,327,337316,1,0,0:0:0:0:
206,364,337384,1,0,0:0:0:0:
65,215,337520,5,4,0:0:0:0:
61,246,337588,1,0,0:0:0:0:
88,282,337657,1,0,0:0:0:0:
115,319,337725,1,0,0:0:0:0:
142,355,337793,1,0,0:0:0:0:
2,206,337929,1,0,0:0:0:0:
25,274,337998,1,0,0:0:0:0:
79,346,338066,1,0,0:0:0:0:
384,192,338202,37,4,0:0:0:0:
128,192,338338,1,0,0:0:0:0:
367,128,338475,1,0,0:0:0:0:
146,256,338611,1,4,0:0:0:0:
320,81,338748,1,0,0:0:0:0:
192,302,338884,1,0,0:0:0:0:
256,64,339020,1,0,0:0:0:0:
256,320,339156,1,0,0:0:0:0:
256,64,339293,5,4,0:0:0:0:
256,320,339429,1,0,0:0:0:0:
192,81,339565,1,0,0:0:0:0:
320,302,339701,1,4,0:0:0:0:
146,128,339838,1,0,0:0:0:0:
367,256,339974,1,0,0:0:0:0:
128,192,340111,1,0,0:0:0:0:
384,192,340247,1,0,0:0:0:0:
64,256,340384,37,4,0:0:0:0:
96,256,340452,1,0,0:0:0:0:
128,224,340521,1,0,0:0:0:0:
160,192,340589,1,0,0:0:0:0:
192,160,340657,1,0,0:0:0:0:
64,320,340793,5,4,0:0:0:0:
96,320,340861,1,0,0:0:0:0:
128,288,340930,1,0,0:0:0:0:
160,256,340998,1,0,0:0:0:0:
192,224,341066,1,0,0:0:0:0:
64,384,341202,1,0,0:0:0:0:
128,352,341271,1,0,0:0:0:0:
192,288,341339,1,0,0:0:0:0:
384,160,341475,37,4,0:0:0:0:
388,129,341543,1,0,0:0:0:0:
361,93,341612,1,0,0:0:0:0:
333,57,341680,1,0,0:0:0:0:
306,20,341748,1,0,0:0:0:0:
447,169,341884,5,4,0:0:0:0:
451,138,341952,1,0,0:0:0:0:
424,102,342021,1,0,0:0:0:0:
397,65,342089,1,0,0:0:0:0:
370,29,342157,1,0,0:0:0:0:
510,178,342293,1,0,0:0:0:0:
487,110,342362,1,0,0:0:0:0:
433,38,342430,1,0,0:0:0:0:
128,192,342566,37,4,0:0:0:0:
384,192,342702,1,0,0:0:0:0:
145,256,342839,1,0,0:0:0:0:
366,128,342975,1,4,0:0:0:0:
192,303,343112,1,0,0:0:0:0:
320,82,343248,1,0,0:0:0:0:
256,320,343384,1,0,0:0:0:0:
256,64,343520,1,0,0:0:0:0:
256,320,343657,5,4,0:0:0:0:
256,64,343793,1,0,0:0:0:0:
320,303,343929,1,0,0:0:0:0:
192,82,344065,1,4,0:0:0:0:
366,256,344202,1,0,0:0:0:0:
145,128,344338,1,0,0:0:0:0:
384,192,344475,1,0,0:0:0:0:
128,192,344611,1,0,0:0:0:0:
448,256,344747,37,4,0:0:0:0:
416,256,344815,1,0,0:0:0:0:
384,224,344884,1,0,0:0:0:0:
352,192,344952,1,0,0:0:0:0:
320,160,345020,1,0,0:0:0:0:
448,320,345156,5,4,0:0:0:0:
416,320,345224,1,0,0:0:0:0:
384,288,345293,1,0,0:0:0:0:
352,256,345361,1,0,0:0:0:0:
320,224,345429,1,0,0:0:0:0:
448,384,345565,1,0,0:0:0:0:
384,352,345634,1,0,0:0:0:0:
320,288,345702,1,0,0:0:0:0:
128,160,345838,37,4,0:0:0:0:
124,129,345906,1,0,0:0:0:0:
151,93,345975,1,0,0:0:0:0:
179,57,346043,1,0,0:0:0:0:
206,20,346111,1,0,0:0:0:0:
65,169,346247,5,4,0:0:0:0:
61,138,346315,1,0,0:0:0:0:
88,102,346384,1,0,0:0:0:0:
115,65,346452,1,0,0:0:0:0:
142,29,346520,1,0,0:0:0:0:
2,178,346656,1,0,0:0:0:0:
25,110,346725,1,0,0:0:0:0:
79,38,346793,1,0,0:0:0:0:
256,192,346929,38,4,L|256:352,1,140,4|0,0:0|3:0,0:0:0:0:
256,192,348020,2,4,L|256:352,1,140,4|0,0:0|3:0,0:0:0:0:
32,96,349111,6,6,L|96:320,1,210.000008010865,6|0,0:0|0:0,0:0:0:0:
96,192,349247,1,0,0:0:0:0:
96,192,349520,1,0,0:0:0:0:
96,96,349656,2,6,L|160:320,1,210.000008010865,6|0,0:0|0:0,0:0:0:0:
160,192,349793,1,0,0:0:0:0:
160,192,350065,1,0,0:0:0:0:
160,96,350202,38,6,L|224:320,1,210.000008010865,6|0,0:0|0:0,0:0:0:0:
224,192,350338,1,0,0:0:0:0:
224,192,350611,1,0,0:0:0:0:
224,96,350747,2,6,L|288:320,1,210.000008010865,6|0,0:0|0:0,0:0:0:0:
288,192,350884,1,0,0:0:0:0:
288,192,351156,1,0,0:0:0:0:
32,288,351293,6,6,L|96:64,1,210.000008010865,6|0,0:0|0:0,0:0:0:0:
96,192,351429,1,0,0:0:0:0:
96,192,351702,1,0,0:0:0:0:
96,288,351838,2,6,L|160:64,1,210.000008010865,6|0,0:0|0:0,0:0:0:0:
160,192,351975,1,0,0:0:0:0:
160,192,352247,1,0,0:0:0:0:
160,288,352384,38,6,L|224:64,1,210.000008010865,6|0,0:0|0:0,0:0:0:0:
224,192,352520,1,0,0:0:0:0:
224,192,352793,1,0,0:0:0:0:
224,288,352929,2,6,L|288:64,1,210.000008010865,6|0,0:0|0:0,0:0:0:0:
288,192,353066,1,0,0:0:0:0:
288,192,353338,1,0,0:0:0:0:
480,96,353474,6,6,L|416:320,1,210.000008010865,6|0,0:0|0:0,0:0:0:0:
416,192,353610,1,0,0:0:0:0:
416,192,353883,1,0,0:0:0:0:
416,96,354019,2,6,L|352:320,1,210.000008010865,6|0,0:0|0:0,0:0:0:0:
352,192,354156,1,0,0:0:0:0:
352,192,354428,1,0,0:0:0:0:
352,96,354565,38,6,L|288:320,1,210.000008010865,6|0,0:0|0:0,0:0:0:0:
288,192,354701,1,0,0:0:0:0:
288,192,354974,1,0,0:0:0:0:
288,96,355110,2,6,L|224:320,1,210.000008010865,6|0,0:0|0:0,0:0:0:0:
224,192,355247,1,0,0:0:0:0:
224,192,355519,1,0,0:0:0:0:
224,192,355656,6,0,B|232:299|232:299|294:188|294:188|296:180,1,210.000008010865,6|6,0:0|0:0,0:0:0:0:
224,192,356202,2,0,B|232:299|232:299|294:188|294:188|296:180,1,210.000008010865,6|6,0:0|0:0,0:0:0:0:
480,0,356747,38,2,P|480:48|452:84,2,93.3333333333333,2|2|2,1:0|2:0|2:0,2:0:0:0:
414,30,356884,1,2,0:0:0:0:
414,30,357020,1,2,0:0:0:0:
427,165,357156,1,2,0:0:0:0:
427,165,357224,1,2,0:0:0:0:
427,165,357293,2,2,P|427:117|455:81,2,93.3333333333333,2|2|2,0:0|0:0|2:0,2:0:0:0:
386,162,357565,2,2,L|336:139,1,35
354,147,357702,2,2,L|386:162,1,35
96,96,357838,5,6,0:0:0:0:
96,128,357906,1,0,0:0:0:0:
96,160,357974,1,0,0:0:0:0:
96,192,358043,1,0,0:0:0:0:
96,224,358111,1,2,0:0:0:0:
128,64,358247,37,4,0:0:0:0:
128,96,358315,1,0,0:0:0:0:
128,128,358383,1,2,0:0:0:0:
128,160,358452,1,0,0:0:0:0:
128,192,358520,1,0,0:0:0:0:
160,32,358656,5,2,0:0:0:0:
160,96,358724,1,0,0:0:0:0:
160,160,358793,1,0,0:0:0:0:
416,288,358929,37,6,0:0:0:0:
416,256,358997,1,0,0:0:0:0:
416,224,359065,1,0,0:0:0:0:
416,192,359134,1,0,0:0:0:0:
416,160,359202,1,2,0:0:0:0:
384,320,359338,5,4,0:0:0:0:
384,288,359406,1,0,0:0:0:0:
384,256,359474,1,2,0:0:0:0:
384,224,359543,1,0,0:0:0:0:
384,192,359611,1,0,0:0:0:0:
352,352,359747,37,2,0:0:0:0:
352,288,359815,1,0,0:0:0:0:
352,224,359884,1,0,0:0:0:0:
96,288,360020,5,6,0:0:0:0:
96,256,360088,1,0,0:0:0:0:
96,224,360156,1,0,0:0:0:0:
96,192,360225,1,0,0:0:0:0:
96,160,360293,1,2,0:0:0:0:
128,320,360429,37,4,0:0:0:0:
128,288,360497,1,0,0:0:0:0:
128,256,360565,1,2,0:0:0:0:
128,224,360634,1,0,0:0:0:0:
128,192,360702,1,0,0:0:0:0:
160,352,360838,5,2,0:0:0:0:
160,288,360906,1,0,0:0:0:0:
160,224,360975,1,0,0:0:0:0:
416,96,361111,37,6,0:0:0:0:
416,128,361179,1,0,0:0:0:0:
416,160,361247,1,0,0:0:0:0:
416,192,361316,1,0,0:0:0:0:
416,224,361384,1,2,0:0:0:0:
384,64,361520,5,4,0:0:0:0:
384,96,361588,1,0,0:0:0:0:
384,128,361656,1,2,0:0:0:0:
384,160,361725,1,0,0:0:0:0:
384,192,361793,1,0,0:0:0:0:
352,32,361929,37,2,0:0:0:0:
352,96,361997,1,0,0:0:0:0:
352,160,362066,1,0,0:0:0:0:
352,32,362202,5,6,0:0:0:0:
320,32,362270,1,0,0:0:0:0:
288,32,362338,1,0,0:0:0:0:
256,32,362407,1,0,0:0:0:0:
224,32,362475,1,2,0:0:0:0:
384,64,362611,37,4,0:0:0:0:
352,64,362679,1,0,0:0:0:0:
320,64,362747,1,2,0:0:0:0:
288,63,362816,1,0,0:0:0:0:
256,64,362884,1,0,0:0:0:0:
416,96,363020,5,2,0:0:0:0:
352,96,363088,1,0,0:0:0:0:
288,96,363157,1,0,0:0:0:0:
160,352,363293,37,6,0:0:0:0:
192,352,363361,1,0,0:0:0:0:
224,352,363429,1,0,0:0:0:0:
256,352,363498,1,0,0:0:0:0:
288,352,363566,1,2,0:0:0:0:
128,320,363702,5,4,0:0:0:0:
160,320,363770,1,0,0:0:0:0:
192,320,363838,1,2,0:0:0:0:
224,320,363907,1,0,0:0:0:0:
256,320,363975,1,0,0:0:0:0:
96,288,364111,37,2,0:0:0:0:
160,288,364179,1,0,0:0:0:0:
224,288,364248,1,0,0:0:0:0:
256,192,364384,6,4,L|256:352,1,140,4|0,2:0|3:0,3:0:0:0:
256,192,365474,2,4,L|256:352,1,140,4|0,2:0|3:0,3:0:0:0:
128,0,366565,37,4,0:0:0:0:
192,32,366838,2,0,P|288:32|320:0,3,140
128,96,368747,5,0,0:0:0:0:
192,128,369020,2,0,P|288:128|320:96,3,140
128,192,370929,37,0,0:0:0:0:
192,224,371202,2,0,P|288:224|320:192,3,140
128,288,373111,5,0,0:0:0:0:
192,320,373384,2,0,P|288:320|320:288,3,140
128,384,375293,37,0,0:0:0:0:
192,288,375565,1,2,0:0:0:0:
192,288,375838,1,2,0:0:0:0:
128,384,376384,2,0,L|159:327,1,46.6666666666667,0|2,0:0|0:0,0:0:0:0:
128,384,376656,1,0,0:0:0:0:
152,343,376838,1,2,0:0:0:0:
152,343,377111,2,2,L|131:380,1,23.3333333333333,2|0,0:0|0:0,0:0:0:0:
152,343,377474,2,2,P|195:355|243:342,1,93.3333333333333
152,343,378293,1,0,0:0:0:0:
384,0,379656,5,0,0:0:0:0:
320,96,379928,1,2,0:0:0:0:
320,96,380201,1,2,0:0:0:0:
384,0,380747,2,0,L|352:56,1,46.6666666666667,0|2,0:0|0:0,0:0:0:0:
384,0,381019,1,0,0:0:0:0:
360,41,381201,1,2,0:0:0:0:
360,41,381474,2,2,L|381:4,1,23.3333333333333,2|0,0:0|0:0,0:0:0:0:
360,41,381837,2,2,P|317:29|269:42,1,93.3333333333333
360,41,382656,1,0,0:0:0:0:
96,192,384020,38,0,L|96:256,2,46.6666666666667,2|0|0,0:0|0:0|0:0,0:0:0:0:
128,192,384293,2,2,L|128:256,1,46.6666666666667,2|0,0:0|0:0,0:0:0:0:
160,192,384474,1,2,0:0:0:0:
192,192,384565,2,2,L|192:256,2,46.6666666666667,2|0|0,0:0|0:0|0:0,0:0:0:0:
224,192,384838,2,2,L|224:256,2,46.6666666666667,2|0|0,0:0|0:0|0:0,0:0:0:0:
256,192,385111,2,2,L|256:256,1,46.6666666666667,2|0,0:0|0:0,0:0:0:0:
288,192,385293,1,2,0:0:0:0:
320,192,385384,2,2,L|320:256,1,46.6666666666667,2|0,0:0|0:0,0:0:0:0:
352,192,385565,2,2,L|352:256,2,46.6666666666667,2|0|0,0:0|0:0|0:0,0:0:0:0:
384,192,385838,1,2,0:0:0:0:
416,192,385929,6,2,L|416:256,2,46.6666666666667,0|0|0,0:0|0:0|0:0,0:0:0:0:
