osu file format v14

[General]
AudioFilename: audio.mp3
AudioLeadIn: 0
PreviewTime: 693767
Countdown: 0
SampleSet: None
StackLeniency: 0.7
Mode: 1
LetterboxInBreaks: 0
WidescreenStoryboard: 0

[Editor]
DistanceSpacing: 1
BeatDivisor: 4
GridSize: 32
TimelineZoom: 1

[Metadata]
Title:Because Maybe! Pt. 1
TitleUnicode:Because Maybe! Pt. 1
Artist:Renard
ArtistUnicode:Renard
Creator:mikku1
Version:Don Paul Inners a MFing Oni
Source:
Tags:breakcore renard ren queenston dave remmler lapfox trax halley labs best of vol. 1 volume because maybe full album go to the party dracula i'm a blind cave salamander sean paul opens a mfing casino with me banned forever wrecka team murder namx sinisterrrrrrrr push cycles smoke tower spacedragonstyle raggamissile bumblefuck fuck your rails too dear spark chelsea smile lets move tu4ar the entire world
BeatmapID:1686761
BeatmapSetID:803645

[Difficulty]
HPDrainRate:6
CircleSize:5
OverallDifficulty:8
ApproachRate:9
SliderMultiplier:1.4
SliderTickRate:1

[Events]
//Background and Video events
0,0,"cover.jpg",0,0
//Break Periods
//Storyboard Layer 0 (Background)
//Storyboard Layer 1 (Fail)
//Storyboard Layer 2 (Pass)
//Storyboard Layer 3 (Foreground)
//Storyboard Sound Samples

[TimingPoints]
39.8855580729144,272.727142857144,4,1,0,100,1,0
17477,272.727142857144,4,1,0,100,1,0
25676,272.727142857144,4,1,0,100,1,0
25676,-50,4,1,0,100,0,0
25721,-52.6315789473684,4,1,0,100,0,0
25766,-55.5555555555556,4,1,0,100,0,0
25812,-58.8235294117647,4,1,0,100,0,0
25857,-62.5,4,1,0,100,0,0
25903,-66.6666666666667,4,1,0,100,0,0
25948,-71.4285714285714,4,1,0,100,0,0
25994,-76.9230769230769,4,1,0,100,0,0
26039,-83.3333333333333,4,1,0,100,0,0
26085,-90.9090909090909,4,1,0,100,0,0
26130,-93.7500585937866,4,1,0,100,0,0
26175,-96.7741935483871,4,1,0,100,0,0
26210,272.727142857144,4,1,0,100,1,0
33857,272.727142857144,4,1,0,100,1,0
33993,272.727142857144,4,1,0,100,1,0
34061,272.727142857144,4,1,0,100,1,0
34129,272.727142857144,4,1,0,100,1,0
34265,272.727142857144,4,1,0,100,1,0
34401,272.727142857144,4,1,0,100,1,0
34930,272.727142857144,4,1,0,100,1,0
51293,272.727142857144,4,1,0,100,1,0
51429,272.727142857144,4,1,0,100,1,0
51497,272.727142857144,4,1,0,100,1,0
51565,272.727142857144,4,1,0,100,1,0
51701,272.727142857144,4,1,0,100,1,0
51837,272.727142857144,4,1,0,100,1,0
52155,-90.9090909090909,4,1,0,100,0,0
52200,-83.3333333333333,4,1,0,100,0,0
52246,-76.9230769230769,4,1,0,100,0,0
52291,-71.4285714285714,4,1,0,100,0,0
52336,-66.6666666666667,4,1,0,100,0,0
52382,272.727142857144,4,1,0,100,1,0
52382,-66.6666666666667,4,1,0,100,0,0
52450,-67.7966101694915,4,1,0,100,0,0
52518,-68.9655172413793,4,1,0,100,0,0
52586,-70.1754385964912,4,1,0,100,0,0
52654,-71.4285714285714,4,1,0,100,0,0
52722,-72.7272727272727,4,1,0,100,0,0
52791,-74.0740740740741,4,1,0,100,0,0
52859,-75.4716981132076,4,1,0,100,0,0
52927,-76.9230769230769,4,1,0,100,0,0
52995,-78.4313725490196,4,1,0,100,0,0
53063,-80,4,1,0,100,0,0
53131,-81.6326530612245,4,1,0,100,0,0
53200,-83.3333333333333,4,1,0,100,0,0
53268,-85.1063829787234,4,1,0,100,0,0
53336,-86.9565217391304,4,1,0,100,0,0
53404,-88.8888888888889,4,1,0,100,0,0
53472,-90.9090909090909,4,1,0,100,0,0
53541,-93.0232558139535,4,1,0,100,0,0
53609,-95.2380952380952,4,1,0,100,0,0
53677,-97.5609756097561,4,1,0,100,0,0
53745,-100,4,1,0,100,0,0
93839,-50,4,1,0,100,0,0
94109,-66.6666666666667,4,1,0,100,0,0
94381,-80,4,1,0,100,0,0
94654,-100,4,1,0,100,0,0
94927,272.727142857144,4,1,0,100,1,0
95063,272.727142857144,4,1,0,100,1,0
95131,272.727142857144,4,1,0,100,1,0
95199,272.727142857144,4,1,0,100,1,0
95335,272.727142857144,4,1,0,100,1,0
95471,272.727142857144,4,1,0,100,1,0
96016,272.727142857144,4,1,0,100,1,0
131743,-400,4,1,0,100,0,0
148379,-100,4,1,0,100,0,1
163106,-90.9090909090909,4,1,0,100,0,0
163379,-83.3333333333333,4,1,0,100,0,0
163652,-76.9230769230769,4,1,0,100,0,0
163925,-71.4285714285714,4,1,0,100,0,0
164197,-66.6666666666667,4,1,0,100,0,0
164470,-62.5,4,1,0,100,0,0
164743,-58.8235294117647,4,1,0,100,0,0
165015,-55.5555555555556,4,1,0,100,0,0
165288,-52.6315789473684,4,1,0,100,0,0
165561,-50,4,1,0,100,0,0
165834,-200,4,1,0,100,0,0
174561,-100,4,1,0,100,0,1
192015,-100,4,1,0,100,0,0
209470,272.727142857144,4,1,0,100,1,0
244379,-100,4,2,0,80,0,0
261833,-100,4,1,0,100,0,0
279288,-100,4,2,0,80,0,0
294560,-100,4,1,0,100,0,0
330560,-100,4,2,0,90,0,0
331651,-100,4,1,0,100,0,1
346924,-100,4,1,0,100,0,0
349106,-100,4,1,0,100,0,1
364379,-100,4,1,0,100,0,0
366560,-100,4,2,0,75,0,0
386210,272.727142857144,4,1,0,100,1,0
403664,-133.333333333333,4,2,0,40,0,0
412391,-100,4,1,0,100,0,0
421391,-133.333333333333,4,2,0,100,0,0
423300,-100,4,1,0,90,0,0
432028,-100,4,1,0,100,0,0
439664,-100,4,2,0,70,0,0
440755,-100,4,1,0,100,0,1
457119,-100,4,1,0,90,0,0
458209,-100,4,2,0,100,0,0
466937,-100,4,1,0,100,0,0
477846,-100,4,2,0,75,0,0
486573,-100,4,1,0,100,0,0
495300,-100,4,1,0,80,0,0
504028,-100,4,1,0,90,0,0
512755,-100,4,1,0,100,0,1
520391,-100,4,1,0,100,0,0
521209,-100,4,1,0,100,0,1
530209,-100,4,1,0,80,0,0
538937,-100,4,1,0,90,0,0
549846,-100,4,1,0,100,0,0
567290,272.727142857144,4,1,0,50,1,0
571653,-100,4,1,0,65,0,0
573835,-100,4,1,0,70,0,0
576017,-100,4,1,0,75,0,0
578199,-100,4,1,0,85,0,0
580380,-100,4,1,0,95,0,0
584744,-100,4,1,0,100,0,1
602199,-100,4,1,0,100,0,0
618562,-100,4,1,0,50,0,0
619653,-100,4,1,0,100,0,1
656744,-100,4,1,0,50,0,0
657835,-100,4,1,0,50,0,0
658926,-100,4,1,0,100,0,0
693835,-100,4,1,0,75,0,0
711289,-100,4,1,0,100,0,1
730926,-100,4,1,0,100,0,0
735289,1000000000,4,1,0,100,1,0
737470,272.727142857144,4,1,0,100,1,0
739651,1000000000,4,1,0,100,1,0
741832,272.727142857144,4,1,0,100,1,0
744013,1000000000,4,1,0,100,1,0
746194,272.727142857144,4,1,0,100,1,0
748375,272.727142857144,4,1,0,100,1,0
768017,-100,4,2,0,90,0,0
776744,-100,4,1,0,95,0,0
820380,-100,4,1,0,100,0,1
855289,-100,4,1,0,100,0,0
872744,-100,4,1,0,100,0,1
907653,-100,4,1,0,75,0,0
942562,-100,4,1,0,100,0,0
960017,-100,4,2,0,80,0,0
977471,-100,4,1,0,100,0,0
994926,-100,4,1,0,100,0,1
1012380,-100,4,1,0,100,0,0
1029835,-100,4,1,0,75,0,0
1047289,-100,4,1,0,100,0,0
1064744,-100,4,1,0,100,0,1
1080017,-100,4,1,0,100,0,0
1082198,-100,4,2,0,75,0,0
1099653,-100,4,1,0,75,0,0
1117107,-100,4,1,0,100,0,0
1134562,-100,4,1,0,100,0,1
1152000,272.727142857144,4,1,0,100,1,0
1186909,-100,4,2,0,75,0,0
1195636,-100,4,2,0,85,0,0
1213090,-100,4,1,0,90,0,0
1221818,-100,4,1,0,100,0,0
1241454,-100,4,2,0,5,0,0
1241727,-100,4,2,0,10,0,0
1241999,-100,4,2,0,15,0,0
1242272,-100,4,2,0,25,0,0
1242545,-100,4,2,0,35,0,0
1242818,-100,4,2,0,45,0,0
1243090,-100,4,2,0,55,0,0
1243363,-100,4,2,0,65,0,0
1243630,272.727142857144,4,1,0,100,1,0
1243636,-100,4,2,0,75,0,0
1252363,-100,4,1,0,100,0,0
1309090,-100,4,1,0,100,0,1
1326545,-100,4,2,0,100,0,0
1335272,-100,4,1,0,100,0,0
1418727,-100,4,2,0,70,0,0
1435636,-100,4,1,0,100,0,0
1444397,-100,4,1,0,100,0,1
1470545,-100,4,1,0,100,0,0
1479260,272.727142857144,4,1,0,100,1,0
1549090,-100,4,1,0,100,0,1
1565454,-100,4,2,0,90,0,0
1566545,-100,4,1,0,100,0,0
1588363,-100,4,1,0,100,0,1
1601454,-100,4,1,0,80,0,0
1618908,-100,4,1,0,100,0,1
1653817,-100,4,1,0,100,0,0
1723623,-100,4,1,0,100,0,1
1756363,-100,4,1,0,100,0,0
1793454,-100,4,1,0,100,0,1
1810908,-100,4,1,0,100,0,0
1828363,-100,4,1,0,100,0,1
1861090,-100,4,1,0,100,0,0
1915630,272.727142857144,4,1,0,100,1,0
2057440,272.727142857144,4,1,0,100,1,0
2074908,-100,4,1,0,100,0,1
2092363,-100,4,1,0,100,0,0
2127272,-100,4,1,0,100,0,1
2143635,-100,4,1,0,100,0,0
2162181,-100,4,1,0,100,0,1
2179635,-100,4,1,0,100,0,0
2249400,272.727142857144,4,1,0,100,1,0
2249400,-133.333333333333,4,2,0,70,0,0
2257036,-100,4,1,0,80,0,0
2258127,-100,4,1,0,100,0,0
2336672,-133.333333333333,4,2,0,80,0,0
2344309,-111.111111111111,4,1,0,90,0,0
2353036,-100,4,1,0,100,0,0
2379218,-100,4,1,0,100,0,1
2396672,-133.333333333333,4,2,0,90,0,0
2404309,-100,4,1,0,100,0,0
2439230,272.727142857144,4,1,0,100,1,0
2447957,-100,4,1,0,100,0,1
2465411,-200,4,1,0,100,0,0
2474139,-100,4,1,0,100,0,0
2479729,-95.2380952380952,4,1,0,100,0,0
2479866,-90.9090909090909,4,1,0,100,0,0
2480002,-86.9565217391304,4,1,0,100,0,0
2480139,-83.3333333333333,4,1,0,100,0,0
2480275,-80,4,1,0,100,0,0
2480411,-76.9230769230769,4,1,0,100,0,0
2480548,-74.0740740740741,4,1,0,100,0,0
2480684,-71.4285714285714,4,1,0,100,0,0
2480820,-68.9655172413793,4,1,0,100,0,0
2480957,-66.6666666666667,4,1,0,100,0,0
2481093,-64.5161290322581,4,1,0,100,0,0
2481229,-62.5,4,1,0,100,0,0
2481366,-60.6060606060606,4,1,0,100,0,0
2481502,-58.8235294117647,4,1,0,100,0,0
2481639,-57.1428571428571,4,1,0,100,0,0
2481775,-55.5555555555556,4,1,0,100,0,0
2481911,-54.054054054054,4,1,0,100,0,0
2482048,-52.6315789473684,4,1,0,100,0,0
2482184,-51.2820512820513,4,1,0,100,0,0
2482320,-50,4,1,0,100,0,0
2482866,-100,4,1,0,100,0,0
2538502,-100,4,2,0,100,0,0
2547229,-100,4,1,0,100,0,1
2563593,-100,4,1,0,100,0,0
2564120,272.727142857144,4,1,0,100,1,0
2564665,272.727142857144,4,1,0,100,1,0
2617029,-66.6666666666667,4,1,0,100,0,0
2625756,-100,4,1,0,100,0,0
2627938,-66.6666666666667,4,1,0,100,0,0
2630119,-100,4,1,0,100,0,0
2632301,-66.6666666666667,4,1,0,100,0,0
2634483,-100,4,1,0,100,0,0
2704301,-200,4,1,0,100,0,0
2721210,-100,4,1,0,100,0,1
2739210,-100,4,1,0,100,0,0
2739755,-200,4,1,0,100,0,0
2757210,-250,4,1,0,100,0,0
2759392,-333.333333333333,4,1,0,100,0,0
2761573,-500,4,1,0,100,0,0
2765392,-100,4,1,0,100,0,1
2787210,-100,4,1,0,100,0,0
2824301,-200,4,1,0,100,0,0
2857028,-100,4,1,0,100,0,1
2878846,-200,4,1,0,100,0,0
2881020,249.999890873012,4,1,0,100,1,0
2897019,-200,4,1,0,100,0,0
2905019,-133.333333333333,4,1,0,100,0,0
2913019,-100,4,1,0,100,0,0
2945019,-200,4,1,0,100,0,0
2953019,-100,4,1,0,100,0,0
2977010,249.999890873012,4,1,0,100,1,0
3025009,-200,4,1,0,100,0,0
3033009,-100,4,1,0,100,0,0
3057009,-100,4,1,0,100,0,1
3089009,-100,4,1,0,100,0,0
3121009,-200,4,1,0,100,0,0
3129009,-100,4,1,0,100,0,0
3137009,-100,4,1,0,100,0,1
3153009,-200,4,1,0,100,0,0
3168009,-100,4,1,0,100,0,0
3217259,-200,4,1,0,100,0,0
3233009,-100,4,1,0,100,0,0
3250980,249.999890873012,4,1,0,100,1,0
3336979,-100,4,1,0,100,0,1
3384979,-100,4,1,0,100,0,0
3385229,251.046025104603,4,1,0,100,1,8
3385480,252.100840336134,4,1,0,100,1,8
3385732,253.164556962025,4,1,0,100,1,8
3385985,254.237288135593,4,1,0,100,1,8
3386239,255.31914893617,4,1,0,100,1,8
3386494,256.410256410256,4,1,0,100,1,8
3386750,257.510729613734,4,1,0,100,1,8
3387007,258.620689655172,4,1,0,100,1,8
3387265,259.74025974026,4,1,0,100,1,8
3387524,260.869565217391,4,1,0,100,1,8
3387784,262.008733624454,4,1,0,100,1,8
3388046,263.157894736842,4,1,0,100,1,8
3388309,264.31718061674,4,1,0,100,1,8
3388573,265.486725663717,4,1,0,100,1,8
3388838,266.666666666667,4,1,0,100,1,8
3389104,267.857142857143,4,1,0,100,1,8
3389371,269.058295964126,4,1,0,100,1,8
3389640,270.27027027027,4,1,0,100,1,8
3389910,271.493212669683,4,1,0,100,1,8
3390181,272.727272727273,4,1,0,100,1,8
3390453,273.972602739726,4,1,0,100,1,8
3390726,275.229357798165,4,1,0,100,1,8
3391001,276.497695852535,4,1,0,100,1,8
3391277,277.777777777778,4,1,0,100,1,8
3391554,279.06976744186,4,1,0,100,1,8
3391833,280.373831775701,4,1,0,100,1,8
3392113,281.69014084507,4,1,0,100,1,8
3392394,283.018867924528,4,1,0,100,1,8
3392677,284.36018957346,4,1,0,100,1,8
3392961,285.714285714286,4,1,0,100,1,8
3393246,287.081339712919,4,1,0,100,1,8
3393533,288.461538461538,4,1,0,100,1,8
3393821,289.855072463768,4,1,0,100,1,8
3393979,249.999890873012,4,1,0,100,1,0
3393979,-200,4,1,0,100,0,0

[Colours]
Combo1 : 0,255,255
Combo2 : 128,0,128

[HitObjects]
256,192,567290,5,4,0:0:0:0:
256,192,567562,1,0,0:0:0:0:
256,192,567653,1,8,0:0:0:0:
256,192,567699,1,0,0:0:0:0:
256,192,567835,1,8,0:0:0:0:
256,192,568108,1,0,0:0:0:0:
256,192,568380,1,0,0:0:0:0:
256,192,568517,1,0,0:0:0:0:
256,192,568653,1,8,0:0:0:0:
256,192,569471,1,8,0:0:0:0:
256,192,569744,1,0,0:0:0:0:
256,192,569880,1,0,0:0:0:0:
256,192,570017,1,8,0:0:0:0:
256,192,570289,1,8,0:0:0:0:
256,192,570562,1,0,0:0:0:0:
256,192,570699,1,0,0:0:0:0:
256,192,570835,1,8,0:0:0:0:
256,192,571653,1,8,0:0:0:0:
256,192,571926,1,0,0:0:0:0:
256,192,572062,1,0,0:0:0:0:
256,192,572199,1,8,0:0:0:0:
256,192,572471,1,8,0:0:0:0:
256,192,572744,1,0,0:0:0:0:
256,192,572880,1,0,0:0:0:0:
256,192,573017,1,8,0:0:0:0:
256,192,573835,1,8,0:0:0:0:
256,192,574108,1,0,0:0:0:0:
256,192,574244,1,0,0:0:0:0:
256,192,574380,1,8,0:0:0:0:
256,192,574653,1,8,0:0:0:0:
256,192,574926,1,0,0:0:0:0:
256,192,575062,1,0,0:0:0:0:
256,192,575199,1,8,0:0:0:0:
256,192,576017,1,8,0:0:0:0:
256,192,576289,1,0,0:0:0:0:
256,192,576426,1,0,0:0:0:0:
256,192,576562,1,8,0:0:0:0:
256,192,576835,1,8,0:0:0:0:
256,192,577108,1,0,0:0:0:0:
256,192,577244,1,0,0:0:0:0:
256,192,577380,1,8,0:0:0:0:
256,192,578199,1,8,0:0:0:0:
256,192,578471,1,0,0:0:0:0:
256,192,578608,1,0,0:0:0:0:
256,192,578744,1,8,0:0:0:0:
256,192,579017,1,8,0:0:0:0:
256,192,579289,1,0,0:0:0:0:
256,192,579426,1,0,0:0:0:0:
256,192,579562,1,8,0:0:0:0:
256,192,580380,1,0,0:0:0:0:
256,192,580653,1,0,0:0:0:0:
256,192,580789,1,0,0:0:0:0:
256,192,580926,1,8,0:0:0:0:
256,192,581199,1,0,0:0:0:0:
256,192,581471,1,0,0:0:0:0:
256,192,581608,1,0,0:0:0:0:
256,192,581744,1,8,0:0:0:0:
256,192,582562,1,0,0:0:0:0:
256,192,582835,1,0,0:0:0:0:
256,192,582971,1,0,0:0:0:0:
256,192,583108,1,8,0:0:0:0:
256,192,583380,1,0,0:0:0:0:
256,192,583653,1,0,0:0:0:0:
256,192,583789,1,0,0:0:0:0:
256,192,583926,1,8,0:0:0:0:
256,192,583971,1,0,0:0:0:0:
256,192,584017,1,0,0:0:0:0:
256,192,584062,1,8,0:0:0:0:
256,192,584199,1,8,0:0:0:0:
256,192,584267,1,0,0:0:0:0:
256,192,584335,1,0,0:0:0:0:
256,192,584403,1,8,0:0:0:0:
256,192,584471,1,0,0:0:0:0:
256,192,584608,1,0,0:0:0:0:
256,192,584744,1,12,0:0:0:0:
256,192,584880,1,0,0:0:0:0:
256,192,585017,1,0,0:0:0:0:
256,192,585153,1,0,0:0:0:0:
256,192,585289,1,8,0:0:0:0:
256,192,585426,1,0,0:0:0:0:
256,192,585562,1,8,0:0:0:0:
256,192,585630,1,0,0:0:0:0:
256,192,585699,1,0,0:0:0:0:
256,192,585767,1,8,0:0:0:0:
256,192,585835,1,0,0:0:0:0:
256,192,585971,1,0,0:0:0:0:
256,192,586108,1,8,0:0:0:0:
256,192,586244,1,0,0:0:0:0:
256,192,586380,1,8,0:0:0:0:
256,192,586517,1,0,0:0:0:0:
256,192,586585,1,8,0:0:0:0:
256,192,586653,1,8,0:0:0:0:
256,192,586721,1,0,0:0:0:0:
256,192,586789,1,0,0:0:0:0:
256,192,586858,1,8,0:0:0:0:
256,192,586926,1,8,0:0:0:0:
256,192,587062,1,0,0:0:0:0:
256,192,587199,1,0,0:0:0:0:
256,192,587335,1,0,0:0:0:0:
256,192,587471,1,8,0:0:0:0:
256,192,587608,1,0,0:0:0:0:
256,192,587744,1,8,0:0:0:0:
256,192,587812,1,0,0:0:0:0:
256,192,587880,1,0,0:0:0:0:
256,192,587949,1,8,0:0:0:0:
256,192,588017,1,0,0:0:0:0:
256,192,588153,1,0,0:0:0:0:
256,192,588289,1,8,0:0:0:0:
256,192,588426,1,0,0:0:0:0:
256,192,588562,1,0,0:0:0:0:
256,192,588699,1,0,0:0:0:0:
256,192,588767,1,8,0:0:0:0:
256,192,588835,1,8,0:0:0:0:
256,192,588903,1,0,0:0:0:0:
256,192,588971,1,0,0:0:0:0:
256,192,589039,1,8,0:0:0:0:
256,192,589108,1,0,0:0:0:0:
256,192,589244,1,8,0:0:0:0:
256,192,589380,1,0,0:0:0:0:
256,192,589517,1,0,0:0:0:0:
256,192,589653,1,8,0:0:0:0:
256,192,589789,1,0,0:0:0:0:
256,192,589926,1,8,0:0:0:0:
256,192,589994,1,0,0:0:0:0:
256,192,590062,1,0,0:0:0:0:
256,192,590130,1,8,0:0:0:0:
256,192,590199,1,0,0:0:0:0:
256,192,590335,1,0,0:0:0:0:
256,192,590471,1,8,0:0:0:0:
256,192,590608,1,0,0:0:0:0:
256,192,590744,1,0,0:0:0:0:
256,192,590880,1,0,0:0:0:0:
256,192,590949,1,8,0:0:0:0:
256,192,591017,1,8,0:0:0:0:
256,192,591085,1,0,0:0:0:0:
256,192,591153,1,0,0:0:0:0:
256,192,591221,1,8,0:0:0:0:
256,192,591289,1,0,0:0:0:0:
256,192,591426,1,8,0:0:0:0:
256,192,591562,1,0,0:0:0:0:
256,192,591699,1,0,0:0:0:0:
256,192,591835,1,8,0:0:0:0:
256,192,591971,1,0,0:0:0:0:
256,192,592108,1,8,0:0:0:0:
256,192,592176,1,0,0:0:0:0:
256,192,592244,1,0,0:0:0:0:
256,192,592312,1,8,0:0:0:0:
256,192,592380,1,0,0:0:0:0:
256,192,592517,1,0,0:0:0:0:
256,192,592653,1,8,0:0:0:0:
256,192,592789,1,8,0:0:0:0:
256,192,592926,1,0,0:0:0:0:
256,192,593062,1,0,0:0:0:0:
256,192,593130,1,8,0:0:0:0:
256,192,593199,1,8,0:0:0:0:
256,192,593267,1,0,0:0:0:0:
256,192,593335,1,0,0:0:0:0:
256,192,593403,1,8,0:0:0:0:
256,192,593471,1,8,0:0:0:0:
256,192,593608,1,0,0:0:0:0:
256,192,593744,1,0,0:0:0:0:
256,192,593880,1,0,0:0:0:0:
256,192,594017,1,8,0:0:0:0:
256,192,594153,1,0,0:0:0:0:
256,192,594289,1,8,0:0:0:0:
256,192,594358,1,0,0:0:0:0:
256,192,594426,1,0,0:0:0:0:
256,192,594494,1,8,0:0:0:0:
256,192,594562,1,0,0:0:0:0:
256,192,594699,1,8,0:0:0:0:
256,192,594835,1,8,0:0:0:0:
256,192,594971,1,0,0:0:0:0:
256,192,595108,1,0,0:0:0:0:
256,192,595244,1,0,0:0:0:0:
256,192,595312,1,8,0:0:0:0:
256,192,595380,1,8,0:0:0:0:
256,192,595449,1,0,0:0:0:0:
256,192,595517,1,0,0:0:0:0:
256,192,595585,1,8,0:0:0:0:
256,192,595653,1,8,0:0:0:0:
256,192,595789,1,0,0:0:0:0:
256,192,595926,1,8,0:0:0:0:
256,192,596062,1,8,0:0:0:0:
256,192,596199,1,8,0:0:0:0:
256,192,596335,1,0,0:0:0:0:
256,192,596471,1,8,0:0:0:0:
256,192,596539,1,0,0:0:0:0:
256,192,596608,1,0,0:0:0:0:
256,192,596676,1,8,0:0:0:0:
256,192,596744,1,0,0:0:0:0:
256,192,596880,1,0,0:0:0:0:
256,192,597017,1,8,0:0:0:0:
256,192,597153,1,0,0:0:0:0:
256,192,597289,1,0,0:0:0:0:
256,192,597426,1,0,0:0:0:0:
256,192,597494,1,8,0:0:0:0:
256,192,597562,1,8,0:0:0:0:
256,192,597630,1,0,0:0:0:0:
256,192,597699,1,0,0:0:0:0:
256,192,597767,1,8,0:0:0:0:
256,192,597835,1,0,0:0:0:0:
256,192,597971,1,8,0:0:0:0:
256,192,598108,1,0,0:0:0:0:
256,192,598244,1,0,0:0:0:0:
256,192,598380,1,12,0:0:0:0:
256,192,598517,1,0,0:0:0:0:
256,192,598653,1,8,0:0:0:0:
256,192,598721,1,0,0:0:0:0:
256,192,598789,1,0,0:0:0:0:
256,192,598858,1,8,0:0:0:0:
256,192,598926,1,0,0:0:0:0:
256,192,599062,1,8,0:0:0:0:
256,192,599199,1,8,0:0:0:0:
256,192,599335,1,0,0:0:0:0:
256,192,599471,1,12,0:0:0:0:
256,192,599608,1,0,0:0:0:0:
256,192,599676,1,8,0:0:0:0:
256,192,599744,1,8,0:0:0:0:
256,192,599812,1,0,0:0:0:0:
256,192,599880,1,0,0:0:0:0:
256,192,599949,1,8,0:0:0:0:
256,192,600017,1,8,0:0:0:0:
256,192,600153,1,0,0:0:0:0:
256,192,600289,1,12,0:0:0:0:
256,192,600426,1,0,0:0:0:0:
256,192,600562,1,12,0:0:0:0:
256,192,600699,1,0,0:0:0:0:
256,192,600835,1,12,0:0:0:0:
256,192,600971,1,0,0:0:0:0:
256,192,601039,1,0,0:0:0:0:
256,192,601108,1,0,0:0:0:0:
256,192,601244,1,0,0:0:0:0:
256,192,601380,1,8,0:0:0:0:
256,192,602199,1,4,0:0:0:0:
256,192,602369,1,0,0:0:0:0:
256,192,602505,1,8,0:0:0:0:
256,192,602642,1,0,0:0:0:0:
256,192,602778,1,8,0:0:0:0:
256,192,602914,1,8,0:0:0:0:
256,192,603051,1,0,0:0:0:0:
256,192,603187,1,0,0:0:0:0:
256,192,603324,1,8,0:0:0:0:
256,192,603460,1,0,0:0:0:0:
256,192,603596,1,8,0:0:0:0:
256,192,603733,1,0,0:0:0:0:
256,192,603869,1,8,0:0:0:0:
256,192,604005,1,8,0:0:0:0:
256,192,604142,1,0,0:0:0:0:
256,192,604414,1,8,0:0:0:0:
256,192,604551,1,0,0:0:0:0:
256,192,604687,1,8,0:0:0:0:
256,192,604824,1,0,0:0:0:0:
256,192,604960,1,8,0:0:0:0:
256,192,605233,1,0,0:0:0:0:
256,192,605505,1,8,0:0:0:0:
256,192,605642,1,8,0:0:0:0:
256,192,605778,1,8,0:0:0:0:
256,192,605914,1,0,0:0:0:0:
256,192,606051,1,8,0:0:0:0:
256,192,606187,1,8,0:0:0:0:
256,192,606324,1,8,0:0:0:0:
256,192,606869,1,8,0:0:0:0:
256,192,607005,1,0,0:0:0:0:
256,192,607142,1,8,0:0:0:0:
256,192,607278,1,8,0:0:0:0:
256,192,607414,1,0,0:0:0:0:
256,192,607551,1,8,0:0:0:0:
256,192,607687,1,0,0:0:0:0:
256,192,607824,1,8,0:0:0:0:
256,192,607960,1,0,0:0:0:0:
256,192,608233,1,8,0:0:0:0:
256,192,608369,1,8,0:0:0:0:
256,192,608505,1,0,0:0:0:0:
256,192,608642,1,0,0:0:0:0:
256,192,608812,1,0,0:0:0:0:
256,192,609051,1,8,0:0:0:0:
256,192,609187,1,0,0:0:0:0:
256,192,609324,1,0,0:0:0:0:
256,192,609426,1,0,0:0:0:0:
256,192,609562,1,0,0:0:0:0:
256,192,609699,1,0,0:0:0:0:
256,192,609835,1,8,0:0:0:0:
256,192,609971,1,8,0:0:0:0:
256,192,610142,1,8,0:0:0:0:
256,192,610414,1,8,0:0:0:0:
256,192,610551,1,8,0:0:0:0:
256,192,610926,1,0,0:0:0:0:
256,192,611062,1,0,0:0:0:0:
256,192,611199,1,8,0:0:0:0:
256,192,611335,1,0,0:0:0:0:
256,192,611471,1,8,0:0:0:0:
256,192,611608,1,0,0:0:0:0:
256,192,611744,1,8,0:0:0:0:
256,192,611880,1,0,0:0:0:0:
256,192,611949,1,8,0:0:0:0:
256,192,612017,1,0,0:0:0:0:
256,192,612153,1,8,0:0:0:0:
256,192,612289,1,0,0:0:0:0:
256,192,612426,1,0,0:0:0:0:
256,192,612562,1,8,0:0:0:0:
256,192,612699,1,8,0:0:0:0:
256,192,612767,1,0,0:0:0:0:
256,192,612835,1,8,0:0:0:0:
256,192,612903,1,0,0:0:0:0:
256,192,612971,1,0,0:0:0:0:
256,192,613039,1,8,0:0:0:0:
256,192,613108,1,0,0:0:0:0:
256,192,613244,1,8,0:0:0:0:
256,192,613380,1,0,0:0:0:0:
256,192,613517,1,0,0:0:0:0:
256,192,613653,1,8,0:0:0:0:
256,192,613789,1,0,0:0:0:0:
256,192,613926,1,8,0:0:0:0:
256,192,613994,1,0,0:0:0:0:
256,192,614062,1,0,0:0:0:0:
256,192,614130,1,8,0:0:0:0:
256,192,614199,1,0,0:0:0:0:
256,192,614335,1,0,0:0:0:0:
256,192,614471,1,0,0:0:0:0:
256,192,614608,1,0,0:0:0:0:
256,192,614744,1,8,0:0:0:0:
256,192,614880,1,0,0:0:0:0:
256,192,614949,1,8,0:0:0:0:
256,192,615017,1,8,0:0:0:0:
256,192,615153,1,0,0:0:0:0:
256,192,615221,1,8,0:0:0:0:
256,192,615289,1,0,0:0:0:0:
256,192,615426,1,0,0:0:0:0:
256,192,615562,1,8,0:0:0:0:
256,192,615699,1,0,0:0:0:0:
256,192,615835,1,8,0:0:0:0:
256,192,615971,1,0,0:0:0:0:
256,192,616108,1,8,0:0:0:0:
256,192,616176,1,0,0:0:0:0:
256,192,616244,1,0,0:0:0:0:
256,192,616312,1,8,0:0:0:0:
256,192,616380,1,0,0:0:0:0:
256,192,616517,1,0,0:0:0:0:
256,192,616653,1,0,0:0:0:0:
256,192,616789,1,0,0:0:0:0:
256,192,616926,1,0,0:0:0:0:
256,192,617062,1,8,0:0:0:0:
256,192,617130,1,8,0:0:0:0:
256,192,617199,1,8,0:0:0:0:
256,192,617267,1,0,0:0:0:0:
256,192,617335,1,0,0:0:0:0:
256,192,617403,1,8,0:0:0:0:
256,192,617471,1,0,0:0:0:0:
256,192,617608,1,8,0:0:0:0:
256,192,617744,1,0,0:0:0:0:
256,192,617880,1,0,0:0:0:0:
256,192,618017,1,8,0:0:0:0:
256,192,618153,1,0,0:0:0:0:
256,192,618289,1,8,0:0:0:0:
256,192,618426,1,0,0:0:0:0:
256,192,618494,1,8,0:0:0:0:
256,192,618562,1,8,0:0:0:0:
256,192,618835,1,0,0:0:0:0:
256,192,618880,1,0,0:0:0:0:
256,192,618926,1,0,0:0:0:0:
256,192,618971,1,8,0:0:0:0:
256,192,619108,1,8,0:0:0:0:
256,192,619176,1,0,0:0:0:0:
256,192,619244,1,0,0:0:0:0:
256,192,619312,1,8,0:0:0:0:
256,192,619380,1,0,0:0:0:0:
256,192,619517,1,0,0:0:0:0:
256,192,619653,1,12,0:0:0:0:
256,192,619789,1,0,0:0:0:0:
256,192,619926,1,0,0:0:0:0:
256,192,620062,1,8,0:0:0:0:
256,192,620199,1,0,0:0:0:0:
256,192,620335,1,0,0:0:0:0:
256,192,620471,1,8,0:0:0:0:
256,192,620608,1,0,0:0:0:0:
256,192,620744,1,8,0:0:0:0:
256,192,620880,1,0,0:0:0:0:
256,192,620949,1,0,0:0:0:0:
256,192,621017,1,8,0:0:0:0:
256,192,621153,1,0,0:0:0:0:
256,192,621289,1,8,0:0:0:0:
256,192,621426,1,0,0:0:0:0:
256,192,621562,1,8,0:0:0:0:
256,192,621699,1,0,0:0:0:0:
256,192,621767,1,8,0:0:0:0:
256,192,621835,1,8,0:0:0:0:
256,192,621971,1,0,0:0:0:0:
256,192,622039,1,8,0:0:0:0:
256,192,622108,1,0,0:0:0:0:
256,192,622244,1,8,0:0:0:0:
256,192,622380,1,0,0:0:0:0:
256,192,622517,1,0,0:0:0:0:
256,192,622653,1,8,0:0:0:0:
256,192,622721,1,0,0:0:0:0:
256,192,622789,1,0,0:0:0:0:
256,192,622926,1,0,0:0:0:0:
256,192,623062,1,0,0:0:0:0:
256,192,623130,1,0,0:0:0:0:
256,192,623199,1,8,0:0:0:0:
256,192,623335,1,0,0:0:0:0:
256,192,623471,1,8,0:0:0:0:
256,192,623608,1,0,0:0:0:0:
256,192,623744,1,8,0:0:0:0:
256,192,623880,1,0,0:0:0:0:
256,192,624017,1,0,0:0:0:0:
256,192,624153,1,0,0:0:0:0:
256,192,624289,1,8,0:0:0:0:
256,192,624426,1,0,0:0:0:0:
256,192,624562,1,8,0:0:0:0:
256,192,624699,1,0,0:0:0:0:
256,192,624835,1,8,0:0:0:0:
256,192,624971,1,0,0:0:0:0:
256,192,625108,1,0,0:0:0:0:
256,192,625244,1,0,0:0:0:0:
256,192,625312,1,0,0:0:0:0:
256,192,625380,1,8,0:0:0:0:
256,192,625449,1,0,0:0:0:0:
256,192,625517,1,0,0:0:0:0:
256,192,625653,1,8,0:0:0:0:
256,192,625721,1,0,0:0:0:0:
256,192,625789,1,0,0:0:0:0:
256,192,625926,1,8,0:0:0:0:
256,192,626062,1,0,0:0:0:0:
256,192,626199,1,8,0:0:0:0:
256,192,626335,1,0,0:0:0:0:
256,192,626471,1,8,0:0:0:0:
256,192,626539,1,0,0:0:0:0:
256,192,626608,1,0,0:0:0:0:
256,192,626744,1,8,0:0:0:0:
256,192,626880,1,0,0:0:0:0:
256,192,627017,1,8,0:0:0:0:
256,192,627153,1,0,0:0:0:0:
256,192,627289,1,8,0:0:0:0:
256,192,627426,1,0,0:0:0:0:
256,192,627562,1,8,0:0:0:0:
256,192,627630,1,8,0:0:0:0:
256,192,627699,1,0,0:0:0:0:
256,192,627835,1,8,0:0:0:0:
256,192,627903,1,8,0:0:0:0:
256,192,627971,1,0,0:0:0:0:
256,192,628108,1,8,0:0:0:0:
256,192,628244,1,0,0:0:0:0:
256,192,628312,1,8,0:0:0:0:
256,192,628380,1,0,0:0:0:0:
256,192,628517,1,0,0:0:0:0:
256,192,628653,1,8,0:0:0:0:
256,192,628789,1,0,0:0:0:0:
256,192,628926,1,8,0:0:0:0:
256,192,629062,1,0,0:0:0:0:
256,192,629199,1,0,0:0:0:0:
256,192,629335,1,0,0:0:0:0:
256,192,629471,1,8,0:0:0:0:
256,192,629608,1,8,0:0:0:0:
256,192,629744,1,0,0:0:0:0:
256,192,629880,1,8,0:0:0:0:
256,192,630017,1,0,0:0:0:0:
256,192,630153,1,0,0:0:0:0:
256,192,630289,1,8,0:0:0:0:
256,192,630426,1,0,0:0:0:0:
256,192,630562,1,0,0:0:0:0:
256,192,630699,1,0,0:0:0:0:
256,192,630835,1,8,0:0:0:0:
256,192,630971,1,0,0:0:0:0:
256,192,631108,1,8,0:0:0:0:
256,192,631244,1,0,0:0:0:0:
256,192,631380,1,8,0:0:0:0:
256,192,631517,1,0,0:0:0:0:
256,192,631653,1,8,0:0:0:0:
256,192,631789,1,0,0:0:0:0:
256,192,631926,1,0,0:0:0:0:
256,192,632062,1,8,0:0:0:0:
256,192,632199,1,0,0:0:0:0:
256,192,632335,1,0,0:0:0:0:
256,192,632471,1,8,0:0:0:0:
256,192,632608,1,0,0:0:0:0:
256,192,632676,1,8,0:0:0:0:
256,192,632744,1,0,0:0:0:0:
256,192,632880,1,0,0:0:0:0:
256,192,633017,1,8,0:0:0:0:
256,192,633153,1,0,0:0:0:0:
256,192,633289,1,0,0:0:0:0:
256,192,633426,1,8,0:0:0:0:
256,192,633562,1,8,0:0:0:0:
256,192,633699,1,0,0:0:0:0:
256,192,633767,1,8,0:0:0:0:
256,192,633835,1,0,0:0:0:0:
256,192,633971,1,0,0:0:0:0:
256,192,634108,1,8,0:0:0:0:
256,192,634176,1,0,0:0:0:0:
256,192,634244,1,0,0:0:0:0:
256,192,634380,1,0,0:0:0:0:
256,192,634517,1,0,0:0:0:0:
256,192,634653,1,8,0:0:0:0:
256,192,634789,1,0,0:0:0:0:
256,192,634858,1,8,0:0:0:0:
256,192,634926,1,0,0:0:0:0:
256,192,635062,1,0,0:0:0:0:
256,192,635199,1,8,0:0:0:0:
256,192,635335,1,0,0:0:0:0:
256,192,635471,1,8,0:0:0:0:
256,192,635539,1,8,0:0:0:0:
256,192,635608,1,0,0:0:0:0:
256,192,635744,1,0,0:0:0:0:
256,192,635880,1,8,0:0:0:0:
256,192,636017,1,4,0:0:0:0:
256,192,636289,1,0,0:0:0:0:
256,192,636335,1,0,0:0:0:0:
256,192,636380,1,0,0:0:0:0:
256,192,636426,1,8,0:0:0:0:
256,192,636562,1,8,0:0:0:0:
256,192,636630,1,0,0:0:0:0:
256,192,636699,1,0,0:0:0:0:
256,192,636767,1,8,0:0:0:0:
256,192,636835,1,0,0:0:0:0:
256,192,636971,1,0,0:0:0:0:
256,192,637039,1,8,0:0:0:0:
256,192,637108,1,0,0:0:0:0:
256,192,637244,1,8,0:0:0:0:
256,192,637380,1,8,0:0:0:0:
256,192,637517,1,0,0:0:0:0:
256,192,637653,1,0,0:0:0:0:
256,192,637789,1,0,0:0:0:0:
256,192,637926,1,8,0:0:0:0:
256,192,638062,1,0,0:0:0:0:
256,192,638199,1,0,0:0:0:0:
256,192,638335,1,0,0:0:0:0:
256,192,638403,1,8,0:0:0:0:
256,192,638471,1,8,0:0:0:0:
256,192,638608,1,0,0:0:0:0:
256,192,638744,1,8,0:0:0:0:
256,192,638880,1,0,0:0:0:0:
256,192,639017,1,0,0:0:0:0:
256,192,639153,1,8,0:0:0:0:
256,192,639289,1,8,0:0:0:0:
256,192,639426,1,0,0:0:0:0:
256,192,639562,1,8,0:0:0:0:
256,192,639699,1,0,0:0:0:0:
256,192,639835,1,8,0:0:0:0:
256,192,639971,1,0,0:0:0:0:
256,192,640108,1,8,0:0:0:0:
256,192,640244,1,0,0:0:0:0:
256,192,640380,1,0,0:0:0:0:
256,192,640517,1,0,0:0:0:0:
256,192,640585,1,8,0:0:0:0:
256,192,640653,1,8,0:0:0:0:
256,192,640789,1,0,0:0:0:0:
256,192,640926,1,8,0:0:0:0:
256,192,641062,1,0,0:0:0:0:
256,192,641199,1,8,0:0:0:0:
256,192,641335,1,0,0:0:0:0:
256,192,641471,1,8,0:0:0:0:
256,192,641608,1,8,0:0:0:0:
256,192,641744,1,0,0:0:0:0:
256,192,641880,1,8,0:0:0:0:
256,192,642017,1,0,0:0:0:0:
256,192,642153,1,0,0:0:0:0:
256,192,642289,1,8,0:0:0:0:
256,192,642426,1,0,0:0:0:0:
256,192,642562,1,0,0:0:0:0:
256,192,642699,1,0,0:0:0:0:
256,192,642835,1,8,0:0:0:0:
256,192,642971,1,0,0:0:0:0:
256,192,643108,1,8,0:0:0:0:
256,192,643244,1,0,0:0:0:0:
256,192,643380,1,8,0:0:0:0:
256,192,643517,1,0,0:0:0:0:
256,192,643653,1,8,0:0:0:0:
256,192,643789,1,0,0:0:0:0:
256,192,643926,1,8,0:0:0:0:
256,192,643994,1,8,0:0:0:0:
256,192,644062,1,0,0:0:0:0:
256,192,644199,1,8,0:0:0:0:
256,192,644335,1,0,0:0:0:0:
256,192,644471,1,8,0:0:0:0:
256,192,644608,1,0,0:0:0:0:
256,192,644744,1,0,0:0:0:0:
256,192,644880,1,0,0:0:0:0:
256,192,644949,1,8,0:0:0:0:
256,192,645017,1,8,0:0:0:0:
256,192,645085,1,8,0:0:0:0:
256,192,645153,1,0,0:0:0:0:
256,192,645289,1,0,0:0:0:0:
256,192,645358,1,0,0:0:0:0:
256,192,645426,1,8,0:0:0:0:
256,192,645562,1,8,0:0:0:0:
256,192,645699,1,0,0:0:0:0:
256,192,645767,1,8,0:0:0:0:
256,192,645835,1,0,0:0:0:0:
256,192,645971,1,0,0:0:0:0:
256,192,646108,1,8,0:0:0:0:
256,192,646244,1,0,0:0:0:0:
256,192,646380,1,8,0:0:0:0:
256,192,646517,1,0,0:0:0:0:
256,192,646653,1,0,0:0:0:0:
256,192,646789,1,0,0:0:0:0:
256,192,646926,1,8,0:0:0:0:
256,192,647062,1,8,0:0:0:0:
256,192,647130,1,8,0:0:0:0:
256,192,647199,1,0,0:0:0:0:
256,192,647335,1,8,0:0:0:0:
256,192,647471,1,0,0:0:0:0:
256,192,647608,1,0,0:0:0:0:
256,192,647744,1,8,0:0:0:0:
256,192,647880,1,0,0:0:0:0:
256,192,647949,1,8,0:0:0:0:
256,192,648017,1,0,0:0:0:0:
256,192,648153,1,0,0:0:0:0:
256,192,648289,1,8,0:0:0:0:
256,192,648426,1,0,0:0:0:0:
256,192,648562,1,8,0:0:0:0:
256,192,648699,1,0,0:0:0:0:
256,192,648835,1,8,0:0:0:0:
256,192,648971,1,0,0:0:0:0:
256,192,649108,1,8,0:0:0:0:
256,192,649244,1,0,0:0:0:0:
256,192,649312,1,0,0:0:0:0:
256,192,649380,1,8,0:0:0:0:
256,192,649449,1,8,0:0:0:0:
256,192,649517,1,0,0:0:0:0:
256,192,649653,1,8,0:0:0:0:
256,192,649721,1,8,0:0:0:0:
256,192,649789,1,0,0:0:0:0:
256,192,649926,1,8,0:0:0:0:
256,192,650062,1,0,0:0:0:0:
256,192,650130,1,8,0:0:0:0:
256,192,650199,1,0,0:0:0:0:
256,192,650335,1,0,0:0:0:0:
256,192,650471,1,8,0:0:0:0:
256,192,650608,1,0,0:0:0:0:
256,192,650744,1,0,0:0:0:0:
256,192,650880,1,0,0:0:0:0:
256,192,651017,1,8,0:0:0:0:
256,192,651153,1,0,0:0:0:0:
256,192,651221,1,8,0:0:0:0:
256,192,651289,1,0,0:0:0:0:
256,192,651426,1,0,0:0:0:0:
256,192,651562,1,8,0:0:0:0:
256,192,651630,1,8,0:0:0:0:
256,192,651699,1,0,0:0:0:0:
256,192,651835,1,0,0:0:0:0:
256,192,651971,1,0,0:0:0:0:
256,192,652108,1,8,0:0:0:0:
256,192,652244,1,0,0:0:0:0:
256,192,652380,1,8,0:0:0:0:
256,192,652517,1,0,0:0:0:0:
256,192,652653,1,8,0:0:0:0:
256,192,652789,1,0,0:0:0:0:
256,192,652926,1,0,0:0:0:0:
256,192,653062,1,0,0:0:0:0:
256,192,653199,1,8,0:0:0:0:
256,192,653335,1,0,0:0:0:0:
256,192,653403,1,8,0:0:0:0:
256,192,653471,1,0,0:0:0:0:
256,192,653608,1,0,0:0:0:0:
256,192,653744,1,8,0:0:0:0:
256,192,653880,1,0,0:0:0:0:
256,192,654017,1,0,0:0:0:0:
256,192,654085,1,8,0:0:0:0:
256,192,654153,1,0,0:0:0:0:
256,192,654289,1,8,0:0:0:0:
256,192,654426,1,0,0:0:0:0:
256,192,654562,1,0,0:0:0:0:
256,192,654699,1,0,0:0:0:0:
256,192,654835,1,8,0:0:0:0:
256,192,654971,1,0,0:0:0:0:
256,192,655108,1,0,0:0:0:0:
256,192,655244,1,0,0:0:0:0:
256,192,655380,1,8,0:0:0:0:
256,192,655517,1,0,0:0:0:0:
256,192,655653,1,0,0:0:0:0:
256,192,655789,1,8,0:0:0:0:
256,192,655926,1,0,0:0:0:0:
256,192,656062,1,8,0:0:0:0:
256,192,656199,1,8,0:0:0:0:
256,192,656335,1,0,0:0:0:0:
256,192,656471,1,8,0:0:0:0:
256,192,656608,1,0,0:0:0:0:
256,192,656744,1,4,0:0:0:0:
256,192,657835,1,8,0:0:0:0:
256,192,658108,1,0,0:0:0:0:
256,192,658153,1,0,0:0:0:0:
256,192,658199,1,0,0:0:0:0:
256,192,658244,1,8,0:0:0:0:
256,192,658380,1,8,0:0:0:0:
256,192,658449,1,0,0:0:0:0:
256,192,658517,1,0,0:0:0:0:
256,192,658585,1,8,0:0:0:0:
256,192,658653,1,0,0:0:0:0:
256,192,658789,1,0,0:0:0:0:
256,192,658926,1,4,0:0:0:0:
256,192,659062,1,0,0:0:0:0:
256,192,659199,1,8,0:0:0:0:
256,192,659335,1,0,0:0:0:0:
256,192,659471,1,8,0:0:0:0:
256,192,659608,1,0,0:0:0:0:
256,192,659744,1,8,0:0:0:0:
256,192,659880,1,0,0:0:0:0:
256,192,659949,1,8,0:0:0:0:
256,192,660017,1,0,0:0:0:0:
256,192,660153,1,0,0:0:0:0:
256,192,660289,1,8,0:0:0:0:
256,192,660426,1,0,0:0:0:0:
256,192,660562,1,0,0:0:0:0:
256,192,660699,1,0,0:0:0:0:
256,192,660767,1,0,0:0:0:0:
256,192,660835,1,8,0:0:0:0:
256,192,660971,1,0,0:0:0:0:
256,192,661039,1,8,0:0:0:0:
256,192,661108,1,0,0:0:0:0:
256,192,661244,1,0,0:0:0:0:
256,192,661380,1,8,0:0:0:0:
256,192,661517,1,0,0:0:0:0:
256,192,661653,1,0,0:0:0:0:
256,192,661789,1,0,0:0:0:0:
256,192,661926,1,8,0:0:0:0:
256,192,662062,1,0,0:0:0:0:
256,192,662130,1,8,0:0:0:0:
256,192,662199,1,0,0:0:0:0:
256,192,662335,1,0,0:0:0:0:
256,192,662471,1,8,0:0:0:0:
256,192,662608,1,0,0:0:0:0:
256,192,662744,1,0,0:0:0:0:
256,192,662880,1,0,0:0:0:0:
256,192,662949,1,0,0:0:0:0:
256,192,663017,1,8,0:0:0:0:
256,192,663153,1,0,0:0:0:0:
256,192,663221,1,8,0:0:0:0:
256,192,663289,1,0,0:0:0:0:
256,192,663426,1,0,0:0:0:0:
256,192,663562,1,8,0:0:0:0:
256,192,663699,1,0,0:0:0:0:
256,192,663835,1,0,0:0:0:0:
256,192,663971,1,0,0:0:0:0:
256,192,664108,1,8,0:0:0:0:
256,192,664244,1,0,0:0:0:0:
256,192,664312,1,8,0:0:0:0:
256,192,664380,1,0,0:0:0:0:
256,192,664517,1,0,0:0:0:0:
256,192,664653,1,8,0:0:0:0:
256,192,664789,1,0,0:0:0:0:
256,192,664926,1,8,0:0:0:0:
256,192,665062,1,0,0:0:0:0:
256,192,665130,1,8,0:0:0:0:
256,192,665199,1,8,0:0:0:0:
256,192,665335,1,0,0:0:0:0:
256,192,665403,1,8,0:0:0:0:
256,192,665471,1,0,0:0:0:0:
256,192,665608,1,0,0:0:0:0:
256,192,665744,1,8,0:0:0:0:
256,192,665880,1,0,0:0:0:0:
256,192,666017,1,0,0:0:0:0:
256,192,666153,1,0,0:0:0:0:
256,192,666289,1,8,0:0:0:0:
256,192,666426,1,0,0:0:0:0:
256,192,666494,1,8,0:0:0:0:
256,192,666562,1,8,0:0:0:0:
256,192,666699,1,0,0:0:0:0:
256,192,666835,1,8,0:0:0:0:
256,192,666971,1,0,0:0:0:0:
256,192,667108,1,8,0:0:0:0:
256,192,667244,1,0,0:0:0:0:
256,192,667312,1,8,0:0:0:0:
256,192,667380,1,8,0:0:0:0:
256,192,667517,1,0,0:0:0:0:
256,192,667585,1,8,0:0:0:0:
256,192,667653,1,0,0:0:0:0:
256,192,667789,1,8,0:0:0:0:
256,192,667926,1,8,0:0:0:0:
256,192,668062,1,0,0:0:0:0:
256,192,668199,1,0,0:0:0:0:
256,192,668335,1,0,0:0:0:0:
256,192,668471,1,8,0:0:0:0:
256,192,668608,1,0,0:0:0:0:
256,192,668676,1,8,0:0:0:0:
256,192,668744,1,0,0:0:0:0:
256,192,668880,1,0,0:0:0:0:
256,192,669017,1,8,0:0:0:0:
256,192,669153,1,0,0:0:0:0:
256,192,669289,1,8,0:0:0:0:
256,192,669426,1,0,0:0:0:0:
256,192,669494,1,8,0:0:0:0:
256,192,669562,1,8,0:0:0:0:
256,192,669699,1,0,0:0:0:0:
256,192,669767,1,8,0:0:0:0:
256,192,669835,1,0,0:0:0:0:
256,192,669971,1,8,0:0:0:0:
256,192,670108,1,8,0:0:0:0:
256,192,670244,1,0,0:0:0:0:
256,192,670380,1,8,0:0:0:0:
256,192,670517,1,0,0:0:0:0:
256,192,670653,1,8,0:0:0:0:
256,192,670789,1,0,0:0:0:0:
256,192,670858,1,8,0:0:0:0:
256,192,670926,1,0,0:0:0:0:
256,192,671062,1,0,0:0:0:0:
256,192,671199,1,8,0:0:0:0:
256,192,671335,1,0,0:0:0:0:
256,192,671471,1,0,0:0:0:0:
256,192,671608,1,0,0:0:0:0:
256,192,671676,1,8,0:0:0:0:
256,192,671744,1,8,0:0:0:0:
256,192,671880,1,0,0:0:0:0:
256,192,671949,1,8,0:0:0:0:
256,192,672017,1,0,0:0:0:0:
256,192,672153,1,0,0:0:0:0:
256,192,672289,1,8,0:0:0:0:
256,192,672426,1,0,0:0:0:0:
256,192,672562,1,0,0:0:0:0:
256,192,672699,1,0,0:0:0:0:
256,192,672835,1,8,0:0:0:0:
256,192,672971,1,0,0:0:0:0:
256,192,673039,1,8,0:0:0:0:
256,192,673108,1,0,0:0:0:0:
256,192,673244,1,0,0:0:0:0:
256,192,673380,1,8,0:0:0:0:
256,192,673517,1,0,0:0:0:0:
256,192,673653,1,0,0:0:0:0:
256,192,673789,1,0,0:0:0:0:
256,192,673858,1,8,0:0:0:0:
256,192,673926,1,8,0:0:0:0:
256,192,674062,1,0,0:0:0:0:
256,192,674130,1,8,0:0:0:0:
256,192,674199,1,0,0:0:0:0:
256,192,674335,1,0,0:0:0:0:
256,192,674471,1,8,0:0:0:0:
256,192,674608,1,0,0:0:0:0:
256,192,674744,1,0,0:0:0:0:
256,192,674880,1,0,0:0:0:0:
256,192,675017,1,8,0:0:0:0:
256,192,675153,1,0,0:0:0:0:
256,192,675221,1,8,0:0:0:0:
256,192,675289,1,0,0:0:0:0:
256,192,675426,1,0,0:0:0:0:
256,192,675562,1,8,0:0:0:0:
256,192,675699,1,0,0:0:0:0:
256,192,676108,1,8,0:0:0:0:
256,192,676380,1,0,0:0:0:0:
256,192,676517,1,0,0:0:0:0:
256,192,676653,1,8,0:0:0:0:
256,192,676789,1,0,0:0:0:0:
256,192,676926,1,8,0:0:0:0:
256,192,677062,1,0,0:0:0:0:
256,192,677199,1,8,0:0:0:0:
256,192,677335,1,0,0:0:0:0:
256,192,677403,1,8,0:0:0:0:
256,192,677471,1,0,0:0:0:0:
256,192,677608,1,0,0:0:0:0:
256,192,677744,1,8,0:0:0:0:
256,192,677880,1,0,0:0:0:0:
256,192,678017,1,8,0:0:0:0:
256,192,678153,1,0,0:0:0:0:
256,192,678221,1,8,0:0:0:0:
256,192,678289,1,8,0:0:0:0:
256,192,678426,1,0,0:0:0:0:
256,192,678494,1,8,0:0:0:0:
256,192,678562,1,0,0:0:0:0:
256,192,678699,1,0,0:0:0:0:
256,192,678835,1,8,0:0:0:0:
256,192,678971,1,0,0:0:0:0:
256,192,679108,1,8,0:0:0:0:
256,192,679244,1,0,0:0:0:0:
256,192,679380,1,8,0:0:0:0:
256,192,679517,1,0,0:0:0:0:
256,192,679585,1,8,0:0:0:0:
256,192,679653,1,0,0:0:0:0:
256,192,679789,1,0,0:0:0:0:
256,192,679926,1,8,0:0:0:0:
256,192,680062,1,0,0:0:0:0:
256,192,680199,1,8,0:0:0:0:
256,192,680335,1,0,0:0:0:0:
256,192,680403,1,8,0:0:0:0:
256,192,680471,1,8,0:0:0:0:
256,192,680608,1,0,0:0:0:0:
256,192,680676,1,8,0:0:0:0:
256,192,680744,1,0,0:0:0:0:
256,192,680880,1,8,0:0:0:0:
256,192,681017,1,8,0:0:0:0:
256,192,681153,1,0,0:0:0:0:
256,192,681289,1,8,0:0:0:0:
256,192,681426,1,0,0:0:0:0:
256,192,681562,1,8,0:0:0:0:
256,192,681699,1,0,0:0:0:0:
256,192,681767,1,8,0:0:0:0:
256,192,681835,1,0,0:0:0:0:
256,192,681971,1,0,0:0:0:0:
256,192,682108,1,8,0:0:0:0:
256,192,682244,1,0,0:0:0:0:
256,192,682380,1,8,0:0:0:0:
256,192,682517,1,0,0:0:0:0:
256,192,682585,1,8,0:0:0:0:
256,192,682653,1,8,0:0:0:0:
256,192,682789,1,0,0:0:0:0:
256,192,682858,1,8,0:0:0:0:
256,192,682926,1,0,0:0:0:0:
256,192,683062,1,8,0:0:0:0:
256,192,683199,1,8,0:0:0:0:
256,192,683335,1,0,0:0:0:0:
256,192,683471,1,8,0:0:0:0:
256,192,683608,1,0,0:0:0:0:
256,192,683744,1,8,0:0:0:0:
256,192,683880,1,0,0:0:0:0:
256,192,683949,1,8,0:0:0:0:
256,192,684017,1,0,0:0:0:0:
256,192,684153,1,8,0:0:0:0:
256,192,684289,1,8,0:0:0:0:
256,192,684426,1,0,0:0:0:0:
256,192,684562,1,8,0:0:0:0:
256,192,684699,1,0,0:0:0:0:
256,192,684767,1,8,0:0:0:0:
256,192,684835,1,8,0:0:0:0:
256,192,684971,1,0,0:0:0:0:
256,192,685039,1,8,0:0:0:0:
256,192,685108,1,0,0:0:0:0:
256,192,685244,1,8,0:0:0:0:
256,192,685380,1,8,0:0:0:0:
256,192,685517,1,0,0:0:0:0:
256,192,685653,1,8,0:0:0:0:
256,192,685789,1,0,0:0:0:0:
256,192,685926,1,8,0:0:0:0:
256,192,686062,1,0,0:0:0:0:
256,192,686130,1,8,0:0:0:0:
256,192,686199,1,0,0:0:0:0:
256,192,686335,1,8,0:0:0:0:
256,192,686471,1,8,0:0:0:0:
256,192,686608,1,0,0:0:0:0:
256,192,686744,1,8,0:0:0:0:
256,192,686880,1,0,0:0:0:0:
256,192,686949,1,8,0:0:0:0:
256,192,687017,1,8,0:0:0:0:
256,192,687153,1,0,0:0:0:0:
256,192,687221,1,8,0:0:0:0:
256,192,687289,1,0,0:0:0:0:
256,192,687426,1,8,0:0:0:0:
256,192,687562,1,8,0:0:0:0:
256,192,687699,1,0,0:0:0:0:
256,192,687835,1,8,0:0:0:0:
256,192,687971,1,0,0:0:0:0:
256,192,688108,1,8,0:0:0:0:
256,192,688244,1,0,0:0:0:0:
256,192,688312,1,8,0:0:0:0:
256,192,688380,1,0,0:0:0:0:
256,192,688517,1,0,0:0:0:0:
256,192,688653,1,8,0:0:0:0:
256,192,688789,1,0,0:0:0:0:
256,192,688926,1,8,0:0:0:0:
256,192,689062,1,0,0:0:0:0:
256,192,689130,1,8,0:0:0:0:
256,192,689199,1,8,0:0:0:0:
256,192,689335,1,0,0:0:0:0:
256,192,689403,1,8,0:0:0:0:
256,192,689471,1,0,0:0:0:0:
256,192,689608,1,8,0:0:0:0:
256,192,689744,1,8,0:0:0:0:
256,192,689880,1,0,0:0:0:0:
256,192,690017,1,8,0:0:0:0:
256,192,690153,1,0,0:0:0:0:
256,192,690289,1,8,0:0:0:0:
256,192,690426,1,0,0:0:0:0:
256,192,690494,1,8,0:0:0:0:
256,192,690562,1,0,0:0:0:0:
256,192,690699,1,8,0:0:0:0:
256,192,690835,1,8,0:0:0:0:
256,192,690971,1,0,0:0:0:0:
256,192,691108,1,8,0:0:0:0:
256,192,691244,1,0,0:0:0:0:
256,192,691312,1,8,0:0:0:0:
256,192,691380,1,8,0:0:0:0:
256,192,691517,1,0,0:0:0:0:
256,192,691585,1,8,0:0:0:0:
256,192,691653,1,0,0:0:0:0:
256,192,691789,1,8,0:0:0:0:
256,192,691926,1,8,0:0:0:0:
256,192,692062,1,0,0:0:0:0:
256,192,692199,1,8,0:0:0:0:
256,192,692335,1,0,0:0:0:0:
256,192,692471,1,8,0:0:0:0:
256,192,692608,1,0,0:0:0:0:
256,192,692676,1,8,0:0:0:0:
256,192,692744,1,0,0:0:0:0:
256,192,692880,1,0,0:0:0:0:
256,192,693017,1,8,0:0:0:0:
256,192,693153,1,0,0:0:0:0:
256,192,693289,1,8,0:0:0:0:
256,192,693426,1,0,0:0:0:0:
256,192,693562,1,8,0:0:0:0:
256,192,693699,1,0,0:0:0:0:
256,192,693835,1,8,0:0:0:0:
256,192,693903,12,0,695130,0:0:0:0:
256,192,695199,5,0,0:0:0:0:
256,192,695471,1,8,0:0:0:0:
256,192,695642,1,0,0:0:0:0:
256,192,696017,1,8,0:0:0:0:
256,192,696187,1,8,0:0:0:0:
256,192,696426,1,0,0:0:0:0:
256,192,696494,12,0,697858,0:0:0:0:
256,192,697926,5,0,0:0:0:0:
256,192,698216,1,8,0:0:0:0:
256,192,698403,1,8,0:0:0:0:
256,192,698659,1,8,0:0:0:0:
256,192,698744,1,0,0:0:0:0:
256,192,698795,12,0,699682,0:0:0:0:
256,192,699835,5,0,0:0:0:0:
256,192,700039,1,0,0:0:0:0:
256,192,700142,1,8,0:0:0:0:
256,192,700346,1,8,0:0:0:0:
256,192,700414,1,8,0:0:0:0:
256,192,700687,1,8,0:0:0:0:
256,192,700858,1,0,0:0:0:0:
256,192,700926,12,0,702562,0:0:0:0:
256,192,702835,5,0,0:0:0:0:
256,192,703005,1,0,0:0:0:0:
256,192,703108,1,8,0:0:0:0:
256,192,703278,1,0,0:0:0:0:
256,192,703380,1,0,0:0:0:0:
256,192,703653,1,8,0:0:0:0:
256,192,703824,1,8,0:0:0:0:
256,192,704096,1,0,0:0:0:0:
256,192,704164,12,0,704744,0:0:0:0:
256,192,705017,5,8,0:0:0:0:
256,192,705085,12,0,705494,0:0:0:0:
256,192,705562,5,8,0:0:0:0:
256,192,705767,1,0,0:0:0:0:
256,192,705835,1,8,0:0:0:0:
256,192,705903,12,0,706380,0:0:0:0:
256,192,706653,5,8,0:0:0:0:
256,192,706926,1,8,0:0:0:0:
256,192,707471,1,0,0:0:0:0:
256,192,708017,1,0,0:0:0:0:
256,192,708562,1,8,0:0:0:0:
256,192,709108,1,8,0:0:0:0:
256,192,709653,1,8,0:0:0:0:
256,192,709858,1,0,0:0:0:0:
256,192,709926,1,8,0:0:0:0:
256,192,710130,1,8,0:0:0:0:
256,192,710199,1,0,0:0:0:0:
256,192,710471,1,0,0:0:0:0:
256,192,710517,1,0,0:0:0:0:
256,192,710562,1,0,0:0:0:0:
256,192,710608,1,8,0:0:0:0:
256,192,710744,1,8,0:0:0:0:
256,192,710812,1,0,0:0:0:0:
256,192,710880,1,0,0:0:0:0:
256,192,710949,1,8,0:0:0:0:
256,192,711017,1,0,0:0:0:0:
256,192,711153,1,0,0:0:0:0:
256,192,711289,1,0,0:0:0:0:
256,192,711358,1,0,0:0:0:0:
256,192,711426,1,8,0:0:0:0:
256,192,711494,1,0,0:0:0:0:
256,192,711562,1,8,0:0:0:0:
256,192,711699,1,8,0:0:0:0:
256,192,711835,1,8,0:0:0:0:
256,192,711903,1,0,0:0:0:0:
256,192,711971,1,8,0:0:0:0:
256,192,712108,1,8,0:0:0:0:
256,192,712176,1,0,0:0:0:0:
256,192,712244,1,0,0:0:0:0:
256,192,712312,1,8,0:0:0:0:
256,192,712380,1,0,0:0:0:0:
256,192,712517,1,8,0:0:0:0:
256,192,712585,1,0,0:0:0:0:
256,192,712653,1,8,0:0:0:0:
256,192,712789,1,8,0:0:0:0:
256,192,712858,1,0,0:0:0:0:
256,192,712926,1,8,0:0:0:0:
256,192,712994,1,0,0:0:0:0:
256,192,713062,1,0,0:0:0:0:
256,192,713130,1,8,0:0:0:0:
256,192,713199,1,8,0:0:0:0:
256,192,713267,1,0,0:0:0:0:
256,192,713335,1,0,0:0:0:0:
256,192,713403,1,8,0:0:0:0:
256,192,713471,1,0,0:0:0:0:
256,192,713608,1,0,0:0:0:0:
256,192,713676,1,0,0:0:0:0:
256,192,713744,1,8,0:0:0:0:
256,192,713880,1,0,0:0:0:0:
256,192,714017,1,0,0:0:0:0:
256,192,714085,1,0,0:0:0:0:
256,192,714153,1,8,0:0:0:0:
256,192,714289,1,8,0:0:0:0:
256,192,714358,1,0,0:0:0:0:
256,192,714426,1,0,0:0:0:0:
256,192,714494,1,8,0:0:0:0:
256,192,714562,1,0,0:0:0:0:
256,192,714699,1,0,0:0:0:0:
256,192,714767,1,0,0:0:0:0:
256,192,714835,1,8,0:0:0:0:
256,192,714971,1,0,0:0:0:0:
256,192,715039,1,8,0:0:0:0:
256,192,715176,1,8,0:0:0:0:
256,192,715244,1,0,0:0:0:0:
256,192,715312,1,8,0:0:0:0:
256,192,715380,1,8,0:0:0:0:
256,192,715449,1,0,0:0:0:0:
256,192,715517,1,0,0:0:0:0:
256,192,715585,1,8,0:0:0:0:
256,192,715653,1,0,0:0:0:0:
256,192,715789,1,0,0:0:0:0:
256,192,715858,1,0,0:0:0:0:
256,192,715926,1,8,0:0:0:0:
256,192,716062,1,0,0:0:0:0:
256,192,716130,1,8,0:0:0:0:
256,192,716267,1,8,0:0:0:0:
256,192,716335,1,0,0:0:0:0:
256,192,716403,1,8,0:0:0:0:
256,192,716471,1,8,0:0:0:0:
256,192,716539,1,0,0:0:0:0:
256,192,716608,1,0,0:0:0:0:
256,192,716676,1,8,0:0:0:0:
256,192,716744,1,0,0:0:0:0:
256,192,716880,1,0,0:0:0:0:
256,192,716949,1,8,0:0:0:0:
256,192,717017,1,0,0:0:0:0:
256,192,717153,1,8,0:0:0:0:
256,192,717221,1,0,0:0:0:0:
256,192,717289,1,8,0:0:0:0:
256,192,717426,1,0,0:0:0:0:
256,192,717494,1,8,0:0:0:0:
256,192,717562,1,8,0:0:0:0:
256,192,717630,1,0,0:0:0:0:
256,192,717699,1,0,0:0:0:0:
256,192,717767,1,8,0:0:0:0:
256,192,717835,1,0,0:0:0:0:
256,192,717971,1,0,0:0:0:0:
256,192,718039,1,8,0:0:0:0:
256,192,718108,1,8,0:0:0:0:
256,192,718244,1,0,0:0:0:0:
256,192,718312,1,8,0:0:0:0:
256,192,718380,1,0,0:0:0:0:
256,192,718449,1,8,0:0:0:0:
256,192,718517,1,8,0:0:0:0:
256,192,718653,1,8,0:0:0:0:
256,192,718721,1,0,0:0:0:0:
256,192,718789,1,0,0:0:0:0:
256,192,718858,1,8,0:0:0:0:
256,192,718926,1,0,0:0:0:0:
256,192,719062,1,0,0:0:0:0:
256,192,719130,1,8,0:0:0:0:
256,192,719199,1,8,0:0:0:0:
256,192,719335,1,0,0:0:0:0:
256,192,719403,1,8,0:0:0:0:
256,192,719471,1,8,0:0:0:0:
256,192,719608,1,0,0:0:0:0:
256,192,719676,1,8,0:0:0:0:
256,192,719744,1,8,0:0:0:0:
256,192,719812,1,0,0:0:0:0:
256,192,719880,1,0,0:0:0:0:
256,192,719949,1,8,0:0:0:0:
256,192,720017,1,8,0:0:0:0:
256,192,720153,1,8,0:0:0:0:
256,192,720221,1,8,0:0:0:0:
256,192,720289,1,0,0:0:0:0:
256,192,720426,1,0,0:0:0:0:
256,192,720494,1,8,0:0:0:0:
256,192,720562,1,0,0:0:0:0:
256,192,720630,1,8,0:0:0:0:
256,192,720699,1,0,0:0:0:0:
256,192,720835,1,8,0:0:0:0:
256,192,720903,1,0,0:0:0:0:
256,192,720971,1,0,0:0:0:0:
256,192,721039,1,8,0:0:0:0:
256,192,721108,1,0,0:0:0:0:
256,192,721244,1,0,0:0:0:0:
256,192,721312,1,0,0:0:0:0:
256,192,721380,1,8,0:0:0:0:
256,192,721517,1,0,0:0:0:0:
256,192,721585,1,8,0:0:0:0:
256,192,721721,1,8,0:0:0:0:
256,192,721789,1,0,0:0:0:0:
256,192,721858,1,8,0:0:0:0:
256,192,721926,1,8,0:0:0:0:
256,192,721994,1,0,0:0:0:0:
256,192,722062,1,0,0:0:0:0:
256,192,722130,1,8,0:0:0:0:
256,192,722199,1,0,0:0:0:0:
256,192,722335,1,0,0:0:0:0:
256,192,722403,1,0,0:0:0:0:
256,192,722471,1,8,0:0:0:0:
256,192,722608,1,0,0:0:0:0:
256,192,722676,1,8,0:0:0:0:
256,192,722744,1,8,0:0:0:0:
256,192,722880,1,8,0:0:0:0:
256,192,722949,1,0,0:0:0:0:
256,192,723017,1,8,0:0:0:0:
256,192,723085,1,0,0:0:0:0:
256,192,723153,1,0,0:0:0:0:
256,192,723221,1,8,0:0:0:0:
256,192,723289,1,8,0:0:0:0:
256,192,723426,1,0,0:0:0:0:
256,192,723494,1,8,0:0:0:0:
256,192,723562,1,8,0:0:0:0:
256,192,723699,1,0,0:0:0:0:
256,192,723767,1,8,0:0:0:0:
256,192,723835,1,8,0:0:0:0:
256,192,723903,1,8,0:0:0:0:
256,192,723971,1,0,0:0:0:0:
256,192,724039,1,8,0:0:0:0:
256,192,724108,1,8,0:0:0:0:
256,192,724176,1,0,0:0:0:0:
256,192,724244,1,0,0:0:0:0:
256,192,724312,1,8,0:0:0:0:
256,192,724380,1,0,0:0:0:0:
256,192,724517,1,0,0:0:0:0:
256,192,724585,1,0,0:0:0:0:
256,192,724653,1,8,0:0:0:0:
256,192,724789,1,0,0:0:0:0:
256,192,724858,1,8,0:0:0:0:
256,192,724994,1,8,0:0:0:0:
256,192,725062,1,0,0:0:0:0:
256,192,725130,1,8,0:0:0:0:
256,192,725199,1,8,0:0:0:0:
256,192,725267,1,0,0:0:0:0:
256,192,725335,1,0,0:0:0:0:
256,192,725403,1,8,0:0:0:0:
256,192,725471,1,0,0:0:0:0:
256,192,725608,1,0,0:0:0:0:
256,192,725676,1,8,0:0:0:0:
256,192,725744,1,8,0:0:0:0:
256,192,725880,1,0,0:0:0:0:
256,192,725949,1,8,0:0:0:0:
256,192,726017,1,0,0:0:0:0:
256,192,726153,1,0,0:0:0:0:
256,192,726221,1,8,0:0:0:0:
256,192,726289,1,8,0:0:0:0:
256,192,726358,1,0,0:0:0:0:
256,192,726426,1,0,0:0:0:0:
256,192,726494,1,8,0:0:0:0:
256,192,726562,1,8,0:0:0:0:
256,192,726699,1,0,0:0:0:0:
256,192,726767,1,8,0:0:0:0:
256,192,726835,1,0,0:0:0:0:
256,192,726971,1,0,0:0:0:0:
256,192,727039,1,8,0:0:0:0:
256,192,727108,1,8,0:0:0:0:
256,192,727244,1,0,0:0:0:0:
256,192,727312,1,8,0:0:0:0:
256,192,727380,1,8,0:0:0:0:
256,192,727449,1,0,0:0:0:0:
256,192,727517,1,0,0:0:0:0:
256,192,727585,1,8,0:0:0:0:
256,192,727653,1,8,0:0:0:0:
256,192,727789,1,0,0:0:0:0:
256,192,727858,1,8,0:0:0:0:
256,192,727926,1,8,0:0:0:0:
256,192,728062,1,0,0:0:0:0:
256,192,728130,1,0,0:0:0:0:
256,192,728199,1,8,0:0:0:0:
256,192,728335,1,0,0:0:0:0:
256,192,728403,1,8,0:0:0:0:
256,192,728471,1,8,0:0:0:0:
256,192,728539,1,0,0:0:0:0:
256,192,728608,1,0,0:0:0:0:
256,192,728676,1,8,0:0:0:0:
256,192,728744,1,0,0:0:0:0:
256,192,728880,1,0,0:0:0:0:
256,192,728949,1,8,0:0:0:0:
256,192,729017,1,0,0:0:0:0:
256,192,729153,1,0,0:0:0:0:
256,192,729221,1,8,0:0:0:0:
256,192,729289,1,8,0:0:0:0:
256,192,729426,1,0,0:0:0:0:
256,192,729494,1,8,0:0:0:0:
256,192,729562,1,8,0:0:0:0:
256,192,729630,1,0,0:0:0:0:
256,192,729699,1,0,0:0:0:0:
256,192,729767,1,8,0:0:0:0:
256,192,729835,1,0,0:0:0:0:
256,192,729971,1,0,0:0:0:0:
256,192,730039,1,0,0:0:0:0:
256,192,730108,1,8,0:0:0:0:
256,192,730244,1,0,0:0:0:0:
256,192,730312,1,8,0:0:0:0:
256,192,730380,1,8,0:0:0:0:
256,192,730517,1,0,0:0:0:0:
256,192,730585,1,8,0:0:0:0:
256,192,730653,1,8,0:0:0:0:
256,192,730721,1,0,0:0:0:0:
256,192,730789,1,0,0:0:0:0:
256,192,730858,1,8,0:0:0:0:
256,192,730926,1,0,0:0:0:0:
256,192,732017,1,8,0:0:0:0:
256,192,732289,1,0,0:0:0:0:
256,192,732335,1,0,0:0:0:0:
256,192,732380,1,0,0:0:0:0:
256,192,732426,1,8,0:0:0:0:
256,192,732562,1,8,0:0:0:0:
256,192,732630,1,0,0:0:0:0:
256,192,732699,1,0,0:0:0:0:
256,192,732767,1,8,0:0:0:0:
256,192,732835,1,0,0:0:0:0:
256,192,732971,1,0,0:0:0:0:
256,192,733108,1,8,0:0:0:0:
256,192,733380,1,0,0:0:0:0:
256,192,733517,1,0,0:0:0:0:
256,192,733653,1,8,0:0:0:0:
256,192,733926,1,8,0:0:0:0:
256,192,734199,1,0,0:0:0:0:
256,192,734335,1,0,0:0:0:0:
256,192,734471,1,8,0:0:0:0:
256,192,735289,1,0,0:0:0:0:
256,192,735562,1,8,0:0:0:0:
256,192,735699,1,8,0:0:0:0:
256,192,735835,1,0,0:0:0:0:
256,192,736108,1,0,0:0:0:0:
256,192,736380,1,8,0:0:0:0:
256,192,736517,1,8,0:0:0:0:
256,192,736653,1,0,0:0:0:0:
256,192,737471,1,8,0:0:0:0:
256,192,737744,1,0,0:0:0:0:
256,192,737880,1,0,0:0:0:0:
256,192,738017,1,8,0:0:0:0:
256,192,738289,1,8,0:0:0:0:
256,192,738562,1,0,0:0:0:0:
256,192,738699,1,0,0:0:0:0:
256,192,738835,1,8,0:0:0:0:
256,192,739653,1,0,0:0:0:0:
256,192,739926,1,8,0:0:0:0:
256,192,740062,1,8,0:0:0:0:
256,192,740199,1,0,0:0:0:0:
256,192,740471,1,0,0:0:0:0:
256,192,740744,1,8,0:0:0:0:
256,192,740880,1,8,0:0:0:0:
256,192,741017,1,0,0:0:0:0:
256,192,741835,1,8,0:0:0:0:
256,192,742108,1,0,0:0:0:0:
256,192,742244,1,0,0:0:0:0:
256,192,742380,1,8,0:0:0:0:
256,192,742653,1,8,0:0:0:0:
256,192,742926,1,0,0:0:0:0:
256,192,743062,1,0,0:0:0:0:
256,192,743199,1,8,0:0:0:0:
256,192,744017,1,0,0:0:0:0:
256,192,744289,1,8,0:0:0:0:
256,192,744426,1,8,0:0:0:0:
256,192,744562,1,0,0:0:0:0:
256,192,744835,1,0,0:0:0:0:
256,192,745108,1,8,0:0:0:0:
256,192,745244,1,8,0:0:0:0:
256,192,745380,1,0,0:0:0:0:
256,192,746199,1,8,0:0:0:0:
256,192,746471,1,0,0:0:0:0:
256,192,746608,1,0,0:0:0:0:
256,192,746744,1,8,0:0:0:0:
256,192,747017,1,8,0:0:0:0:
256,192,747289,1,0,0:0:0:0:
256,192,747426,1,0,0:0:0:0:
256,192,747562,1,8,0:0:0:0:
256,192,748380,1,8,0:0:0:0:
256,192,748653,1,0,0:0:0:0:
256,192,748789,1,0,0:0:0:0:
256,192,748926,1,8,0:0:0:0:
256,192,749199,1,8,0:0:0:0:
256,192,749335,1,0,0:0:0:0:
256,192,749471,1,0,0:0:0:0:
256,192,749608,1,0,0:0:0:0:
256,192,749858,1,8,0:0:0:0:
256,192,750324,1,8,0:0:0:0:
256,192,750562,1,12,0:0:0:0:
256,192,750699,1,8,0:0:0:0:
256,192,750835,1,0,0:0:0:0:
256,192,750971,1,8,0:0:0:0:
256,192,751108,1,8,0:0:0:0:
256,192,751244,1,0,0:0:0:0:
256,192,751380,1,8,0:0:0:0:
256,192,751449,1,0,0:0:0:0:
256,192,751517,1,0,0:0:0:0:
256,192,751585,1,8,0:0:0:0:
256,192,751653,1,0,0:0:0:0:
256,192,751789,1,0,0:0:0:0:
256,192,751926,1,8,0:0:0:0:
256,192,752062,1,0,0:0:0:0:
256,192,752199,1,8,0:0:0:0:
256,192,752335,1,0,0:0:0:0:
256,192,752403,1,8,0:0:0:0:
256,192,752471,1,8,0:0:0:0:
256,192,752608,1,0,0:0:0:0:
256,192,752676,1,8,0:0:0:0:
256,192,752744,1,0,0:0:0:0:
256,192,752880,1,0,0:0:0:0:
256,192,753017,1,8,0:0:0:0:
256,192,753153,1,0,0:0:0:0:
256,192,753289,1,8,0:0:0:0:
256,192,753426,1,0,0:0:0:0:
256,192,753562,1,8,0:0:0:0:
256,192,753630,1,0,0:0:0:0:
256,192,753699,1,0,0:0:0:0:
256,192,753767,1,8,0:0:0:0:
256,192,753835,1,0,0:0:0:0:
256,192,753971,1,0,0:0:0:0:
256,192,754108,1,8,0:0:0:0:
256,192,754244,1,0,0:0:0:0:
256,192,754380,1,8,0:0:0:0:
256,192,754517,1,0,0:0:0:0:
256,192,754585,1,8,0:0:0:0:
256,192,754653,1,8,0:0:0:0:
256,192,754789,1,0,0:0:0:0:
256,192,754858,1,8,0:0:0:0:
256,192,754926,1,0,0:0:0:0:
256,192,755062,1,8,0:0:0:0:
256,192,755199,1,0,0:0:0:0:
256,192,755335,1,0,0:0:0:0:
256,192,755471,1,8,0:0:0:0:
256,192,755608,1,0,0:0:0:0:
256,192,755744,1,8,0:0:0:0:
256,192,755812,1,0,0:0:0:0:
256,192,755880,1,0,0:0:0:0:
256,192,755949,1,8,0:0:0:0:
256,192,756017,1,0,0:0:0:0:
256,192,756153,1,0,0:0:0:0:
256,192,756289,1,8,0:0:0:0:
256,192,756426,1,0,0:0:0:0:
256,192,756562,1,0,0:0:0:0:
256,192,756699,1,0,0:0:0:0:
256,192,756767,1,8,0:0:0:0:
256,192,756835,1,8,0:0:0:0:
256,192,756971,1,0,0:0:0:0:
256,192,757039,1,8,0:0:0:0:
256,192,757108,1,0,0:0:0:0:
256,192,757244,1,0,0:0:0:0:
256,192,757380,1,8,0:0:0:0:
256,192,757517,1,0,0:0:0:0:
256,192,757653,1,8,0:0:0:0:
256,192,757789,1,0,0:0:0:0:
256,192,757858,1,8,0:0:0:0:
256,192,757926,1,8,0:0:0:0:
256,192,758062,1,0,0:0:0:0:
256,192,758130,1,8,0:0:0:0:
256,192,758199,1,0,0:0:0:0:
256,192,758335,1,0,0:0:0:0:
256,192,758471,1,8,0:0:0:0:
256,192,758608,1,0,0:0:0:0:
256,192,758744,1,8,0:0:0:0:
256,192,758880,1,0,0:0:0:0:
256,192,758948,1,8,0:0:0:0:
256,192,759017,1,8,0:0:0:0:
256,192,759153,1,0,0:0:0:0:
256,192,759221,1,8,0:0:0:0:
256,192,759289,1,0,0:0:0:0:
256,192,759426,1,8,0:0:0:0:
256,192,759562,1,8,0:0:0:0:
256,192,759698,1,0,0:0:0:0:
256,192,759835,1,8,0:0:0:0:
256,192,759971,1,0,0:0:0:0:
256,192,760108,1,8,0:0:0:0:
256,192,760176,1,0,0:0:0:0:
256,192,760244,1,0,0:0:0:0:
256,192,760312,1,8,0:0:0:0:
256,192,760380,1,0,0:0:0:0:
256,192,760517,1,0,0:0:0:0:
256,192,760653,1,8,0:0:0:0:
256,192,760789,1,0,0:0:0:0:
256,192,760926,1,8,0:0:0:0:
256,192,761062,1,0,0:0:0:0:
256,192,761130,1,8,0:0:0:0:
256,192,761198,1,8,0:0:0:0:
256,192,761335,1,0,0:0:0:0:
256,192,761403,1,8,0:0:0:0:
256,192,761471,1,0,0:0:0:0:
256,192,761608,1,8,0:0:0:0:
256,192,761744,1,0,0:0:0:0:
256,192,761880,1,0,0:0:0:0:
256,192,762017,1,8,0:0:0:0:
256,192,762153,1,0,0:0:0:0:
256,192,762289,1,8,0:0:0:0:
256,192,762358,1,0,0:0:0:0:
256,192,762426,1,0,0:0:0:0:
256,192,762494,1,8,0:0:0:0:
256,192,762562,1,0,0:0:0:0:
256,192,762698,1,0,0:0:0:0:
256,192,762835,1,8,0:0:0:0:
256,192,762971,1,0,0:0:0:0:
256,192,763108,1,8,0:0:0:0:
256,192,763244,1,0,0:0:0:0:
256,192,763312,1,8,0:0:0:0:
256,192,763380,1,8,0:0:0:0:
256,192,763517,1,0,0:0:0:0:
256,192,763585,1,8,0:0:0:0:
256,192,763653,1,8,0:0:0:0:
256,192,763789,1,8,0:0:0:0:
256,192,763926,1,0,0:0:0:0:
256,192,764062,1,0,0:0:0:0:
256,192,764198,1,8,0:0:0:0:
256,192,764335,1,0,0:0:0:0:
256,192,764471,1,8,0:0:0:0:
256,192,764539,1,0,0:0:0:0:
256,192,764608,1,0,0:0:0:0:
256,192,764676,1,8,0:0:0:0:
256,192,764744,1,0,0:0:0:0:
256,192,764880,1,0,0:0:0:0:
256,192,765017,1,8,0:0:0:0:
256,192,765153,1,0,0:0:0:0:
256,192,765289,1,8,0:0:0:0:
256,192,765426,1,0,0:0:0:0:
256,192,765494,1,8,0:0:0:0:
256,192,765562,1,8,0:0:0:0:
256,192,765698,1,0,0:0:0:0:
256,192,765767,1,8,0:0:0:0:
256,192,765835,1,0,0:0:0:0:
256,192,765971,1,0,0:0:0:0:
256,192,766108,1,8,0:0:0:0:
256,192,766244,1,0,0:0:0:0:
256,192,766380,1,8,0:0:0:0:
256,192,766517,1,0,0:0:0:0:
256,192,766653,1,8,0:0:0:0:
256,192,766721,1,0,0:0:0:0:
256,192,766789,1,0,0:0:0:0:
256,192,766858,1,8,0:0:0:0:
256,192,766926,1,0,0:0:0:0:
256,192,767062,1,0,0:0:0:0:
256,192,767198,1,8,0:0:0:0:
256,192,768017,1,4,0:0:0:0:
256,192,768153,12,0,776608,0:0:0:0:
256,192,776744,5,4,0:0:0:0:
256,192,776880,1,0,0:0:0:0:
256,192,777017,1,8,0:0:0:0:
256,192,777153,1,0,0:0:0:0:
256,192,777289,1,0,0:0:0:0:
256,192,777426,1,8,0:0:0:0:
256,192,777562,1,8,0:0:0:0:
256,192,777630,1,0,0:0:0:0:
256,192,777698,1,0,0:0:0:0:
256,192,777767,1,8,0:0:0:0:
256,192,777835,1,0,0:0:0:0:
256,192,777971,1,0,0:0:0:0:
256,192,778108,1,8,0:0:0:0:
256,192,778244,1,0,0:0:0:0:
256,192,778380,1,0,0:0:0:0:
256,192,778517,1,0,0:0:0:0:
256,192,778585,1,8,0:0:0:0:
256,192,778653,1,8,0:0:0:0:
256,192,778789,1,0,0:0:0:0:
256,192,778858,1,8,0:0:0:0:
256,192,778926,1,0,0:0:0:0:
256,192,779062,1,0,0:0:0:0:
256,192,779198,1,8,0:0:0:0:
256,192,779335,1,0,0:0:0:0:
256,192,779471,1,0,0:0:0:0:
256,192,779608,1,8,0:0:0:0:
256,192,779744,1,8,0:0:0:0:
256,192,779812,1,0,0:0:0:0:
256,192,779880,1,0,0:0:0:0:
256,192,779948,1,8,0:0:0:0:
256,192,780017,1,0,0:0:0:0:
256,192,780153,1,0,0:0:0:0:
256,192,780289,1,8,0:0:0:0:
256,192,780426,1,0,0:0:0:0:
256,192,780562,1,8,0:0:0:0:
256,192,780698,1,0,0:0:0:0:
256,192,780767,1,8,0:0:0:0:
256,192,780835,1,8,0:0:0:0:
256,192,780971,1,0,0:0:0:0:
256,192,781039,1,8,0:0:0:0:
256,192,781108,1,0,0:0:0:0:
256,192,781244,1,0,0:0:0:0:
256,192,781380,1,8,0:0:0:0:
256,192,781517,1,0,0:0:0:0:
256,192,781653,1,8,0:0:0:0:
256,192,781789,1,0,0:0:0:0:
256,192,781926,1,8,0:0:0:0:
256,192,781994,1,0,0:0:0:0:
256,192,782062,1,0,0:0:0:0:
256,192,782130,1,8,0:0:0:0:
256,192,782198,1,0,0:0:0:0:
256,192,782335,1,0,0:0:0:0:
256,192,782471,1,8,0:0:0:0:
256,192,782608,1,0,0:0:0:0:
256,192,782744,1,8,0:0:0:0:
256,192,782880,1,0,0:0:0:0:
256,192,782948,1,8,0:0:0:0:
256,192,783017,1,8,0:0:0:0:
256,192,783153,1,0,0:0:0:0:
256,192,783221,1,8,0:0:0:0:
256,192,783289,1,0,0:0:0:0:
256,192,783426,1,0,0:0:0:0:
256,192,783562,1,8,0:0:0:0:
256,192,783698,1,0,0:0:0:0:
256,192,783835,1,8,0:0:0:0:
256,192,783971,1,0,0:0:0:0:
256,192,784108,1,8,0:0:0:0:
256,192,784176,1,0,0:0:0:0:
256,192,784244,1,0,0:0:0:0:
256,192,784312,1,8,0:0:0:0:
256,192,784380,5,8,0:0:0:0:
256,192,784653,1,0,0:0:0:0:
256,192,784698,1,0,0:0:0:0:
256,192,784744,1,0,0:0:0:0:
256,192,784789,1,8,0:0:0:0:
256,192,784926,1,12,0:0:0:0:
256,192,785062,1,4,0:0:0:0:
256,192,785198,1,0,0:0:0:0:
256,192,785335,1,4,0:0:0:0:
