osu file format v14

[General]
AudioFilename: audio.mp3
AudioLeadIn: 0
PreviewTime: 481526
Countdown: 0
SampleSet: Soft
StackLeniency: 0.7
Mode: 3
LetterboxInBreaks: 0
SpecialStyle: 0
WidescreenStoryboard: 1

[Editor]
Bookmarks: 19538
DistanceSpacing: 1.2
BeatDivisor: 4
GridSize: 4
TimelineZoom: 2.2

[Metadata]
Title:Because Maybe! (Pt. 2)
TitleUnicode:Because Maybe! (Pt. 2)
Artist:Renard
ArtistUnicode:Renard
Creator:JustinNF
Version:Wrecka
Source:Best of Lapfox Vol. 1
Tags:Raggacore Breakcore Dancefloor
BeatmapID:1505342
BeatmapSetID:712054

[Difficulty]
HPDrainRate:8
CircleSize:4
OverallDifficulty:8
ApproachRate:5
SliderMultiplier:1.4
SliderTickRate:1

[Events]
//Background and Video events
0,0,"BG-01.jpg",0,0
//Break Periods
//Storyboard Layer 0 (Background)
//Storyboard Layer 1 (Fail)
//Storyboard Layer 2 (Pass)
//Storyboard Layer 3 (Foreground)
//Storyboard Sound Samples

[TimingPoints]
-110,272.727272727273,4,2,0,25,1,0

[HitObjects]
448,192,980,128,0,2071:0:0:0:0:
320,192,2071,1,0,0:0:0:0:
64,192,2071,1,0,0:0:0:0:
192,192,2480,1,0,0:0:0:0:
320,192,2480,1,0,0:0:0:0:
192,192,2890,1,0,0:0:0:0:
64,192,2890,128,0,3026:0:0:0:0:
448,192,2890,1,0,0:0:0:0:
192,192,3299,1,0,0:0:0:0:
320,192,3299,1,0,0:0:0:0:
64,192,3708,1,0,0:0:0:0:
320,192,3708,1,0,0:0:0:0:
192,192,3980,1,0,0:0:0:0:
64,192,3980,128,0,4117:0:0:0:0:
448,192,3980,1,0,0:0:0:0:
448,192,4253,1,0,0:0:0:0:
320,192,4253,1,0,0:0:0:0:
64,192,4662,1,0,0:0:0:0:
320,192,4662,1,0,0:0:0:0:
192,192,5071,1,0,0:0:0:0:
448,192,5071,1,0,0:0:0:0:
320,192,5071,128,0,5208:0:0:0:0:
320,192,5480,1,0,0:0:0:0:
448,192,5480,1,0,0:0:0:0:
320,192,5890,1,0,0:0:0:0:
64,192,5890,1,0,0:0:0:0:
192,192,6162,1,0,0:0:0:0:
448,192,6162,1,0,0:0:0:0:
64,192,6162,128,0,6299:0:0:0:0:
320,192,6435,1,0,0:0:0:0:
192,192,6435,1,0,0:0:0:0:
64,192,6844,1,0,0:0:0:0:
320,192,6844,1,0,0:0:0:0:
192,192,7253,1,0,0:0:0:0:
448,192,7253,1,0,0:0:0:0:
320,192,7253,128,0,7390:0:0:0:0:
64,192,7662,1,0,0:0:0:0:
192,192,7662,1,0,0:0:0:0:
64,192,8071,1,0,0:0:0:0:
320,192,8071,1,0,0:0:0:0:
448,192,8344,128,0,8480:0:0:0:0:
192,192,8344,1,0,0:0:0:0:
320,192,8344,1,0,0:0:0:0:
64,192,8617,1,0,0:0:0:0:
192,192,8617,1,0,0:0:0:0:
64,192,9026,1,0,0:0:0:0:
320,192,9026,1,0,0:0:0:0:
192,192,9435,1,0,0:0:0:0:
448,192,9435,1,0,0:0:0:0:
64,192,9435,128,0,9571:0:0:0:0:
320,192,9844,1,0,0:0:0:0:
448,192,9844,1,0,0:0:0:0:
192,192,9844,128,0,10799:0:0:0:0:
448,192,10253,1,0,0:0:0:0:
64,192,10253,1,0,0:0:0:0:
64,192,10526,1,0,0:0:0:0:
320,192,10526,1,0,0:0:0:0:
448,192,10526,128,0,10662:0:0:0:0:
64,192,10799,1,0,0:0:0:0:
320,192,10799,1,0,0:0:0:0:
320,192,10935,1,0,0:0:0:0:
448,192,11208,1,0,0:0:0:0:
448,192,11344,1,0,0:0:0:0:
64,192,11617,1,0,0:0:0:0:
64,192,11753,1,0,0:0:0:0:
320,192,12026,1,0,0:0:0:0:
320,192,12162,1,0,0:0:0:0:
320,192,12299,1,0,0:0:0:0:
192,192,12435,1,0,0:0:0:0:
192,192,12571,1,0,0:0:0:0:
448,192,12708,1,0,0:0:0:0:
64,192,12980,1,0,0:0:0:0:
320,192,13117,1,0,0:0:0:0:
320,192,13253,1,0,0:0:0:0:
320,192,13390,1,0,0:0:0:0:
64,192,13390,1,0,0:0:0:0:
192,192,13526,1,0,0:0:0:0:
192,192,13662,1,0,0:0:0:0:
448,192,13799,1,0,0:0:0:0:
320,192,13935,1,0,0:0:0:0:
64,192,14208,1,0,0:0:0:0:
448,192,14344,1,0,0:0:0:0:
448,192,14480,1,0,0:0:0:0:
192,192,14617,1,0,0:0:0:0:
320,192,14617,1,0,0:0:0:0:
320,192,14753,1,0,0:0:0:0:
192,192,14753,1,0,0:0:0:0:
64,192,14890,1,0,0:0:0:0:
192,192,15162,1,0,0:0:0:0:
448,192,15162,1,0,0:0:0:0:
448,192,15299,1,0,0:0:0:0:
320,192,15571,1,0,0:0:0:0:
64,192,15571,1,0,0:0:0:0:
320,192,15708,1,0,0:0:0:0:
64,192,15980,1,0,0:0:0:0:
192,192,15980,1,0,0:0:0:0:
192,192,16117,1,0,0:0:0:0:
320,192,16390,1,0,0:0:0:0:
64,192,16390,1,0,0:0:0:0:
320,192,16526,1,0,0:0:0:0:
320,192,16662,1,0,0:0:0:0:
192,192,16799,1,0,0:0:0:0:
448,192,16799,1,0,0:0:0:0:
192,192,16935,1,0,0:0:0:0:
448,192,16935,1,0,0:0:0:0:
64,192,17071,1,0,0:0:0:0:
192,192,17344,1,0,0:0:0:0:
448,192,17480,1,0,0:0:0:0:
448,192,17617,1,0,0:0:0:0:
64,192,17753,1,0,0:0:0:0:
448,192,17753,1,0,0:0:0:0:
320,192,17890,1,0,0:0:0:0:
192,192,17890,1,0,0:0:0:0:
320,192,18026,1,0,0:0:0:0:
448,192,18162,1,0,0:0:0:0:
64,192,18299,1,0,0:0:0:0:
320,192,18571,1,0,0:0:0:0:
192,192,18980,1,0,0:0:0:0:
448,192,18980,1,0,0:0:0:0:
64,192,19117,1,0,0:0:0:0:
192,192,19117,1,0,0:0:0:0:
320,192,19185,1,0,0:0:0:0:
448,192,19253,1,0,0:0:0:0:
64,192,19253,1,0,0:0:0:0:
320,192,19390,1,0,0:0:0:0:
192,192,19458,1,0,0:0:0:0:
64,192,19526,1,0,0:0:0:0:
320,192,19526,1,0,0:0:0:0:
448,192,19526,1,0,0:0:0:0:
