osu file format v14

[General]
AudioFilename: audio.mp3
AudioLeadIn: 0
PreviewTime: 481526
Countdown: 0
SampleSet: Soft
StackLeniency: 0.7
Mode: 3
LetterboxInBreaks: 0
SpecialStyle: 0
WidescreenStoryboard: 1

[Editor]
Bookmarks: 813720,833344,850799,859526,867162,868253,884617,885708,902071,903162,911890,919526,920617,938071,955526,972992,990435,1007902
DistanceSpacing: 1.2
BeatDivisor: 4
GridSize: 4
TimelineZoom: 2.4

[Metadata]
Title:Because Maybe! (Pt. 2)
TitleUnicode:Because Maybe! (Pt. 2)
Artist:Renard
ArtistUnicode:Renard
Creator:JustinNF
Version:Smoke Tower
Source:Best of Lapfox Vol. 1
Tags:Raggacore Breakcore Dancefloor
BeatmapID:1505339
BeatmapSetID:712054

[Difficulty]
HPDrainRate:8
CircleSize:4
OverallDifficulty:8
ApproachRate:5
SliderMultiplier:1.4
SliderTickRate:1

[Events]
//Background and Video events
0,0,"BG-01.jpg",0,0
//Break Periods
//Storyboard Layer 0 (Background)
//Storyboard Layer 1 (Fail)
//Storyboard Layer 2 (Pass)
//Storyboard Layer 3 (Foreground)
//Storyboard Sound Samples

[TimingPoints]
-110,272.727272727273,4,2,0,25,1,0
884344,-50,4,2,0,25,0,0
884617,-1000,4,2,0,25,0,0
885299,-66.6666666666667,4,2,0,25,0,0
885435,-1000,4,2,0,25,0,0
885640,-66.6666666666667,4,2,0,25,0,0
885708,-100,4,2,0,25,0,0
902071,-333.333333333333,4,2,0,25,0,0
902753,-66.6666666666667,4,2,0,25,0,0
902890,-200,4,2,0,25,0,0
903094,-66.6666666666667,4,2,0,25,0,0
903162,-100,4,2,0,25,0,0

[HitObjects]
64,192,815890,5,0,0:0:0:0:
192,192,815890,1,0,0:0:0:0:
448,192,815890,1,0,0:0:0:0:
64,192,816026,1,0,0:0:0:0:
320,192,816162,1,0,0:0:0:0:
192,192,816299,1,0,0:0:0:0:
448,192,816299,1,0,0:0:0:0:
320,192,816299,1,0,0:0:0:0:
64,192,816435,1,0,0:0:0:0:
448,192,816571,1,0,0:0:0:0:
192,192,816708,1,0,0:0:0:0:
320,192,816708,1,0,0:0:0:0:
64,192,816844,1,0,0:0:0:0:
192,192,816912,1,0,0:0:0:0:
64,192,816980,1,0,0:0:0:0:
320,192,816980,1,0,0:0:0:0:
448,192,816980,1,0,0:0:0:0:
192,192,817117,1,0,0:0:0:0:
320,192,817253,1,0,0:0:0:0:
64,192,817253,1,0,0:0:0:0:
192,192,817390,1,0,0:0:0:0:
320,192,817390,1,0,0:0:0:0:
448,192,817390,1,0,0:0:0:0:
64,192,817458,1,0,0:0:0:0:
192,192,817526,1,0,0:0:0:0:
448,192,817594,1,0,0:0:0:0:
320,192,817662,1,0,0:0:0:0:
64,192,817799,1,0,0:0:0:0:
448,192,817799,1,0,0:0:0:0:
192,192,817935,1,0,0:0:0:0:
320,192,818003,1,0,0:0:0:0:
192,192,818071,1,0,0:0:0:0:
64,192,818071,1,0,0:0:0:0:
448,192,818071,1,0,0:0:0:0:
320,192,818208,1,0,0:0:0:0:
64,192,818344,1,0,0:0:0:0:
448,192,818480,1,0,0:0:0:0:
64,192,818480,1,0,0:0:0:0:
192,192,818480,1,0,0:0:0:0:
320,192,818617,1,0,0:0:0:0:
320,192,818753,1,0,0:0:0:0:
192,192,818890,1,0,0:0:0:0:
448,192,818890,1,0,0:0:0:0:
64,192,819026,1,0,0:0:0:0:
192,192,819094,1,0,0:0:0:0:
64,192,819162,1,0,0:0:0:0:
448,192,819162,1,0,0:0:0:0:
320,192,819162,1,0,0:0:0:0:
448,192,819435,1,0,0:0:0:0:
64,192,819571,1,0,0:0:0:0:
192,192,819571,1,0,0:0:0:0:
320,192,819571,1,0,0:0:0:0:
320,192,819708,1,0,0:0:0:0:
448,192,819776,1,0,0:0:0:0:
64,192,819844,1,0,0:0:0:0:
320,192,819980,1,0,0:0:0:0:
448,192,819980,1,0,0:0:0:0:
64,192,820049,1,0,0:0:0:0:
192,192,820117,1,0,0:0:0:0:
448,192,820117,1,0,0:0:0:0:
320,192,820185,1,0,0:0:0:0:
64,192,820253,1,0,0:0:0:0:
192,192,820253,1,0,0:0:0:0:
448,192,820253,1,0,0:0:0:0:
320,192,820390,1,0,0:0:0:0:
192,192,820526,1,0,0:0:0:0:
64,192,820662,1,0,0:0:0:0:
320,192,820662,1,0,0:0:0:0:
448,192,820662,1,0,0:0:0:0:
448,192,820799,1,0,0:0:0:0:
64,192,820867,1,0,0:0:0:0:
192,192,820935,1,0,0:0:0:0:
64,192,821071,1,0,0:0:0:0:
320,192,821071,1,0,0:0:0:0:
448,192,821208,1,0,0:0:0:0:
320,192,821276,1,0,0:0:0:0:
448,192,821344,1,0,0:0:0:0:
192,192,821344,1,0,0:0:0:0:
64,192,821344,1,0,0:0:0:0:
320,192,821480,1,0,0:0:0:0:
64,192,821617,1,0,0:0:0:0:
192,192,821753,1,0,0:0:0:0:
320,192,821753,1,0,0:0:0:0:
448,192,821753,1,0,0:0:0:0:
64,192,821821,1,0,0:0:0:0:
320,192,821890,1,0,0:0:0:0:
192,192,821958,1,0,0:0:0:0:
64,192,822026,1,0,0:0:0:0:
320,192,822162,1,0,0:0:0:0:
192,192,822162,1,0,0:0:0:0:
448,192,822299,1,0,0:0:0:0:
192,192,822367,1,0,0:0:0:0:
64,192,822435,1,0,0:0:0:0:
320,192,822435,1,0,0:0:0:0:
448,192,822435,1,0,0:0:0:0:
192,192,822571,1,0,0:0:0:0:
448,192,822708,1,0,0:0:0:0:
64,192,822844,1,0,0:0:0:0:
192,192,822844,1,0,0:0:0:0:
320,192,822844,1,0,0:0:0:0:
64,192,822980,1,0,0:0:0:0:
320,192,823117,1,0,0:0:0:0:
192,192,823253,1,0,0:0:0:0:
448,192,823253,1,0,0:0:0:0:
64,192,823390,1,0,0:0:0:0:
448,192,823526,1,0,0:0:0:0:
192,192,823526,1,0,0:0:0:0:
320,192,823526,1,0,0:0:0:0:
320,192,823799,1,0,0:0:0:0:
192,192,823935,1,0,0:0:0:0:
448,192,823935,1,0,0:0:0:0:
64,192,823935,1,0,0:0:0:0:
320,192,824071,1,0,0:0:0:0:
192,192,824140,1,0,0:0:0:0:
64,192,824208,1,0,0:0:0:0:
192,192,824344,1,0,0:0:0:0:
448,192,824344,1,0,0:0:0:0:
320,192,824412,1,0,0:0:0:0:
64,192,824480,1,0,0:0:0:0:
448,192,824549,1,0,0:0:0:0:
64,192,824617,1,0,0:0:0:0:
192,192,824617,1,0,0:0:0:0:
320,192,824617,1,0,0:0:0:0:
320,192,824753,1,0,0:0:0:0:
192,192,824890,1,0,0:0:0:0:
64,192,825026,1,0,0:0:0:0:
320,192,825026,1,0,0:0:0:0:
448,192,825026,1,0,0:0:0:0:
192,192,825162,1,0,0:0:0:0:
448,192,825299,1,0,0:0:0:0:
192,192,825435,1,0,0:0:0:0:
320,192,825435,1,0,0:0:0:0:
64,192,825571,1,0,0:0:0:0:
192,192,825640,1,0,0:0:0:0:
320,192,825708,1,0,0:0:0:0:
448,192,825708,1,0,0:0:0:0:
64,192,825708,1,0,0:0:0:0:
192,192,825844,1,0,0:0:0:0:
448,192,825980,1,0,0:0:0:0:
64,192,826117,1,0,0:0:0:0:
320,192,826117,1,0,0:0:0:0:
192,192,826117,1,0,0:0:0:0:
448,192,826185,1,0,0:0:0:0:
192,192,826253,1,0,0:0:0:0:
320,192,826321,1,0,0:0:0:0:
64,192,826390,1,0,0:0:0:0:
192,192,826526,1,0,0:0:0:0:
448,192,826526,1,0,0:0:0:0:
320,192,826662,1,0,0:0:0:0:
192,192,826730,1,0,0:0:0:0:
64,192,826799,1,0,0:0:0:0:
320,192,826799,1,0,0:0:0:0:
448,192,826799,1,0,0:0:0:0:
192,192,826935,1,0,0:0:0:0:
448,192,827071,1,0,0:0:0:0:
192,192,827208,1,0,0:0:0:0:
320,192,827208,1,0,0:0:0:0:
64,192,827208,1,0,0:0:0:0:
192,192,827344,1,0,0:0:0:0:
448,192,827480,1,0,0:0:0:0:
320,192,827617,1,0,0:0:0:0:
192,192,827617,1,0,0:0:0:0:
64,192,827753,1,0,0:0:0:0:
320,192,827821,1,0,0:0:0:0:
192,192,827890,1,0,0:0:0:0:
448,192,827890,1,0,0:0:0:0:
64,192,827890,1,0,0:0:0:0:
320,192,828026,1,0,0:0:0:0:
192,192,828162,1,0,0:0:0:0:
64,192,828299,1,0,0:0:0:0:
320,192,828299,1,0,0:0:0:0:
448,192,828299,1,0,0:0:0:0:
192,192,828435,1,0,0:0:0:0:
448,192,828503,1,0,0:0:0:0:
320,192,828571,1,0,0:0:0:0:
448,192,828708,1,0,0:0:0:0:
64,192,828708,1,0,0:0:0:0:
192,192,828844,1,0,0:0:0:0:
320,192,828912,1,0,0:0:0:0:
448,192,828980,1,0,0:0:0:0:
192,192,828980,1,0,0:0:0:0:
64,192,828980,1,0,0:0:0:0:
320,192,829117,1,0,0:0:0:0:
64,192,829253,1,0,0:0:0:0:
192,192,829390,1,0,0:0:0:0:
320,192,829390,1,0,0:0:0:0:
448,192,829390,1,0,0:0:0:0:
320,192,829526,1,0,0:0:0:0:
64,192,829594,1,0,0:0:0:0:
192,192,829662,1,0,0:0:0:0:
64,192,829799,1,0,0:0:0:0:
448,192,829799,1,0,0:0:0:0:
320,192,829935,1,0,0:0:0:0:
64,192,830071,1,0,0:0:0:0:
320,192,830071,1,0,0:0:0:0:
448,192,830071,1,0,0:0:0:0:
192,192,830208,1,0,0:0:0:0:
320,192,830344,1,0,0:0:0:0:
64,192,830480,1,0,0:0:0:0:
192,192,830480,1,0,0:0:0:0:
448,192,830480,1,0,0:0:0:0:
320,192,830549,1,0,0:0:0:0:
64,192,830617,1,0,0:0:0:0:
448,192,830685,1,0,0:0:0:0:
192,192,830753,1,0,0:0:0:0:
64,192,830890,1,0,0:0:0:0:
320,192,830890,1,0,0:0:0:0:
192,192,831026,1,0,0:0:0:0:
448,192,831094,1,0,0:0:0:0:
320,192,831162,1,0,0:0:0:0:
192,192,831162,1,0,0:0:0:0:
64,192,831162,1,0,0:0:0:0:
320,192,831299,1,0,0:0:0:0:
64,192,831435,1,0,0:0:0:0:
192,192,831571,1,0,0:0:0:0:
320,192,831571,1,0,0:0:0:0:
448,192,831571,1,0,0:0:0:0:
320,192,831708,1,0,0:0:0:0:
64,192,831844,1,0,0:0:0:0:
192,192,831980,1,0,0:0:0:0:
448,192,831980,1,0,0:0:0:0:
64,192,832253,1,0,0:0:0:0:
320,192,832253,1,0,0:0:0:0:
448,192,832253,1,0,0:0:0:0:
320,192,832526,1,0,0:0:0:0:
448,192,832662,1,0,0:0:0:0:
64,192,832799,1,0,0:0:0:0:
320,192,832867,1,0,0:0:0:0:
192,192,832935,1,0,0:0:0:0:
448,192,833003,1,0,0:0:0:0:
64,192,833071,1,0,0:0:0:0:
320,192,833071,1,0,0:0:0:0:
64,192,833344,1,0,0:0:0:0:
192,192,833344,1,0,0:0:0:0:
448,192,833344,1,0,0:0:0:0:
320,192,833412,1,0,0:0:0:0:
192,192,833480,1,0,0:0:0:0:
448,192,833549,1,0,0:0:0:0:
64,192,833617,1,0,0:0:0:0:
448,192,833753,1,0,0:0:0:0:
320,192,833753,1,0,0:0:0:0:
64,192,833753,1,0,0:0:0:0:
192,192,833890,1,0,0:0:0:0:
320,192,833958,1,0,0:0:0:0:
448,192,834026,1,0,0:0:0:0:
64,192,834094,1,0,0:0:0:0:
192,192,834162,1,0,0:0:0:0:
320,192,834162,1,0,0:0:0:0:
192,192,834299,1,0,0:0:0:0:
320,192,834435,1,0,0:0:0:0:
64,192,834435,1,0,0:0:0:0:
448,192,834435,1,0,0:0:0:0:
192,192,834503,1,0,0:0:0:0:
448,192,834571,1,0,0:0:0:0:
64,192,834640,1,0,0:0:0:0:
320,192,834708,1,0,0:0:0:0:
64,192,834844,1,0,0:0:0:0:
192,192,834844,1,0,0:0:0:0:
320,192,834844,1,0,0:0:0:0:
448,192,834912,1,0,0:0:0:0:
64,192,834980,1,0,0:0:0:0:
320,192,835049,1,0,0:0:0:0:
192,192,835117,1,0,0:0:0:0:
64,192,835253,1,0,0:0:0:0:
448,192,835253,1,0,0:0:0:0:
320,192,835321,1,0,0:0:0:0:
192,192,835390,1,0,0:0:0:0:
448,192,835458,1,0,0:0:0:0:
320,192,835526,1,0,0:0:0:0:
192,192,835526,1,0,0:0:0:0:
64,192,835526,1,0,0:0:0:0:
448,192,835594,1,0,0:0:0:0:
320,192,835662,1,0,0:0:0:0:
192,192,835730,1,0,0:0:0:0:
64,192,835799,1,0,0:0:0:0:
320,192,835867,1,0,0:0:0:0:
448,192,835935,1,0,0:0:0:0:
192,192,835935,1,0,0:0:0:0:
64,192,835935,1,0,0:0:0:0:
320,192,836003,1,0,0:0:0:0:
448,192,836071,1,0,0:0:0:0:
64,192,836140,1,0,0:0:0:0:
320,192,836208,1,0,0:0:0:0:
192,192,836276,1,0,0:0:0:0:
64,192,836344,1,0,0:0:0:0:
448,192,836344,1,0,0:0:0:0:
320,192,836480,1,0,0:0:0:0:
192,192,836617,1,0,0:0:0:0:
448,192,836617,1,0,0:0:0:0:
64,192,836617,1,0,0:0:0:0:
320,192,836685,1,0,0:0:0:0:
64,192,836753,1,0,0:0:0:0:
448,192,836821,1,0,0:0:0:0:
320,192,836890,1,0,0:0:0:0:
192,192,836958,1,0,0:0:0:0:
64,192,837026,1,0,0:0:0:0:
320,192,837026,1,0,0:0:0:0:
448,192,837026,1,0,0:0:0:0:
192,192,837094,1,0,0:0:0:0:
448,192,837162,1,0,0:0:0:0:
64,192,837230,1,0,0:0:0:0:
320,192,837299,1,0,0:0:0:0:
192,192,837435,1,0,0:0:0:0:
448,192,837435,1,0,0:0:0:0:
192,192,837571,1,0,0:0:0:0:
64,192,837708,1,0,0:0:0:0:
320,192,837708,1,0,0:0:0:0:
448,192,837708,1,0,0:0:0:0:
192,192,837776,1,0,0:0:0:0:
448,192,837844,1,0,0:0:0:0:
320,192,837912,1,0,0:0:0:0:
64,192,837980,1,0,0:0:0:0:
448,192,838117,1,0,0:0:0:0:
192,192,838117,1,0,0:0:0:0:
64,192,838117,1,0,0:0:0:0:
320,192,838185,1,0,0:0:0:0:
192,192,838253,1,0,0:0:0:0:
448,192,838321,1,0,0:0:0:0:
64,192,838390,1,0,0:0:0:0:
192,192,838526,1,0,0:0:0:0:
320,192,838526,1,0,0:0:0:0:
448,192,838662,1,0,0:0:0:0:
320,192,838730,1,0,0:0:0:0:
64,192,838799,1,0,0:0:0:0:
192,192,838799,1,0,0:0:0:0:
448,192,838799,1,0,0:0:0:0:
320,192,838867,1,0,0:0:0:0:
64,192,838935,1,0,0:0:0:0:
192,192,839003,1,0,0:0:0:0:
320,192,839071,1,0,0:0:0:0:
448,192,839140,1,0,0:0:0:0:
64,192,839208,1,0,0:0:0:0:
192,192,839208,1,0,0:0:0:0:
320,192,839208,1,0,0:0:0:0:
448,192,839276,1,0,0:0:0:0:
192,192,839344,1,0,0:0:0:0:
320,192,839412,1,0,0:0:0:0:
64,192,839480,1,0,0:0:0:0:
448,192,839549,1,0,0:0:0:0:
192,192,839617,1,0,0:0:0:0:
320,192,839617,1,0,0:0:0:0:
64,192,839753,1,0,0:0:0:0:
320,192,839890,1,0,0:0:0:0:
448,192,839890,1,0,0:0:0:0:
64,192,839890,1,0,0:0:0:0:
192,192,839958,1,0,0:0:0:0:
448,192,840026,1,0,0:0:0:0:
64,192,840094,1,0,0:0:0:0:
192,192,840162,1,0,0:0:0:0:
320,192,840230,1,0,0:0:0:0:
192,192,840299,1,0,0:0:0:0:
64,192,840299,1,0,0:0:0:0:
448,192,840299,1,0,0:0:0:0:
320,192,840367,1,0,0:0:0:0:
64,192,840435,1,0,0:0:0:0:
192,192,840503,1,0,0:0:0:0:
448,192,840571,1,0,0:0:0:0:
192,192,840640,1,0,0:0:0:0:
64,192,840708,1,0,0:0:0:0:
320,192,840708,1,0,0:0:0:0:
320,192,840844,1,0,0:0:0:0:
192,192,840980,1,0,0:0:0:0:
448,192,840980,1,0,0:0:0:0:
64,192,840980,1,0,0:0:0:0:
320,192,841049,1,0,0:0:0:0:
192,192,841117,1,0,0:0:0:0:
448,192,841185,1,0,0:0:0:0:
64,192,841253,1,0,0:0:0:0:
320,192,841321,1,0,0:0:0:0:
192,192,841390,1,0,0:0:0:0:
64,192,841390,1,0,0:0:0:0:
448,192,841390,1,0,0:0:0:0:
320,192,841458,1,0,0:0:0:0:
448,192,841526,1,0,0:0:0:0:
192,192,841594,1,0,0:0:0:0:
320,192,841662,1,0,0:0:0:0:
64,192,841730,1,0,0:0:0:0:
192,192,841799,1,0,0:0:0:0:
448,192,841799,1,0,0:0:0:0:
64,192,841935,1,0,0:0:0:0:
320,192,842071,1,0,0:0:0:0:
448,192,842071,1,0,0:0:0:0:
64,192,842071,1,0,0:0:0:0:
192,192,842140,1,0,0:0:0:0:
448,192,842208,1,0,0:0:0:0:
192,192,842276,1,0,0:0:0:0:
64,192,842344,1,0,0:0:0:0:
320,192,842412,1,0,0:0:0:0:
448,192,842480,1,0,0:0:0:0:
192,192,842480,1,0,0:0:0:0:
64,192,842480,1,0,0:0:0:0:
320,192,842549,1,0,0:0:0:0:
192,192,842617,1,0,0:0:0:0:
448,192,842685,1,0,0:0:0:0:
64,192,842753,1,0,0:0:0:0:
320,192,842821,1,0,0:0:0:0:
192,192,842890,1,0,0:0:0:0:
448,192,842890,1,0,0:0:0:0:
64,192,843026,1,0,0:0:0:0:
320,192,843094,1,0,0:0:0:0:
448,192,843162,1,0,0:0:0:0:
64,192,843162,1,0,0:0:0:0:
192,192,843162,1,0,0:0:0:0:
320,192,843299,1,0,0:0:0:0:
64,192,843367,1,0,0:0:0:0:
448,192,843435,1,0,0:0:0:0:
192,192,843503,1,0,0:0:0:0:
64,192,843571,1,0,0:0:0:0:
320,192,843571,1,0,0:0:0:0:
448,192,843571,1,0,0:0:0:0:
192,192,843640,1,0,0:0:0:0:
320,192,843708,1,0,0:0:0:0:
64,192,843776,1,0,0:0:0:0:
448,192,843844,1,0,0:0:0:0:
192,192,843912,1,0,0:0:0:0:
64,192,843980,1,0,0:0:0:0:
320,192,843980,1,0,0:0:0:0:
448,192,844049,1,0,0:0:0:0:
320,192,844117,1,0,0:0:0:0:
192,192,844185,1,0,0:0:0:0:
448,192,844253,1,0,0:0:0:0:
64,192,844253,1,0,0:0:0:0:
320,192,844253,1,0,0:0:0:0:
192,192,844321,1,0,0:0:0:0:
448,192,844390,1,0,0:0:0:0:
64,192,844458,1,0,0:0:0:0:
192,192,844526,1,0,0:0:0:0:
448,192,844594,1,0,0:0:0:0:
64,192,844662,1,0,0:0:0:0:
192,192,844662,1,0,0:0:0:0:
320,192,844662,1,0,0:0:0:0:
448,192,844730,1,0,0:0:0:0:
64,192,844799,1,0,0:0:0:0:
320,192,844867,1,0,0:0:0:0:
192,192,844935,1,0,0:0:0:0:
448,192,845003,1,0,0:0:0:0:
320,192,845071,1,0,0:0:0:0:
192,192,845071,1,0,0:0:0:0:
64,192,845140,1,0,0:0:0:0:
448,192,845208,1,0,0:0:0:0:
192,192,845344,1,0,0:0:0:0:
320,192,845344,1,0,0:0:0:0:
64,192,845344,1,0,0:0:0:0:
448,192,845480,1,0,0:0:0:0:
192,192,845549,1,0,0:0:0:0:
64,192,845617,1,0,0:0:0:0:
320,192,845685,1,0,0:0:0:0:
192,192,845753,1,0,0:0:0:0:
448,192,845753,1,0,0:0:0:0:
64,192,845753,1,0,0:0:0:0:
320,192,845821,1,0,0:0:0:0:
448,192,845890,1,0,0:0:0:0:
64,192,845958,1,0,0:0:0:0:
320,192,846026,1,0,0:0:0:0:
192,192,846094,1,0,0:0:0:0:
64,192,846162,1,0,0:0:0:0:
448,192,846162,1,0,0:0:0:0:
320,192,846230,1,0,0:0:0:0:
192,192,846299,1,0,0:0:0:0:
64,192,846435,1,0,0:0:0:0:
320,192,846435,1,0,0:0:0:0:
448,192,846435,1,0,0:0:0:0:
192,192,846503,1,0,0:0:0:0:
448,192,846571,1,0,0:0:0:0:
320,192,846640,1,0,0:0:0:0:
64,192,846708,1,0,0:0:0:0:
192,192,846844,1,0,0:0:0:0:
320,192,846844,1,0,0:0:0:0:
64,192,846844,1,0,0:0:0:0:
448,192,846912,1,0,0:0:0:0:
192,192,846980,1,0,0:0:0:0:
320,192,847049,1,0,0:0:0:0:
64,192,847117,1,0,0:0:0:0:
192,192,847185,1,0,0:0:0:0:
448,192,847253,1,0,0:0:0:0:
320,192,847253,1,0,0:0:0:0:
192,192,847390,1,0,0:0:0:0:
64,192,847526,1,0,0:0:0:0:
320,192,847526,1,0,0:0:0:0:
448,192,847526,1,0,0:0:0:0:
192,192,847594,1,0,0:0:0:0:
448,192,847662,1,0,0:0:0:0:
64,192,847730,1,0,0:0:0:0:
320,192,847799,1,0,0:0:0:0:
192,192,847867,1,0,0:0:0:0:
320,192,847935,1,0,0:0:0:0:
448,192,847935,1,0,0:0:0:0:
64,192,847935,1,0,0:0:0:0:
192,192,848003,1,0,0:0:0:0:
448,192,848071,1,0,0:0:0:0:
64,192,848140,1,0,0:0:0:0:
320,192,848208,1,0,0:0:0:0:
64,192,848276,1,0,0:0:0:0:
192,192,848344,1,0,0:0:0:0:
448,192,848344,1,0,0:0:0:0:
320,192,848480,1,0,0:0:0:0:
64,192,848617,1,0,0:0:0:0:
192,192,848617,1,0,0:0:0:0:
320,192,848617,1,0,0:0:0:0:
448,192,848685,1,0,0:0:0:0:
192,192,848753,1,0,0:0:0:0:
64,192,848821,1,0,0:0:0:0:
320,192,848890,1,0,0:0:0:0:
192,192,848958,1,0,0:0:0:0:
64,192,849026,1,0,0:0:0:0:
448,192,849026,1,0,0:0:0:0:
320,192,849026,1,0,0:0:0:0:
192,192,849094,1,0,0:0:0:0:
448,192,849162,1,0,0:0:0:0:
320,192,849230,1,0,0:0:0:0:
64,192,849299,1,0,0:0:0:0:
192,192,849367,1,0,0:0:0:0:
448,192,849435,1,0,0:0:0:0:
64,192,849435,1,0,0:0:0:0:
320,192,849571,1,0,0:0:0:0:
192,192,849708,1,0,0:0:0:0:
320,192,849708,1,0,0:0:0:0:
448,192,849708,1,0,0:0:0:0:
64,192,849776,1,0,0:0:0:0:
448,192,849844,1,0,0:0:0:0:
192,192,849912,1,0,0:0:0:0:
64,192,849980,1,0,0:0:0:0:
448,192,850049,1,0,0:0:0:0:
320,192,850117,1,0,0:0:0:0:
64,192,850253,1,0,0:0:0:0:
320,192,850253,1,0,0:0:0:0:
192,192,850390,1,0,0:0:0:0:
320,192,850458,1,0,0:0:0:0:
448,192,850526,1,0,0:0:0:0:
192,192,850526,1,0,0:0:0:0:
64,192,850662,1,0,0:0:0:0:
448,192,850662,1,0,0:0:0:0:
64,192,850799,1,0,0:0:0:0:
192,192,850799,1,0,0:0:0:0:
320,192,850799,1,0,0:0:0:0:
320,192,851208,1,0,0:0:0:0:
448,192,851208,1,0,0:0:0:0:
64,192,851208,1,0,0:0:0:0:
192,192,851276,1,0,0:0:0:0:
64,192,851344,128,0,851480:0:0:0:0:
448,192,851480,128,0,851617:0:0:0:0:
320,192,851617,128,0,851890:0:0:0:0:
64,192,851890,1,0,0:0:0:0:
448,192,851890,1,0,0:0:0:0:
192,192,851890,1,0,0:0:0:0:
64,192,852299,1,0,0:0:0:0:
320,192,852299,1,0,0:0:0:0:
448,192,852299,1,0,0:0:0:0:
192,192,852367,1,0,0:0:0:0:
448,192,852435,128,0,852571:0:0:0:0:
64,192,852571,128,0,852708:0:0:0:0:
320,192,852708,128,0,852844:0:0:0:0:
192,192,852844,128,0,852980:0:0:0:0:
64,192,852980,1,0,0:0:0:0:
320,192,852980,1,0,0:0:0:0:
448,192,852980,1,0,0:0:0:0:
64,192,853390,1,0,0:0:0:0:
448,192,853390,1,0,0:0:0:0:
192,192,853390,1,0,0:0:0:0:
320,192,853458,1,0,0:0:0:0:
448,192,853526,128,0,853662:0:0:0:0:
192,192,853662,128,0,853799:0:0:0:0:
64,192,853799,128,0,854071:0:0:0:0:
192,192,854071,1,0,0:0:0:0:
320,192,854071,1,0,0:0:0:0:
448,192,854071,1,0,0:0:0:0:
64,192,854480,1,0,0:0:0:0:
320,192,854480,1,0,0:0:0:0:
448,192,854480,1,0,0:0:0:0:
192,192,854549,1,0,0:0:0:0:
320,192,854617,128,0,854753:0:0:0:0:
64,192,854753,128,0,854890:0:0:0:0:
448,192,854890,128,0,855026:0:0:0:0:
192,192,855026,128,0,855162:0:0:0:0:
64,192,855162,1,0,0:0:0:0:
320,192,855162,1,0,0:0:0:0:
448,192,855162,1,0,0:0:0:0:
64,192,855571,1,0,0:0:0:0:
192,192,855571,1,0,0:0:0:0:
320,192,855571,1,0,0:0:0:0:
448,192,855640,1,0,0:0:0:0:
64,192,855708,128,0,855844:0:0:0:0:
448,192,855844,128,0,855980:0:0:0:0:
320,192,855980,128,0,856253:0:0:0:0:
448,192,856253,1,0,0:0:0:0:
192,192,856253,1,0,0:0:0:0:
64,192,856253,1,0,0:0:0:0:
192,192,856662,1,0,0:0:0:0:
320,192,856662,1,0,0:0:0:0:
448,192,856662,1,0,0:0:0:0:
64,192,856730,1,0,0:0:0:0:
448,192,856799,128,0,856935:0:0:0:0:
192,192,856935,128,0,857071:0:0:0:0:
320,192,857071,128,0,857208:0:0:0:0:
64,192,857208,128,0,857344:0:0:0:0:
192,192,857344,1,0,0:0:0:0:
448,192,857344,1,0,0:0:0:0:
320,192,857344,1,0,0:0:0:0:
64,192,857753,1,0,0:0:0:0:
320,192,857753,1,0,0:0:0:0:
448,192,857753,1,0,0:0:0:0:
192,192,857821,1,0,0:0:0:0:
320,192,857890,128,0,858026:0:0:0:0:
448,192,858026,128,0,858162:0:0:0:0:
64,192,858162,128,0,858435:0:0:0:0:
192,192,858435,1,0,0:0:0:0:
320,192,858435,1,0,0:0:0:0:
448,192,858435,1,0,0:0:0:0:
64,192,858844,1,0,0:0:0:0:
320,192,858844,1,0,0:0:0:0:
448,192,858844,1,0,0:0:0:0:
192,192,858912,1,0,0:0:0:0:
320,192,858980,128,0,859117:0:0:0:0:
64,192,859117,128,0,859253:0:0:0:0:
448,192,859253,128,0,859390:0:0:0:0:
64,192,859390,128,0,859526:0:0:0:0:
192,192,859526,1,0,0:0:0:0:
320,192,859526,1,0,0:0:0:0:
448,192,859526,1,0,0:0:0:0:
64,192,859662,1,0,0:0:0:0:
320,192,859799,1,0,0:0:0:0:
192,192,859799,1,0,0:0:0:0:
192,192,859935,1,0,0:0:0:0:
448,192,859935,1,0,0:0:0:0:
64,192,859935,1,0,0:0:0:0:
320,192,860003,1,0,0:0:0:0:
448,192,860071,1,0,0:0:0:0:
192,192,860208,1,0,0:0:0:0:
64,192,860344,1,0,0:0:0:0:
448,192,860344,1,0,0:0:0:0:
320,192,860344,128,0,860617:0:0:0:0:
448,192,860617,1,0,0:0:0:0:
192,192,860617,1,0,0:0:0:0:
64,192,860617,1,0,0:0:0:0:
320,192,860753,1,0,0:0:0:0:
192,192,860890,1,0,0:0:0:0:
64,192,861026,1,0,0:0:0:0:
320,192,861026,1,0,0:0:0:0:
448,192,861026,1,0,0:0:0:0:
192,192,861094,1,0,0:0:0:0:
448,192,861162,1,0,0:0:0:0:
192,192,861299,1,0,0:0:0:0:
64,192,861435,1,0,0:0:0:0:
320,192,861503,1,0,0:0:0:0:
448,192,861571,1,0,0:0:0:0:
192,192,861640,1,0,0:0:0:0:
64,192,861708,1,0,0:0:0:0:
320,192,861708,1,0,0:0:0:0:
448,192,861708,1,0,0:0:0:0:
192,192,861844,1,0,0:0:0:0:
448,192,861980,1,0,0:0:0:0:
64,192,862117,1,0,0:0:0:0:
192,192,862117,1,0,0:0:0:0:
320,192,862117,1,0,0:0:0:0:
448,192,862185,1,0,0:0:0:0:
192,192,862253,1,0,0:0:0:0:
320,192,862390,1,0,0:0:0:0:
448,192,862526,1,0,0:0:0:0:
192,192,862526,128,0,862799:0:0:0:0:
64,192,862526,1,0,0:0:0:0:
64,192,862799,1,0,0:0:0:0:
320,192,862799,1,0,0:0:0:0:
448,192,862799,1,0,0:0:0:0:
192,192,862935,1,0,0:0:0:0:
320,192,863071,1,0,0:0:0:0:
64,192,863208,1,0,0:0:0:0:
448,192,863208,1,0,0:0:0:0:
192,192,863208,1,0,0:0:0:0:
320,192,863276,1,0,0:0:0:0:
64,192,863344,128,0,863890:0:0:0:0:
192,192,863344,1,0,0:0:0:0:
448,192,863480,1,0,0:0:0:0:
192,192,863617,1,0,0:0:0:0:
320,192,863753,1,0,0:0:0:0:
192,192,863890,1,0,0:0:0:0:
320,192,863890,1,0,0:0:0:0:
448,192,863890,1,0,0:0:0:0:
64,192,864026,1,0,0:0:0:0:
448,192,864162,1,0,0:0:0:0:
64,192,864299,1,0,0:0:0:0:
192,192,864299,1,0,0:0:0:0:
320,192,864299,1,0,0:0:0:0:
448,192,864367,1,0,0:0:0:0:
192,192,864435,1,0,0:0:0:0:
320,192,864571,1,0,0:0:0:0:
448,192,864708,128,0,864980:0:0:0:0:
192,192,864708,1,0,0:0:0:0:
64,192,864980,1,0,0:0:0:0:
320,192,864980,1,0,0:0:0:0:
192,192,864980,1,0,0:0:0:0:
448,192,865117,1,0,0:0:0:0:
192,192,865253,1,0,0:0:0:0:
64,192,865390,1,0,0:0:0:0:
320,192,865390,1,0,0:0:0:0:
448,192,865390,1,0,0:0:0:0:
192,192,865458,1,0,0:0:0:0:
320,192,865526,1,0,0:0:0:0:
64,192,865662,1,0,0:0:0:0:
448,192,865799,1,0,0:0:0:0:
192,192,865799,1,0,0:0:0:0:
320,192,865935,1,0,0:0:0:0:
192,192,866071,1,0,0:0:0:0:
448,192,866071,1,0,0:0:0:0:
64,192,866071,1,0,0:0:0:0:
64,192,866208,1,0,0:0:0:0:
448,192,866344,1,0,0:0:0:0:
192,192,866480,1,0,0:0:0:0:
64,192,866480,1,0,0:0:0:0:
320,192,866480,1,0,0:0:0:0:
448,192,866549,1,0,0:0:0:0:
192,192,866617,1,0,0:0:0:0:
64,192,866753,1,0,0:0:0:0:
320,192,866890,128,0,867162:0:0:0:0:
448,192,866890,1,0,0:0:0:0:
192,192,867162,1,0,0:0:0:0:
448,192,867162,1,0,0:0:0:0:
64,192,867162,128,0,867435:0:0:0:0:
448,192,867571,1,0,0:0:0:0:
320,192,867640,1,0,0:0:0:0:
192,192,867708,128,0,867844:0:0:0:0:
64,192,867844,128,0,867980:0:0:0:0:
320,192,867980,128,0,868117:0:0:0:0:
192,192,868117,128,0,868253:0:0:0:0:
320,192,868253,1,0,0:0:0:0:
64,192,868253,1,0,0:0:0:0:
448,192,868253,128,0,868935:0:0:0:0:
64,192,868799,1,0,0:0:0:0:
320,192,869162,1,0,0:0:0:0:
192,192,869344,1,0,0:0:0:0:
320,192,869890,1,0,0:0:0:0:
64,192,870435,1,0,0:0:0:0:
192,192,870435,128,0,870708:0:0:0:0:
448,192,870708,1,0,0:0:0:0:
192,192,870844,128,0,871117:0:0:0:0:
320,192,870980,1,0,0:0:0:0:
64,192,871253,1,0,0:0:0:0:
448,192,871526,128,0,872071:0:0:0:0:
64,192,871526,1,0,0:0:0:0:
320,192,871890,1,0,0:0:0:0:
64,192,872071,128,0,872617:0:0:0:0:
192,192,872253,1,0,0:0:0:0:
448,192,872617,1,0,0:0:0:0:
320,192,872617,128,0,872890:0:0:0:0:
320,192,873026,128,0,873299:0:0:0:0:
64,192,873162,1,0,0:0:0:0:
192,192,873526,1,0,0:0:0:0:
448,192,873708,1,0,0:0:0:0:
64,192,874253,1,0,0:0:0:0:
320,192,874799,1,0,0:0:0:0:
64,192,874799,128,0,875071:0:0:0:0:
192,192,875071,1,0,0:0:0:0:
64,192,875208,128,0,875480:0:0:0:0:
448,192,875344,1,0,0:0:0:0:
320,192,875708,1,0,0:0:0:0:
192,192,875890,128,0,876435:0:0:0:0:
448,192,875958,1,0,0:0:0:0:
64,192,876299,1,0,0:0:0:0:
320,192,876435,128,0,876980:0:0:0:0:
192,192,876799,1,0,0:0:0:0:
64,192,876980,128,0,877253:0:0:0:0:
448,192,877390,128,0,877662:0:0:0:0:
320,192,877526,1,0,0:0:0:0:
64,192,877867,1,0,0:0:0:0:
320,192,878071,1,0,0:0:0:0:
448,192,878617,1,0,0:0:0:0:
192,192,879162,128,0,879435:0:0:0:0:
448,192,879503,1,0,0:0:0:0:
192,192,879571,128,0,879844:0:0:0:0:
64,192,879708,1,0,0:0:0:0:
320,192,880049,1,0,0:0:0:0:
448,192,880253,128,0,880799:0:0:0:0:
64,192,880253,1,0,0:0:0:0:
192,192,880617,1,0,0:0:0:0:
64,192,880799,128,0,881208:0:0:0:0:
448,192,881071,1,0,0:0:0:0:
192,192,881208,128,0,881344:0:0:0:0:
64,192,881344,1,0,0:0:0:0:
320,192,881344,128,0,881617:0:0:0:0:
320,192,881753,128,0,881890:0:0:0:0:
64,192,881753,1,0,0:0:0:0:
192,192,881890,1,0,0:0:0:0:
448,192,882230,1,0,0:0:0:0:
192,192,882435,1,0,0:0:0:0:
64,192,882980,1,0,0:0:0:0:
64,192,883526,1,0,0:0:0:0:
448,192,883526,128,0,883799:0:0:0:0:
448,192,883935,128,0,884208:0:0:0:0:
64,192,885435,1,0,0:0:0:0:
448,192,885435,1,0,0:0:0:0:
64,192,885708,1,0,0:0:0:0:
192,192,885708,1,0,0:0:0:0:
448,192,885708,1,0,0:0:0:0:
320,192,885844,1,0,0:0:0:0:
64,192,885980,1,0,0:0:0:0:
320,192,886117,1,0,0:0:0:0:
448,192,886117,1,0,0:0:0:0:
192,192,886117,1,0,0:0:0:0:
448,192,886253,1,0,0:0:0:0:
64,192,886390,1,0,0:0:0:0:
320,192,886390,1,0,0:0:0:0:
192,192,886526,128,0,886799:0:0:0:0:
448,192,886526,128,0,886662:0:0:0:0:
64,192,886799,1,0,0:0:0:0:
320,192,886799,1,0,0:0:0:0:
448,192,886799,1,0,0:0:0:0:
192,192,886935,1,0,0:0:0:0:
448,192,887071,1,0,0:0:0:0:
64,192,887208,1,0,0:0:0:0:
320,192,887208,1,0,0:0:0:0:
192,192,887208,1,0,0:0:0:0:
320,192,887344,1,0,0:0:0:0:
192,192,887480,1,0,0:0:0:0:
64,192,887480,1,0,0:0:0:0:
448,192,887617,128,0,887753:0:0:0:0:
64,192,887617,128,0,887753:0:0:0:0:
320,192,887753,1,0,0:0:0:0:
64,192,887890,1,0,0:0:0:0:
192,192,887890,1,0,0:0:0:0:
320,192,887890,1,0,0:0:0:0:
448,192,888026,1,0,0:0:0:0:
192,192,888162,1,0,0:0:0:0:
64,192,888299,1,0,0:0:0:0:
320,192,888299,1,0,0:0:0:0:
448,192,888299,1,0,0:0:0:0:
192,192,888435,1,0,0:0:0:0:
448,192,888571,1,0,0:0:0:0:
192,192,888571,1,0,0:0:0:0:
64,192,888708,128,0,888980:0:0:0:0:
320,192,888708,1,0,0:0:0:0:
192,192,888980,1,0,0:0:0:0:
320,192,888980,1,0,0:0:0:0:
448,192,888980,1,0,0:0:0:0:
64,192,889117,1,0,0:0:0:0:
320,192,889253,1,0,0:0:0:0:
192,192,889390,1,0,0:0:0:0:
448,192,889390,1,0,0:0:0:0:
64,192,889390,1,0,0:0:0:0:
448,192,889526,1,0,0:0:0:0:
192,192,889662,1,0,0:0:0:0:
320,192,889662,1,0,0:0:0:0:
64,192,889730,1,0,0:0:0:0:
192,192,889799,128,0,889935:0:0:0:0:
448,192,889799,128,0,889935:0:0:0:0:
64,192,890071,1,0,0:0:0:0:
320,192,890071,1,0,0:0:0:0:
192,192,890071,1,0,0:0:0:0:
448,192,890208,1,0,0:0:0:0:
192,192,890344,1,0,0:0:0:0:
64,192,890480,1,0,0:0:0:0:
320,192,890480,1,0,0:0:0:0:
448,192,890480,1,0,0:0:0:0:
64,192,890617,1,0,0:0:0:0:
448,192,890753,1,0,0:0:0:0:
192,192,890753,1,0,0:0:0:0:
320,192,890890,1,0,0:0:0:0:
448,192,890890,128,0,891162:0:0:0:0:
320,192,891162,1,0,0:0:0:0:
192,192,891162,1,0,0:0:0:0:
64,192,891162,1,0,0:0:0:0:
448,192,891299,1,0,0:0:0:0:
192,192,891435,1,0,0:0:0:0:
64,192,891571,1,0,0:0:0:0:
320,192,891571,1,0,0:0:0:0:
448,192,891571,1,0,0:0:0:0:
320,192,891708,1,0,0:0:0:0:
192,192,891844,1,0,0:0:0:0:
448,192,891844,1,0,0:0:0:0:
320,192,891980,128,0,892117:0:0:0:0:
64,192,891980,128,0,892117:0:0:0:0:
448,192,892117,1,0,0:0:0:0:
64,192,892253,1,0,0:0:0:0:
192,192,892253,1,0,0:0:0:0:
448,192,892253,1,0,0:0:0:0:
320,192,892390,1,0,0:0:0:0:
192,192,892526,1,0,0:0:0:0:
64,192,892662,1,0,0:0:0:0:
320,192,892662,1,0,0:0:0:0:
448,192,892662,1,0,0:0:0:0:
448,192,892799,1,0,0:0:0:0:
192,192,892935,1,0,0:0:0:0:
320,192,892935,1,0,0:0:0:0:
320,192,893071,1,0,0:0:0:0:
64,192,893071,128,0,893344:0:0:0:0:
192,192,893344,1,0,0:0:0:0:
320,192,893344,1,0,0:0:0:0:
448,192,893344,1,0,0:0:0:0:
64,192,893480,1,0,0:0:0:0:
320,192,893617,1,0,0:0:0:0:
192,192,893753,1,0,0:0:0:0:
448,192,893753,1,0,0:0:0:0:
64,192,893753,1,0,0:0:0:0:
192,192,893890,1,0,0:0:0:0:
64,192,894026,1,0,0:0:0:0:
448,192,894026,1,0,0:0:0:0:
192,192,894162,1,0,0:0:0:0:
448,192,894162,1,0,0:0:0:0:
320,192,894299,1,0,0:0:0:0:
448,192,894299,1,0,0:0:0:0:
320,192,894435,1,0,0:0:0:0:
192,192,894435,1,0,0:0:0:0:
64,192,894435,1,0,0:0:0:0:
448,192,894503,1,0,0:0:0:0:
64,192,894571,1,0,0:0:0:0:
192,192,894640,1,0,0:0:0:0:
320,192,894708,1,0,0:0:0:0:
192,192,894844,1,0,0:0:0:0:
448,192,894844,1,0,0:0:0:0:
64,192,894844,1,0,0:0:0:0:
320,192,894912,1,0,0:0:0:0:
448,192,894980,1,0,0:0:0:0:
64,192,895049,1,0,0:0:0:0:
192,192,895117,1,0,0:0:0:0:
64,192,895253,1,0,0:0:0:0:
320,192,895253,128,0,895390:0:0:0:0:
448,192,895390,1,0,0:0:0:0:
192,192,895458,1,0,0:0:0:0:
64,192,895526,1,0,0:0:0:0:
448,192,895526,1,0,0:0:0:0:
320,192,895526,1,0,0:0:0:0:
192,192,895594,1,0,0:0:0:0:
64,192,895662,1,0,0:0:0:0:
448,192,895730,1,0,0:0:0:0:
320,192,895799,1,0,0:0:0:0:
64,192,895935,1,0,0:0:0:0:
448,192,895935,1,0,0:0:0:0:
192,192,895935,1,0,0:0:0:0:
320,192,896071,1,0,0:0:0:0:
64,192,896208,1,0,0:0:0:0:
192,192,896344,128,0,896480:0:0:0:0:
320,192,896344,128,0,896480:0:0:0:0:
64,192,896480,1,0,0:0:0:0:
448,192,896617,1,0,0:0:0:0:
192,192,896617,1,0,0:0:0:0:
64,192,896617,1,0,0:0:0:0:
320,192,896685,1,0,0:0:0:0:
64,192,896753,1,0,0:0:0:0:
192,192,896821,1,0,0:0:0:0:
448,192,896890,1,0,0:0:0:0:
64,192,897026,1,0,0:0:0:0:
192,192,897026,1,0,0:0:0:0:
320,192,897026,1,0,0:0:0:0:
192,192,897162,1,0,0:0:0:0:
320,192,897230,1,0,0:0:0:0:
448,192,897299,1,0,0:0:0:0:
192,192,897367,1,0,0:0:0:0:
320,192,897435,1,0,0:0:0:0:
64,192,897435,128,0,897571:0:0:0:0:
192,192,897571,1,0,0:0:0:0:
320,192,897640,1,0,0:0:0:0:
192,192,897708,1,0,0:0:0:0:
448,192,897708,1,0,0:0:0:0:
64,192,897708,1,0,0:0:0:0:
320,192,897844,1,0,0:0:0:0:
448,192,897912,1,0,0:0:0:0:
192,192,897980,1,0,0:0:0:0:
448,192,898117,1,0,0:0:0:0:
64,192,898117,1,0,0:0:0:0:
320,192,898117,1,0,0:0:0:0:
448,192,898253,1,0,0:0:0:0:
320,192,898321,1,0,0:0:0:0:
192,192,898390,1,0,0:0:0:0:
320,192,898526,1,0,0:0:0:0:
64,192,898526,128,0,898799:0:0:0:0:
192,192,898799,1,0,0:0:0:0:
320,192,898799,1,0,0:0:0:0:
448,192,898799,1,0,0:0:0:0:
64,192,898935,1,0,0:0:0:0:
320,192,899071,1,0,0:0:0:0:
192,192,899208,1,0,0:0:0:0:
448,192,899208,1,0,0:0:0:0:
64,192,899208,1,0,0:0:0:0:
448,192,899344,1,0,0:0:0:0:
192,192,899480,1,0,0:0:0:0:
64,192,899617,1,0,0:0:0:0:
320,192,899617,128,0,899753:0:0:0:0:
448,192,899753,1,0,0:0:0:0:
192,192,899821,1,0,0:0:0:0:
448,192,899890,1,0,0:0:0:0:
64,192,899890,1,0,0:0:0:0:
320,192,899890,1,0,0:0:0:0:
192,192,900026,1,0,0:0:0:0:
64,192,900162,1,0,0:0:0:0:
192,192,900299,1,0,0:0:0:0:
320,192,900299,1,0,0:0:0:0:
448,192,900299,1,0,0:0:0:0:
64,192,900435,1,0,0:0:0:0:
320,192,900503,1,0,0:0:0:0:
192,192,900571,1,0,0:0:0:0:
448,192,900708,128,0,900844:0:0:0:0:
64,192,900708,128,0,900844:0:0:0:0:
320,192,900844,1,0,0:0:0:0:
192,192,900912,1,0,0:0:0:0:
64,192,900980,1,0,0:0:0:0:
320,192,900980,1,0,0:0:0:0:
448,192,900980,1,0,0:0:0:0:
192,192,901117,1,0,0:0:0:0:
448,192,901253,1,0,0:0:0:0:
64,192,901390,1,0,0:0:0:0:
192,192,901390,1,0,0:0:0:0:
320,192,901390,1,0,0:0:0:0:
448,192,901526,1,0,0:0:0:0:
192,192,901594,1,0,0:0:0:0:
320,192,901662,1,0,0:0:0:0:
64,192,901730,1,0,0:0:0:0:
192,192,901799,1,0,0:0:0:0:
448,192,901799,1,0,0:0:0:0:
320,192,901867,1,0,0:0:0:0:
64,192,901935,1,0,0:0:0:0:
448,192,902003,1,0,0:0:0:0:
64,192,902071,1,0,0:0:0:0:
192,192,902071,1,0,0:0:0:0:
320,192,902071,1,0,0:0:0:0:
64,192,902890,1,0,0:0:0:0:
448,192,902890,1,0,0:0:0:0:
64,192,903162,1,0,0:0:0:0:
448,192,903162,1,0,0:0:0:0:
192,192,903162,128,0,903435:0:0:0:0:
320,192,903571,128,0,903844:0:0:0:0:
64,192,903640,1,0,0:0:0:0:
448,192,903708,1,0,0:0:0:0:
192,192,903844,1,0,0:0:0:0:
64,192,903980,1,0,0:0:0:0:
448,192,903980,128,0,904117:0:0:0:0:
64,192,904253,128,0,904390:0:0:0:0:
448,192,904662,1,0,0:0:0:0:
320,192,904730,1,0,0:0:0:0:
192,192,904799,1,0,0:0:0:0:
64,192,904935,1,0,0:0:0:0:
448,192,905071,1,0,0:0:0:0:
64,192,905208,1,0,0:0:0:0:
192,192,905344,128,0,905617:0:0:0:0:
320,192,905753,1,0,0:0:0:0:
448,192,905753,128,0,906026:0:0:0:0:
192,192,905821,1,0,0:0:0:0:
64,192,905890,1,0,0:0:0:0:
320,192,906026,1,0,0:0:0:0:
448,192,906162,1,0,0:0:0:0:
192,192,906162,128,0,906299:0:0:0:0:
64,192,906435,128,0,906708:0:0:0:0:
448,192,906844,1,0,0:0:0:0:
192,192,906912,1,0,0:0:0:0:
64,192,906980,1,0,0:0:0:0:
320,192,906980,128,0,907117:0:0:0:0:
448,192,907117,1,0,0:0:0:0:
192,192,907117,1,0,0:0:0:0:
64,192,907253,1,0,0:0:0:0:
448,192,907253,1,0,0:0:0:0:
320,192,907390,1,0,0:0:0:0:
64,192,907390,1,0,0:0:0:0:
64,192,907526,1,0,0:0:0:0:
448,192,907526,1,0,0:0:0:0:
192,192,907526,128,0,907799:0:0:0:0:
320,192,907935,1,0,0:0:0:0:
64,192,907935,1,0,0:0:0:0:
448,192,907935,128,0,908208:0:0:0:0:
192,192,908003,1,0,0:0:0:0:
320,192,908071,1,0,0:0:0:0:
64,192,908208,1,0,0:0:0:0:
192,192,908344,128,0,908480:0:0:0:0:
320,192,908344,1,0,0:0:0:0:
64,192,908617,1,0,0:0:0:0:
448,192,908617,1,0,0:0:0:0:
320,192,908617,128,0,908890:0:0:0:0:
64,192,909026,1,0,0:0:0:0:
448,192,909026,1,0,0:0:0:0:
192,192,909026,1,0,0:0:0:0:
320,192,909094,1,0,0:0:0:0:
192,192,909162,1,0,0:0:0:0:
448,192,909299,1,0,0:0:0:0:
192,192,909435,1,0,0:0:0:0:
64,192,909571,1,0,0:0:0:0:
320,192,909708,1,0,0:0:0:0:
192,192,909708,1,0,0:0:0:0:
448,192,909708,128,0,909980:0:0:0:0:
320,192,910117,1,0,0:0:0:0:
64,192,910117,1,0,0:0:0:0:
192,192,910117,128,0,910390:0:0:0:0:
448,192,910185,1,0,0:0:0:0:
320,192,910253,1,0,0:0:0:0:
64,192,910390,1,0,0:0:0:0:
320,192,910526,128,0,910662:0:0:0:0:
448,192,910526,1,0,0:0:0:0:
64,192,910799,1,0,0:0:0:0:
448,192,910799,1,0,0:0:0:0:
192,192,910799,128,0,911071:0:0:0:0:
64,192,911208,1,0,0:0:0:0:
320,192,911208,1,0,0:0:0:0:
448,192,911208,1,0,0:0:0:0:
192,192,911276,1,0,0:0:0:0:
448,192,911344,1,0,0:0:0:0:
64,192,911344,128,0,911617:0:0:0:0:
320,192,911480,1,0,0:0:0:0:
192,192,911617,1,0,0:0:0:0:
448,192,911617,1,0,0:0:0:0:
64,192,911890,1,0,0:0:0:0:
320,192,911890,1,0,0:0:0:0:
192,192,911890,1,0,0:0:0:0:
448,192,912026,1,0,0:0:0:0:
192,192,912162,1,0,0:0:0:0:
64,192,912162,1,0,0:0:0:0:
448,192,912162,1,0,0:0:0:0:
320,192,912299,1,0,0:0:0:0:
64,192,912435,1,0,0:0:0:0:
320,192,912435,1,0,0:0:0:0:
448,192,912435,1,0,0:0:0:0:
192,192,912571,1,0,0:0:0:0:
64,192,912708,1,0,0:0:0:0:
192,192,912708,1,0,0:0:0:0:
448,192,912708,1,0,0:0:0:0:
320,192,912844,1,0,0:0:0:0:
192,192,912980,1,0,0:0:0:0:
448,192,912980,1,0,0:0:0:0:
320,192,912980,1,0,0:0:0:0:
192,192,913117,1,0,0:0:0:0:
64,192,913253,1,0,0:0:0:0:
320,192,913253,1,0,0:0:0:0:
448,192,913253,1,0,0:0:0:0:
192,192,913390,1,0,0:0:0:0:
64,192,913526,1,0,0:0:0:0:
320,192,913526,1,0,0:0:0:0:
448,192,913526,1,0,0:0:0:0:
448,192,913662,1,0,0:0:0:0:
192,192,913799,1,0,0:0:0:0:
320,192,913799,1,0,0:0:0:0:
64,192,913799,1,0,0:0:0:0:
448,192,913935,1,0,0:0:0:0:
320,192,914071,1,0,0:0:0:0:
192,192,914071,1,0,0:0:0:0:
64,192,914071,1,0,0:0:0:0:
64,192,914208,1,0,0:0:0:0:
192,192,914344,1,0,0:0:0:0:
320,192,914344,1,0,0:0:0:0:
448,192,914344,1,0,0:0:0:0:
320,192,914480,1,0,0:0:0:0:
192,192,914617,1,0,0:0:0:0:
448,192,914617,1,0,0:0:0:0:
64,192,914617,1,0,0:0:0:0:
192,192,914753,1,0,0:0:0:0:
64,192,914890,1,0,0:0:0:0:
448,192,914890,1,0,0:0:0:0:
320,192,914890,1,0,0:0:0:0:
448,192,915026,1,0,0:0:0:0:
192,192,915162,1,0,0:0:0:0:
64,192,915162,1,0,0:0:0:0:
448,192,915162,1,0,0:0:0:0:
320,192,915299,1,0,0:0:0:0:
64,192,915435,1,0,0:0:0:0:
448,192,915435,1,0,0:0:0:0:
192,192,915435,1,0,0:0:0:0:
320,192,915571,1,0,0:0:0:0:
448,192,915708,1,0,0:0:0:0:
64,192,915708,1,0,0:0:0:0:
320,192,915708,1,0,0:0:0:0:
192,192,915844,1,0,0:0:0:0:
64,192,915980,1,0,0:0:0:0:
320,192,915980,1,0,0:0:0:0:
448,192,915980,1,0,0:0:0:0:
192,192,916117,1,0,0:0:0:0:
64,192,916253,1,0,0:0:0:0:
448,192,916253,1,0,0:0:0:0:
192,192,916253,1,0,0:0:0:0:
320,192,916390,1,0,0:0:0:0:
448,192,916390,1,0,0:0:0:0:
320,192,916526,1,0,0:0:0:0:
192,192,916526,1,0,0:0:0:0:
64,192,916526,1,0,0:0:0:0:
64,192,916662,1,0,0:0:0:0:
448,192,916662,1,0,0:0:0:0:
192,192,916799,1,0,0:0:0:0:
320,192,916799,1,0,0:0:0:0:
448,192,916799,1,0,0:0:0:0:
64,192,916935,1,0,0:0:0:0:
320,192,916935,1,0,0:0:0:0:
64,192,917071,1,0,0:0:0:0:
192,192,917071,1,0,0:0:0:0:
448,192,917071,1,0,0:0:0:0:
192,192,917208,1,0,0:0:0:0:
320,192,917208,1,0,0:0:0:0:
64,192,917344,1,0,0:0:0:0:
320,192,917344,1,0,0:0:0:0:
448,192,917344,1,0,0:0:0:0:
448,192,917480,1,0,0:0:0:0:
192,192,917480,1,0,0:0:0:0:
64,192,917617,1,0,0:0:0:0:
192,192,917617,1,0,0:0:0:0:
320,192,917617,1,0,0:0:0:0:
448,192,917753,1,0,0:0:0:0:
64,192,917753,1,0,0:0:0:0:
192,192,917890,1,0,0:0:0:0:
320,192,917890,1,0,0:0:0:0:
448,192,917890,1,0,0:0:0:0:
320,192,918026,1,0,0:0:0:0:
64,192,918026,1,0,0:0:0:0:
448,192,918162,1,0,0:0:0:0:
192,192,918162,1,0,0:0:0:0:
64,192,918162,1,0,0:0:0:0:
192,192,918299,1,0,0:0:0:0:
320,192,918299,1,0,0:0:0:0:
64,192,918435,1,0,0:0:0:0:
320,192,918435,1,0,0:0:0:0:
448,192,918435,1,0,0:0:0:0:
192,192,918503,1,0,0:0:0:0:
64,192,918571,1,0,0:0:0:0:
448,192,918571,1,0,0:0:0:0:
320,192,918640,1,0,0:0:0:0:
64,192,918708,1,0,0:0:0:0:
192,192,918708,1,0,0:0:0:0:
448,192,918776,1,0,0:0:0:0:
320,192,918844,1,0,0:0:0:0:
192,192,918844,1,0,0:0:0:0:
64,192,918912,1,0,0:0:0:0:
192,192,918980,1,0,0:0:0:0:
448,192,918980,1,0,0:0:0:0:
320,192,919015,1,0,0:0:0:0:
192,192,919049,1,0,0:0:0:0:
64,192,919083,1,0,0:0:0:0:
448,192,919117,1,0,0:0:0:0:
320,192,919151,1,0,0:0:0:0:
192,192,919185,1,0,0:0:0:0:
64,192,919219,1,0,0:0:0:0:
448,192,919253,128,0,919526:0:0:0:0:
320,192,919253,128,0,919526:0:0:0:0:
64,192,919526,128,0,919662:0:0:0:0:
192,192,919662,128,0,919935:0:0:0:0:
448,192,919935,128,0,920208:0:0:0:0:
192,192,920208,128,0,920480:0:0:0:0:
64,192,920617,1,0,0:0:0:0:
320,192,920617,1,0,0:0:0:0:
448,192,920617,1,0,0:0:0:0:
192,192,920753,1,0,0:0:0:0:
448,192,920890,1,0,0:0:0:0:
64,192,921026,1,0,0:0:0:0:
192,192,921026,1,0,0:0:0:0:
320,192,921026,1,0,0:0:0:0:
320,192,921162,1,0,0:0:0:0:
64,192,921299,1,0,0:0:0:0:
448,192,921435,1,0,0:0:0:0:
320,192,921435,128,0,921708:0:0:0:0:
64,192,921708,1,0,0:0:0:0:
448,192,921708,1,0,0:0:0:0:
192,192,921708,1,0,0:0:0:0:
320,192,921844,1,0,0:0:0:0:
64,192,921980,1,0,0:0:0:0:
192,192,922117,1,0,0:0:0:0:
320,192,922117,1,0,0:0:0:0:
448,192,922117,1,0,0:0:0:0:
448,192,922253,1,0,0:0:0:0:
192,192,922390,1,0,0:0:0:0:
64,192,922526,1,0,0:0:0:0:
320,192,922526,1,0,0:0:0:0:
64,192,922662,1,0,0:0:0:0:
448,192,922662,1,0,0:0:0:0:
192,192,922799,1,0,0:0:0:0:
320,192,922799,1,0,0:0:0:0:
448,192,922799,1,0,0:0:0:0:
64,192,922935,1,0,0:0:0:0:
320,192,923071,1,0,0:0:0:0:
64,192,923208,1,0,0:0:0:0:
192,192,923208,1,0,0:0:0:0:
448,192,923208,1,0,0:0:0:0:
192,192,923344,1,0,0:0:0:0:
320,192,923480,1,0,0:0:0:0:
64,192,923617,1,0,0:0:0:0:
448,192,923617,128,0,923890:0:0:0:0:
64,192,923890,1,0,0:0:0:0:
192,192,923890,1,0,0:0:0:0:
320,192,923890,1,0,0:0:0:0:
448,192,924026,1,0,0:0:0:0:
192,192,924162,1,0,0:0:0:0:
64,192,924299,1,0,0:0:0:0:
320,192,924299,1,0,0:0:0:0:
448,192,924299,1,0,0:0:0:0:
320,192,924435,1,0,0:0:0:0:
64,192,924571,1,0,0:0:0:0:
192,192,924708,1,0,0:0:0:0:
448,192,924708,1,0,0:0:0:0:
192,192,924844,1,0,0:0:0:0:
320,192,924844,1,0,0:0:0:0:
320,192,924980,1,0,0:0:0:0:
448,192,924980,1,0,0:0:0:0:
64,192,924980,1,0,0:0:0:0:
192,192,925117,1,0,0:0:0:0:
448,192,925253,1,0,0:0:0:0:
64,192,925390,1,0,0:0:0:0:
192,192,925390,1,0,0:0:0:0:
320,192,925390,1,0,0:0:0:0:
64,192,925526,1,0,0:0:0:0:
448,192,925662,1,0,0:0:0:0:
192,192,925799,1,0,0:0:0:0:
320,192,925799,128,0,926071:0:0:0:0:
448,192,926071,1,0,0:0:0:0:
192,192,926071,1,0,0:0:0:0:
64,192,926071,1,0,0:0:0:0:
320,192,926208,1,0,0:0:0:0:
64,192,926344,1,0,0:0:0:0:
192,192,926480,1,0,0:0:0:0:
320,192,926480,1,0,0:0:0:0:
448,192,926480,1,0,0:0:0:0:
448,192,926617,1,0,0:0:0:0:
64,192,926753,1,0,0:0:0:0:
192,192,926890,1,0,0:0:0:0:
320,192,926890,1,0,0:0:0:0:
448,192,927026,1,0,0:0:0:0:
192,192,927026,1,0,0:0:0:0:
64,192,927162,1,0,0:0:0:0:
448,192,927162,1,0,0:0:0:0:
320,192,927162,1,0,0:0:0:0:
192,192,927299,1,0,0:0:0:0:
320,192,927435,1,0,0:0:0:0:
64,192,927571,1,0,0:0:0:0:
192,192,927571,1,0,0:0:0:0:
448,192,927571,1,0,0:0:0:0:
64,192,927708,1,0,0:0:0:0:
320,192,927844,1,0,0:0:0:0:
192,192,927980,1,0,0:0:0:0:
448,192,927980,128,0,928253:0:0:0:0:
320,192,928253,1,0,0:0:0:0:
192,192,928253,1,0,0:0:0:0:
64,192,928253,1,0,0:0:0:0:
448,192,928390,1,0,0:0:0:0:
192,192,928526,1,0,0:0:0:0:
64,192,928662,1,0,0:0:0:0:
320,192,928662,1,0,0:0:0:0:
448,192,928662,1,0,0:0:0:0:
320,192,928799,1,0,0:0:0:0:
64,192,928935,1,0,0:0:0:0:
320,192,929003,1,0,0:0:0:0:
192,192,929071,1,0,0:0:0:0:
448,192,929071,1,0,0:0:0:0:
64,192,929208,1,0,0:0:0:0:
448,192,929208,1,0,0:0:0:0:
192,192,929276,1,0,0:0:0:0:
448,192,929344,1,0,0:0:0:0:
64,192,929344,1,0,0:0:0:0:
320,192,929344,1,0,0:0:0:0:
192,192,929480,1,0,0:0:0:0:
64,192,929617,1,0,0:0:0:0:
192,192,929753,1,0,0:0:0:0:
320,192,929753,1,0,0:0:0:0:
448,192,929753,1,0,0:0:0:0:
448,192,929890,1,0,0:0:0:0:
64,192,930026,1,0,0:0:0:0:
192,192,930162,1,0,0:0:0:0:
448,192,930162,128,0,930435:0:0:0:0:
320,192,930435,1,0,0:0:0:0:
192,192,930435,1,0,0:0:0:0:
64,192,930435,1,0,0:0:0:0:
448,192,930571,1,0,0:0:0:0:
192,192,930640,1,0,0:0:0:0:
64,192,930708,1,0,0:0:0:0:
320,192,930844,1,0,0:0:0:0:
448,192,930844,1,0,0:0:0:0:
192,192,930844,1,0,0:0:0:0:
320,192,930980,1,0,0:0:0:0:
448,192,931049,1,0,0:0:0:0:
64,192,931117,1,0,0:0:0:0:
192,192,931253,1,0,0:0:0:0:
448,192,931253,1,0,0:0:0:0:
192,192,931390,1,0,0:0:0:0:
320,192,931390,1,0,0:0:0:0:
64,192,931526,1,0,0:0:0:0:
320,192,931526,1,0,0:0:0:0:
448,192,931526,1,0,0:0:0:0:
192,192,931662,1,0,0:0:0:0:
320,192,931799,1,0,0:0:0:0:
64,192,931935,1,0,0:0:0:0:
192,192,931935,1,0,0:0:0:0:
448,192,931935,1,0,0:0:0:0:
64,192,932071,1,0,0:0:0:0:
320,192,932208,1,0,0:0:0:0:
192,192,932344,1,0,0:0:0:0:
448,192,932344,128,0,932617:0:0:0:0:
320,192,932617,1,0,0:0:0:0:
192,192,932617,1,0,0:0:0:0:
64,192,932617,1,0,0:0:0:0:
448,192,932753,1,0,0:0:0:0:
320,192,932821,1,0,0:0:0:0:
192,192,932890,1,0,0:0:0:0:
64,192,933026,1,0,0:0:0:0:
320,192,933026,1,0,0:0:0:0:
448,192,933026,1,0,0:0:0:0:
448,192,933162,1,0,0:0:0:0:
64,192,933299,1,0,0:0:0:0:
320,192,933367,1,0,0:0:0:0:
192,192,933435,1,0,0:0:0:0:
448,192,933435,1,0,0:0:0:0:
320,192,933571,1,0,0:0:0:0:
64,192,933640,1,0,0:0:0:0:
320,192,933708,1,0,0:0:0:0:
448,192,933708,1,0,0:0:0:0:
192,192,933708,1,0,0:0:0:0:
64,192,933844,1,0,0:0:0:0:
320,192,933980,1,0,0:0:0:0:
192,192,934117,1,0,0:0:0:0:
64,192,934117,1,0,0:0:0:0:
448,192,934117,1,0,0:0:0:0:
192,192,934253,1,0,0:0:0:0:
320,192,934390,1,0,0:0:0:0:
64,192,934526,1,0,0:0:0:0:
448,192,934526,128,0,934799:0:0:0:0:
320,192,934799,1,0,0:0:0:0:
192,192,934799,1,0,0:0:0:0:
64,192,934799,1,0,0:0:0:0:
448,192,934935,1,0,0:0:0:0:
192,192,935003,1,0,0:0:0:0:
320,192,935071,1,0,0:0:0:0:
448,192,935208,1,0,0:0:0:0:
192,192,935208,1,0,0:0:0:0:
64,192,935208,1,0,0:0:0:0:
320,192,935344,1,0,0:0:0:0:
192,192,935412,1,0,0:0:0:0:
64,192,935480,1,0,0:0:0:0:
448,192,935617,1,0,0:0:0:0:
320,192,935617,128,0,935890:0:0:0:0:
448,192,935890,1,0,0:0:0:0:
192,192,935890,1,0,0:0:0:0:
64,192,935890,1,0,0:0:0:0:
320,192,936026,1,0,0:0:0:0:
64,192,936162,1,0,0:0:0:0:
192,192,936299,1,0,0:0:0:0:
320,192,936299,1,0,0:0:0:0:
448,192,936299,1,0,0:0:0:0:
448,192,936435,1,0,0:0:0:0:
64,192,936571,1,0,0:0:0:0:
192,192,936708,1,0,0:0:0:0:
320,192,936708,128,0,936980:0:0:0:0:
64,192,936980,1,0,0:0:0:0:
192,192,936980,1,0,0:0:0:0:
448,192,936980,1,0,0:0:0:0:
320,192,937117,1,0,0:0:0:0:
64,192,937253,1,0,0:0:0:0:
192,192,937390,1,0,0:0:0:0:
320,192,937390,1,0,0:0:0:0:
448,192,937390,1,0,0:0:0:0:
64,192,937526,1,0,0:0:0:0:
448,192,937526,1,0,0:0:0:0:
192,192,937594,1,0,0:0:0:0:
320,192,937662,1,0,0:0:0:0:
192,192,937799,1,0,0:0:0:0:
448,192,937799,1,0,0:0:0:0:
320,192,937867,1,0,0:0:0:0:
448,192,937935,1,0,0:0:0:0:
64,192,937935,1,0,0:0:0:0:
64,192,938071,1,0,0:0:0:0:
320,192,938071,1,0,0:0:0:0:
192,192,938071,128,0,938344:0:0:0:0:
448,192,938344,1,0,0:0:0:0:
64,192,938480,1,0,0:0:0:0:
320,192,938480,128,0,938753:0:0:0:0:
448,192,938617,1,0,0:0:0:0:
192,192,938890,1,0,0:0:0:0:
64,192,939162,1,0,0:0:0:0:
192,192,939435,1,0,0:0:0:0:
448,192,939571,1,0,0:0:0:0:
64,192,939844,1,0,0:0:0:0:
320,192,939980,1,0,0:0:0:0:
64,192,940253,1,0,0:0:0:0:
192,192,940253,1,0,0:0:0:0:
448,192,940253,1,0,0:0:0:0:
320,192,940526,128,0,940662:0:0:0:0:
64,192,940799,128,0,940980:0:0:0:0:
448,192,940980,128,0,941162:0:0:0:0:
192,192,941344,128,0,941617:0:0:0:0:
448,192,941753,128,0,941890:0:0:0:0:
64,192,941890,128,0,942026:0:0:0:0:
192,192,942162,1,0,0:0:0:0:
448,192,942162,1,0,0:0:0:0:
320,192,942435,1,0,0:0:0:0:
448,192,942435,1,0,0:0:0:0:
64,192,942435,128,0,942708:0:0:0:0:
192,192,942526,1,0,0:0:0:0:
320,192,942617,1,0,0:0:0:0:
448,192,942708,1,0,0:0:0:0:
192,192,942844,128,0,943117:0:0:0:0:
320,192,942844,1,0,0:0:0:0:
64,192,942980,1,0,0:0:0:0:
448,192,943253,1,0,0:0:0:0:
64,192,943526,1,0,0:0:0:0:
448,192,943799,1,0,0:0:0:0:
320,192,943935,1,0,0:0:0:0:
448,192,944208,1,0,0:0:0:0:
192,192,944344,1,0,0:0:0:0:
64,192,944617,1,0,0:0:0:0:
320,192,944617,1,0,0:0:0:0:
448,192,944617,1,0,0:0:0:0:
192,192,944890,128,0,945026:0:0:0:0:
448,192,945162,128,0,945253:0:0:0:0:
64,192,945344,128,0,945435:0:0:0:0:
320,192,945708,128,0,945980:0:0:0:0:
448,192,946117,128,0,946253:0:0:0:0:
64,192,946253,128,0,946390:0:0:0:0:
192,192,946526,1,0,0:0:0:0:
448,192,946526,1,0,0:0:0:0:
320,192,946799,1,0,0:0:0:0:
448,192,946799,1,0,0:0:0:0:
64,192,946799,128,0,947071:0:0:0:0:
448,192,947071,1,0,0:0:0:0:
192,192,947208,128,0,947480:0:0:0:0:
320,192,947208,1,0,0:0:0:0:
64,192,947344,1,0,0:0:0:0:
320,192,947617,1,0,0:0:0:0:
448,192,947890,1,0,0:0:0:0:
64,192,948162,1,0,0:0:0:0:
320,192,948299,1,0,0:0:0:0:
448,192,948435,1,0,0:0:0:0:
64,192,948571,1,0,0:0:0:0:
320,192,948708,1,0,0:0:0:0:
64,192,948980,1,0,0:0:0:0:
192,192,948980,1,0,0:0:0:0:
448,192,948980,1,0,0:0:0:0:
320,192,949253,1,0,0:0:0:0:
64,192,949526,128,0,949617:0:0:0:0:
448,192,949708,128,0,949799:0:0:0:0:
320,192,950071,128,0,950344:0:0:0:0:
64,192,950480,128,0,950617:0:0:0:0:
448,192,950617,128,0,950753:0:0:0:0:
192,192,950890,1,0,0:0:0:0:
320,192,950890,1,0,0:0:0:0:
64,192,951162,1,0,0:0:0:0:
448,192,951162,1,0,0:0:0:0:
320,192,951162,128,0,951435:0:0:0:0:
192,192,951253,1,0,0:0:0:0:
448,192,951344,1,0,0:0:0:0:
192,192,951435,1,0,0:0:0:0:
320,192,951571,1,0,0:0:0:0:
64,192,951571,128,0,951844:0:0:0:0:
448,192,951708,1,0,0:0:0:0:
320,192,951980,1,0,0:0:0:0:
64,192,952253,1,0,0:0:0:0:
448,192,952253,1,0,0:0:0:0:
192,192,952253,1,0,0:0:0:0:
448,192,952526,1,0,0:0:0:0:
192,192,952662,1,0,0:0:0:0:
64,192,952799,1,0,0:0:0:0:
448,192,952935,1,0,0:0:0:0:
192,192,953071,1,0,0:0:0:0:
64,192,953344,1,0,0:0:0:0:
320,192,953344,1,0,0:0:0:0:
448,192,953344,1,0,0:0:0:0:
192,192,953617,128,0,953753:0:0:0:0:
448,192,953890,128,0,954026:0:0:0:0:
64,192,954026,128,0,954230:0:0:0:0:
320,192,954435,128,0,954708:0:0:0:0:
448,192,954844,128,0,954980:0:0:0:0:
64,192,954980,128,0,955117:0:0:0:0:
192,192,955253,1,0,0:0:0:0:
448,192,955253,1,0,0:0:0:0:
448,192,955526,1,0,0:0:0:0:
320,192,955526,1,0,0:0:0:0:
64,192,955526,1,0,0:0:0:0:
192,192,955662,1,0,0:0:0:0:
320,192,955799,1,0,0:0:0:0:
448,192,955935,1,0,0:0:0:0:
192,192,955935,1,0,0:0:0:0:
64,192,955935,1,0,0:0:0:0:
64,192,956071,1,0,0:0:0:0:
448,192,956208,1,0,0:0:0:0:
192,192,956344,128,0,956617:0:0:0:0:
320,192,956344,1,0,0:0:0:0:
64,192,956617,1,0,0:0:0:0:
448,192,956617,1,0,0:0:0:0:
320,192,956617,1,0,0:0:0:0:
192,192,956753,1,0,0:0:0:0:
320,192,956821,1,0,0:0:0:0:
448,192,956890,1,0,0:0:0:0:
64,192,957026,1,0,0:0:0:0:
192,192,957026,1,0,0:0:0:0:
320,192,957026,1,0,0:0:0:0:
448,192,957162,1,0,0:0:0:0:
192,192,957230,1,0,0:0:0:0:
64,192,957299,1,0,0:0:0:0:
448,192,957435,1,0,0:0:0:0:
320,192,957435,1,0,0:0:0:0:
64,192,957571,1,0,0:0:0:0:
320,192,957708,1,0,0:0:0:0:
448,192,957708,1,0,0:0:0:0:
192,192,957708,1,0,0:0:0:0:
64,192,957844,1,0,0:0:0:0:
320,192,957980,1,0,0:0:0:0:
192,192,958117,1,0,0:0:0:0:
448,192,958117,1,0,0:0:0:0:
64,192,958117,1,0,0:0:0:0:
64,192,958253,1,0,0:0:0:0:
448,192,958390,1,0,0:0:0:0:
192,192,958526,1,0,0:0:0:0:
320,192,958526,128,0,958799:0:0:0:0:
448,192,958799,1,0,0:0:0:0:
192,192,958799,1,0,0:0:0:0:
64,192,958799,1,0,0:0:0:0:
320,192,958935,1,0,0:0:0:0:
64,192,959003,1,0,0:0:0:0:
192,192,959071,1,0,0:0:0:0:
64,192,959208,1,0,0:0:0:0:
320,192,959208,1,0,0:0:0:0:
448,192,959208,1,0,0:0:0:0:
192,192,959344,1,0,0:0:0:0:
448,192,959480,1,0,0:0:0:0:
320,192,959549,1,0,0:0:0:0:
192,192,959617,1,0,0:0:0:0:
448,192,959617,128,0,959890:0:0:0:0:
64,192,959890,1,0,0:0:0:0:
192,192,959890,1,0,0:0:0:0:
320,192,959890,1,0,0:0:0:0:
448,192,960026,1,0,0:0:0:0:
192,192,960094,1,0,0:0:0:0:
64,192,960162,1,0,0:0:0:0:
320,192,960299,1,0,0:0:0:0:
448,192,960299,1,0,0:0:0:0:
192,192,960299,1,0,0:0:0:0:
64,192,960435,1,0,0:0:0:0:
320,192,960571,1,0,0:0:0:0:
448,192,960708,1,0,0:0:0:0:
192,192,960708,128,0,960980:0:0:0:0:
320,192,960980,1,0,0:0:0:0:
448,192,960980,1,0,0:0:0:0:
64,192,960980,1,0,0:0:0:0:
192,192,961117,1,0,0:0:0:0:
448,192,961253,1,0,0:0:0:0:
320,192,961321,1,0,0:0:0:0:
448,192,961390,1,0,0:0:0:0:
192,192,961390,1,0,0:0:0:0:
64,192,961390,1,0,0:0:0:0:
320,192,961526,1,0,0:0:0:0:
192,192,961662,1,0,0:0:0:0:
448,192,961730,1,0,0:0:0:0:
320,192,961799,1,0,0:0:0:0:
64,192,961799,1,0,0:0:0:0:
192,192,961935,1,0,0:0:0:0:
64,192,962071,1,0,0:0:0:0:
448,192,962071,1,0,0:0:0:0:
320,192,962071,1,0,0:0:0:0:
192,192,962208,1,0,0:0:0:0:
448,192,962344,1,0,0:0:0:0:
64,192,962480,1,0,0:0:0:0:
192,192,962480,1,0,0:0:0:0:
320,192,962480,1,0,0:0:0:0:
448,192,962617,1,0,0:0:0:0:
320,192,962685,1,0,0:0:0:0:
192,192,962753,1,0,0:0:0:0:
320,192,962890,1,0,0:0:0:0:
64,192,962890,128,0,963162:0:0:0:0:
192,192,963162,1,0,0:0:0:0:
320,192,963162,1,0,0:0:0:0:
448,192,963162,1,0,0:0:0:0:
64,192,963299,1,0,0:0:0:0:
448,192,963435,1,0,0:0:0:0:
64,192,963571,1,0,0:0:0:0:
192,192,963571,1,0,0:0:0:0:
320,192,963571,1,0,0:0:0:0:
192,192,963708,1,0,0:0:0:0:
64,192,963844,1,0,0:0:0:0:
448,192,963844,1,0,0:0:0:0:
192,192,963980,1,0,0:0:0:0:
448,192,963980,1,0,0:0:0:0:
320,192,964117,1,0,0:0:0:0:
64,192,964117,1,0,0:0:0:0:
192,192,964253,1,0,0:0:0:0:
64,192,964253,1,0,0:0:0:0:
448,192,964253,1,0,0:0:0:0:
320,192,964390,1,0,0:0:0:0:
448,192,964526,1,0,0:0:0:0:
64,192,964662,1,0,0:0:0:0:
192,192,964662,1,0,0:0:0:0:
320,192,964662,1,0,0:0:0:0:
64,192,964799,1,0,0:0:0:0:
448,192,964935,1,0,0:0:0:0:
320,192,965071,1,0,0:0:0:0:
192,192,965071,128,0,965344:0:0:0:0:
64,192,965344,1,0,0:0:0:0:
320,192,965344,1,0,0:0:0:0:
448,192,965344,1,0,0:0:0:0:
192,192,965480,1,0,0:0:0:0:
64,192,965549,1,0,0:0:0:0:
320,192,965617,1,0,0:0:0:0:
448,192,965753,1,0,0:0:0:0:
192,192,965753,1,0,0:0:0:0:
64,192,965753,1,0,0:0:0:0:
320,192,965890,1,0,0:0:0:0:
192,192,965958,1,0,0:0:0:0:
64,192,966026,1,0,0:0:0:0:
320,192,966162,1,0,0:0:0:0:
448,192,966162,1,0,0:0:0:0:
192,192,966299,1,0,0:0:0:0:
64,192,966435,1,0,0:0:0:0:
448,192,966435,1,0,0:0:0:0:
320,192,966435,1,0,0:0:0:0:
192,192,966571,1,0,0:0:0:0:
448,192,966708,1,0,0:0:0:0:
64,192,966844,1,0,0:0:0:0:
320,192,966844,1,0,0:0:0:0:
192,192,966844,1,0,0:0:0:0:
64,192,966980,1,0,0:0:0:0:
320,192,967117,1,0,0:0:0:0:
448,192,967253,128,0,967390:0:0:0:0:
192,192,967253,128,0,967390:0:0:0:0:
64,192,967526,1,0,0:0:0:0:
192,192,967526,1,0,0:0:0:0:
320,192,967526,1,0,0:0:0:0:
448,192,967662,1,0,0:0:0:0:
64,192,967730,1,0,0:0:0:0:
192,192,967799,1,0,0:0:0:0:
320,192,967935,1,0,0:0:0:0:
448,192,967935,1,0,0:0:0:0:
64,192,967935,1,0,0:0:0:0:
192,192,968071,1,0,0:0:0:0:
320,192,968208,1,0,0:0:0:0:
192,192,968276,1,0,0:0:0:0:
64,192,968344,1,0,0:0:0:0:
320,192,968344,1,0,0:0:0:0:
192,192,968480,1,0,0:0:0:0:
448,192,968549,1,0,0:0:0:0:
192,192,968617,1,0,0:0:0:0:
64,192,968617,1,0,0:0:0:0:
320,192,968617,1,0,0:0:0:0:
448,192,968753,1,0,0:0:0:0:
320,192,968821,1,0,0:0:0:0:
192,192,968890,1,0,0:0:0:0:
64,192,969026,1,0,0:0:0:0:
320,192,969026,1,0,0:0:0:0:
448,192,969026,1,0,0:0:0:0:
64,192,969162,1,0,0:0:0:0:
320,192,969299,1,0,0:0:0:0:
192,192,969299,1,0,0:0:0:0:
64,192,969435,1,0,0:0:0:0:
448,192,969435,1,0,0:0:0:0:
192,192,969708,1,0,0:0:0:0:
320,192,969708,1,0,0:0:0:0:
448,192,969708,1,0,0:0:0:0:
64,192,969844,1,0,0:0:0:0:
320,192,969980,1,0,0:0:0:0:
192,192,970049,1,0,0:0:0:0:
64,192,970117,1,0,0:0:0:0:
320,192,970117,1,0,0:0:0:0:
448,192,970117,1,0,0:0:0:0:
192,192,970253,1,0,0:0:0:0:
320,192,970390,1,0,0:0:0:0:
320,192,970526,1,0,0:0:0:0:
64,192,970526,1,0,0:0:0:0:
192,192,970799,1,0,0:0:0:0:
448,192,970799,1,0,0:0:0:0:
64,192,970799,1,0,0:0:0:0:
320,192,970867,1,0,0:0:0:0:
192,192,970935,1,0,0:0:0:0:
64,192,971071,1,0,0:0:0:0:
320,192,971208,1,0,0:0:0:0:
448,192,971208,1,0,0:0:0:0:
192,192,971208,1,0,0:0:0:0:
448,192,971344,1,0,0:0:0:0:
192,192,971480,1,0,0:0:0:0:
320,192,971617,1,0,0:0:0:0:
64,192,971617,128,0,971890:0:0:0:0:
192,192,971890,1,0,0:0:0:0:
320,192,971890,1,0,0:0:0:0:
448,192,971890,1,0,0:0:0:0:
64,192,972026,1,0,0:0:0:0:
448,192,972162,1,0,0:0:0:0:
320,192,972230,1,0,0:0:0:0:
192,192,972299,1,0,0:0:0:0:
64,192,972299,1,0,0:0:0:0:
448,192,972299,1,0,0:0:0:0:
320,192,972435,1,0,0:0:0:0:
192,192,972571,1,0,0:0:0:0:
448,192,972571,1,0,0:0:0:0:
320,192,972708,1,0,0:0:0:0:
64,192,972708,128,0,972980:0:0:0:0:
320,192,972980,1,0,0:0:0:0:
448,192,972980,1,0,0:0:0:0:
192,192,972980,1,0,0:0:0:0:
64,192,973117,1,0,0:0:0:0:
448,192,973253,1,0,0:0:0:0:
320,192,973321,1,0,0:0:0:0:
192,192,973390,1,0,0:0:0:0:
448,192,973390,1,0,0:0:0:0:
64,192,973526,1,0,0:0:0:0:
320,192,973662,1,0,0:0:0:0:
64,192,973799,1,0,0:0:0:0:
448,192,973799,1,0,0:0:0:0:
192,192,973935,1,0,0:0:0:0:
320,192,974003,1,0,0:0:0:0:
448,192,974071,1,0,0:0:0:0:
64,192,974071,1,0,0:0:0:0:
320,192,974208,1,0,0:0:0:0:
64,192,974344,1,0,0:0:0:0:
192,192,974344,1,0,0:0:0:0:
192,192,974480,1,0,0:0:0:0:
448,192,974480,1,0,0:0:0:0:
448,192,974617,1,0,0:0:0:0:
64,192,974753,1,0,0:0:0:0:
448,192,974890,1,0,0:0:0:0:
320,192,974890,1,0,0:0:0:0:
64,192,975026,1,0,0:0:0:0:
192,192,975026,1,0,0:0:0:0:
320,192,975094,1,0,0:0:0:0:
448,192,975162,1,0,0:0:0:0:
64,192,975162,1,0,0:0:0:0:
320,192,975299,1,0,0:0:0:0:
448,192,975435,1,0,0:0:0:0:
192,192,975435,1,0,0:0:0:0:
64,192,975571,1,0,0:0:0:0:
192,192,975571,1,0,0:0:0:0:
448,192,975708,1,0,0:0:0:0:
192,192,975844,1,0,0:0:0:0:
64,192,975980,1,0,0:0:0:0:
320,192,975980,1,0,0:0:0:0:
448,192,976117,1,0,0:0:0:0:
64,192,976185,1,0,0:0:0:0:
192,192,976253,1,0,0:0:0:0:
448,192,976253,1,0,0:0:0:0:
64,192,976390,1,0,0:0:0:0:
320,192,976526,1,0,0:0:0:0:
448,192,976526,1,0,0:0:0:0:
64,192,976662,1,0,0:0:0:0:
320,192,976662,1,0,0:0:0:0:
192,192,976799,1,0,0:0:0:0:
448,192,976935,1,0,0:0:0:0:
320,192,976935,1,0,0:0:0:0:
64,192,977071,1,0,0:0:0:0:
448,192,977071,1,0,0:0:0:0:
320,192,977208,1,0,0:0:0:0:
192,192,977276,1,0,0:0:0:0:
64,192,977344,1,0,0:0:0:0:
448,192,977344,1,0,0:0:0:0:
192,192,977480,1,0,0:0:0:0:
448,192,977617,1,0,0:0:0:0:
320,192,977617,1,0,0:0:0:0:
320,192,977753,1,0,0:0:0:0:
192,192,977753,1,0,0:0:0:0:
64,192,977890,1,0,0:0:0:0:
448,192,978026,1,0,0:0:0:0:
192,192,978026,1,0,0:0:0:0:
448,192,978162,1,0,0:0:0:0:
64,192,978162,1,0,0:0:0:0:
320,192,978299,1,0,0:0:0:0:
64,192,978367,1,0,0:0:0:0:
192,192,978435,1,0,0:0:0:0:
448,192,978435,1,0,0:0:0:0:
64,192,978571,1,0,0:0:0:0:
320,192,978708,1,0,0:0:0:0:
192,192,978708,1,0,0:0:0:0:
448,192,978844,1,0,0:0:0:0:
192,192,978844,1,0,0:0:0:0:
320,192,978980,1,0,0:0:0:0:
64,192,979117,1,0,0:0:0:0:
448,192,979117,1,0,0:0:0:0:
192,192,979253,1,0,0:0:0:0:
448,192,979253,1,0,0:0:0:0:
320,192,979390,1,0,0:0:0:0:
192,192,979458,1,0,0:0:0:0:
64,192,979526,1,0,0:0:0:0:
448,192,979526,1,0,0:0:0:0:
320,192,979526,1,0,0:0:0:0:
192,192,979662,1,0,0:0:0:0:
448,192,979799,1,0,0:0:0:0:
64,192,979799,1,0,0:0:0:0:
64,192,979935,1,0,0:0:0:0:
320,192,979935,1,0,0:0:0:0:
192,192,980071,1,0,0:0:0:0:
448,192,980208,1,0,0:0:0:0:
64,192,980208,1,0,0:0:0:0:
192,192,980344,1,0,0:0:0:0:
320,192,980344,1,0,0:0:0:0:
448,192,980412,1,0,0:0:0:0:
64,192,980480,1,0,0:0:0:0:
320,192,980549,1,0,0:0:0:0:
448,192,980617,1,0,0:0:0:0:
192,192,980617,1,0,0:0:0:0:
64,192,980753,1,0,0:0:0:0:
320,192,980890,1,0,0:0:0:0:
448,192,980890,1,0,0:0:0:0:
192,192,981026,1,0,0:0:0:0:
448,192,981026,1,0,0:0:0:0:
64,192,981162,1,0,0:0:0:0:
320,192,981299,1,0,0:0:0:0:
192,192,981299,1,0,0:0:0:0:
64,192,981435,1,0,0:0:0:0:
320,192,981435,1,0,0:0:0:0:
448,192,981503,1,0,0:0:0:0:
192,192,981571,1,0,0:0:0:0:
320,192,981640,1,0,0:0:0:0:
448,192,981708,1,0,0:0:0:0:
192,192,981708,1,0,0:0:0:0:
64,192,981708,1,0,0:0:0:0:
320,192,981844,1,0,0:0:0:0:
64,192,981980,1,0,0:0:0:0:
192,192,981980,1,0,0:0:0:0:
192,192,982117,1,0,0:0:0:0:
448,192,982117,1,0,0:0:0:0:
320,192,982253,1,0,0:0:0:0:
448,192,982390,1,0,0:0:0:0:
192,192,982390,1,0,0:0:0:0:
64,192,982526,1,0,0:0:0:0:
448,192,982526,1,0,0:0:0:0:
320,192,982662,1,0,0:0:0:0:
192,192,982730,1,0,0:0:0:0:
64,192,982799,1,0,0:0:0:0:
448,192,982799,1,0,0:0:0:0:
320,192,982935,1,0,0:0:0:0:
192,192,983071,1,0,0:0:0:0:
448,192,983071,1,0,0:0:0:0:
64,192,983208,1,0,0:0:0:0:
448,192,983208,1,0,0:0:0:0:
192,192,983344,1,0,0:0:0:0:
64,192,983480,1,0,0:0:0:0:
320,192,983480,1,0,0:0:0:0:
320,192,983617,1,0,0:0:0:0:
448,192,983617,1,0,0:0:0:0:
64,192,983753,1,0,0:0:0:0:
192,192,983821,1,0,0:0:0:0:
64,192,983890,1,0,0:0:0:0:
448,192,983890,1,0,0:0:0:0:
320,192,984026,1,0,0:0:0:0:
192,192,984162,1,0,0:0:0:0:
448,192,984162,1,0,0:0:0:0:
64,192,984299,1,0,0:0:0:0:
192,192,984299,1,0,0:0:0:0:
320,192,984435,1,0,0:0:0:0:
64,192,984571,1,0,0:0:0:0:
448,192,984571,1,0,0:0:0:0:
192,192,984708,1,0,0:0:0:0:
448,192,984708,1,0,0:0:0:0:
320,192,984844,1,0,0:0:0:0:
64,192,984912,1,0,0:0:0:0:
320,192,984980,1,0,0:0:0:0:
448,192,984980,1,0,0:0:0:0:
192,192,984980,1,0,0:0:0:0:
64,192,985117,1,0,0:0:0:0:
448,192,985253,1,0,0:0:0:0:
192,192,985253,1,0,0:0:0:0:
192,192,985390,1,0,0:0:0:0:
320,192,985390,1,0,0:0:0:0:
448,192,985526,1,0,0:0:0:0:
64,192,985662,1,0,0:0:0:0:
320,192,985662,1,0,0:0:0:0:
192,192,985799,1,0,0:0:0:0:
320,192,985799,1,0,0:0:0:0:
64,192,985935,1,0,0:0:0:0:
192,192,986003,1,0,0:0:0:0:
448,192,986071,1,0,0:0:0:0:
320,192,986071,1,0,0:0:0:0:
192,192,986208,1,0,0:0:0:0:
448,192,986344,1,0,0:0:0:0:
64,192,986344,1,0,0:0:0:0:
64,192,986480,1,0,0:0:0:0:
320,192,986480,1,0,0:0:0:0:
192,192,986617,1,0,0:0:0:0:
448,192,986753,1,0,0:0:0:0:
64,192,986753,1,0,0:0:0:0:
320,192,986890,1,0,0:0:0:0:
448,192,986890,1,0,0:0:0:0:
192,192,987026,1,0,0:0:0:0:
320,192,987094,1,0,0:0:0:0:
448,192,987162,1,0,0:0:0:0:
64,192,987162,1,0,0:0:0:0:
192,192,987299,1,0,0:0:0:0:
320,192,987435,1,0,0:0:0:0:
64,192,987435,1,0,0:0:0:0:
320,192,987571,1,0,0:0:0:0:
448,192,987571,1,0,0:0:0:0:
192,192,987708,1,0,0:0:0:0:
64,192,987844,1,0,0:0:0:0:
448,192,987844,1,0,0:0:0:0:
448,192,987980,1,0,0:0:0:0:
192,192,987980,1,0,0:0:0:0:
64,192,988117,1,0,0:0:0:0:
320,192,988185,1,0,0:0:0:0:
448,192,988253,1,0,0:0:0:0:
192,192,988253,1,0,0:0:0:0:
64,192,988390,1,0,0:0:0:0:
320,192,988526,1,0,0:0:0:0:
448,192,988526,1,0,0:0:0:0:
192,192,988662,1,0,0:0:0:0:
448,192,988662,1,0,0:0:0:0:
64,192,988799,1,0,0:0:0:0:
448,192,988935,1,0,0:0:0:0:
320,192,988935,1,0,0:0:0:0:
192,192,989071,1,0,0:0:0:0:
320,192,989071,1,0,0:0:0:0:
64,192,989140,1,0,0:0:0:0:
448,192,989208,1,0,0:0:0:0:
192,192,989276,1,0,0:0:0:0:
64,192,989344,1,0,0:0:0:0:
320,192,989344,1,0,0:0:0:0:
448,192,989480,1,0,0:0:0:0:
192,192,989617,1,0,0:0:0:0:
320,192,989617,1,0,0:0:0:0:
64,192,989753,1,0,0:0:0:0:
320,192,989753,1,0,0:0:0:0:
192,192,989890,1,0,0:0:0:0:
448,192,990026,1,0,0:0:0:0:
320,192,990026,1,0,0:0:0:0:
64,192,990162,1,0,0:0:0:0:
448,192,990162,1,0,0:0:0:0:
320,192,990299,1,0,0:0:0:0:
192,192,990367,1,0,0:0:0:0:
64,192,990435,1,0,0:0:0:0:
320,192,990435,1,0,0:0:0:0:
448,192,990435,1,0,0:0:0:0:
192,192,990571,1,0,0:0:0:0:
448,192,990708,128,0,990980:0:0:0:0:
64,192,990708,1,0,0:0:0:0:
320,192,990844,1,0,0:0:0:0:
64,192,990980,1,0,0:0:0:0:
192,192,990980,128,0,991253:0:0:0:0:
320,192,991117,1,0,0:0:0:0:
448,192,991253,128,0,991390:0:0:0:0:
64,192,991253,1,0,0:0:0:0:
320,192,991390,128,0,991662:0:0:0:0:
192,192,991458,1,0,0:0:0:0:
64,192,991526,1,0,0:0:0:0:
192,192,991662,128,0,991935:0:0:0:0:
448,192,991662,1,0,0:0:0:0:
64,192,991799,1,0,0:0:0:0:
448,192,991935,1,0,0:0:0:0:
320,192,991935,128,0,992071:0:0:0:0:
64,192,992071,128,0,992208:0:0:0:0:
448,192,992071,1,0,0:0:0:0:
192,192,992208,1,0,0:0:0:0:
320,192,992208,128,0,992344:0:0:0:0:
448,192,992344,128,0,992617:0:0:0:0:
64,192,992344,1,0,0:0:0:0:
192,192,992480,1,0,0:0:0:0:
64,192,992549,1,0,0:0:0:0:
320,192,992617,1,0,0:0:0:0:
192,192,992753,1,0,0:0:0:0:
64,192,992890,128,0,993162:0:0:0:0:
448,192,992890,1,0,0:0:0:0:
192,192,993026,1,0,0:0:0:0:
320,192,993162,128,0,993435:0:0:0:0:
448,192,993162,1,0,0:0:0:0:
448,192,993299,1,0,0:0:0:0:
192,192,993435,128,0,993571:0:0:0:0:
64,192,993435,1,0,0:0:0:0:
448,192,993571,128,0,993844:0:0:0:0:
320,192,993571,1,0,0:0:0:0:
64,192,993640,1,0,0:0:0:0:
192,192,993708,1,0,0:0:0:0:
64,192,993844,128,0,994117:0:0:0:0:
320,192,993844,1,0,0:0:0:0:
192,192,993980,1,0,0:0:0:0:
320,192,994117,128,0,994253:0:0:0:0:
448,192,994253,128,0,994390:0:0:0:0:
192,192,994253,1,0,0:0:0:0:
64,192,994390,128,0,994526:0:0:0:0:
320,192,994390,1,0,0:0:0:0:
192,192,994526,128,0,994799:0:0:0:0:
320,192,994526,1,0,0:0:0:0:
448,192,994662,1,0,0:0:0:0:
64,192,994730,1,0,0:0:0:0:
320,192,994799,1,0,0:0:0:0:
64,192,994935,1,0,0:0:0:0:
320,192,995071,128,0,995344:0:0:0:0:
448,192,995071,1,0,0:0:0:0:
192,192,995208,1,0,0:0:0:0:
64,192,995344,128,0,995617:0:0:0:0:
448,192,995344,1,0,0:0:0:0:
192,192,995480,1,0,0:0:0:0:
448,192,995617,128,0,995753:0:0:0:0:
320,192,995617,1,0,0:0:0:0:
192,192,995753,128,0,996026:0:0:0:0:
64,192,995753,1,0,0:0:0:0:
320,192,995821,1,0,0:0:0:0:
448,192,995890,1,0,0:0:0:0:
320,192,996026,128,0,996299:0:0:0:0:
64,192,996026,1,0,0:0:0:0:
448,192,996162,1,0,0:0:0:0:
64,192,996299,128,0,996435:0:0:0:0:
192,192,996299,1,0,0:0:0:0:
320,192,996435,128,0,996571:0:0:0:0:
448,192,996435,1,0,0:0:0:0:
64,192,996571,1,0,0:0:0:0:
192,192,996571,128,0,996708:0:0:0:0:
448,192,996708,128,0,996980:0:0:0:0:
320,192,996708,1,0,0:0:0:0:
64,192,996844,1,0,0:0:0:0:
192,192,996912,1,0,0:0:0:0:
320,192,996980,1,0,0:0:0:0:
192,192,997117,1,0,0:0:0:0:
64,192,997253,128,0,997526:0:0:0:0:
448,192,997253,1,0,0:0:0:0:
320,192,997390,1,0,0:0:0:0:
448,192,997526,128,0,997799:0:0:0:0:
192,192,997526,1,0,0:0:0:0:
320,192,997662,1,0,0:0:0:0:
64,192,997799,1,0,0:0:0:0:
320,192,997799,128,0,997935:0:0:0:0:
192,192,997867,1,0,0:0:0:0:
64,192,997935,128,0,998208:0:0:0:0:
448,192,997935,1,0,0:0:0:0:
192,192,998003,1,0,0:0:0:0:
448,192,998071,1,0,0:0:0:0:
320,192,998208,128,0,998480:0:0:0:0:
192,192,998208,1,0,0:0:0:0:
448,192,998344,1,0,0:0:0:0:
192,192,998480,128,0,998617:0:0:0:0:
64,192,998480,1,0,0:0:0:0:
448,192,998617,128,0,998753:0:0:0:0:
320,192,998617,1,0,0:0:0:0:
64,192,998753,128,0,998890:0:0:0:0:
192,192,998753,1,0,0:0:0:0:
448,192,998890,128,0,999162:0:0:0:0:
320,192,998890,1,0,0:0:0:0:
192,192,998958,1,0,0:0:0:0:
64,192,999026,1,0,0:0:0:0:
320,192,999094,1,0,0:0:0:0:
64,192,999162,1,0,0:0:0:0:
192,192,999162,1,0,0:0:0:0:
320,192,999299,1,0,0:0:0:0:
448,192,999435,1,0,0:0:0:0:
192,192,999435,128,0,999708:0:0:0:0:
64,192,999571,1,0,0:0:0:0:
320,192,999708,128,0,999980:0:0:0:0:
448,192,999708,1,0,0:0:0:0:
448,192,999844,1,0,0:0:0:0:
64,192,999980,128,0,1000117:0:0:0:0:
192,192,999980,1,0,0:0:0:0:
448,192,1000117,128,0,1000390:0:0:0:0:
320,192,1000117,1,0,0:0:0:0:
192,192,1000185,1,0,0:0:0:0:
64,192,1000253,1,0,0:0:0:0:
192,192,1000390,128,0,1000662:0:0:0:0:
320,192,1000390,1,0,0:0:0:0:
448,192,1000526,1,0,0:0:0:0:
64,192,1000662,128,0,1000799:0:0:0:0:
320,192,1000662,1,0,0:0:0:0:
448,192,1000799,128,0,1000935:0:0:0:0:
320,192,1000799,1,0,0:0:0:0:
64,192,1000935,128,0,1001071:0:0:0:0:
192,192,1000935,1,0,0:0:0:0:
320,192,1001071,128,0,1001344:0:0:0:0:
192,192,1001071,1,0,0:0:0:0:
448,192,1001208,1,0,0:0:0:0:
192,192,1001276,1,0,0:0:0:0:
64,192,1001344,1,0,0:0:0:0:
448,192,1001480,1,0,0:0:0:0:
64,192,1001617,128,0,1001890:0:0:0:0:
192,192,1001617,1,0,0:0:0:0:
320,192,1001753,1,0,0:0:0:0:
448,192,1001890,128,0,1002162:0:0:0:0:
192,192,1001890,1,0,0:0:0:0:
192,192,1002026,1,0,0:0:0:0:
320,192,1002162,128,0,1002299:0:0:0:0:
64,192,1002162,1,0,0:0:0:0:
192,192,1002299,128,0,1002571:0:0:0:0:
448,192,1002299,1,0,0:0:0:0:
64,192,1002367,1,0,0:0:0:0:
320,192,1002435,1,0,0:0:0:0:
448,192,1002571,128,0,1002844:0:0:0:0:
64,192,1002571,1,0,0:0:0:0:
320,192,1002708,1,0,0:0:0:0:
64,192,1002844,128,0,1002980:0:0:0:0:
192,192,1002844,1,0,0:0:0:0:
320,192,1002980,128,0,1003117:0:0:0:0:
448,192,1002980,1,0,0:0:0:0:
448,192,1003117,1,0,0:0:0:0:
64,192,1003117,128,0,1003253:0:0:0:0:
192,192,1003253,128,0,1003526:0:0:0:0:
320,192,1003253,1,0,0:0:0:0:
448,192,1003390,1,0,0:0:0:0:
320,192,1003458,1,0,0:0:0:0:
64,192,1003526,1,0,0:0:0:0:
448,192,1003662,1,0,0:0:0:0:
320,192,1003799,128,0,1004071:0:0:0:0:
192,192,1003799,1,0,0:0:0:0:
64,192,1003935,1,0,0:0:0:0:
448,192,1004071,128,0,1004344:0:0:0:0:
192,192,1004071,1,0,0:0:0:0:
192,192,1004208,1,0,0:0:0:0:
64,192,1004344,128,0,1004480:0:0:0:0:
320,192,1004344,1,0,0:0:0:0:
192,192,1004480,128,0,1004753:0:0:0:0:
320,192,1004480,1,0,0:0:0:0:
448,192,1004549,1,0,0:0:0:0:
64,192,1004617,1,0,0:0:0:0:
320,192,1004753,128,0,1005026:0:0:0:0:
448,192,1004753,1,0,0:0:0:0:
64,192,1004890,1,0,0:0:0:0:
192,192,1005026,128,0,1005162:0:0:0:0:
448,192,1005026,1,0,0:0:0:0:
64,192,1005162,128,0,1005299:0:0:0:0:
320,192,1005162,1,0,0:0:0:0:
448,192,1005299,128,0,1005435:0:0:0:0:
320,192,1005299,1,0,0:0:0:0:
192,192,1005435,128,0,1005708:0:0:0:0:
64,192,1005435,1,0,0:0:0:0:
320,192,1005571,1,0,0:0:0:0:
448,192,1005640,1,0,0:0:0:0:
64,192,1005708,1,0,0:0:0:0:
320,192,1005844,1,0,0:0:0:0:
192,192,1005980,128,0,1006253:0:0:0:0:
448,192,1005980,1,0,0:0:0:0:
64,192,1006117,1,0,0:0:0:0:
448,192,1006253,128,0,1006526:0:0:0:0:
320,192,1006253,1,0,0:0:0:0:
192,192,1006390,1,0,0:0:0:0:
64,192,1006526,128,0,1006662:0:0:0:0:
320,192,1006526,1,0,0:0:0:0:
192,192,1006594,1,0,0:0:0:0:
320,192,1006662,128,0,1006935:0:0:0:0:
448,192,1006662,1,0,0:0:0:0:
192,192,1006730,1,0,0:0:0:0:
64,192,1006799,1,0,0:0:0:0:
448,192,1006935,128,0,1007208:0:0:0:0:
192,192,1006935,1,0,0:0:0:0:
192,192,1007071,1,0,0:0:0:0:
64,192,1007208,128,0,1007344:0:0:0:0:
320,192,1007208,1,0,0:0:0:0:
320,192,1007344,128,0,1007480:0:0:0:0:
192,192,1007344,1,0,0:0:0:0:
192,192,1007480,128,0,1007617:0:0:0:0:
448,192,1007480,1,0,0:0:0:0:
320,192,1007617,128,0,1007890:0:0:0:0:
64,192,1007617,1,0,0:0:0:0:
448,192,1007890,1,0,0:0:0:0:
192,192,1007890,1,0,0:0:0:0:
64,192,1007890,1,0,0:0:0:0:
