osu file format v14

[General]
AudioFilename: audio.mp3
AudioLeadIn: 0
PreviewTime: 481526
Countdown: 0
SampleSet: Soft
StackLeniency: 0.7
Mode: 3
LetterboxInBreaks: 0
SpecialStyle: 0
WidescreenStoryboard: 1

[Editor]
Bookmarks: 639162,656617,665344,674071,691526,707890,708980,725344,726435,743890,760253,761344,778799,794071,796253,813720
DistanceSpacing: 1.2
BeatDivisor: 4
GridSize: 4
TimelineZoom: 2.539999

[Metadata]
Title:Because Maybe! (Pt. 2)
TitleUnicode:Because Maybe! (Pt. 2)
Artist:Renard
ArtistUnicode:Renard
Creator:JustinNF
Version:Push Cycles
Source:Best of Lapfox Vol. 1
Tags:Raggacore Breakcore Dancefloor
BeatmapID:1505337
BeatmapSetID:712054

[Difficulty]
HPDrainRate:8
CircleSize:4
OverallDifficulty:8
ApproachRate:5
SliderMultiplier:1.4
SliderTickRate:1

[Events]
//Background and Video events
0,0,"BG-01.jpg",0,0
//Break Periods
//Storyboard Layer 0 (Background)
//Storyboard Layer 1 (Fail)
//Storyboard Layer 2 (Pass)
//Storyboard Layer 3 (Foreground)
//Storyboard Sound Samples

[TimingPoints]
-110,272.727272727273,4,2,0,25,1,0
655253,-33.3333333333333,4,2,0,25,0,0
655526,-1000,4,2,0,25,0,0
656253,-33.3333333333333,4,2,0,25,0,0
656344,-1000,4,2,0,25,0,0
656526,-50,4,2,0,25,0,0
656617,-100,4,2,0,25,0,0
725753,-105.263157894737,4,2,0,25,0,0
725787,-111.111111111111,4,2,0,25,0,0
725821,-117.647058823529,4,2,0,25,0,0
725855,-125,4,2,0,25,0,0
742253,-33.3333333333333,4,2,0,25,0,0
742799,-1000,4,2,0,25,0,0
743208,-50,4,2,0,25,0,0
743344,-1000,4,2,0,25,0,0
743480,-50,4,2,0,25,0,0
743617,-1000,4,2,0,25,0,0
743753,-50,4,2,0,25,0,0
743890,-100,4,2,0,25,0,0
795571,-50,4,2,0,25,0,0
795980,-1000,4,2,0,25,0,0
796117,-133.333333333333,4,2,0,25,0,0
796253,-100,4,2,0,25,0,0

[HitObjects]
64,192,639162,5,0,0:0:0:0:
192,192,639162,1,0,0:0:0:0:
448,192,639162,128,0,639299:0:0:0:0:
192,192,639435,128,0,639571:0:0:0:0:
64,192,639571,1,0,0:0:0:0:
320,192,639571,1,0,0:0:0:0:
448,192,639571,1,0,0:0:0:0:
320,192,639708,128,0,639844:0:0:0:0:
64,192,640117,1,0,0:0:0:0:
192,192,640253,1,0,0:0:0:0:
448,192,640253,1,0,0:0:0:0:
320,192,640253,128,0,640390:0:0:0:0:
192,192,640526,1,0,0:0:0:0:
448,192,640662,1,0,0:0:0:0:
320,192,640662,1,0,0:0:0:0:
64,192,640662,128,0,640935:0:0:0:0:
320,192,641071,128,0,641617:0:0:0:0:
192,192,641344,1,0,0:0:0:0:
448,192,641344,1,0,0:0:0:0:
64,192,641344,1,0,0:0:0:0:
64,192,641617,128,0,642162:0:0:0:0:
448,192,641753,1,0,0:0:0:0:
192,192,641753,1,0,0:0:0:0:
448,192,642162,128,0,642435:0:0:0:0:
320,192,642435,1,0,0:0:0:0:
64,192,642435,1,0,0:0:0:0:
192,192,642435,128,0,642708:0:0:0:0:
320,192,642708,128,0,642980:0:0:0:0:
448,192,642844,1,0,0:0:0:0:
64,192,642844,1,0,0:0:0:0:
192,192,642980,128,0,643390:0:0:0:0:
64,192,643526,1,0,0:0:0:0:
320,192,643526,1,0,0:0:0:0:
448,192,643526,128,0,643662:0:0:0:0:
64,192,643799,128,0,643935:0:0:0:0:
192,192,643935,1,0,0:0:0:0:
320,192,643935,1,0,0:0:0:0:
448,192,643935,1,0,0:0:0:0:
320,192,644071,128,0,644208:0:0:0:0:
192,192,644480,1,0,0:0:0:0:
320,192,644617,1,0,0:0:0:0:
64,192,644617,1,0,0:0:0:0:
448,192,644617,128,0,644753:0:0:0:0:
64,192,644890,128,0,645026:0:0:0:0:
192,192,645026,1,0,0:0:0:0:
448,192,645026,1,0,0:0:0:0:
320,192,645026,128,0,645299:0:0:0:0:
192,192,645435,128,0,645980:0:0:0:0:
448,192,645708,1,0,0:0:0:0:
64,192,645708,1,0,0:0:0:0:
448,192,645980,128,0,646390:0:0:0:0:
320,192,646117,1,0,0:0:0:0:
64,192,646117,1,0,0:0:0:0:
192,192,646526,128,0,646799:0:0:0:0:
64,192,646799,1,0,0:0:0:0:
448,192,646799,1,0,0:0:0:0:
320,192,646799,128,0,647071:0:0:0:0:
64,192,647071,128,0,647344:0:0:0:0:
192,192,647208,1,0,0:0:0:0:
448,192,647208,1,0,0:0:0:0:
448,192,647344,128,0,647753:0:0:0:0:
320,192,647890,1,0,0:0:0:0:
192,192,647890,1,0,0:0:0:0:
64,192,647890,1,0,0:0:0:0:
448,192,648026,128,0,648162:0:0:0:0:
448,192,648299,1,0,0:0:0:0:
320,192,648299,1,0,0:0:0:0:
64,192,648299,128,0,648435:0:0:0:0:
320,192,648435,128,0,648571:0:0:0:0:
192,192,648571,128,0,648708:0:0:0:0:
448,192,648844,1,0,0:0:0:0:
64,192,648980,1,0,0:0:0:0:
192,192,648980,1,0,0:0:0:0:
320,192,648980,128,0,649253:0:0:0:0:
64,192,649253,128,0,649390:0:0:0:0:
192,192,649390,1,0,0:0:0:0:
320,192,649390,1,0,0:0:0:0:
448,192,649390,128,0,649662:0:0:0:0:
192,192,649799,1,0,0:0:0:0:
64,192,649935,128,0,650208:0:0:0:0:
448,192,650071,1,0,0:0:0:0:
320,192,650071,1,0,0:0:0:0:
448,192,650208,1,0,0:0:0:0:
320,192,650344,128,0,650753:0:0:0:0:
64,192,650480,1,0,0:0:0:0:
448,192,650480,1,0,0:0:0:0:
192,192,650890,128,0,651162:0:0:0:0:
64,192,651162,1,0,0:0:0:0:
320,192,651162,1,0,0:0:0:0:
448,192,651162,128,0,651435:0:0:0:0:
64,192,651435,128,0,651708:0:0:0:0:
192,192,651571,1,0,0:0:0:0:
448,192,651571,1,0,0:0:0:0:
320,192,651708,128,0,652117:0:0:0:0:
192,192,652253,1,0,0:0:0:0:
448,192,652253,1,0,0:0:0:0:
64,192,652253,128,0,652390:0:0:0:0:
320,192,652526,128,0,652662:0:0:0:0:
448,192,652662,1,0,0:0:0:0:
192,192,652662,1,0,0:0:0:0:
64,192,652662,1,0,0:0:0:0:
448,192,652799,128,0,652935:0:0:0:0:
192,192,652935,128,0,653071:0:0:0:0:
448,192,653208,1,0,0:0:0:0:
64,192,653344,1,0,0:0:0:0:
192,192,653344,1,0,0:0:0:0:
320,192,653344,128,0,653617:0:0:0:0:
64,192,653617,128,0,653753:0:0:0:0:
192,192,653753,1,0,0:0:0:0:
320,192,653753,1,0,0:0:0:0:
448,192,653753,128,0,654026:0:0:0:0:
64,192,654162,128,0,654299:0:0:0:0:
320,192,654299,128,0,654435:0:0:0:0:
192,192,654435,1,0,0:0:0:0:
64,192,654435,1,0,0:0:0:0:
448,192,654435,128,0,654571:0:0:0:0:
192,192,654571,128,0,654708:0:0:0:0:
320,192,654708,128,0,655253:0:0:0:0:
448,192,654844,1,0,0:0:0:0:
64,192,654844,1,0,0:0:0:0:
64,192,656344,1,0,0:0:0:0:
448,192,656344,1,0,0:0:0:0:
64,192,656617,1,0,0:0:0:0:
320,192,656617,1,0,0:0:0:0:
448,192,656617,1,0,0:0:0:0:
192,192,656753,1,0,0:0:0:0:
448,192,656890,1,0,0:0:0:0:
64,192,657026,1,0,0:0:0:0:
192,192,657026,1,0,0:0:0:0:
320,192,657026,1,0,0:0:0:0:
448,192,657162,1,0,0:0:0:0:
64,192,657299,1,0,0:0:0:0:
192,192,657435,1,0,0:0:0:0:
448,192,657435,1,0,0:0:0:0:
320,192,657571,1,0,0:0:0:0:
64,192,657571,1,0,0:0:0:0:
192,192,657640,1,0,0:0:0:0:
320,192,657708,1,0,0:0:0:0:
448,192,657708,1,0,0:0:0:0:
64,192,657708,1,0,0:0:0:0:
192,192,657844,1,0,0:0:0:0:
320,192,657980,1,0,0:0:0:0:
64,192,658117,1,0,0:0:0:0:
192,192,658117,1,0,0:0:0:0:
448,192,658117,1,0,0:0:0:0:
320,192,658253,1,0,0:0:0:0:
448,192,658390,1,0,0:0:0:0:
320,192,658526,1,0,0:0:0:0:
192,192,658526,1,0,0:0:0:0:
64,192,658662,1,0,0:0:0:0:
320,192,658662,1,0,0:0:0:0:
64,192,658799,1,0,0:0:0:0:
192,192,658799,1,0,0:0:0:0:
448,192,658799,1,0,0:0:0:0:
320,192,658935,1,0,0:0:0:0:
64,192,659071,1,0,0:0:0:0:
192,192,659208,1,0,0:0:0:0:
320,192,659208,1,0,0:0:0:0:
448,192,659208,1,0,0:0:0:0:
64,192,659344,1,0,0:0:0:0:
192,192,659480,1,0,0:0:0:0:
448,192,659617,1,0,0:0:0:0:
320,192,659617,1,0,0:0:0:0:
64,192,659753,1,0,0:0:0:0:
448,192,659753,1,0,0:0:0:0:
320,192,659821,1,0,0:0:0:0:
64,192,659890,1,0,0:0:0:0:
192,192,659890,1,0,0:0:0:0:
448,192,659890,1,0,0:0:0:0:
320,192,660026,1,0,0:0:0:0:
192,192,660162,1,0,0:0:0:0:
64,192,660299,1,0,0:0:0:0:
320,192,660299,1,0,0:0:0:0:
448,192,660299,1,0,0:0:0:0:
192,192,660367,1,0,0:0:0:0:
320,192,660435,1,0,0:0:0:0:
448,192,660571,1,0,0:0:0:0:
64,192,660571,1,0,0:0:0:0:
64,192,660708,1,0,0:0:0:0:
320,192,660708,1,0,0:0:0:0:
448,192,660844,1,0,0:0:0:0:
64,192,660844,1,0,0:0:0:0:
448,192,660980,1,0,0:0:0:0:
192,192,660980,1,0,0:0:0:0:
320,192,660980,1,0,0:0:0:0:
64,192,661117,1,0,0:0:0:0:
320,192,661253,1,0,0:0:0:0:
64,192,661390,1,0,0:0:0:0:
192,192,661390,1,0,0:0:0:0:
448,192,661390,1,0,0:0:0:0:
320,192,661526,1,0,0:0:0:0:
192,192,661662,1,0,0:0:0:0:
64,192,661799,1,0,0:0:0:0:
448,192,661799,1,0,0:0:0:0:
192,192,661935,1,0,0:0:0:0:
448,192,661935,1,0,0:0:0:0:
64,192,662071,1,0,0:0:0:0:
320,192,662071,1,0,0:0:0:0:
192,192,662071,1,0,0:0:0:0:
448,192,662208,1,0,0:0:0:0:
192,192,662344,1,0,0:0:0:0:
64,192,662480,1,0,0:0:0:0:
320,192,662480,1,0,0:0:0:0:
448,192,662480,1,0,0:0:0:0:
192,192,662617,1,0,0:0:0:0:
320,192,662753,1,0,0:0:0:0:
64,192,662890,1,0,0:0:0:0:
448,192,662890,1,0,0:0:0:0:
192,192,663026,1,0,0:0:0:0:
320,192,663026,1,0,0:0:0:0:
64,192,663094,1,0,0:0:0:0:
192,192,663162,1,0,0:0:0:0:
320,192,663162,1,0,0:0:0:0:
448,192,663162,1,0,0:0:0:0:
64,192,663299,1,0,0:0:0:0:
320,192,663435,1,0,0:0:0:0:
192,192,663571,1,0,0:0:0:0:
64,192,663571,1,0,0:0:0:0:
448,192,663571,1,0,0:0:0:0:
320,192,663708,1,0,0:0:0:0:
192,192,663844,1,0,0:0:0:0:
64,192,663980,1,0,0:0:0:0:
448,192,663980,1,0,0:0:0:0:
192,192,664117,1,0,0:0:0:0:
448,192,664117,1,0,0:0:0:0:
64,192,664185,1,0,0:0:0:0:
192,192,664253,1,0,0:0:0:0:
448,192,664253,1,0,0:0:0:0:
320,192,664253,1,0,0:0:0:0:
64,192,664390,1,0,0:0:0:0:
320,192,664526,1,0,0:0:0:0:
448,192,664526,1,0,0:0:0:0:
64,192,664662,1,0,0:0:0:0:
192,192,664662,1,0,0:0:0:0:
448,192,664662,1,0,0:0:0:0:
320,192,664799,1,0,0:0:0:0:
64,192,664799,1,0,0:0:0:0:
192,192,665071,1,0,0:0:0:0:
448,192,665071,1,0,0:0:0:0:
448,192,665208,1,0,0:0:0:0:
192,192,665208,1,0,0:0:0:0:
64,192,665344,1,0,0:0:0:0:
320,192,665344,1,0,0:0:0:0:
192,192,665344,1,0,0:0:0:0:
448,192,665412,1,0,0:0:0:0:
64,192,665480,1,0,0:0:0:0:
320,192,665549,1,0,0:0:0:0:
448,192,665617,1,0,0:0:0:0:
192,192,665685,1,0,0:0:0:0:
320,192,665753,1,0,0:0:0:0:
64,192,665753,1,0,0:0:0:0:
448,192,665753,1,0,0:0:0:0:
320,192,665890,1,0,0:0:0:0:
64,192,665958,1,0,0:0:0:0:
448,192,666026,1,0,0:0:0:0:
192,192,666094,1,0,0:0:0:0:
64,192,666162,1,0,0:0:0:0:
320,192,666162,1,0,0:0:0:0:
192,192,666299,1,0,0:0:0:0:
448,192,666299,1,0,0:0:0:0:
320,192,666367,1,0,0:0:0:0:
448,192,666435,1,0,0:0:0:0:
192,192,666435,1,0,0:0:0:0:
64,192,666435,1,0,0:0:0:0:
64,192,666571,1,0,0:0:0:0:
192,192,666640,1,0,0:0:0:0:
448,192,666708,1,0,0:0:0:0:
192,192,666776,1,0,0:0:0:0:
320,192,666844,1,0,0:0:0:0:
64,192,666844,1,0,0:0:0:0:
448,192,666844,1,0,0:0:0:0:
192,192,666980,1,0,0:0:0:0:
448,192,667117,1,0,0:0:0:0:
192,192,667185,1,0,0:0:0:0:
64,192,667253,1,0,0:0:0:0:
320,192,667253,1,0,0:0:0:0:
448,192,667321,1,0,0:0:0:0:
192,192,667390,1,0,0:0:0:0:
320,192,667390,1,0,0:0:0:0:
64,192,667458,1,0,0:0:0:0:
192,192,667526,1,0,0:0:0:0:
448,192,667526,1,0,0:0:0:0:
320,192,667526,1,0,0:0:0:0:
64,192,667662,1,0,0:0:0:0:
320,192,667730,1,0,0:0:0:0:
448,192,667799,1,0,0:0:0:0:
192,192,667867,1,0,0:0:0:0:
64,192,667935,1,0,0:0:0:0:
320,192,667935,1,0,0:0:0:0:
448,192,667935,1,0,0:0:0:0:
320,192,668071,1,0,0:0:0:0:
64,192,668140,1,0,0:0:0:0:
448,192,668208,1,0,0:0:0:0:
192,192,668276,1,0,0:0:0:0:
64,192,668344,1,0,0:0:0:0:
320,192,668344,1,0,0:0:0:0:
192,192,668480,1,0,0:0:0:0:
448,192,668480,1,0,0:0:0:0:
320,192,668549,1,0,0:0:0:0:
448,192,668617,1,0,0:0:0:0:
64,192,668617,1,0,0:0:0:0:
192,192,668617,1,0,0:0:0:0:
320,192,668753,1,0,0:0:0:0:
192,192,668821,1,0,0:0:0:0:
448,192,668890,1,0,0:0:0:0:
64,192,668958,1,0,0:0:0:0:
192,192,669026,1,0,0:0:0:0:
320,192,669026,1,0,0:0:0:0:
448,192,669026,1,0,0:0:0:0:
64,192,669094,1,0,0:0:0:0:
192,192,669162,1,0,0:0:0:0:
320,192,669162,1,0,0:0:0:0:
64,192,669299,1,0,0:0:0:0:
448,192,669299,1,0,0:0:0:0:
448,192,669435,1,0,0:0:0:0:
192,192,669435,1,0,0:0:0:0:
64,192,669571,1,0,0:0:0:0:
320,192,669571,1,0,0:0:0:0:
64,192,669708,1,0,0:0:0:0:
192,192,669708,1,0,0:0:0:0:
448,192,669708,1,0,0:0:0:0:
320,192,669844,1,0,0:0:0:0:
64,192,669912,1,0,0:0:0:0:
448,192,669980,1,0,0:0:0:0:
192,192,670049,1,0,0:0:0:0:
64,192,670117,1,0,0:0:0:0:
320,192,670117,1,0,0:0:0:0:
448,192,670117,1,0,0:0:0:0:
192,192,670253,1,0,0:0:0:0:
448,192,670321,1,0,0:0:0:0:
320,192,670390,1,0,0:0:0:0:
64,192,670458,1,0,0:0:0:0:
192,192,670526,1,0,0:0:0:0:
448,192,670526,1,0,0:0:0:0:
320,192,670662,1,0,0:0:0:0:
64,192,670662,1,0,0:0:0:0:
192,192,670730,1,0,0:0:0:0:
64,192,670799,1,0,0:0:0:0:
320,192,670799,1,0,0:0:0:0:
448,192,670799,1,0,0:0:0:0:
192,192,670935,1,0,0:0:0:0:
448,192,671003,1,0,0:0:0:0:
64,192,671071,1,0,0:0:0:0:
320,192,671140,1,0,0:0:0:0:
64,192,671208,1,0,0:0:0:0:
192,192,671208,1,0,0:0:0:0:
448,192,671208,1,0,0:0:0:0:
320,192,671344,1,0,0:0:0:0:
448,192,671480,1,0,0:0:0:0:
64,192,671549,1,0,0:0:0:0:
192,192,671617,1,0,0:0:0:0:
320,192,671617,1,0,0:0:0:0:
448,192,671685,1,0,0:0:0:0:
64,192,671753,1,0,0:0:0:0:
320,192,671753,1,0,0:0:0:0:
192,192,671821,1,0,0:0:0:0:
64,192,671890,1,0,0:0:0:0:
448,192,671890,1,0,0:0:0:0:
320,192,671890,1,0,0:0:0:0:
192,192,672026,1,0,0:0:0:0:
448,192,672094,1,0,0:0:0:0:
64,192,672162,1,0,0:0:0:0:
320,192,672230,1,0,0:0:0:0:
192,192,672299,1,0,0:0:0:0:
64,192,672299,1,0,0:0:0:0:
448,192,672299,1,0,0:0:0:0:
192,192,672435,1,0,0:0:0:0:
448,192,672503,1,0,0:0:0:0:
320,192,672571,1,0,0:0:0:0:
64,192,672640,1,0,0:0:0:0:
192,192,672708,1,0,0:0:0:0:
448,192,672708,1,0,0:0:0:0:
320,192,672844,1,0,0:0:0:0:
64,192,672844,1,0,0:0:0:0:
192,192,672912,1,0,0:0:0:0:
64,192,672980,1,0,0:0:0:0:
448,192,672980,1,0,0:0:0:0:
192,192,673253,1,0,0:0:0:0:
448,192,673253,1,0,0:0:0:0:
192,192,673390,1,0,0:0:0:0:
320,192,673390,1,0,0:0:0:0:
448,192,673458,1,0,0:0:0:0:
320,192,673526,1,0,0:0:0:0:
64,192,673526,1,0,0:0:0:0:
192,192,673594,1,0,0:0:0:0:
448,192,673662,1,0,0:0:0:0:
64,192,673730,1,0,0:0:0:0:
320,192,673799,1,0,0:0:0:0:
192,192,673799,1,0,0:0:0:0:
64,192,673935,1,0,0:0:0:0:
448,192,673935,1,0,0:0:0:0:
64,192,674071,1,0,0:0:0:0:
320,192,674071,1,0,0:0:0:0:
192,192,674071,128,0,674617:0:0:0:0:
64,192,674344,1,0,0:0:0:0:
448,192,674344,1,0,0:0:0:0:
320,192,674753,1,0,0:0:0:0:
64,192,674753,1,0,0:0:0:0:
192,192,674821,1,0,0:0:0:0:
448,192,674890,1,0,0:0:0:0:
64,192,674890,1,0,0:0:0:0:
192,192,675162,1,0,0:0:0:0:
320,192,675162,1,0,0:0:0:0:
448,192,675162,128,0,675571:0:0:0:0:
192,192,675435,1,0,0:0:0:0:
64,192,675571,1,0,0:0:0:0:
320,192,675571,1,0,0:0:0:0:
320,192,675776,1,0,0:0:0:0:
192,192,675844,1,0,0:0:0:0:
448,192,675844,1,0,0:0:0:0:
320,192,675980,1,0,0:0:0:0:
192,192,675980,1,0,0:0:0:0:
64,192,676117,1,0,0:0:0:0:
448,192,676117,1,0,0:0:0:0:
64,192,676253,1,0,0:0:0:0:
320,192,676253,1,0,0:0:0:0:
192,192,676253,128,0,676799:0:0:0:0:
64,192,676526,1,0,0:0:0:0:
448,192,676526,1,0,0:0:0:0:
448,192,676799,128,0,677344:0:0:0:0:
64,192,676935,1,0,0:0:0:0:
320,192,677003,1,0,0:0:0:0:
192,192,677071,1,0,0:0:0:0:
64,192,677071,1,0,0:0:0:0:
64,192,677344,1,0,0:0:0:0:
320,192,677344,1,0,0:0:0:0:
192,192,677344,128,0,677480:0:0:0:0:
320,192,677480,128,0,677617:0:0:0:0:
64,192,677617,128,0,677753:0:0:0:0:
448,192,677617,1,0,0:0:0:0:
448,192,677753,128,0,677890:0:0:0:0:
192,192,677753,1,0,0:0:0:0:
320,192,677890,128,0,678435:0:0:0:0:
64,192,677890,1,0,0:0:0:0:
192,192,677958,1,0,0:0:0:0:
448,192,678026,1,0,0:0:0:0:
64,192,678162,1,0,0:0:0:0:
192,192,678162,1,0,0:0:0:0:
448,192,678299,1,0,0:0:0:0:
192,192,678435,1,0,0:0:0:0:
64,192,678435,128,0,678980:0:0:0:0:
448,192,678435,1,0,0:0:0:0:
320,192,678708,1,0,0:0:0:0:
448,192,678708,1,0,0:0:0:0:
192,192,679117,1,0,0:0:0:0:
320,192,679185,1,0,0:0:0:0:
448,192,679253,1,0,0:0:0:0:
64,192,679253,1,0,0:0:0:0:
64,192,679526,1,0,0:0:0:0:
320,192,679526,1,0,0:0:0:0:
192,192,679526,128,0,679935:0:0:0:0:
448,192,679799,1,0,0:0:0:0:
64,192,679799,1,0,0:0:0:0:
320,192,679935,1,0,0:0:0:0:
448,192,679935,1,0,0:0:0:0:
64,192,680208,1,0,0:0:0:0:
320,192,680208,1,0,0:0:0:0:
192,192,680344,1,0,0:0:0:0:
448,192,680344,1,0,0:0:0:0:
448,192,680480,1,0,0:0:0:0:
64,192,680480,1,0,0:0:0:0:
64,192,680617,1,0,0:0:0:0:
192,192,680617,1,0,0:0:0:0:
320,192,680617,128,0,681162:0:0:0:0:
448,192,680890,1,0,0:0:0:0:
192,192,680890,1,0,0:0:0:0:
64,192,681162,128,0,681708:0:0:0:0:
448,192,681299,1,0,0:0:0:0:
320,192,681367,1,0,0:0:0:0:
448,192,681435,1,0,0:0:0:0:
192,192,681435,1,0,0:0:0:0:
192,192,681708,1,0,0:0:0:0:
448,192,681708,1,0,0:0:0:0:
320,192,681708,128,0,681844:0:0:0:0:
192,192,681844,128,0,681980:0:0:0:0:
448,192,681980,128,0,682117:0:0:0:0:
64,192,681980,1,0,0:0:0:0:
320,192,682117,1,0,0:0:0:0:
64,192,682185,1,0,0:0:0:0:
192,192,682253,1,0,0:0:0:0:
448,192,682253,1,0,0:0:0:0:
320,192,682321,1,0,0:0:0:0:
64,192,682390,1,0,0:0:0:0:
448,192,682390,1,0,0:0:0:0:
192,192,682458,1,0,0:0:0:0:
64,192,682526,1,0,0:0:0:0:
320,192,682526,1,0,0:0:0:0:
192,192,682662,1,0,0:0:0:0:
448,192,682662,1,0,0:0:0:0:
64,192,682799,1,0,0:0:0:0:
448,192,682799,1,0,0:0:0:0:
320,192,682799,128,0,683480:0:0:0:0:
192,192,683071,1,0,0:0:0:0:
448,192,683071,1,0,0:0:0:0:
448,192,683480,1,0,0:0:0:0:
64,192,683480,1,0,0:0:0:0:
192,192,683549,1,0,0:0:0:0:
64,192,683617,1,0,0:0:0:0:
320,192,683617,1,0,0:0:0:0:
192,192,683890,1,0,0:0:0:0:
448,192,683890,1,0,0:0:0:0:
64,192,683890,128,0,684299:0:0:0:0:
320,192,684162,1,0,0:0:0:0:
448,192,684162,1,0,0:0:0:0:
192,192,684299,1,0,0:0:0:0:
320,192,684299,1,0,0:0:0:0:
320,192,684503,1,0,0:0:0:0:
192,192,684571,1,0,0:0:0:0:
448,192,684571,1,0,0:0:0:0:
64,192,684708,1,0,0:0:0:0:
320,192,684708,1,0,0:0:0:0:
64,192,684844,1,0,0:0:0:0:
448,192,684844,1,0,0:0:0:0:
192,192,684980,1,0,0:0:0:0:
320,192,684980,1,0,0:0:0:0:
448,192,684980,128,0,685526:0:0:0:0:
64,192,685253,1,0,0:0:0:0:
320,192,685253,1,0,0:0:0:0:
64,192,685526,128,0,686071:0:0:0:0:
192,192,685662,1,0,0:0:0:0:
320,192,685730,1,0,0:0:0:0:
448,192,685799,1,0,0:0:0:0:
192,192,685799,1,0,0:0:0:0:
320,192,686071,128,0,686208:0:0:0:0:
192,192,686071,1,0,0:0:0:0:
448,192,686208,128,0,686344:0:0:0:0:
64,192,686344,128,0,686480:0:0:0:0:
192,192,686344,1,0,0:0:0:0:
192,192,686480,128,0,686617:0:0:0:0:
448,192,686480,1,0,0:0:0:0:
320,192,686617,128,0,687162:0:0:0:0:
448,192,686753,1,0,0:0:0:0:
64,192,686753,1,0,0:0:0:0:
64,192,686890,1,0,0:0:0:0:
192,192,686890,1,0,0:0:0:0:
448,192,687026,1,0,0:0:0:0:
192,192,687026,1,0,0:0:0:0:
192,192,687162,1,0,0:0:0:0:
448,192,687162,1,0,0:0:0:0:
64,192,687162,128,0,687844:0:0:0:0:
320,192,687435,1,0,0:0:0:0:
448,192,687435,1,0,0:0:0:0:
192,192,687844,1,0,0:0:0:0:
320,192,687912,1,0,0:0:0:0:
448,192,687980,1,0,0:0:0:0:
64,192,687980,1,0,0:0:0:0:
64,192,688253,1,0,0:0:0:0:
192,192,688253,1,0,0:0:0:0:
320,192,688253,128,0,688799:0:0:0:0:
448,192,688253,1,0,0:0:0:0:
192,192,688526,1,0,0:0:0:0:
448,192,688526,1,0,0:0:0:0:
64,192,688662,1,0,0:0:0:0:
192,192,688662,1,0,0:0:0:0:
192,192,688867,1,0,0:0:0:0:
64,192,688935,1,0,0:0:0:0:
448,192,688935,1,0,0:0:0:0:
192,192,689071,1,0,0:0:0:0:
448,192,689071,1,0,0:0:0:0:
192,192,689208,1,0,0:0:0:0:
320,192,689208,1,0,0:0:0:0:
320,192,689344,1,0,0:0:0:0:
64,192,689344,1,0,0:0:0:0:
448,192,689344,128,0,689890:0:0:0:0:
192,192,689617,1,0,0:0:0:0:
64,192,689617,1,0,0:0:0:0:
192,192,689890,128,0,690435:0:0:0:0:
64,192,690026,1,0,0:0:0:0:
320,192,690094,1,0,0:0:0:0:
448,192,690162,1,0,0:0:0:0:
64,192,690162,1,0,0:0:0:0:
64,192,690435,128,0,690571:0:0:0:0:
448,192,690571,128,0,690708:0:0:0:0:
64,192,690708,128,0,690844:0:0:0:0:
320,192,690844,128,0,690980:0:0:0:0:
448,192,690980,128,0,691117:0:0:0:0:
192,192,691117,1,0,0:0:0:0:
64,192,691185,1,0,0:0:0:0:
320,192,691253,128,0,691390:0:0:0:0:
192,192,691390,128,0,691526:0:0:0:0:
64,192,691526,1,0,0:0:0:0:
448,192,691526,1,0,0:0:0:0:
320,192,691526,1,0,0:0:0:0:
448,192,691662,1,0,0:0:0:0:
192,192,691799,1,0,0:0:0:0:
448,192,691935,1,0,0:0:0:0:
320,192,691935,1,0,0:0:0:0:
64,192,691935,1,0,0:0:0:0:
192,192,692071,1,0,0:0:0:0:
320,192,692208,1,0,0:0:0:0:
64,192,692344,1,0,0:0:0:0:
448,192,692344,1,0,0:0:0:0:
192,192,692480,1,0,0:0:0:0:
448,192,692549,1,0,0:0:0:0:
64,192,692617,1,0,0:0:0:0:
320,192,692617,1,0,0:0:0:0:
192,192,692617,1,0,0:0:0:0:
320,192,692753,1,0,0:0:0:0:
64,192,692890,1,0,0:0:0:0:
192,192,693026,1,0,0:0:0:0:
448,192,693026,1,0,0:0:0:0:
64,192,693026,1,0,0:0:0:0:
320,192,693162,1,0,0:0:0:0:
64,192,693299,1,0,0:0:0:0:
192,192,693435,1,0,0:0:0:0:
320,192,693435,1,0,0:0:0:0:
64,192,693571,1,0,0:0:0:0:
320,192,693571,1,0,0:0:0:0:
64,192,693708,1,0,0:0:0:0:
192,192,693708,1,0,0:0:0:0:
448,192,693708,1,0,0:0:0:0:
320,192,693844,1,0,0:0:0:0:
192,192,693980,1,0,0:0:0:0:
64,192,694117,1,0,0:0:0:0:
320,192,694117,1,0,0:0:0:0:
448,192,694117,1,0,0:0:0:0:
192,192,694253,1,0,0:0:0:0:
320,192,694390,1,0,0:0:0:0:
64,192,694526,1,0,0:0:0:0:
448,192,694526,1,0,0:0:0:0:
192,192,694662,1,0,0:0:0:0:
320,192,694662,1,0,0:0:0:0:
64,192,694799,1,0,0:0:0:0:
448,192,694799,1,0,0:0:0:0:
320,192,694799,1,0,0:0:0:0:
192,192,694935,1,0,0:0:0:0:
448,192,695071,1,0,0:0:0:0:
320,192,695140,1,0,0:0:0:0:
192,192,695208,1,0,0:0:0:0:
448,192,695208,1,0,0:0:0:0:
64,192,695208,1,0,0:0:0:0:
320,192,695344,1,0,0:0:0:0:
192,192,695480,1,0,0:0:0:0:
448,192,695480,1,0,0:0:0:0:
64,192,695617,1,0,0:0:0:0:
320,192,695617,1,0,0:0:0:0:
64,192,695753,1,0,0:0:0:0:
448,192,695753,1,0,0:0:0:0:
192,192,695890,1,0,0:0:0:0:
320,192,695890,1,0,0:0:0:0:
448,192,695890,1,0,0:0:0:0:
64,192,696026,1,0,0:0:0:0:
448,192,696162,1,0,0:0:0:0:
64,192,696299,1,0,0:0:0:0:
448,192,696299,1,0,0:0:0:0:
320,192,696299,1,0,0:0:0:0:
192,192,696435,1,0,0:0:0:0:
320,192,696571,1,0,0:0:0:0:
192,192,696708,1,0,0:0:0:0:
448,192,696708,1,0,0:0:0:0:
320,192,696844,1,0,0:0:0:0:
64,192,696912,1,0,0:0:0:0:
192,192,696980,1,0,0:0:0:0:
320,192,696980,1,0,0:0:0:0:
448,192,696980,1,0,0:0:0:0:
64,192,697117,1,0,0:0:0:0:
320,192,697253,1,0,0:0:0:0:
64,192,697390,1,0,0:0:0:0:
320,192,697390,1,0,0:0:0:0:
448,192,697390,1,0,0:0:0:0:
192,192,697526,1,0,0:0:0:0:
448,192,697662,1,0,0:0:0:0:
64,192,697799,1,0,0:0:0:0:
320,192,697799,1,0,0:0:0:0:
192,192,697935,1,0,0:0:0:0:
448,192,697935,1,0,0:0:0:0:
64,192,698071,1,0,0:0:0:0:
320,192,698071,1,0,0:0:0:0:
192,192,698071,1,0,0:0:0:0:
448,192,698208,1,0,0:0:0:0:
192,192,698344,1,0,0:0:0:0:
64,192,698480,1,0,0:0:0:0:
448,192,698480,1,0,0:0:0:0:
320,192,698480,1,0,0:0:0:0:
320,192,698617,1,0,0:0:0:0:
64,192,698753,1,0,0:0:0:0:
192,192,698890,1,0,0:0:0:0:
448,192,698890,1,0,0:0:0:0:
320,192,699026,1,0,0:0:0:0:
64,192,699094,1,0,0:0:0:0:
320,192,699162,1,0,0:0:0:0:
448,192,699162,1,0,0:0:0:0:
192,192,699162,1,0,0:0:0:0:
64,192,699299,1,0,0:0:0:0:
192,192,699435,1,0,0:0:0:0:
64,192,699571,1,0,0:0:0:0:
448,192,699571,1,0,0:0:0:0:
192,192,699571,1,0,0:0:0:0:
320,192,699708,1,0,0:0:0:0:
64,192,699844,1,0,0:0:0:0:
448,192,699844,1,0,0:0:0:0:
192,192,699980,1,0,0:0:0:0:
448,192,699980,1,0,0:0:0:0:
320,192,700117,1,0,0:0:0:0:
192,192,700117,1,0,0:0:0:0:
64,192,700253,1,0,0:0:0:0:
448,192,700253,1,0,0:0:0:0:
320,192,700253,1,0,0:0:0:0:
192,192,700390,1,0,0:0:0:0:
320,192,700458,1,0,0:0:0:0:
64,192,700526,1,0,0:0:0:0:
448,192,700594,1,0,0:0:0:0:
64,192,700662,1,0,0:0:0:0:
320,192,700662,1,0,0:0:0:0:
192,192,700662,1,0,0:0:0:0:
448,192,700799,1,0,0:0:0:0:
64,192,700867,1,0,0:0:0:0:
320,192,700935,1,0,0:0:0:0:
192,192,701003,1,0,0:0:0:0:
64,192,701071,1,0,0:0:0:0:
448,192,701071,1,0,0:0:0:0:
192,192,701208,1,0,0:0:0:0:
320,192,701276,1,0,0:0:0:0:
448,192,701344,1,0,0:0:0:0:
192,192,701344,1,0,0:0:0:0:
64,192,701344,1,0,0:0:0:0:
320,192,701480,1,0,0:0:0:0:
448,192,701549,1,0,0:0:0:0:
64,192,701617,1,0,0:0:0:0:
192,192,701685,1,0,0:0:0:0:
320,192,701753,1,0,0:0:0:0:
448,192,701753,1,0,0:0:0:0:
64,192,701753,1,0,0:0:0:0:
192,192,701821,1,0,0:0:0:0:
320,192,701890,1,0,0:0:0:0:
448,192,702026,1,0,0:0:0:0:
64,192,702094,1,0,0:0:0:0:
192,192,702162,1,0,0:0:0:0:
448,192,702162,1,0,0:0:0:0:
320,192,702230,1,0,0:0:0:0:
64,192,702299,1,0,0:0:0:0:
448,192,702367,1,0,0:0:0:0:
192,192,702435,1,0,0:0:0:0:
320,192,702435,1,0,0:0:0:0:
64,192,702435,1,0,0:0:0:0:
448,192,702571,1,0,0:0:0:0:
192,192,702640,1,0,0:0:0:0:
320,192,702708,1,0,0:0:0:0:
64,192,702776,1,0,0:0:0:0:
192,192,702844,1,0,0:0:0:0:
448,192,702844,1,0,0:0:0:0:
320,192,702844,1,0,0:0:0:0:
64,192,702980,1,0,0:0:0:0:
320,192,703049,1,0,0:0:0:0:
448,192,703117,1,0,0:0:0:0:
320,192,703185,1,0,0:0:0:0:
64,192,703253,1,0,0:0:0:0:
192,192,703253,1,0,0:0:0:0:
320,192,703390,1,0,0:0:0:0:
192,192,703458,1,0,0:0:0:0:
64,192,703526,1,0,0:0:0:0:
320,192,703526,1,0,0:0:0:0:
448,192,703526,1,0,0:0:0:0:
192,192,703662,1,0,0:0:0:0:
448,192,703730,1,0,0:0:0:0:
320,192,703799,1,0,0:0:0:0:
64,192,703867,1,0,0:0:0:0:
192,192,703935,1,0,0:0:0:0:
448,192,703935,1,0,0:0:0:0:
320,192,703935,1,0,0:0:0:0:
64,192,704003,1,0,0:0:0:0:
192,192,704071,1,0,0:0:0:0:
64,192,704208,1,0,0:0:0:0:
320,192,704208,1,0,0:0:0:0:
448,192,704344,1,0,0:0:0:0:
192,192,704344,1,0,0:0:0:0:
64,192,704480,1,0,0:0:0:0:
448,192,704480,1,0,0:0:0:0:
64,192,704617,1,0,0:0:0:0:
192,192,704617,1,0,0:0:0:0:
320,192,704617,1,0,0:0:0:0:
448,192,704753,1,0,0:0:0:0:
192,192,704821,1,0,0:0:0:0:
320,192,704890,1,0,0:0:0:0:
64,192,704958,1,0,0:0:0:0:
192,192,705026,1,0,0:0:0:0:
448,192,705026,1,0,0:0:0:0:
320,192,705026,1,0,0:0:0:0:
64,192,705162,1,0,0:0:0:0:
320,192,705230,1,0,0:0:0:0:
448,192,705299,1,0,0:0:0:0:
192,192,705367,1,0,0:0:0:0:
64,192,705435,1,0,0:0:0:0:
320,192,705435,1,0,0:0:0:0:
448,192,705571,1,0,0:0:0:0:
320,192,705640,1,0,0:0:0:0:
192,192,705708,1,0,0:0:0:0:
448,192,705708,1,0,0:0:0:0:
64,192,705708,1,0,0:0:0:0:
320,192,705844,1,0,0:0:0:0:
64,192,705912,1,0,0:0:0:0:
192,192,705980,1,0,0:0:0:0:
448,192,706049,1,0,0:0:0:0:
320,192,706117,1,0,0:0:0:0:
192,192,706117,1,0,0:0:0:0:
64,192,706117,1,0,0:0:0:0:
64,192,706253,1,0,0:0:0:0:
320,192,706390,1,0,0:0:0:0:
192,192,706458,1,0,0:0:0:0:
64,192,706526,1,0,0:0:0:0:
448,192,706526,1,0,0:0:0:0:
320,192,706594,1,0,0:0:0:0:
448,192,706662,1,0,0:0:0:0:
192,192,706662,1,0,0:0:0:0:
64,192,706730,1,0,0:0:0:0:
192,192,706799,1,0,0:0:0:0:
320,192,706799,1,0,0:0:0:0:
448,192,706799,1,0,0:0:0:0:
64,192,706935,1,0,0:0:0:0:
320,192,707003,1,0,0:0:0:0:
448,192,707071,1,0,0:0:0:0:
192,192,707140,1,0,0:0:0:0:
320,192,707208,1,0,0:0:0:0:
64,192,707208,1,0,0:0:0:0:
448,192,707208,1,0,0:0:0:0:
192,192,707344,1,0,0:0:0:0:
448,192,707412,1,0,0:0:0:0:
320,192,707480,1,0,0:0:0:0:
64,192,707549,1,0,0:0:0:0:
192,192,707617,1,0,0:0:0:0:
448,192,707617,1,0,0:0:0:0:
320,192,707685,1,0,0:0:0:0:
448,192,707753,1,0,0:0:0:0:
64,192,707753,1,0,0:0:0:0:
192,192,707821,1,0,0:0:0:0:
320,192,707890,128,0,708026:0:0:0:0:
64,192,708026,128,0,708299:0:0:0:0:
192,192,708571,128,0,708708:0:0:0:0:
448,192,708708,128,0,708980:0:0:0:0:
320,192,708980,1,0,0:0:0:0:
192,192,708980,1,0,0:0:0:0:
64,192,708980,1,0,0:0:0:0:
448,192,709117,1,0,0:0:0:0:
192,192,709253,1,0,0:0:0:0:
64,192,709390,1,0,0:0:0:0:
320,192,709390,1,0,0:0:0:0:
448,192,709390,1,0,0:0:0:0:
192,192,709526,1,0,0:0:0:0:
448,192,709662,1,0,0:0:0:0:
64,192,709799,1,0,0:0:0:0:
320,192,709799,1,0,0:0:0:0:
448,192,709935,1,0,0:0:0:0:
192,192,709935,1,0,0:0:0:0:
64,192,710003,1,0,0:0:0:0:
192,192,710071,1,0,0:0:0:0:
448,192,710071,1,0,0:0:0:0:
320,192,710071,1,0,0:0:0:0:
320,192,710208,1,0,0:0:0:0:
448,192,710344,1,0,0:0:0:0:
192,192,710480,1,0,0:0:0:0:
64,192,710480,1,0,0:0:0:0:
320,192,710480,1,0,0:0:0:0:
192,192,710617,1,0,0:0:0:0:
320,192,710753,1,0,0:0:0:0:
448,192,710890,1,0,0:0:0:0:
64,192,710890,1,0,0:0:0:0:
192,192,711026,1,0,0:0:0:0:
448,192,711094,1,0,0:0:0:0:
320,192,711162,1,0,0:0:0:0:
192,192,711162,1,0,0:0:0:0:
64,192,711162,1,0,0:0:0:0:
448,192,711299,1,0,0:0:0:0:
192,192,711435,1,0,0:0:0:0:
64,192,711571,1,0,0:0:0:0:
320,192,711571,1,0,0:0:0:0:
448,192,711571,1,0,0:0:0:0:
192,192,711708,1,0,0:0:0:0:
320,192,711844,1,0,0:0:0:0:
448,192,711980,1,0,0:0:0:0:
64,192,711980,1,0,0:0:0:0:
192,192,712117,1,0,0:0:0:0:
320,192,712185,1,0,0:0:0:0:
448,192,712253,1,0,0:0:0:0:
192,192,712253,1,0,0:0:0:0:
64,192,712253,1,0,0:0:0:0:
320,192,712390,1,0,0:0:0:0:
64,192,712526,1,0,0:0:0:0:
192,192,712662,1,0,0:0:0:0:
320,192,712662,1,0,0:0:0:0:
448,192,712662,1,0,0:0:0:0:
64,192,712730,1,0,0:0:0:0:
448,192,712799,1,0,0:0:0:0:
192,192,712799,1,0,0:0:0:0:
64,192,712935,1,0,0:0:0:0:
320,192,712935,1,0,0:0:0:0:
64,192,713071,1,0,0:0:0:0:
448,192,713071,1,0,0:0:0:0:
192,192,713208,1,0,0:0:0:0:
448,192,713208,1,0,0:0:0:0:
64,192,713344,1,0,0:0:0:0:
192,192,713344,1,0,0:0:0:0:
320,192,713344,1,0,0:0:0:0:
448,192,713480,1,0,0:0:0:0:
192,192,713617,1,0,0:0:0:0:
64,192,713753,1,0,0:0:0:0:
320,192,713753,1,0,0:0:0:0:
448,192,713753,1,0,0:0:0:0:
192,192,713890,1,0,0:0:0:0:
448,192,714026,1,0,0:0:0:0:
64,192,714162,1,0,0:0:0:0:
320,192,714162,1,0,0:0:0:0:
448,192,714299,1,0,0:0:0:0:
64,192,714367,1,0,0:0:0:0:
320,192,714435,1,0,0:0:0:0:
448,192,714435,1,0,0:0:0:0:
192,192,714435,1,0,0:0:0:0:
64,192,714571,1,0,0:0:0:0:
320,192,714708,1,0,0:0:0:0:
192,192,714844,1,0,0:0:0:0:
448,192,714844,1,0,0:0:0:0:
64,192,714844,1,0,0:0:0:0:
320,192,714980,1,0,0:0:0:0:
64,192,715117,1,0,0:0:0:0:
448,192,715253,1,0,0:0:0:0:
192,192,715253,1,0,0:0:0:0:
320,192,715390,1,0,0:0:0:0:
64,192,715458,1,0,0:0:0:0:
192,192,715526,1,0,0:0:0:0:
320,192,715526,1,0,0:0:0:0:
448,192,715526,1,0,0:0:0:0:
64,192,715662,1,0,0:0:0:0:
320,192,715799,1,0,0:0:0:0:
192,192,715935,1,0,0:0:0:0:
448,192,715935,1,0,0:0:0:0:
64,192,715935,1,0,0:0:0:0:
320,192,716071,1,0,0:0:0:0:
192,192,716208,1,0,0:0:0:0:
64,192,716344,1,0,0:0:0:0:
320,192,716344,1,0,0:0:0:0:
448,192,716480,1,0,0:0:0:0:
64,192,716549,1,0,0:0:0:0:
320,192,716617,1,0,0:0:0:0:
448,192,716617,1,0,0:0:0:0:
192,192,716617,1,0,0:0:0:0:
64,192,716753,1,0,0:0:0:0:
320,192,716890,1,0,0:0:0:0:
192,192,717026,1,0,0:0:0:0:
448,192,717026,1,0,0:0:0:0:
64,192,717026,1,0,0:0:0:0:
320,192,717094,1,0,0:0:0:0:
64,192,717162,1,0,0:0:0:0:
192,192,717299,1,0,0:0:0:0:
448,192,717299,1,0,0:0:0:0:
320,192,717435,1,0,0:0:0:0:
64,192,717435,1,0,0:0:0:0:
64,192,717571,1,0,0:0:0:0:
320,192,717571,1,0,0:0:0:0:
192,192,717708,1,0,0:0:0:0:
448,192,717708,1,0,0:0:0:0:
320,192,717708,1,0,0:0:0:0:
64,192,717844,1,0,0:0:0:0:
320,192,717912,1,0,0:0:0:0:
448,192,717980,1,0,0:0:0:0:
64,192,718049,1,0,0:0:0:0:
192,192,718117,1,0,0:0:0:0:
320,192,718117,1,0,0:0:0:0:
448,192,718117,1,0,0:0:0:0:
64,192,718253,1,0,0:0:0:0:
448,192,718321,1,0,0:0:0:0:
192,192,718390,1,0,0:0:0:0:
320,192,718458,1,0,0:0:0:0:
64,192,718526,1,0,0:0:0:0:
192,192,718526,1,0,0:0:0:0:
448,192,718662,1,0,0:0:0:0:
192,192,718730,1,0,0:0:0:0:
64,192,718799,1,0,0:0:0:0:
320,192,718799,1,0,0:0:0:0:
448,192,718799,1,0,0:0:0:0:
192,192,718935,1,0,0:0:0:0:
320,192,719003,1,0,0:0:0:0:
448,192,719071,1,0,0:0:0:0:
64,192,719140,1,0,0:0:0:0:
192,192,719208,1,0,0:0:0:0:
320,192,719208,1,0,0:0:0:0:
448,192,719208,1,0,0:0:0:0:
64,192,719344,1,0,0:0:0:0:
320,192,719480,1,0,0:0:0:0:
192,192,719549,1,0,0:0:0:0:
64,192,719617,1,0,0:0:0:0:
448,192,719617,1,0,0:0:0:0:
192,192,719753,1,0,0:0:0:0:
448,192,719753,1,0,0:0:0:0:
64,192,719890,1,0,0:0:0:0:
192,192,719890,1,0,0:0:0:0:
320,192,719890,1,0,0:0:0:0:
448,192,720026,1,0,0:0:0:0:
192,192,720094,1,0,0:0:0:0:
320,192,720162,1,0,0:0:0:0:
64,192,720230,1,0,0:0:0:0:
192,192,720299,1,0,0:0:0:0:
320,192,720299,1,0,0:0:0:0:
448,192,720299,1,0,0:0:0:0:
64,192,720435,1,0,0:0:0:0:
320,192,720503,1,0,0:0:0:0:
448,192,720571,1,0,0:0:0:0:
192,192,720640,1,0,0:0:0:0:
64,192,720708,1,0,0:0:0:0:
320,192,720708,1,0,0:0:0:0:
448,192,720844,1,0,0:0:0:0:
192,192,720912,1,0,0:0:0:0:
64,192,720980,1,0,0:0:0:0:
448,192,720980,1,0,0:0:0:0:
320,192,720980,1,0,0:0:0:0:
192,192,721117,1,0,0:0:0:0:
448,192,721185,1,0,0:0:0:0:
64,192,721253,1,0,0:0:0:0:
64,192,721390,1,0,0:0:0:0:
448,192,721390,1,0,0:0:0:0:
192,192,721390,1,0,0:0:0:0:
320,192,721458,1,0,0:0:0:0:
448,192,721526,1,0,0:0:0:0:
192,192,721526,1,0,0:0:0:0:
64,192,721662,1,0,0:0:0:0:
320,192,721662,1,0,0:0:0:0:
64,192,721799,1,0,0:0:0:0:
448,192,721799,1,0,0:0:0:0:
192,192,721935,1,0,0:0:0:0:
448,192,721935,1,0,0:0:0:0:
64,192,722071,1,0,0:0:0:0:
192,192,722071,1,0,0:0:0:0:
320,192,722071,1,0,0:0:0:0:
448,192,722208,1,0,0:0:0:0:
192,192,722276,1,0,0:0:0:0:
64,192,722344,1,0,0:0:0:0:
320,192,722412,1,0,0:0:0:0:
192,192,722480,1,0,0:0:0:0:
448,192,722480,1,0,0:0:0:0:
64,192,722480,1,0,0:0:0:0:
320,192,722617,1,0,0:0:0:0:
64,192,722685,1,0,0:0:0:0:
192,192,722753,1,0,0:0:0:0:
64,192,722890,1,0,0:0:0:0:
320,192,722890,1,0,0:0:0:0:
192,192,723026,1,0,0:0:0:0:
448,192,723026,1,0,0:0:0:0:
320,192,723094,1,0,0:0:0:0:
192,192,723162,1,0,0:0:0:0:
448,192,723162,1,0,0:0:0:0:
64,192,723162,1,0,0:0:0:0:
320,192,723299,1,0,0:0:0:0:
64,192,723367,1,0,0:0:0:0:
448,192,723435,1,0,0:0:0:0:
192,192,723503,1,0,0:0:0:0:
64,192,723571,1,0,0:0:0:0:
448,192,723571,1,0,0:0:0:0:
320,192,723571,1,0,0:0:0:0:
192,192,723640,1,0,0:0:0:0:
64,192,723708,1,0,0:0:0:0:
320,192,723844,1,0,0:0:0:0:
192,192,723980,1,0,0:0:0:0:
448,192,723980,1,0,0:0:0:0:
64,192,724117,1,0,0:0:0:0:
320,192,724117,1,0,0:0:0:0:
64,192,724253,1,0,0:0:0:0:
192,192,724253,1,0,0:0:0:0:
448,192,724253,1,0,0:0:0:0:
320,192,724390,1,0,0:0:0:0:
192,192,724458,1,0,0:0:0:0:
448,192,724526,1,0,0:0:0:0:
64,192,724594,1,0,0:0:0:0:
320,192,724662,1,0,0:0:0:0:
192,192,724662,1,0,0:0:0:0:
448,192,724662,1,0,0:0:0:0:
64,192,724799,1,0,0:0:0:0:
320,192,724867,1,0,0:0:0:0:
192,192,724935,1,0,0:0:0:0:
64,192,725071,1,0,0:0:0:0:
448,192,725071,1,0,0:0:0:0:
320,192,725208,1,0,0:0:0:0:
192,192,725276,1,0,0:0:0:0:
64,192,725344,128,0,725480:0:0:0:0:
448,192,725480,128,0,725753:0:0:0:0:
64,192,726435,1,0,0:0:0:0:
192,192,726435,1,0,0:0:0:0:
320,192,726435,1,0,0:0:0:0:
448,192,726435,1,0,0:0:0:0:
192,192,726571,1,0,0:0:0:0:
320,192,726708,1,0,0:0:0:0:
192,192,726844,1,0,0:0:0:0:
64,192,726844,1,0,0:0:0:0:
448,192,726844,1,0,0:0:0:0:
320,192,726980,1,0,0:0:0:0:
192,192,727117,1,0,0:0:0:0:
448,192,727253,1,0,0:0:0:0:
64,192,727390,1,0,0:0:0:0:
192,192,727526,1,0,0:0:0:0:
320,192,727526,1,0,0:0:0:0:
448,192,727526,1,0,0:0:0:0:
64,192,727662,1,0,0:0:0:0:
448,192,727799,1,0,0:0:0:0:
64,192,727935,1,0,0:0:0:0:
448,192,727935,1,0,0:0:0:0:
320,192,727935,1,0,0:0:0:0:
192,192,728071,1,0,0:0:0:0:
64,192,728208,1,0,0:0:0:0:
64,192,728617,1,0,0:0:0:0:
192,192,728617,1,0,0:0:0:0:
448,192,728617,1,0,0:0:0:0:
64,192,729026,1,0,0:0:0:0:
320,192,729026,1,0,0:0:0:0:
448,192,729026,1,0,0:0:0:0:
192,192,729708,1,0,0:0:0:0:
320,192,729708,1,0,0:0:0:0:
64,192,729708,1,0,0:0:0:0:
192,192,730117,1,0,0:0:0:0:
320,192,730117,1,0,0:0:0:0:
448,192,730117,1,0,0:0:0:0:
64,192,730799,1,0,0:0:0:0:
192,192,730799,1,0,0:0:0:0:
448,192,730799,1,0,0:0:0:0:
320,192,730799,128,0,731071:0:0:0:0:
192,192,731071,128,0,731344:0:0:0:0:
64,192,731208,1,0,0:0:0:0:
320,192,731208,1,0,0:0:0:0:
448,192,731208,1,0,0:0:0:0:
448,192,731344,1,0,0:0:0:0:
64,192,731480,1,0,0:0:0:0:
320,192,731617,128,0,731753:0:0:0:0:
448,192,731890,1,0,0:0:0:0:
64,192,731890,1,0,0:0:0:0:
192,192,731890,1,0,0:0:0:0:
320,192,732026,1,0,0:0:0:0:
64,192,732208,128,0,732708:0:0:0:0:
448,192,732299,1,0,0:0:0:0:
192,192,732299,1,0,0:0:0:0:
320,192,732299,1,0,0:0:0:0:
192,192,732980,1,0,0:0:0:0:
320,192,732980,1,0,0:0:0:0:
448,192,732980,1,0,0:0:0:0:
64,192,733390,1,0,0:0:0:0:
192,192,733390,1,0,0:0:0:0:
448,192,733390,1,0,0:0:0:0:
64,192,734071,1,0,0:0:0:0:
192,192,734071,1,0,0:0:0:0:
320,192,734071,1,0,0:0:0:0:
64,192,734480,1,0,0:0:0:0:
320,192,734480,1,0,0:0:0:0:
448,192,734480,1,0,0:0:0:0:
64,192,735162,1,0,0:0:0:0:
192,192,735162,1,0,0:0:0:0:
448,192,735162,1,0,0:0:0:0:
320,192,735299,1,0,0:0:0:0:
64,192,735435,1,0,0:0:0:0:
448,192,735571,1,0,0:0:0:0:
192,192,735571,1,0,0:0:0:0:
320,192,735571,1,0,0:0:0:0:
192,192,735708,1,0,0:0:0:0:
64,192,735844,1,0,0:0:0:0:
448,192,735980,1,0,0:0:0:0:
192,192,736117,1,0,0:0:0:0:
64,192,736253,1,0,0:0:0:0:
320,192,736253,1,0,0:0:0:0:
448,192,736253,1,0,0:0:0:0:
192,192,736390,1,0,0:0:0:0:
448,192,736526,1,0,0:0:0:0:
64,192,736662,1,0,0:0:0:0:
192,192,736662,1,0,0:0:0:0:
320,192,736662,1,0,0:0:0:0:
64,192,736799,1,0,0:0:0:0:
192,192,736935,128,0,737208:0:0:0:0:
64,192,737344,1,0,0:0:0:0:
320,192,737344,1,0,0:0:0:0:
448,192,737344,1,0,0:0:0:0:
64,192,737753,1,0,0:0:0:0:
192,192,737753,1,0,0:0:0:0:
320,192,737753,1,0,0:0:0:0:
64,192,738435,1,0,0:0:0:0:
320,192,738435,1,0,0:0:0:0:
448,192,738435,1,0,0:0:0:0:
64,192,738844,1,0,0:0:0:0:
192,192,738844,1,0,0:0:0:0:
448,192,738844,1,0,0:0:0:0:
64,192,739526,1,0,0:0:0:0:
192,192,739526,1,0,0:0:0:0:
448,192,739526,128,0,739799:0:0:0:0:
320,192,739526,1,0,0:0:0:0:
64,192,739799,128,0,740071:0:0:0:0:
192,192,739935,1,0,0:0:0:0:
320,192,739935,1,0,0:0:0:0:
448,192,739935,1,0,0:0:0:0:
320,192,740071,1,0,0:0:0:0:
192,192,740208,1,0,0:0:0:0:
64,192,740344,128,0,740617:0:0:0:0:
192,192,740617,1,0,0:0:0:0:
320,192,740617,1,0,0:0:0:0:
448,192,740617,1,0,0:0:0:0:
64,192,740753,1,0,0:0:0:0:
320,192,740935,128,0,741435:0:0:0:0:
64,192,741026,1,0,0:0:0:0:
192,192,741026,1,0,0:0:0:0:
448,192,741026,1,0,0:0:0:0:
64,192,741708,1,0,0:0:0:0:
320,192,741708,1,0,0:0:0:0:
448,192,741708,1,0,0:0:0:0:
64,192,742117,1,0,0:0:0:0:
192,192,742117,1,0,0:0:0:0:
320,192,742117,1,0,0:0:0:0:
64,192,743617,1,0,0:0:0:0:
448,192,743617,1,0,0:0:0:0:
64,192,743890,1,0,0:0:0:0:
192,192,743890,1,0,0:0:0:0:
320,192,743890,1,0,0:0:0:0:
320,192,744026,1,0,0:0:0:0:
64,192,744162,1,0,0:0:0:0:
192,192,744299,1,0,0:0:0:0:
320,192,744299,1,0,0:0:0:0:
448,192,744299,1,0,0:0:0:0:
64,192,744435,1,0,0:0:0:0:
320,192,744571,1,0,0:0:0:0:
192,192,744708,1,0,0:0:0:0:
448,192,744708,1,0,0:0:0:0:
64,192,744844,1,0,0:0:0:0:
320,192,744844,1,0,0:0:0:0:
192,192,744912,1,0,0:0:0:0:
64,192,744980,1,0,0:0:0:0:
320,192,744980,1,0,0:0:0:0:
448,192,744980,1,0,0:0:0:0:
192,192,745117,1,0,0:0:0:0:
448,192,745185,1,0,0:0:0:0:
320,192,745253,1,0,0:0:0:0:
64,192,745390,1,0,0:0:0:0:
192,192,745390,1,0,0:0:0:0:
448,192,745390,1,0,0:0:0:0:
320,192,745526,1,0,0:0:0:0:
64,192,745662,1,0,0:0:0:0:
448,192,745799,1,0,0:0:0:0:
320,192,745799,1,0,0:0:0:0:
64,192,745935,1,0,0:0:0:0:
448,192,745935,1,0,0:0:0:0:
192,192,746003,1,0,0:0:0:0:
64,192,746071,1,0,0:0:0:0:
320,192,746071,1,0,0:0:0:0:
448,192,746071,1,0,0:0:0:0:
192,192,746208,1,0,0:0:0:0:
448,192,746344,1,0,0:0:0:0:
64,192,746480,1,0,0:0:0:0:
192,192,746480,1,0,0:0:0:0:
448,192,746480,1,0,0:0:0:0:
320,192,746617,1,0,0:0:0:0:
192,192,746753,1,0,0:0:0:0:
64,192,746890,1,0,0:0:0:0:
448,192,746890,1,0,0:0:0:0:
192,192,747026,1,0,0:0:0:0:
320,192,747026,1,0,0:0:0:0:
64,192,747094,1,0,0:0:0:0:
192,192,747162,1,0,0:0:0:0:
320,192,747162,1,0,0:0:0:0:
448,192,747162,1,0,0:0:0:0:
64,192,747299,1,0,0:0:0:0:
192,192,747435,1,0,0:0:0:0:
448,192,747435,1,0,0:0:0:0:
64,192,747571,1,0,0:0:0:0:
448,192,747571,1,0,0:0:0:0:
320,192,747571,1,0,0:0:0:0:
192,192,747708,1,0,0:0:0:0:
64,192,747844,1,0,0:0:0:0:
320,192,747844,1,0,0:0:0:0:
192,192,747980,1,0,0:0:0:0:
448,192,747980,1,0,0:0:0:0:
192,192,748117,1,0,0:0:0:0:
448,192,748117,1,0,0:0:0:0:
64,192,748253,1,0,0:0:0:0:
192,192,748253,1,0,0:0:0:0:
320,192,748253,1,0,0:0:0:0:
448,192,748390,1,0,0:0:0:0:
192,192,748526,1,0,0:0:0:0:
64,192,748662,1,0,0:0:0:0:
320,192,748662,1,0,0:0:0:0:
448,192,748662,1,0,0:0:0:0:
448,192,748799,1,0,0:0:0:0:
64,192,748935,1,0,0:0:0:0:
192,192,749071,1,0,0:0:0:0:
448,192,749071,1,0,0:0:0:0:
320,192,749208,1,0,0:0:0:0:
64,192,749208,1,0,0:0:0:0:
192,192,749276,1,0,0:0:0:0:
448,192,749344,1,0,0:0:0:0:
320,192,749344,1,0,0:0:0:0:
64,192,749344,1,0,0:0:0:0:
192,192,749480,1,0,0:0:0:0:
320,192,749617,1,0,0:0:0:0:
64,192,749753,1,0,0:0:0:0:
192,192,749753,1,0,0:0:0:0:
448,192,749753,1,0,0:0:0:0:
64,192,749890,1,0,0:0:0:0:
320,192,750026,1,0,0:0:0:0:
192,192,750162,1,0,0:0:0:0:
448,192,750162,1,0,0:0:0:0:
64,192,750299,1,0,0:0:0:0:
320,192,750299,1,0,0:0:0:0:
192,192,750367,1,0,0:0:0:0:
64,192,750435,1,0,0:0:0:0:
320,192,750435,1,0,0:0:0:0:
448,192,750435,1,0,0:0:0:0:
192,192,750571,1,0,0:0:0:0:
448,192,750708,1,0,0:0:0:0:
64,192,750844,1,0,0:0:0:0:
192,192,750844,1,0,0:0:0:0:
320,192,750844,1,0,0:0:0:0:
64,192,750980,1,0,0:0:0:0:
320,192,751117,1,0,0:0:0:0:
192,192,751253,1,0,0:0:0:0:
448,192,751253,1,0,0:0:0:0:
64,192,751390,1,0,0:0:0:0:
320,192,751390,1,0,0:0:0:0:
192,192,751458,1,0,0:0:0:0:
64,192,751526,1,0,0:0:0:0:
320,192,751526,1,0,0:0:0:0:
448,192,751526,1,0,0:0:0:0:
192,192,751662,1,0,0:0:0:0:
64,192,751799,1,0,0:0:0:0:
448,192,751799,1,0,0:0:0:0:
192,192,751935,1,0,0:0:0:0:
320,192,751935,1,0,0:0:0:0:
64,192,751935,1,0,0:0:0:0:
320,192,752071,1,0,0:0:0:0:
448,192,752208,1,0,0:0:0:0:
64,192,752344,1,0,0:0:0:0:
320,192,752344,1,0,0:0:0:0:
448,192,752480,1,0,0:0:0:0:
64,192,752480,1,0,0:0:0:0:
192,192,752617,1,0,0:0:0:0:
320,192,752617,1,0,0:0:0:0:
448,192,752617,1,0,0:0:0:0:
64,192,752685,1,0,0:0:0:0:
320,192,752753,1,0,0:0:0:0:
192,192,752821,1,0,0:0:0:0:
64,192,752890,1,0,0:0:0:0:
448,192,752890,1,0,0:0:0:0:
320,192,752958,1,0,0:0:0:0:
192,192,753026,1,0,0:0:0:0:
64,192,753026,1,0,0:0:0:0:
448,192,753026,1,0,0:0:0:0:
320,192,753162,1,0,0:0:0:0:
64,192,753230,1,0,0:0:0:0:
448,192,753299,1,0,0:0:0:0:
192,192,753367,1,0,0:0:0:0:
64,192,753435,1,0,0:0:0:0:
320,192,753435,1,0,0:0:0:0:
448,192,753571,1,0,0:0:0:0:
192,192,753571,1,0,0:0:0:0:
320,192,753640,1,0,0:0:0:0:
448,192,753708,1,0,0:0:0:0:
192,192,753708,1,0,0:0:0:0:
64,192,753708,1,0,0:0:0:0:
320,192,753844,1,0,0:0:0:0:
64,192,753912,1,0,0:0:0:0:
448,192,753980,1,0,0:0:0:0:
192,192,754049,1,0,0:0:0:0:
64,192,754117,1,0,0:0:0:0:
320,192,754117,1,0,0:0:0:0:
448,192,754117,1,0,0:0:0:0:
192,192,754253,1,0,0:0:0:0:
320,192,754321,1,0,0:0:0:0:
448,192,754390,1,0,0:0:0:0:
64,192,754458,1,0,0:0:0:0:
192,192,754526,1,0,0:0:0:0:
448,192,754526,1,0,0:0:0:0:
320,192,754594,1,0,0:0:0:0:
192,192,754662,1,0,0:0:0:0:
64,192,754662,1,0,0:0:0:0:
320,192,754730,1,0,0:0:0:0:
448,192,754799,1,0,0:0:0:0:
192,192,754799,1,0,0:0:0:0:
64,192,754799,1,0,0:0:0:0:
320,192,754935,1,0,0:0:0:0:
64,192,755003,1,0,0:0:0:0:
448,192,755071,1,0,0:0:0:0:
64,192,755140,1,0,0:0:0:0:
192,192,755208,1,0,0:0:0:0:
448,192,755208,1,0,0:0:0:0:
320,192,755208,1,0,0:0:0:0:
192,192,755344,1,0,0:0:0:0:
448,192,755480,1,0,0:0:0:0:
320,192,755549,1,0,0:0:0:0:
64,192,755617,1,0,0:0:0:0:
192,192,755617,1,0,0:0:0:0:
64,192,755753,1,0,0:0:0:0:
448,192,755753,1,0,0:0:0:0:
192,192,755821,1,0,0:0:0:0:
448,192,755890,1,0,0:0:0:0:
64,192,755890,1,0,0:0:0:0:
320,192,755890,1,0,0:0:0:0:
192,192,756026,1,0,0:0:0:0:
448,192,756094,1,0,0:0:0:0:
64,192,756162,1,0,0:0:0:0:
320,192,756230,1,0,0:0:0:0:
192,192,756299,1,0,0:0:0:0:
64,192,756299,1,0,0:0:0:0:
448,192,756299,1,0,0:0:0:0:
320,192,756367,1,0,0:0:0:0:
192,192,756435,1,0,0:0:0:0:
64,192,756571,1,0,0:0:0:0:
320,192,756571,1,0,0:0:0:0:
192,192,756708,1,0,0:0:0:0:
448,192,756708,1,0,0:0:0:0:
448,192,756844,1,0,0:0:0:0:
192,192,756844,1,0,0:0:0:0:
64,192,756980,1,0,0:0:0:0:
448,192,756980,1,0,0:0:0:0:
320,192,756980,1,0,0:0:0:0:
192,192,757117,1,0,0:0:0:0:
64,192,757185,1,0,0:0:0:0:
448,192,757253,1,0,0:0:0:0:
320,192,757321,1,0,0:0:0:0:
64,192,757390,1,0,0:0:0:0:
448,192,757390,1,0,0:0:0:0:
192,192,757390,1,0,0:0:0:0:
64,192,757526,1,0,0:0:0:0:
320,192,757594,1,0,0:0:0:0:
448,192,757662,1,0,0:0:0:0:
64,192,757730,1,0,0:0:0:0:
320,192,757799,1,0,0:0:0:0:
192,192,757799,1,0,0:0:0:0:
64,192,757935,1,0,0:0:0:0:
320,192,757935,1,0,0:0:0:0:
448,192,758003,1,0,0:0:0:0:
320,192,758071,1,0,0:0:0:0:
192,192,758071,1,0,0:0:0:0:
64,192,758071,1,0,0:0:0:0:
448,192,758208,1,0,0:0:0:0:
192,192,758276,1,0,0:0:0:0:
320,192,758344,1,0,0:0:0:0:
64,192,758412,1,0,0:0:0:0:
192,192,758480,1,0,0:0:0:0:
320,192,758480,1,0,0:0:0:0:
448,192,758480,1,0,0:0:0:0:
64,192,758549,1,0,0:0:0:0:
192,192,758617,1,0,0:0:0:0:
320,192,758753,1,0,0:0:0:0:
192,192,758821,1,0,0:0:0:0:
64,192,758890,1,0,0:0:0:0:
448,192,758890,1,0,0:0:0:0:
320,192,758958,1,0,0:0:0:0:
448,192,759026,1,0,0:0:0:0:
192,192,759026,1,0,0:0:0:0:
64,192,759094,1,0,0:0:0:0:
192,192,759162,1,0,0:0:0:0:
320,192,759162,1,0,0:0:0:0:
448,192,759162,1,0,0:0:0:0:
64,192,759299,1,0,0:0:0:0:
320,192,759367,1,0,0:0:0:0:
192,192,759435,1,0,0:0:0:0:
448,192,759503,1,0,0:0:0:0:
320,192,759571,1,0,0:0:0:0:
192,192,759571,1,0,0:0:0:0:
64,192,759571,1,0,0:0:0:0:
320,192,759708,1,0,0:0:0:0:
64,192,759776,1,0,0:0:0:0:
448,192,759844,1,0,0:0:0:0:
192,192,759912,1,0,0:0:0:0:
64,192,759980,1,0,0:0:0:0:
448,192,759980,1,0,0:0:0:0:
320,192,760117,1,0,0:0:0:0:
64,192,760117,1,0,0:0:0:0:
192,192,760185,1,0,0:0:0:0:
64,192,760253,1,0,0:0:0:0:
448,192,760253,1,0,0:0:0:0:
192,192,760526,1,0,0:0:0:0:
448,192,760526,1,0,0:0:0:0:
320,192,760662,1,0,0:0:0:0:
64,192,760662,1,0,0:0:0:0:
192,192,760730,1,0,0:0:0:0:
448,192,760799,1,0,0:0:0:0:
64,192,760799,1,0,0:0:0:0:
448,192,760867,1,0,0:0:0:0:
192,192,760935,1,0,0:0:0:0:
320,192,760935,1,0,0:0:0:0:
64,192,761071,1,0,0:0:0:0:
320,192,761071,1,0,0:0:0:0:
64,192,761208,1,0,0:0:0:0:
192,192,761208,1,0,0:0:0:0:
192,192,761344,1,0,0:0:0:0:
320,192,761344,1,0,0:0:0:0:
448,192,761344,128,0,763526:0:0:0:0:
64,192,761753,1,0,0:0:0:0:
320,192,762162,1,0,0:0:0:0:
192,192,762571,1,0,0:0:0:0:
64,192,762980,1,0,0:0:0:0:
320,192,763117,1,0,0:0:0:0:
192,192,763253,1,0,0:0:0:0:
320,192,763390,1,0,0:0:0:0:
192,192,763526,128,0,764617:0:0:0:0:
64,192,763526,1,0,0:0:0:0:
448,192,763935,1,0,0:0:0:0:
320,192,764344,1,0,0:0:0:0:
64,192,764617,128,0,765435:0:0:0:0:
448,192,764753,1,0,0:0:0:0:
448,192,765162,1,0,0:0:0:0:
192,192,765299,1,0,0:0:0:0:
448,192,765435,1,0,0:0:0:0:
192,192,765571,1,0,0:0:0:0:
320,192,765708,128,0,767890:0:0:0:0:
64,192,765708,1,0,0:0:0:0:
448,192,766117,1,0,0:0:0:0:
192,192,766526,1,0,0:0:0:0:
448,192,766935,1,0,0:0:0:0:
64,192,767344,1,0,0:0:0:0:
448,192,767480,1,0,0:0:0:0:
64,192,767617,1,0,0:0:0:0:
192,192,767753,1,0,0:0:0:0:
448,192,767890,128,0,768980:0:0:0:0:
192,192,768162,1,0,0:0:0:0:
320,192,768435,1,0,0:0:0:0:
320,192,768571,1,0,0:0:0:0:
64,192,768844,1,0,0:0:0:0:
192,192,768980,128,0,769799:0:0:0:0:
320,192,768980,1,0,0:0:0:0:
320,192,769117,1,0,0:0:0:0:
64,192,769662,1,0,0:0:0:0:
448,192,769799,1,0,0:0:0:0:
64,192,770071,128,0,772253:0:0:0:0:
320,192,770071,1,0,0:0:0:0:
192,192,770480,1,0,0:0:0:0:
448,192,770890,1,0,0:0:0:0:
320,192,771299,1,0,0:0:0:0:
448,192,771708,1,0,0:0:0:0:
320,192,771844,1,0,0:0:0:0:
448,192,771980,1,0,0:0:0:0:
192,192,772117,1,0,0:0:0:0:
320,192,772253,128,0,773344:0:0:0:0:
448,192,772253,1,0,0:0:0:0:
64,192,772662,1,0,0:0:0:0:
192,192,773071,1,0,0:0:0:0:
448,192,773344,128,0,774162:0:0:0:0:
64,192,773480,1,0,0:0:0:0:
320,192,773890,1,0,0:0:0:0:
64,192,774026,1,0,0:0:0:0:
192,192,774162,1,0,0:0:0:0:
320,192,774299,1,0,0:0:0:0:
64,192,774435,128,0,776617:0:0:0:0:
192,192,774435,1,0,0:0:0:0:
448,192,774844,1,0,0:0:0:0:
320,192,775253,1,0,0:0:0:0:
448,192,775662,1,0,0:0:0:0:
448,192,776071,1,0,0:0:0:0:
192,192,776208,1,0,0:0:0:0:
320,192,776344,1,0,0:0:0:0:
192,192,776480,1,0,0:0:0:0:
320,192,776617,128,0,777708:0:0:0:0:
448,192,776890,1,0,0:0:0:0:
64,192,777162,1,0,0:0:0:0:
64,192,777299,1,0,0:0:0:0:
64,192,777571,1,0,0:0:0:0:
192,192,777708,128,0,778526:0:0:0:0:
448,192,777708,1,0,0:0:0:0:
448,192,777844,1,0,0:0:0:0:
64,192,778390,1,0,0:0:0:0:
448,192,778526,1,0,0:0:0:0:
64,192,778799,1,0,0:0:0:0:
448,192,778799,1,0,0:0:0:0:
192,192,778799,1,0,0:0:0:0:
320,192,778980,1,0,0:0:0:0:
192,192,779071,1,0,0:0:0:0:
64,192,779071,1,0,0:0:0:0:
192,192,779253,1,0,0:0:0:0:
64,192,779344,1,0,0:0:0:0:
448,192,779344,1,0,0:0:0:0:
320,192,779344,1,0,0:0:0:0:
448,192,779526,1,0,0:0:0:0:
320,192,779617,1,0,0:0:0:0:
192,192,779617,1,0,0:0:0:0:
64,192,779799,1,0,0:0:0:0:
192,192,779890,1,0,0:0:0:0:
448,192,779890,1,0,0:0:0:0:
192,192,780071,1,0,0:0:0:0:
64,192,780162,1,0,0:0:0:0:
448,192,780162,1,0,0:0:0:0:
448,192,780344,1,0,0:0:0:0:
320,192,780435,1,0,0:0:0:0:
64,192,780435,1,0,0:0:0:0:
192,192,780435,1,0,0:0:0:0:
64,192,780617,1,0,0:0:0:0:
320,192,780708,1,0,0:0:0:0:
448,192,780708,1,0,0:0:0:0:
192,192,780890,1,0,0:0:0:0:
64,192,780980,1,0,0:0:0:0:
320,192,780980,1,0,0:0:0:0:
448,192,780980,1,0,0:0:0:0:
320,192,781162,1,0,0:0:0:0:
64,192,781253,1,0,0:0:0:0:
448,192,781253,1,0,0:0:0:0:
64,192,781435,1,0,0:0:0:0:
192,192,781526,1,0,0:0:0:0:
320,192,781526,1,0,0:0:0:0:
448,192,781526,1,0,0:0:0:0:
448,192,781708,1,0,0:0:0:0:
64,192,781799,1,0,0:0:0:0:
192,192,781799,1,0,0:0:0:0:
192,192,781980,1,0,0:0:0:0:
64,192,782071,1,0,0:0:0:0:
448,192,782071,1,0,0:0:0:0:
64,192,782253,1,0,0:0:0:0:
320,192,782344,1,0,0:0:0:0:
448,192,782344,1,0,0:0:0:0:
192,192,782526,1,0,0:0:0:0:
448,192,782617,1,0,0:0:0:0:
64,192,782617,1,0,0:0:0:0:
320,192,782617,1,0,0:0:0:0:
320,192,782799,1,0,0:0:0:0:
192,192,782890,1,0,0:0:0:0:
448,192,782890,1,0,0:0:0:0:
448,192,783071,1,0,0:0:0:0:
320,192,783162,1,0,0:0:0:0:
192,192,783162,1,0,0:0:0:0:
64,192,783162,1,0,0:0:0:0:
320,192,783344,1,0,0:0:0:0:
192,192,783435,1,0,0:0:0:0:
448,192,783435,1,0,0:0:0:0:
192,192,783617,1,0,0:0:0:0:
64,192,783708,1,0,0:0:0:0:
320,192,783708,1,0,0:0:0:0:
448,192,783708,1,0,0:0:0:0:
448,192,783890,1,0,0:0:0:0:
320,192,783980,1,0,0:0:0:0:
192,192,783980,1,0,0:0:0:0:
64,192,784162,1,0,0:0:0:0:
448,192,784253,1,0,0:0:0:0:
192,192,784253,1,0,0:0:0:0:
320,192,784435,1,0,0:0:0:0:
64,192,784526,1,0,0:0:0:0:
448,192,784526,1,0,0:0:0:0:
192,192,784708,1,0,0:0:0:0:
64,192,784799,1,0,0:0:0:0:
320,192,784799,1,0,0:0:0:0:
448,192,784799,1,0,0:0:0:0:
320,192,784980,1,0,0:0:0:0:
192,192,785071,1,0,0:0:0:0:
448,192,785071,1,0,0:0:0:0:
192,192,785253,1,0,0:0:0:0:
64,192,785344,1,0,0:0:0:0:
448,192,785344,1,0,0:0:0:0:
320,192,785344,1,0,0:0:0:0:
448,192,785526,1,0,0:0:0:0:
320,192,785617,1,0,0:0:0:0:
192,192,785617,1,0,0:0:0:0:
64,192,785799,1,0,0:0:0:0:
192,192,785890,1,0,0:0:0:0:
448,192,785890,1,0,0:0:0:0:
320,192,785890,1,0,0:0:0:0:
448,192,786071,1,0,0:0:0:0:
192,192,786162,1,0,0:0:0:0:
320,192,786162,1,0,0:0:0:0:
192,192,786344,1,0,0:0:0:0:
64,192,786435,1,0,0:0:0:0:
320,192,786435,1,0,0:0:0:0:
320,192,786617,1,0,0:0:0:0:
64,192,786708,1,0,0:0:0:0:
448,192,786708,1,0,0:0:0:0:
64,192,786890,1,0,0:0:0:0:
320,192,786980,1,0,0:0:0:0:
448,192,786980,1,0,0:0:0:0:
192,192,786980,1,0,0:0:0:0:
320,192,787162,1,0,0:0:0:0:
64,192,787253,1,0,0:0:0:0:
448,192,787253,1,0,0:0:0:0:
320,192,787435,1,0,0:0:0:0:
192,192,787526,1,0,0:0:0:0:
448,192,787526,1,0,0:0:0:0:
64,192,787526,1,0,0:0:0:0:
192,192,787708,1,0,0:0:0:0:
320,192,787799,1,0,0:0:0:0:
448,192,787799,1,0,0:0:0:0:
320,192,787980,1,0,0:0:0:0:
448,192,788071,1,0,0:0:0:0:
64,192,788071,1,0,0:0:0:0:
192,192,788071,1,0,0:0:0:0:
64,192,788253,1,0,0:0:0:0:
320,192,788344,1,0,0:0:0:0:
192,192,788344,1,0,0:0:0:0:
192,192,788526,1,0,0:0:0:0:
64,192,788617,1,0,0:0:0:0:
448,192,788617,1,0,0:0:0:0:
320,192,788799,1,0,0:0:0:0:
192,192,788890,1,0,0:0:0:0:
448,192,788890,1,0,0:0:0:0:
448,192,789071,1,0,0:0:0:0:
320,192,789162,1,0,0:0:0:0:
192,192,789162,1,0,0:0:0:0:
64,192,789162,1,0,0:0:0:0:
320,192,789344,1,0,0:0:0:0:
192,192,789435,1,0,0:0:0:0:
448,192,789435,1,0,0:0:0:0:
192,192,789617,1,0,0:0:0:0:
64,192,789708,1,0,0:0:0:0:
320,192,789708,1,0,0:0:0:0:
448,192,789708,1,0,0:0:0:0:
320,192,789890,1,0,0:0:0:0:
192,192,789980,1,0,0:0:0:0:
448,192,789980,1,0,0:0:0:0:
64,192,790162,1,0,0:0:0:0:
192,192,790253,1,0,0:0:0:0:
320,192,790253,1,0,0:0:0:0:
448,192,790253,1,0,0:0:0:0:
448,192,790435,1,0,0:0:0:0:
64,192,790526,1,0,0:0:0:0:
320,192,790526,1,0,0:0:0:0:
320,192,790708,1,0,0:0:0:0:
192,192,790799,1,0,0:0:0:0:
448,192,790799,1,0,0:0:0:0:
64,192,790980,1,0,0:0:0:0:
192,192,791071,1,0,0:0:0:0:
320,192,791071,1,0,0:0:0:0:
320,192,791253,1,0,0:0:0:0:
192,192,791344,1,0,0:0:0:0:
448,192,791344,1,0,0:0:0:0:
64,192,791344,1,0,0:0:0:0:
192,192,791526,1,0,0:0:0:0:
320,192,791617,1,0,0:0:0:0:
448,192,791617,1,0,0:0:0:0:
64,192,791799,1,0,0:0:0:0:
448,192,791890,1,0,0:0:0:0:
320,192,791890,1,0,0:0:0:0:
192,192,791890,1,0,0:0:0:0:
320,192,792071,1,0,0:0:0:0:
64,192,792162,1,0,0:0:0:0:
192,192,792162,1,0,0:0:0:0:
448,192,792344,1,0,0:0:0:0:
320,192,792435,1,0,0:0:0:0:
64,192,792435,1,0,0:0:0:0:
192,192,792435,1,0,0:0:0:0:
192,192,792617,1,0,0:0:0:0:
64,192,792708,1,0,0:0:0:0:
320,192,792708,1,0,0:0:0:0:
448,192,792890,1,0,0:0:0:0:
192,192,792980,1,0,0:0:0:0:
320,192,792980,1,0,0:0:0:0:
192,192,793162,1,0,0:0:0:0:
64,192,793253,1,0,0:0:0:0:
448,192,793253,1,0,0:0:0:0:
320,192,793435,1,0,0:0:0:0:
192,192,793526,1,0,0:0:0:0:
448,192,793526,1,0,0:0:0:0:
64,192,793526,1,0,0:0:0:0:
192,192,793708,1,0,0:0:0:0:
320,192,793799,1,0,0:0:0:0:
448,192,793799,1,0,0:0:0:0:
448,192,793980,1,0,0:0:0:0:
64,192,794071,1,0,0:0:0:0:
192,192,794344,128,0,794617:0:0:0:0:
448,192,794617,128,0,794753:0:0:0:0:
64,192,794753,128,0,795026:0:0:0:0:
320,192,795026,128,0,795162:0:0:0:0:
448,192,795162,128,0,795299:0:0:0:0:
192,192,795299,128,0,795571:0:0:0:0:
320,192,796253,1,0,0:0:0:0:
448,192,796253,1,0,0:0:0:0:
64,192,796253,128,0,796390:0:0:0:0:
320,192,796390,128,0,796526:0:0:0:0:
448,192,796526,128,0,796662:0:0:0:0:
192,192,796526,1,0,0:0:0:0:
64,192,796662,128,0,796799:0:0:0:0:
320,192,796799,128,0,796935:0:0:0:0:
448,192,796935,128,0,797071:0:0:0:0:
64,192,796935,1,0,0:0:0:0:
192,192,797003,1,0,0:0:0:0:
320,192,797071,1,0,0:0:0:0:
64,192,797071,128,0,797208:0:0:0:0:
192,192,797208,128,0,797344:0:0:0:0:
448,192,797344,128,0,797480:0:0:0:0:
320,192,797344,1,0,0:0:0:0:
64,192,797480,128,0,797617:0:0:0:0:
192,192,797617,1,0,0:0:0:0:
320,192,797617,128,0,797753:0:0:0:0:
448,192,797753,128,0,797890:0:0:0:0:
192,192,797890,128,0,798026:0:0:0:0:
64,192,798026,128,0,798162:0:0:0:0:
320,192,798026,1,0,0:0:0:0:
448,192,798162,128,0,798299:0:0:0:0:
192,192,798162,1,0,0:0:0:0:
64,192,798299,128,0,798435:0:0:0:0:
320,192,798299,1,0,0:0:0:0:
448,192,798435,1,0,0:0:0:0:
192,192,798435,128,0,798980:0:0:0:0:
320,192,798435,128,0,799526:0:0:0:0:
448,192,798708,1,0,0:0:0:0:
64,192,798980,128,0,799526:0:0:0:0:
448,192,798980,1,0,0:0:0:0:
192,192,799117,1,0,0:0:0:0:
448,192,799185,1,0,0:0:0:0:
192,192,799253,1,0,0:0:0:0:
192,192,799526,1,0,0:0:0:0:
448,192,799526,128,0,800071:0:0:0:0:
64,192,799662,1,0,0:0:0:0:
320,192,799799,1,0,0:0:0:0:
192,192,799935,1,0,0:0:0:0:
64,192,800071,128,0,800617:0:0:0:0:
320,192,800071,1,0,0:0:0:0:
192,192,800140,1,0,0:0:0:0:
448,192,800208,1,0,0:0:0:0:
192,192,800344,1,0,0:0:0:0:
320,192,800344,1,0,0:0:0:0:
448,192,800480,1,0,0:0:0:0:
192,192,800617,1,0,0:0:0:0:
320,192,800617,1,0,0:0:0:0:
448,192,800617,128,0,801162:0:0:0:0:
64,192,800890,1,0,0:0:0:0:
192,192,801162,128,0,801299:0:0:0:0:
448,192,801299,128,0,801435:0:0:0:0:
64,192,801299,1,0,0:0:0:0:
320,192,801367,1,0,0:0:0:0:
64,192,801435,128,0,801571:0:0:0:0:
192,192,801435,1,0,0:0:0:0:
448,192,801571,128,0,801708:0:0:0:0:
320,192,801708,128,0,801844:0:0:0:0:
192,192,801708,1,0,0:0:0:0:
64,192,801844,128,0,801980:0:0:0:0:
448,192,801980,128,0,802117:0:0:0:0:
320,192,801980,1,0,0:0:0:0:
192,192,802117,128,0,802253:0:0:0:0:
320,192,802253,128,0,802390:0:0:0:0:
64,192,802321,1,0,0:0:0:0:
448,192,802390,128,0,802526:0:0:0:0:
192,192,802390,1,0,0:0:0:0:
64,192,802526,128,0,802662:0:0:0:0:
192,192,802526,1,0,0:0:0:0:
320,192,802662,128,0,802799:0:0:0:0:
448,192,802662,1,0,0:0:0:0:
64,192,802799,1,0,0:0:0:0:
192,192,802799,128,0,803890:0:0:0:0:
448,192,803071,1,0,0:0:0:0:
320,192,803344,128,0,803890:0:0:0:0:
64,192,803480,1,0,0:0:0:0:
448,192,803549,1,0,0:0:0:0:
64,192,803617,1,0,0:0:0:0:
64,192,803890,1,0,0:0:0:0:
448,192,803890,128,0,804435:0:0:0:0:
192,192,804026,1,0,0:0:0:0:
320,192,804162,1,0,0:0:0:0:
64,192,804299,1,0,0:0:0:0:
192,192,804367,1,0,0:0:0:0:
64,192,804435,1,0,0:0:0:0:
320,192,804435,128,0,804708:0:0:0:0:
192,192,804503,1,0,0:0:0:0:
448,192,804571,1,0,0:0:0:0:
192,192,804708,1,0,0:0:0:0:
64,192,804708,128,0,804980:0:0:0:0:
448,192,804844,1,0,0:0:0:0:
192,192,804980,1,0,0:0:0:0:
448,192,804980,1,0,0:0:0:0:
320,192,804980,128,0,805799:0:0:0:0:
64,192,805253,1,0,0:0:0:0:
448,192,805662,1,0,0:0:0:0:
192,192,805730,1,0,0:0:0:0:
64,192,805799,128,0,805935:0:0:0:0:
448,192,805799,1,0,0:0:0:0:
192,192,805935,128,0,806071:0:0:0:0:
448,192,806071,128,0,806208:0:0:0:0:
320,192,806071,1,0,0:0:0:0:
64,192,806208,128,0,806344:0:0:0:0:
320,192,806344,128,0,806480:0:0:0:0:
192,192,806344,1,0,0:0:0:0:
448,192,806480,128,0,806617:0:0:0:0:
64,192,806617,128,0,806753:0:0:0:0:
192,192,806617,1,0,0:0:0:0:
320,192,806753,128,0,806890:0:0:0:0:
448,192,806753,1,0,0:0:0:0:
192,192,806890,128,0,807026:0:0:0:0:
64,192,806890,1,0,0:0:0:0:
320,192,807026,1,0,0:0:0:0:
448,192,807026,128,0,807162:0:0:0:0:
192,192,807162,1,0,0:0:0:0:
64,192,807162,128,0,808253:0:0:0:0:
320,192,807435,1,0,0:0:0:0:
448,192,807708,1,0,0:0:0:0:
192,192,807844,1,0,0:0:0:0:
320,192,807912,1,0,0:0:0:0:
448,192,807980,1,0,0:0:0:0:
192,192,808253,1,0,0:0:0:0:
320,192,808253,128,0,809344:0:0:0:0:
448,192,808390,1,0,0:0:0:0:
64,192,808526,1,0,0:0:0:0:
192,192,808662,1,0,0:0:0:0:
448,192,808799,1,0,0:0:0:0:
192,192,808867,1,0,0:0:0:0:
64,192,808935,1,0,0:0:0:0:
448,192,809003,1,0,0:0:0:0:
192,192,809071,1,0,0:0:0:0:
64,192,809208,1,0,0:0:0:0:
64,192,809344,1,0,0:0:0:0:
448,192,809344,1,0,0:0:0:0:
192,192,809344,128,0,809890:0:0:0:0:
448,192,809617,1,0,0:0:0:0:
64,192,809890,128,0,810026:0:0:0:0:
448,192,810026,128,0,810162:0:0:0:0:
320,192,810026,1,0,0:0:0:0:
192,192,810094,1,0,0:0:0:0:
320,192,810162,128,0,810299:0:0:0:0:
64,192,810162,1,0,0:0:0:0:
192,192,810299,128,0,810435:0:0:0:0:
64,192,810435,128,0,810571:0:0:0:0:
448,192,810435,1,0,0:0:0:0:
320,192,810571,128,0,810708:0:0:0:0:
192,192,810708,1,0,0:0:0:0:
448,192,810708,128,0,810844:0:0:0:0:
64,192,810844,128,0,810980:0:0:0:0:
192,192,810844,1,0,0:0:0:0:
320,192,810980,128,0,811117:0:0:0:0:
448,192,811117,128,0,811253:0:0:0:0:
192,192,811117,1,0,0:0:0:0:
64,192,811253,1,0,0:0:0:0:
192,192,811253,128,0,811390:0:0:0:0:
320,192,811390,128,0,811526:0:0:0:0:
448,192,811390,1,0,0:0:0:0:
192,192,811526,1,0,0:0:0:0:
64,192,811526,128,0,812617:0:0:0:0:
448,192,811799,1,0,0:0:0:0:
320,192,812071,1,0,0:0:0:0:
192,192,812208,1,0,0:0:0:0:
320,192,812276,1,0,0:0:0:0:
448,192,812344,1,0,0:0:0:0:
192,192,812617,128,0,812753:0:0:0:0:
448,192,812753,128,0,812890:0:0:0:0:
64,192,812890,128,0,813026:0:0:0:0:
320,192,813026,128,0,813162:0:0:0:0:
448,192,813162,128,0,813299:0:0:0:0:
64,192,813299,1,0,0:0:0:0:
192,192,813367,1,0,0:0:0:0:
320,192,813435,128,0,813571:0:0:0:0:
192,192,813571,128,0,813708:0:0:0:0:
64,192,813708,1,0,0:0:0:0:
448,192,813708,1,0,0:0:0:0:
320,192,813708,1,0,0:0:0:0:
192,192,813980,1,0,0:0:0:0:
448,192,814253,1,0,0:0:0:0:
64,192,814458,1,0,0:0:0:0:
320,192,814799,1,0,0:0:0:0:
64,192,815208,1,0,0:0:0:0:
448,192,815344,1,0,0:0:0:0:
64,192,815617,1,0,0:0:0:0:
320,192,815617,1,0,0:0:0:0:
64,192,815890,1,0,0:0:0:0:
192,192,815890,1,0,0:0:0:0:
448,192,815890,1,0,0:0:0:0:
