osu file format v14

[General]
AudioFilename: audio.mp3
AudioLeadIn: 0
PreviewTime: 481526
Countdown: 0
SampleSet: Soft
StackLeniency: 0.7
Mode: 3
LetterboxInBreaks: 0
SpecialStyle: 0
WidescreenStoryboard: 1

[Editor]
Bookmarks: 176617,194071,198435,202799,211526,228980,237708,244253,246435,262799,263890,280253,281344,290071,296617,298799,307526,316253,323890,324980,333708,342435,346799,351162,359890,377344,386071,386617,393708,394799,412253,420980,429708
DistanceSpacing: 1.2
BeatDivisor: 4
GridSize: 4
TimelineZoom: 2.4

[Metadata]
Title:Because Maybe! (Pt. 2)
TitleUnicode:Because Maybe! (Pt. 2)
Artist:Renard
ArtistUnicode:Renard
Creator:JustinNF
Version:Namx
Source:Best of Lapfox Vol-1
Tags:Raggacore Breakcore Dancefloor
BeatmapID:1505336
BeatmapSetID:712054

[Difficulty]
HPDrainRate:8
CircleSize:4
OverallDifficulty:8
ApproachRate:5
SliderMultiplier:1.4
SliderTickRate:1

[Events]
//Background and Video events
0,0,"BG-01.jpg",0,0
//Break Periods
//Storyboard Layer 0 (Background)
//Storyboard Layer 1 (Fail)
//Storyboard Layer 2 (Pass)
//Storyboard Layer 3 (Foreground)
//Storyboard Sound Samples

[TimingPoints]
-110,272.727272727273,4,2,0,37,1,0

[HitObjects]
192,192,176617,128,0,177162:0:0:0:0:
64,192,176617,128,0,177162:0:0:0:0:
448,192,176617,128,0,178799:0:0:0:0:
320,192,176890,1,0,0:0:0:0:
320,192,177162,1,0,0:0:0:0:
192,192,177435,1,0,0:0:0:0:
64,192,177708,1,0,0:0:0:0:
320,192,178117,1,0,0:0:0:0:
192,192,178526,1,0,0:0:0:0:
64,192,178799,128,0,179890:0:0:0:0:
320,192,179890,128,0,180980:0:0:0:0:
448,192,180980,128,0,182071:0:0:0:0:
192,192,181253,1,0,0:0:0:0:
320,192,181526,1,0,0:0:0:0:
64,192,181799,1,0,0:0:0:0:
320,192,182071,1,0,0:0:0:0:
64,192,182071,128,0,183162:0:0:0:0:
192,192,182480,1,0,0:0:0:0:
320,192,182890,1,0,0:0:0:0:
320,192,183162,128,0,184253:0:0:0:0:
448,192,183708,1,0,0:0:0:0:
64,192,183980,1,0,0:0:0:0:
448,192,184117,1,0,0:0:0:0:
192,192,184185,1,0,0:0:0:0:
64,192,184253,1,0,0:0:0:0:
448,192,184253,128,0,185344:0:0:0:0:
192,192,185344,128,0,186435:0:0:0:0:
320,192,185617,1,0,0:0:0:0:
448,192,185890,1,0,0:0:0:0:
64,192,186162,1,0,0:0:0:0:
448,192,186435,1,0,0:0:0:0:
64,192,186435,128,0,187526:0:0:0:0:
320,192,186844,1,0,0:0:0:0:
448,192,187253,1,0,0:0:0:0:
320,192,187526,128,0,188617:0:0:0:0:
448,192,188617,128,0,189708:0:0:0:0:
64,192,188890,1,0,0:0:0:0:
192,192,189162,1,0,0:0:0:0:
320,192,189435,1,0,0:0:0:0:
192,192,189708,128,0,191890:0:0:0:0:
448,192,189980,1,0,0:0:0:0:
64,192,190390,1,0,0:0:0:0:
320,192,190799,1,0,0:0:0:0:
448,192,191344,1,0,0:0:0:0:
448,192,191890,1,0,0:0:0:0:
320,192,191890,128,0,193799:0:0:0:0:
64,192,192435,1,0,0:0:0:0:
192,192,192708,1,0,0:0:0:0:
448,192,193799,1,0,0:0:0:0:
64,192,193799,1,0,0:0:0:0:
64,192,193935,1,0,0:0:0:0:
448,192,193935,1,0,0:0:0:0:
64,192,194071,1,0,0:0:0:0:
192,192,194071,1,0,0:0:0:0:
320,192,194071,128,0,194344:0:0:0:0:
448,192,194344,128,0,194617:0:0:0:0:
64,192,194617,128,0,194890:0:0:0:0:
192,192,194890,128,0,195026:0:0:0:0:
320,192,195026,128,0,195162:0:0:0:0:
448,192,195162,128,0,195435:0:0:0:0:
64,192,195435,128,0,195708:0:0:0:0:
320,192,195708,128,0,195980:0:0:0:0:
192,192,195980,128,0,196117:0:0:0:0:
448,192,196117,128,0,196253:0:0:0:0:
320,192,196253,1,0,0:0:0:0:
192,192,196253,1,0,0:0:0:0:
64,192,196253,128,0,196526:0:0:0:0:
320,192,196526,128,0,196799:0:0:0:0:
448,192,196799,128,0,196935:0:0:0:0:
64,192,196935,128,0,197071:0:0:0:0:
448,192,197071,128,0,197208:0:0:0:0:
192,192,197208,128,0,197344:0:0:0:0:
320,192,197344,128,0,197617:0:0:0:0:
64,192,197617,128,0,197753:0:0:0:0:
192,192,197753,128,0,197890:0:0:0:0:
448,192,197890,128,0,198162:0:0:0:0:
320,192,198162,128,0,198435:0:0:0:0:
192,192,198435,1,0,0:0:0:0:
448,192,198435,1,0,0:0:0:0:
64,192,198435,1,0,0:0:0:0:
192,192,198708,1,0,0:0:0:0:
448,192,198708,1,0,0:0:0:0:
192,192,198844,1,0,0:0:0:0:
448,192,198844,1,0,0:0:0:0:
320,192,198980,1,0,0:0:0:0:
64,192,198980,1,0,0:0:0:0:
320,192,199117,1,0,0:0:0:0:
448,192,199117,1,0,0:0:0:0:
448,192,199253,1,0,0:0:0:0:
192,192,199253,1,0,0:0:0:0:
64,192,199390,1,0,0:0:0:0:
320,192,199390,1,0,0:0:0:0:
64,192,199526,1,0,0:0:0:0:
192,192,199526,1,0,0:0:0:0:
448,192,199526,1,0,0:0:0:0:
448,192,199799,1,0,0:0:0:0:
320,192,199799,1,0,0:0:0:0:
192,192,199935,1,0,0:0:0:0:
448,192,199935,1,0,0:0:0:0:
64,192,200071,1,0,0:0:0:0:
320,192,200071,1,0,0:0:0:0:
64,192,200208,1,0,0:0:0:0:
192,192,200208,1,0,0:0:0:0:
448,192,200344,1,0,0:0:0:0:
192,192,200344,1,0,0:0:0:0:
448,192,200480,1,0,0:0:0:0:
320,192,200480,1,0,0:0:0:0:
64,192,200617,1,0,0:0:0:0:
192,192,200617,1,0,0:0:0:0:
320,192,200617,1,0,0:0:0:0:
64,192,200890,1,0,0:0:0:0:
448,192,200890,1,0,0:0:0:0:
448,192,201026,1,0,0:0:0:0:
64,192,201026,1,0,0:0:0:0:
192,192,201162,1,0,0:0:0:0:
320,192,201162,1,0,0:0:0:0:
448,192,201162,1,0,0:0:0:0:
64,192,201435,1,0,0:0:0:0:
320,192,201435,1,0,0:0:0:0:
192,192,201571,1,0,0:0:0:0:
64,192,201571,1,0,0:0:0:0:
448,192,201708,128,0,201980:0:0:0:0:
64,192,201980,128,0,202117:0:0:0:0:
320,192,202117,128,0,202390:0:0:0:0:
448,192,202390,128,0,202526:0:0:0:0:
192,192,202526,128,0,202799:0:0:0:0:
320,192,202799,1,0,0:0:0:0:
448,192,202799,1,0,0:0:0:0:
64,192,202799,128,0,203071:0:0:0:0:
448,192,203071,1,0,0:0:0:0:
192,192,203071,1,0,0:0:0:0:
320,192,203071,128,0,203344:0:0:0:0:
64,192,203344,1,0,0:0:0:0:
192,192,203344,1,0,0:0:0:0:
448,192,203344,1,0,0:0:0:0:
320,192,203480,1,0,0:0:0:0:
192,192,203617,1,0,0:0:0:0:
320,192,203617,1,0,0:0:0:0:
448,192,203617,1,0,0:0:0:0:
64,192,203753,1,0,0:0:0:0:
64,192,203890,1,0,0:0:0:0:
192,192,203890,1,0,0:0:0:0:
448,192,203890,128,0,204162:0:0:0:0:
320,192,204162,1,0,0:0:0:0:
64,192,204162,1,0,0:0:0:0:
192,192,204162,128,0,204435:0:0:0:0:
64,192,204435,1,0,0:0:0:0:
448,192,204435,1,0,0:0:0:0:
320,192,204435,128,0,204708:0:0:0:0:
448,192,204708,1,0,0:0:0:0:
192,192,204708,1,0,0:0:0:0:
64,192,204708,128,0,204980:0:0:0:0:
192,192,204980,1,0,0:0:0:0:
320,192,204980,1,0,0:0:0:0:
448,192,204980,1,0,0:0:0:0:
320,192,205117,1,0,0:0:0:0:
448,192,205253,1,0,0:0:0:0:
64,192,205253,1,0,0:0:0:0:
192,192,205253,128,0,205526:0:0:0:0:
64,192,205526,1,0,0:0:0:0:
320,192,205526,1,0,0:0:0:0:
448,192,205526,128,0,205799:0:0:0:0:
64,192,205799,1,0,0:0:0:0:
192,192,205799,1,0,0:0:0:0:
320,192,205799,1,0,0:0:0:0:
320,192,206071,1,0,0:0:0:0:
448,192,206071,1,0,0:0:0:0:
192,192,206071,1,0,0:0:0:0:
192,192,206208,128,0,206480:0:0:0:0:
320,192,206344,1,0,0:0:0:0:
448,192,206344,1,0,0:0:0:0:
64,192,206344,1,0,0:0:0:0:
320,192,206480,1,0,0:0:0:0:
64,192,206617,1,0,0:0:0:0:
192,192,206617,1,0,0:0:0:0:
448,192,206617,128,0,206890:0:0:0:0:
320,192,206890,1,0,0:0:0:0:
192,192,206890,1,0,0:0:0:0:
64,192,206890,1,0,0:0:0:0:
448,192,207162,1,0,0:0:0:0:
192,192,207162,1,0,0:0:0:0:
320,192,207162,128,0,207435:0:0:0:0:
64,192,207435,128,0,207708:0:0:0:0:
192,192,207435,1,0,0:0:0:0:
448,192,207435,1,0,0:0:0:0:
448,192,207708,1,0,0:0:0:0:
192,192,207708,1,0,0:0:0:0:
320,192,207844,1,0,0:0:0:0:
448,192,207980,1,0,0:0:0:0:
320,192,207980,1,0,0:0:0:0:
64,192,207980,1,0,0:0:0:0:
192,192,208117,1,0,0:0:0:0:
64,192,208253,1,0,0:0:0:0:
192,192,208253,1,0,0:0:0:0:
320,192,208253,128,0,208526:0:0:0:0:
448,192,208526,128,0,208799:0:0:0:0:
192,192,208526,1,0,0:0:0:0:
64,192,208526,1,0,0:0:0:0:
64,192,208799,1,0,0:0:0:0:
320,192,208799,1,0,0:0:0:0:
192,192,208799,128,0,209071:0:0:0:0:
448,192,209071,128,0,209344:0:0:0:0:
320,192,209071,1,0,0:0:0:0:
64,192,209071,1,0,0:0:0:0:
320,192,209344,1,0,0:0:0:0:
192,192,209344,1,0,0:0:0:0:
64,192,209344,1,0,0:0:0:0:
192,192,209480,1,0,0:0:0:0:
320,192,209617,1,0,0:0:0:0:
448,192,209617,1,0,0:0:0:0:
64,192,209617,128,0,209890:0:0:0:0:
192,192,209890,1,0,0:0:0:0:
320,192,209890,128,0,210162:0:0:0:0:
448,192,209890,1,0,0:0:0:0:
448,192,210162,1,0,0:0:0:0:
192,192,210162,1,0,0:0:0:0:
64,192,210162,1,0,0:0:0:0:
192,192,210435,1,0,0:0:0:0:
448,192,210435,1,0,0:0:0:0:
320,192,210503,1,0,0:0:0:0:
64,192,210571,1,0,0:0:0:0:
448,192,210708,1,0,0:0:0:0:
64,192,210708,1,0,0:0:0:0:
192,192,210708,1,0,0:0:0:0:
320,192,210844,1,0,0:0:0:0:
64,192,210912,1,0,0:0:0:0:
448,192,210980,1,0,0:0:0:0:
192,192,210980,1,0,0:0:0:0:
320,192,211117,1,0,0:0:0:0:
192,192,211117,1,0,0:0:0:0:
64,192,211253,1,0,0:0:0:0:
448,192,211253,1,0,0:0:0:0:
320,192,211390,1,0,0:0:0:0:
192,192,211390,1,0,0:0:0:0:
64,192,211526,1,0,0:0:0:0:
320,192,211526,1,0,0:0:0:0:
448,192,211526,1,0,0:0:0:0:
192,192,211594,1,0,0:0:0:0:
448,192,211662,1,0,0:0:0:0:
320,192,211730,1,0,0:0:0:0:
64,192,211799,1,0,0:0:0:0:
320,192,211867,1,0,0:0:0:0:
64,192,211935,1,0,0:0:0:0:
192,192,211935,1,0,0:0:0:0:
448,192,211935,1,0,0:0:0:0:
320,192,212003,1,0,0:0:0:0:
192,192,212071,1,0,0:0:0:0:
448,192,212140,1,0,0:0:0:0:
192,192,212208,1,0,0:0:0:0:
64,192,212276,1,0,0:0:0:0:
320,192,212344,1,0,0:0:0:0:
448,192,212344,1,0,0:0:0:0:
192,192,212480,1,0,0:0:0:0:
64,192,212480,1,0,0:0:0:0:
320,192,212549,1,0,0:0:0:0:
448,192,212617,1,0,0:0:0:0:
192,192,212617,1,0,0:0:0:0:
64,192,212617,1,0,0:0:0:0:
320,192,212685,1,0,0:0:0:0:
64,192,212753,1,0,0:0:0:0:
448,192,212821,1,0,0:0:0:0:
192,192,212890,1,0,0:0:0:0:
64,192,212958,1,0,0:0:0:0:
448,192,213026,1,0,0:0:0:0:
192,192,213026,1,0,0:0:0:0:
320,192,213026,1,0,0:0:0:0:
64,192,213094,1,0,0:0:0:0:
320,192,213162,1,0,0:0:0:0:
192,192,213230,1,0,0:0:0:0:
448,192,213299,1,0,0:0:0:0:
320,192,213367,1,0,0:0:0:0:
448,192,213435,1,0,0:0:0:0:
64,192,213435,1,0,0:0:0:0:
192,192,213571,1,0,0:0:0:0:
448,192,213640,1,0,0:0:0:0:
192,192,213708,1,0,0:0:0:0:
320,192,213708,1,0,0:0:0:0:
64,192,213708,1,0,0:0:0:0:
448,192,213776,1,0,0:0:0:0:
320,192,213844,1,0,0:0:0:0:
64,192,213912,1,0,0:0:0:0:
448,192,213980,1,0,0:0:0:0:
192,192,214049,1,0,0:0:0:0:
320,192,214117,1,0,0:0:0:0:
448,192,214117,1,0,0:0:0:0:
64,192,214117,1,0,0:0:0:0:
192,192,214185,1,0,0:0:0:0:
320,192,214253,1,0,0:0:0:0:
64,192,214321,1,0,0:0:0:0:
192,192,214390,1,0,0:0:0:0:
448,192,214458,1,0,0:0:0:0:
320,192,214526,1,0,0:0:0:0:
192,192,214526,1,0,0:0:0:0:
64,192,214662,1,0,0:0:0:0:
320,192,214730,1,0,0:0:0:0:
448,192,214799,1,0,0:0:0:0:
192,192,214799,1,0,0:0:0:0:
64,192,214799,1,0,0:0:0:0:
320,192,214867,1,0,0:0:0:0:
192,192,214935,1,0,0:0:0:0:
448,192,215003,1,0,0:0:0:0:
64,192,215071,1,0,0:0:0:0:
320,192,215140,1,0,0:0:0:0:
192,192,215208,1,0,0:0:0:0:
448,192,215208,1,0,0:0:0:0:
64,192,215208,1,0,0:0:0:0:
320,192,215276,1,0,0:0:0:0:
448,192,215344,1,0,0:0:0:0:
64,192,215412,1,0,0:0:0:0:
192,192,215480,1,0,0:0:0:0:
320,192,215549,1,0,0:0:0:0:
448,192,215617,1,0,0:0:0:0:
64,192,215617,1,0,0:0:0:0:
192,192,215685,1,0,0:0:0:0:
320,192,215753,1,0,0:0:0:0:
64,192,215821,1,0,0:0:0:0:
192,192,215890,1,0,0:0:0:0:
448,192,215890,1,0,0:0:0:0:
320,192,215890,1,0,0:0:0:0:
64,192,216026,1,0,0:0:0:0:
448,192,216026,1,0,0:0:0:0:
320,192,216162,1,0,0:0:0:0:
64,192,216299,1,0,0:0:0:0:
448,192,216299,1,0,0:0:0:0:
192,192,216299,1,0,0:0:0:0:
320,192,216435,1,0,0:0:0:0:
64,192,216435,1,0,0:0:0:0:
448,192,216571,1,0,0:0:0:0:
192,192,216708,128,0,216844:0:0:0:0:
320,192,216708,1,0,0:0:0:0:
448,192,216844,1,0,0:0:0:0:
64,192,216844,1,0,0:0:0:0:
64,192,216980,1,0,0:0:0:0:
320,192,216980,1,0,0:0:0:0:
448,192,216980,1,0,0:0:0:0:
192,192,217117,128,0,217253:0:0:0:0:
320,192,217253,128,0,217390:0:0:0:0:
64,192,217390,1,0,0:0:0:0:
192,192,217390,1,0,0:0:0:0:
448,192,217390,128,0,217526:0:0:0:0:
192,192,217526,128,0,217662:0:0:0:0:
64,192,217662,128,0,217799:0:0:0:0:
448,192,217799,1,0,0:0:0:0:
320,192,217799,128,0,217935:0:0:0:0:
192,192,217935,1,0,0:0:0:0:
64,192,218071,1,0,0:0:0:0:
320,192,218071,1,0,0:0:0:0:
448,192,218071,1,0,0:0:0:0:
192,192,218140,1,0,0:0:0:0:
448,192,218208,1,0,0:0:0:0:
64,192,218276,1,0,0:0:0:0:
192,192,218344,1,0,0:0:0:0:
320,192,218412,1,0,0:0:0:0:
448,192,218480,1,0,0:0:0:0:
64,192,218480,1,0,0:0:0:0:
192,192,218480,1,0,0:0:0:0:
320,192,218549,1,0,0:0:0:0:
192,192,218617,1,0,0:0:0:0:
448,192,218685,1,0,0:0:0:0:
64,192,218753,1,0,0:0:0:0:
192,192,218821,1,0,0:0:0:0:
64,192,218890,1,0,0:0:0:0:
448,192,218890,128,0,219026:0:0:0:0:
320,192,219026,1,0,0:0:0:0:
192,192,219162,1,0,0:0:0:0:
448,192,219162,1,0,0:0:0:0:
64,192,219162,128,0,219435:0:0:0:0:
448,192,219435,128,0,219571:0:0:0:0:
64,192,219571,1,0,0:0:0:0:
320,192,219571,1,0,0:0:0:0:
192,192,219571,128,0,219844:0:0:0:0:
320,192,219844,128,0,219980:0:0:0:0:
448,192,219844,1,0,0:0:0:0:
64,192,219844,1,0,0:0:0:0:
192,192,219980,1,0,0:0:0:0:
448,192,219980,1,0,0:0:0:0:
64,192,219980,128,0,220253:0:0:0:0:
192,192,220253,1,0,0:0:0:0:
448,192,220253,1,0,0:0:0:0:
320,192,220253,1,0,0:0:0:0:
64,192,220321,1,0,0:0:0:0:
320,192,220390,1,0,0:0:0:0:
192,192,220458,1,0,0:0:0:0:
64,192,220526,1,0,0:0:0:0:
320,192,220594,1,0,0:0:0:0:
448,192,220662,1,0,0:0:0:0:
192,192,220662,1,0,0:0:0:0:
64,192,220662,1,0,0:0:0:0:
320,192,220730,1,0,0:0:0:0:
192,192,220799,1,0,0:0:0:0:
448,192,220867,1,0,0:0:0:0:
64,192,220935,1,0,0:0:0:0:
192,192,221003,1,0,0:0:0:0:
320,192,221071,1,0,0:0:0:0:
64,192,221071,1,0,0:0:0:0:
448,192,221208,1,0,0:0:0:0:
320,192,221276,1,0,0:0:0:0:
448,192,221344,1,0,0:0:0:0:
192,192,221344,1,0,0:0:0:0:
64,192,221344,1,0,0:0:0:0:
320,192,221412,1,0,0:0:0:0:
64,192,221480,1,0,0:0:0:0:
448,192,221549,1,0,0:0:0:0:
192,192,221617,1,0,0:0:0:0:
64,192,221685,1,0,0:0:0:0:
192,192,221753,1,0,0:0:0:0:
320,192,221753,1,0,0:0:0:0:
448,192,221753,1,0,0:0:0:0:
64,192,221821,1,0,0:0:0:0:
320,192,221890,1,0,0:0:0:0:
192,192,221958,1,0,0:0:0:0:
448,192,222026,1,0,0:0:0:0:
320,192,222094,1,0,0:0:0:0:
64,192,222162,1,0,0:0:0:0:
448,192,222162,1,0,0:0:0:0:
192,192,222299,1,0,0:0:0:0:
320,192,222299,1,0,0:0:0:0:
64,192,222435,1,0,0:0:0:0:
192,192,222435,1,0,0:0:0:0:
448,192,222435,1,0,0:0:0:0:
320,192,222503,1,0,0:0:0:0:
64,192,222571,1,0,0:0:0:0:
448,192,222640,1,0,0:0:0:0:
192,192,222708,1,0,0:0:0:0:
64,192,222776,1,0,0:0:0:0:
320,192,222844,1,0,0:0:0:0:
192,192,222844,1,0,0:0:0:0:
448,192,222844,1,0,0:0:0:0:
64,192,222912,1,0,0:0:0:0:
320,192,222980,1,0,0:0:0:0:
192,192,223049,1,0,0:0:0:0:
448,192,223117,1,0,0:0:0:0:
64,192,223185,1,0,0:0:0:0:
192,192,223253,1,0,0:0:0:0:
320,192,223253,1,0,0:0:0:0:
448,192,223390,1,0,0:0:0:0:
320,192,223458,1,0,0:0:0:0:
192,192,223526,1,0,0:0:0:0:
448,192,223526,1,0,0:0:0:0:
64,192,223526,1,0,0:0:0:0:
320,192,223594,1,0,0:0:0:0:
64,192,223662,1,0,0:0:0:0:
448,192,223730,1,0,0:0:0:0:
320,192,223799,1,0,0:0:0:0:
192,192,223867,1,0,0:0:0:0:
64,192,223935,1,0,0:0:0:0:
320,192,223935,1,0,0:0:0:0:
448,192,223935,1,0,0:0:0:0:
192,192,224003,1,0,0:0:0:0:
64,192,224071,1,0,0:0:0:0:
320,192,224140,1,0,0:0:0:0:
448,192,224208,1,0,0:0:0:0:
192,192,224276,1,0,0:0:0:0:
64,192,224344,128,0,224617:0:0:0:0:
320,192,224344,1,0,0:0:0:0:
448,192,224617,1,0,0:0:0:0:
192,192,224617,1,0,0:0:0:0:
320,192,224617,1,0,0:0:0:0:
64,192,224753,1,0,0:0:0:0:
192,192,224890,1,0,0:0:0:0:
448,192,224890,1,0,0:0:0:0:
64,192,225026,1,0,0:0:0:0:
320,192,225026,1,0,0:0:0:0:
448,192,225026,1,0,0:0:0:0:
320,192,225162,1,0,0:0:0:0:
64,192,225299,1,0,0:0:0:0:
448,192,225299,1,0,0:0:0:0:
64,192,225435,1,0,0:0:0:0:
320,192,225435,1,0,0:0:0:0:
192,192,225571,1,0,0:0:0:0:
448,192,225571,1,0,0:0:0:0:
448,192,225708,1,0,0:0:0:0:
320,192,225708,1,0,0:0:0:0:
64,192,225708,1,0,0:0:0:0:
192,192,225844,128,0,225980:0:0:0:0:
448,192,225980,128,0,226117:0:0:0:0:
320,192,226117,1,0,0:0:0:0:
192,192,226117,1,0,0:0:0:0:
64,192,226117,1,0,0:0:0:0:
64,192,226253,128,0,226390:0:0:0:0:
320,192,226390,128,0,226526:0:0:0:0:
448,192,226526,1,0,0:0:0:0:
192,192,226526,1,0,0:0:0:0:
64,192,226662,1,0,0:0:0:0:
192,192,226799,1,0,0:0:0:0:
448,192,226799,1,0,0:0:0:0:
64,192,226799,1,0,0:0:0:0:
320,192,226867,1,0,0:0:0:0:
448,192,226935,1,0,0:0:0:0:
64,192,227003,1,0,0:0:0:0:
192,192,227071,1,0,0:0:0:0:
320,192,227071,1,0,0:0:0:0:
448,192,227140,1,0,0:0:0:0:
320,192,227208,1,0,0:0:0:0:
192,192,227208,1,0,0:0:0:0:
64,192,227208,1,0,0:0:0:0:
448,192,227276,1,0,0:0:0:0:
64,192,227344,1,0,0:0:0:0:
320,192,227412,1,0,0:0:0:0:
192,192,227480,1,0,0:0:0:0:
448,192,227549,1,0,0:0:0:0:
320,192,227617,1,0,0:0:0:0:
64,192,227617,1,0,0:0:0:0:
192,192,227685,1,0,0:0:0:0:
448,192,227753,1,0,0:0:0:0:
64,192,227753,1,0,0:0:0:0:
192,192,227890,1,0,0:0:0:0:
448,192,227890,1,0,0:0:0:0:
320,192,227890,128,0,228162:0:0:0:0:
64,192,228162,128,0,228299:0:0:0:0:
192,192,228162,1,0,0:0:0:0:
320,192,228299,1,0,0:0:0:0:
192,192,228299,1,0,0:0:0:0:
448,192,228299,128,0,228571:0:0:0:0:
320,192,228571,1,0,0:0:0:0:
64,192,228571,128,0,228708:0:0:0:0:
192,192,228640,1,0,0:0:0:0:
448,192,228708,1,0,0:0:0:0:
320,192,228708,128,0,228980:0:0:0:0:
448,192,228980,1,0,0:0:0:0:
64,192,228980,1,0,0:0:0:0:
192,192,228980,128,0,229799:0:0:0:0:
448,192,229799,128,0,230617:0:0:0:0:
192,192,230617,128,0,231162:0:0:0:0:
64,192,231162,128,0,232253:0:0:0:0:
320,192,232253,128,0,232799:0:0:0:0:
192,192,232799,128,0,233344:0:0:0:0:
448,192,233344,128,0,234162:0:0:0:0:
64,192,234162,128,0,234980:0:0:0:0:
320,192,234980,128,0,235526:0:0:0:0:
192,192,235526,128,0,236617:0:0:0:0:
448,192,236617,128,0,237162:0:0:0:0:
64,192,237162,128,0,237708:0:0:0:0:
192,192,237708,1,0,0:0:0:0:
320,192,237708,1,0,0:0:0:0:
448,192,237708,128,0,238526:0:0:0:0:
320,192,237980,1,0,0:0:0:0:
64,192,238117,1,0,0:0:0:0:
192,192,238253,1,0,0:0:0:0:
320,192,238390,1,0,0:0:0:0:
64,192,238526,1,0,0:0:0:0:
192,192,238526,128,0,239344:0:0:0:0:
320,192,238662,1,0,0:0:0:0:
64,192,238799,1,0,0:0:0:0:
448,192,238799,1,0,0:0:0:0:
320,192,238935,1,0,0:0:0:0:
64,192,238935,1,0,0:0:0:0:
448,192,239071,1,0,0:0:0:0:
320,192,239208,1,0,0:0:0:0:
64,192,239208,1,0,0:0:0:0:
64,192,239344,1,0,0:0:0:0:
448,192,239344,128,0,239890:0:0:0:0:
320,192,239480,1,0,0:0:0:0:
64,192,239617,1,0,0:0:0:0:
192,192,239753,1,0,0:0:0:0:
64,192,239890,128,0,240980:0:0:0:0:
320,192,239890,1,0,0:0:0:0:
192,192,239890,1,0,0:0:0:0:
320,192,240026,1,0,0:0:0:0:
448,192,240026,1,0,0:0:0:0:
192,192,240162,1,0,0:0:0:0:
448,192,240299,1,0,0:0:0:0:
320,192,240299,1,0,0:0:0:0:
192,192,240435,1,0,0:0:0:0:
448,192,240435,1,0,0:0:0:0:
320,192,240571,1,0,0:0:0:0:
448,192,240708,1,0,0:0:0:0:
192,192,240844,1,0,0:0:0:0:
192,192,240980,1,0,0:0:0:0:
448,192,240980,1,0,0:0:0:0:
320,192,240980,128,0,241526:0:0:0:0:
64,192,241117,1,0,0:0:0:0:
448,192,241117,1,0,0:0:0:0:
192,192,241253,1,0,0:0:0:0:
64,192,241390,1,0,0:0:0:0:
448,192,241390,1,0,0:0:0:0:
192,192,241526,1,0,0:0:0:0:
64,192,241526,128,0,242071:0:0:0:0:
448,192,241526,1,0,0:0:0:0:
320,192,241662,1,0,0:0:0:0:
448,192,241799,1,0,0:0:0:0:
192,192,241935,1,0,0:0:0:0:
192,192,242071,1,0,0:0:0:0:
320,192,242071,1,0,0:0:0:0:
448,192,242071,128,0,242890:0:0:0:0:
64,192,242208,1,0,0:0:0:0:
320,192,242208,1,0,0:0:0:0:
192,192,242344,1,0,0:0:0:0:
64,192,242480,1,0,0:0:0:0:
320,192,242480,1,0,0:0:0:0:
192,192,242617,1,0,0:0:0:0:
64,192,242617,1,0,0:0:0:0:
320,192,242753,1,0,0:0:0:0:
192,192,242890,1,0,0:0:0:0:
64,192,242890,128,0,243708:0:0:0:0:
448,192,243026,1,0,0:0:0:0:
320,192,243094,1,0,0:0:0:0:
448,192,243162,1,0,0:0:0:0:
192,192,243162,1,0,0:0:0:0:
192,192,243299,1,0,0:0:0:0:
320,192,243299,1,0,0:0:0:0:
448,192,243435,1,0,0:0:0:0:
192,192,243571,1,0,0:0:0:0:
320,192,243571,1,0,0:0:0:0:
192,192,243708,1,0,0:0:0:0:
320,192,243708,128,0,244253:0:0:0:0:
448,192,243708,1,0,0:0:0:0:
64,192,243844,1,0,0:0:0:0:
192,192,243980,128,0,244253:0:0:0:0:
64,192,244253,1,0,0:0:0:0:
448,192,244253,1,0,0:0:0:0:
320,192,244390,1,0,0:0:0:0:
320,192,244526,1,0,0:0:0:0:
448,192,244662,1,0,0:0:0:0:
192,192,244662,1,0,0:0:0:0:
64,192,244799,1,0,0:0:0:0:
64,192,244935,1,0,0:0:0:0:
448,192,245071,1,0,0:0:0:0:
192,192,245208,1,0,0:0:0:0:
320,192,245276,1,0,0:0:0:0:
448,192,245344,1,0,0:0:0:0:
64,192,245344,1,0,0:0:0:0:
192,192,245480,1,0,0:0:0:0:
64,192,245617,1,0,0:0:0:0:
320,192,245617,1,0,0:0:0:0:
448,192,245753,1,0,0:0:0:0:
192,192,245890,1,0,0:0:0:0:
320,192,245890,1,0,0:0:0:0:
64,192,246026,1,0,0:0:0:0:
448,192,246026,1,0,0:0:0:0:
448,192,246162,1,0,0:0:0:0:
64,192,246162,1,0,0:0:0:0:
192,192,246299,1,0,0:0:0:0:
64,192,246435,1,0,0:0:0:0:
320,192,246435,1,0,0:0:0:0:
448,192,246435,1,0,0:0:0:0:
192,192,246571,1,0,0:0:0:0:
448,192,246708,1,0,0:0:0:0:
64,192,246708,1,0,0:0:0:0:
64,192,246844,1,0,0:0:0:0:
192,192,246844,1,0,0:0:0:0:
320,192,246844,1,0,0:0:0:0:
448,192,246980,1,0,0:0:0:0:
64,192,247117,1,0,0:0:0:0:
320,192,247117,1,0,0:0:0:0:
320,192,247253,1,0,0:0:0:0:
192,192,247253,1,0,0:0:0:0:
448,192,247321,1,0,0:0:0:0:
64,192,247390,1,0,0:0:0:0:
192,192,247458,1,0,0:0:0:0:
64,192,247526,1,0,0:0:0:0:
320,192,247526,1,0,0:0:0:0:
448,192,247526,1,0,0:0:0:0:
192,192,247662,1,0,0:0:0:0:
448,192,247799,1,0,0:0:0:0:
64,192,247799,1,0,0:0:0:0:
320,192,247867,1,0,0:0:0:0:
448,192,247935,1,0,0:0:0:0:
192,192,247935,1,0,0:0:0:0:
64,192,247935,1,0,0:0:0:0:
320,192,248071,1,0,0:0:0:0:
448,192,248208,1,0,0:0:0:0:
192,192,248276,1,0,0:0:0:0:
64,192,248344,1,0,0:0:0:0:
320,192,248344,1,0,0:0:0:0:
448,192,248412,1,0,0:0:0:0:
192,192,248480,1,0,0:0:0:0:
64,192,248480,1,0,0:0:0:0:
448,192,248617,1,0,0:0:0:0:
192,192,248617,1,0,0:0:0:0:
320,192,248617,1,0,0:0:0:0:
64,192,248753,1,0,0:0:0:0:
448,192,248890,1,0,0:0:0:0:
320,192,248890,1,0,0:0:0:0:
64,192,249026,1,0,0:0:0:0:
192,192,249026,1,0,0:0:0:0:
320,192,249026,1,0,0:0:0:0:
192,192,249162,1,0,0:0:0:0:
320,192,249299,1,0,0:0:0:0:
448,192,249435,1,0,0:0:0:0:
64,192,249435,1,0,0:0:0:0:
192,192,249503,1,0,0:0:0:0:
320,192,249571,1,0,0:0:0:0:
64,192,249571,1,0,0:0:0:0:
448,192,249640,1,0,0:0:0:0:
320,192,249708,1,0,0:0:0:0:
192,192,249708,1,0,0:0:0:0:
64,192,249708,1,0,0:0:0:0:
448,192,249844,1,0,0:0:0:0:
192,192,249980,1,0,0:0:0:0:
64,192,250117,1,0,0:0:0:0:
320,192,250117,1,0,0:0:0:0:
448,192,250117,1,0,0:0:0:0:
192,192,250253,1,0,0:0:0:0:
320,192,250390,1,0,0:0:0:0:
64,192,250390,1,0,0:0:0:0:
192,192,250458,1,0,0:0:0:0:
64,192,250526,1,0,0:0:0:0:
448,192,250526,1,0,0:0:0:0:
320,192,250662,1,0,0:0:0:0:
192,192,250662,1,0,0:0:0:0:
192,192,250799,1,0,0:0:0:0:
448,192,250799,1,0,0:0:0:0:
64,192,250799,1,0,0:0:0:0:
320,192,250935,1,0,0:0:0:0:
64,192,251071,1,0,0:0:0:0:
448,192,251071,1,0,0:0:0:0:
64,192,251208,1,0,0:0:0:0:
192,192,251208,1,0,0:0:0:0:
320,192,251208,1,0,0:0:0:0:
320,192,251344,1,0,0:0:0:0:
192,192,251480,1,0,0:0:0:0:
448,192,251480,1,0,0:0:0:0:
320,192,251617,1,0,0:0:0:0:
64,192,251617,1,0,0:0:0:0:
448,192,251685,1,0,0:0:0:0:
192,192,251753,1,0,0:0:0:0:
320,192,251821,1,0,0:0:0:0:
448,192,251890,1,0,0:0:0:0:
64,192,251890,1,0,0:0:0:0:
192,192,251890,1,0,0:0:0:0:
64,192,252026,1,0,0:0:0:0:
448,192,252162,1,0,0:0:0:0:
320,192,252299,1,0,0:0:0:0:
192,192,252299,1,0,0:0:0:0:
64,192,252299,1,0,0:0:0:0:
320,192,252435,1,0,0:0:0:0:
64,192,252571,1,0,0:0:0:0:
448,192,252571,1,0,0:0:0:0:
192,192,252708,1,0,0:0:0:0:
448,192,252708,1,0,0:0:0:0:
64,192,252844,1,0,0:0:0:0:
192,192,252844,1,0,0:0:0:0:
64,192,252980,1,0,0:0:0:0:
320,192,252980,1,0,0:0:0:0:
448,192,252980,1,0,0:0:0:0:
192,192,253117,1,0,0:0:0:0:
64,192,253253,1,0,0:0:0:0:
448,192,253253,1,0,0:0:0:0:
192,192,253390,1,0,0:0:0:0:
320,192,253390,1,0,0:0:0:0:
64,192,253390,1,0,0:0:0:0:
320,192,253526,1,0,0:0:0:0:
192,192,253662,1,0,0:0:0:0:
448,192,253662,1,0,0:0:0:0:
64,192,253799,1,0,0:0:0:0:
320,192,253799,1,0,0:0:0:0:
448,192,253867,1,0,0:0:0:0:
192,192,253935,1,0,0:0:0:0:
64,192,253935,1,0,0:0:0:0:
192,192,254071,1,0,0:0:0:0:
320,192,254071,1,0,0:0:0:0:
448,192,254071,1,0,0:0:0:0:
320,192,254208,1,0,0:0:0:0:
448,192,254344,1,0,0:0:0:0:
64,192,254344,1,0,0:0:0:0:
64,192,254480,1,0,0:0:0:0:
192,192,254480,1,0,0:0:0:0:
320,192,254480,1,0,0:0:0:0:
448,192,254617,1,0,0:0:0:0:
320,192,254753,1,0,0:0:0:0:
64,192,254753,1,0,0:0:0:0:
192,192,254821,1,0,0:0:0:0:
320,192,254890,1,0,0:0:0:0:
448,192,254890,1,0,0:0:0:0:
64,192,255026,1,0,0:0:0:0:
192,192,255026,1,0,0:0:0:0:
64,192,255162,1,0,0:0:0:0:
320,192,255162,1,0,0:0:0:0:
448,192,255162,1,0,0:0:0:0:
192,192,255299,1,0,0:0:0:0:
448,192,255435,1,0,0:0:0:0:
64,192,255435,1,0,0:0:0:0:
192,192,255571,1,0,0:0:0:0:
320,192,255571,1,0,0:0:0:0:
448,192,255571,1,0,0:0:0:0:
64,192,255708,1,0,0:0:0:0:
192,192,255844,1,0,0:0:0:0:
320,192,255844,1,0,0:0:0:0:
64,192,255980,1,0,0:0:0:0:
320,192,255980,1,0,0:0:0:0:
448,192,256049,1,0,0:0:0:0:
192,192,256117,1,0,0:0:0:0:
64,192,256253,1,0,0:0:0:0:
192,192,256253,1,0,0:0:0:0:
448,192,256253,1,0,0:0:0:0:
320,192,256390,1,0,0:0:0:0:
64,192,256526,1,0,0:0:0:0:
192,192,256662,1,0,0:0:0:0:
448,192,256662,1,0,0:0:0:0:
320,192,256662,1,0,0:0:0:0:
64,192,256799,1,0,0:0:0:0:
320,192,256867,1,0,0:0:0:0:
448,192,256935,1,0,0:0:0:0:
192,192,256935,1,0,0:0:0:0:
64,192,257071,1,0,0:0:0:0:
320,192,257071,1,0,0:0:0:0:
64,192,257208,1,0,0:0:0:0:
448,192,257344,1,0,0:0:0:0:
192,192,257344,1,0,0:0:0:0:
320,192,257344,1,0,0:0:0:0:
64,192,257480,1,0,0:0:0:0:
192,192,257617,1,0,0:0:0:0:
448,192,257617,1,0,0:0:0:0:
320,192,257685,1,0,0:0:0:0:
448,192,257753,1,0,0:0:0:0:
192,192,257753,1,0,0:0:0:0:
64,192,257753,1,0,0:0:0:0:
64,192,257890,1,0,0:0:0:0:
320,192,258026,1,0,0:0:0:0:
64,192,258162,1,0,0:0:0:0:
448,192,258162,1,0,0:0:0:0:
320,192,258230,1,0,0:0:0:0:
192,192,258299,1,0,0:0:0:0:
448,192,258367,1,0,0:0:0:0:
320,192,258435,1,0,0:0:0:0:
192,192,258435,1,0,0:0:0:0:
64,192,258435,1,0,0:0:0:0:
320,192,258571,1,0,0:0:0:0:
64,192,258708,1,0,0:0:0:0:
192,192,258844,1,0,0:0:0:0:
320,192,258844,1,0,0:0:0:0:
448,192,258844,1,0,0:0:0:0:
64,192,258980,1,0,0:0:0:0:
320,192,259049,1,0,0:0:0:0:
448,192,259117,1,0,0:0:0:0:
64,192,259185,1,0,0:0:0:0:
192,192,259253,1,0,0:0:0:0:
320,192,259253,1,0,0:0:0:0:
192,192,259390,1,0,0:0:0:0:
320,192,259458,1,0,0:0:0:0:
192,192,259526,1,0,0:0:0:0:
64,192,259526,1,0,0:0:0:0:
448,192,259526,1,0,0:0:0:0:
64,192,259662,1,0,0:0:0:0:
448,192,259799,1,0,0:0:0:0:
320,192,259799,1,0,0:0:0:0:
320,192,259935,1,0,0:0:0:0:
192,192,259935,1,0,0:0:0:0:
64,192,259935,1,0,0:0:0:0:
320,192,260071,1,0,0:0:0:0:
192,192,260208,1,0,0:0:0:0:
448,192,260208,1,0,0:0:0:0:
64,192,260344,1,0,0:0:0:0:
320,192,260344,1,0,0:0:0:0:
192,192,260412,1,0,0:0:0:0:
448,192,260480,1,0,0:0:0:0:
64,192,260549,1,0,0:0:0:0:
448,192,260617,1,0,0:0:0:0:
192,192,260617,1,0,0:0:0:0:
320,192,260617,1,0,0:0:0:0:
64,192,260753,1,0,0:0:0:0:
320,192,260821,1,0,0:0:0:0:
448,192,260890,1,0,0:0:0:0:
320,192,261026,1,0,0:0:0:0:
64,192,261026,1,0,0:0:0:0:
448,192,261026,1,0,0:0:0:0:
192,192,261162,1,0,0:0:0:0:
448,192,261230,1,0,0:0:0:0:
320,192,261299,1,0,0:0:0:0:
64,192,261367,1,0,0:0:0:0:
192,192,261435,1,0,0:0:0:0:
448,192,261435,1,0,0:0:0:0:
320,192,261571,1,0,0:0:0:0:
64,192,261640,1,0,0:0:0:0:
192,192,261708,1,0,0:0:0:0:
448,192,261708,1,0,0:0:0:0:
320,192,261708,1,0,0:0:0:0:
64,192,261844,1,0,0:0:0:0:
320,192,261912,1,0,0:0:0:0:
192,192,261980,1,0,0:0:0:0:
448,192,261980,1,0,0:0:0:0:
64,192,262117,1,0,0:0:0:0:
320,192,262117,1,0,0:0:0:0:
448,192,262117,1,0,0:0:0:0:
192,192,262253,1,0,0:0:0:0:
448,192,262390,1,0,0:0:0:0:
64,192,262458,1,0,0:0:0:0:
192,192,262526,1,0,0:0:0:0:
320,192,262526,1,0,0:0:0:0:
64,192,262662,1,0,0:0:0:0:
448,192,262662,1,0,0:0:0:0:
320,192,262799,128,0,263344:0:0:0:0:
64,192,263344,128,0,263890:0:0:0:0:
192,192,263890,1,0,0:0:0:0:
320,192,263890,1,0,0:0:0:0:
448,192,263890,1,0,0:0:0:0:
192,192,264026,1,0,0:0:0:0:
64,192,264162,1,0,0:0:0:0:
320,192,264162,1,0,0:0:0:0:
448,192,264162,1,0,0:0:0:0:
448,192,264299,1,0,0:0:0:0:
192,192,264435,1,0,0:0:0:0:
320,192,264435,1,0,0:0:0:0:
64,192,264435,1,0,0:0:0:0:
64,192,264571,1,0,0:0:0:0:
192,192,264708,1,0,0:0:0:0:
320,192,264708,1,0,0:0:0:0:
448,192,264708,1,0,0:0:0:0:
320,192,264844,1,0,0:0:0:0:
448,192,264980,1,0,0:0:0:0:
64,192,264980,1,0,0:0:0:0:
192,192,264980,1,0,0:0:0:0:
64,192,265117,1,0,0:0:0:0:
192,192,265253,1,0,0:0:0:0:
320,192,265253,1,0,0:0:0:0:
448,192,265253,1,0,0:0:0:0:
192,192,265390,1,0,0:0:0:0:
448,192,265526,1,0,0:0:0:0:
64,192,265526,1,0,0:0:0:0:
320,192,265526,1,0,0:0:0:0:
448,192,265662,1,0,0:0:0:0:
64,192,265799,1,0,0:0:0:0:
192,192,265799,1,0,0:0:0:0:
320,192,265799,1,0,0:0:0:0:
64,192,265935,1,0,0:0:0:0:
320,192,266071,1,0,0:0:0:0:
448,192,266071,1,0,0:0:0:0:
192,192,266071,1,0,0:0:0:0:
320,192,266208,1,0,0:0:0:0:
448,192,266344,1,0,0:0:0:0:
192,192,266344,1,0,0:0:0:0:
64,192,266344,1,0,0:0:0:0:
64,192,266480,1,0,0:0:0:0:
192,192,266617,1,0,0:0:0:0:
320,192,266617,1,0,0:0:0:0:
448,192,266617,1,0,0:0:0:0:
448,192,266753,1,0,0:0:0:0:
320,192,266890,1,0,0:0:0:0:
192,192,266890,1,0,0:0:0:0:
64,192,266890,1,0,0:0:0:0:
192,192,267026,1,0,0:0:0:0:
64,192,267162,1,0,0:0:0:0:
320,192,267162,1,0,0:0:0:0:
448,192,267162,1,0,0:0:0:0:
64,192,267299,1,0,0:0:0:0:
192,192,267435,1,0,0:0:0:0:
320,192,267435,1,0,0:0:0:0:
448,192,267435,1,0,0:0:0:0:
320,192,267571,1,0,0:0:0:0:
448,192,267708,1,0,0:0:0:0:
192,192,267708,1,0,0:0:0:0:
64,192,267708,1,0,0:0:0:0:
64,192,267844,1,0,0:0:0:0:
320,192,267980,1,0,0:0:0:0:
192,192,267980,1,0,0:0:0:0:
448,192,267980,1,0,0:0:0:0:
448,192,268117,1,0,0:0:0:0:
320,192,268253,1,0,0:0:0:0:
192,192,268253,1,0,0:0:0:0:
64,192,268253,1,0,0:0:0:0:
192,192,268390,1,0,0:0:0:0:
64,192,268526,1,0,0:0:0:0:
320,192,268526,1,0,0:0:0:0:
448,192,268526,1,0,0:0:0:0:
320,192,268662,1,0,0:0:0:0:
448,192,268799,1,0,0:0:0:0:
192,192,268799,1,0,0:0:0:0:
64,192,268799,1,0,0:0:0:0:
64,192,268935,1,0,0:0:0:0:
192,192,269071,1,0,0:0:0:0:
448,192,269071,1,0,0:0:0:0:
320,192,269071,1,0,0:0:0:0:
448,192,269208,1,0,0:0:0:0:
320,192,269344,1,0,0:0:0:0:
192,192,269344,1,0,0:0:0:0:
64,192,269344,1,0,0:0:0:0:
64,192,269480,1,0,0:0:0:0:
192,192,269617,1,0,0:0:0:0:
320,192,269617,1,0,0:0:0:0:
448,192,269617,1,0,0:0:0:0:
320,192,269753,1,0,0:0:0:0:
448,192,269890,1,0,0:0:0:0:
192,192,269890,1,0,0:0:0:0:
64,192,269890,1,0,0:0:0:0:
448,192,270026,1,0,0:0:0:0:
320,192,270162,1,0,0:0:0:0:
192,192,270162,1,0,0:0:0:0:
64,192,270162,1,0,0:0:0:0:
192,192,270299,1,0,0:0:0:0:
320,192,270435,1,0,0:0:0:0:
448,192,270435,1,0,0:0:0:0:
64,192,270435,1,0,0:0:0:0:
320,192,270571,1,0,0:0:0:0:
448,192,270708,1,0,0:0:0:0:
192,192,270708,1,0,0:0:0:0:
64,192,270708,1,0,0:0:0:0:
64,192,270844,1,0,0:0:0:0:
192,192,270980,1,0,0:0:0:0:
320,192,270980,1,0,0:0:0:0:
448,192,270980,1,0,0:0:0:0:
448,192,271117,1,0,0:0:0:0:
320,192,271253,1,0,0:0:0:0:
192,192,271253,1,0,0:0:0:0:
64,192,271253,1,0,0:0:0:0:
64,192,271390,1,0,0:0:0:0:
192,192,271526,1,0,0:0:0:0:
320,192,271526,1,0,0:0:0:0:
448,192,271526,1,0,0:0:0:0:
64,192,271662,1,0,0:0:0:0:
320,192,271662,1,0,0:0:0:0:
448,192,271799,1,0,0:0:0:0:
192,192,271799,1,0,0:0:0:0:
192,192,271935,1,0,0:0:0:0:
448,192,271935,1,0,0:0:0:0:
64,192,272071,1,0,0:0:0:0:
320,192,272071,1,0,0:0:0:0:
320,192,272208,1,0,0:0:0:0:
64,192,272208,1,0,0:0:0:0:
64,192,272344,1,0,0:0:0:0:
448,192,272344,1,0,0:0:0:0:
192,192,272480,1,0,0:0:0:0:
448,192,272480,1,0,0:0:0:0:
64,192,272617,1,0,0:0:0:0:
192,192,272617,1,0,0:0:0:0:
320,192,272617,1,0,0:0:0:0:
320,192,272753,1,0,0:0:0:0:
192,192,272890,1,0,0:0:0:0:
448,192,272890,1,0,0:0:0:0:
64,192,272890,1,0,0:0:0:0:
64,192,273026,1,0,0:0:0:0:
192,192,273162,1,0,0:0:0:0:
320,192,273162,1,0,0:0:0:0:
448,192,273162,1,0,0:0:0:0:
192,192,273299,1,0,0:0:0:0:
320,192,273435,1,0,0:0:0:0:
448,192,273435,1,0,0:0:0:0:
64,192,273435,1,0,0:0:0:0:
448,192,273571,1,0,0:0:0:0:
320,192,273708,1,0,0:0:0:0:
192,192,273708,1,0,0:0:0:0:
64,192,273708,1,0,0:0:0:0:
64,192,273844,1,0,0:0:0:0:
192,192,273980,1,0,0:0:0:0:
320,192,273980,1,0,0:0:0:0:
448,192,273980,1,0,0:0:0:0:
320,192,274117,1,0,0:0:0:0:
448,192,274253,1,0,0:0:0:0:
192,192,274253,1,0,0:0:0:0:
64,192,274253,1,0,0:0:0:0:
192,192,274390,1,0,0:0:0:0:
64,192,274526,1,0,0:0:0:0:
320,192,274526,1,0,0:0:0:0:
448,192,274526,1,0,0:0:0:0:
448,192,274662,1,0,0:0:0:0:
320,192,274799,1,0,0:0:0:0:
192,192,274799,1,0,0:0:0:0:
64,192,274799,1,0,0:0:0:0:
320,192,274935,1,0,0:0:0:0:
448,192,275071,1,0,0:0:0:0:
192,192,275071,1,0,0:0:0:0:
64,192,275071,1,0,0:0:0:0:
64,192,275208,1,0,0:0:0:0:
192,192,275344,1,0,0:0:0:0:
320,192,275344,1,0,0:0:0:0:
448,192,275344,1,0,0:0:0:0:
192,192,275480,1,0,0:0:0:0:
320,192,275617,1,0,0:0:0:0:
448,192,275617,1,0,0:0:0:0:
64,192,275617,1,0,0:0:0:0:
448,192,275753,1,0,0:0:0:0:
320,192,275890,1,0,0:0:0:0:
192,192,275890,1,0,0:0:0:0:
64,192,275890,1,0,0:0:0:0:
64,192,276026,1,0,0:0:0:0:
192,192,276162,1,0,0:0:0:0:
320,192,276162,1,0,0:0:0:0:
448,192,276162,1,0,0:0:0:0:
320,192,276299,1,0,0:0:0:0:
448,192,276435,1,0,0:0:0:0:
192,192,276435,1,0,0:0:0:0:
64,192,276435,1,0,0:0:0:0:
448,192,276571,1,0,0:0:0:0:
320,192,276708,1,0,0:0:0:0:
192,192,276708,1,0,0:0:0:0:
64,192,276708,1,0,0:0:0:0:
64,192,276844,1,0,0:0:0:0:
192,192,276980,1,0,0:0:0:0:
448,192,276980,1,0,0:0:0:0:
320,192,276980,1,0,0:0:0:0:
192,192,277117,1,0,0:0:0:0:
64,192,277253,1,0,0:0:0:0:
320,192,277253,1,0,0:0:0:0:
448,192,277253,1,0,0:0:0:0:
320,192,277390,1,0,0:0:0:0:
448,192,277526,1,0,0:0:0:0:
192,192,277526,1,0,0:0:0:0:
64,192,277526,1,0,0:0:0:0:
64,192,277662,1,0,0:0:0:0:
192,192,277799,1,0,0:0:0:0:
320,192,277799,1,0,0:0:0:0:
448,192,277799,1,0,0:0:0:0:
192,192,277935,1,0,0:0:0:0:
64,192,278071,1,0,0:0:0:0:
320,192,278071,1,0,0:0:0:0:
448,192,278071,1,0,0:0:0:0:
320,192,278208,1,0,0:0:0:0:
448,192,278344,1,0,0:0:0:0:
192,192,278344,1,0,0:0:0:0:
64,192,278344,1,0,0:0:0:0:
64,192,278480,1,0,0:0:0:0:
192,192,278617,1,0,0:0:0:0:
320,192,278617,1,0,0:0:0:0:
448,192,278617,1,0,0:0:0:0:
448,192,278753,1,0,0:0:0:0:
320,192,278890,1,0,0:0:0:0:
192,192,278890,1,0,0:0:0:0:
64,192,278890,1,0,0:0:0:0:
192,192,279026,1,0,0:0:0:0:
64,192,279162,1,0,0:0:0:0:
320,192,279162,1,0,0:0:0:0:
448,192,279162,1,0,0:0:0:0:
448,192,279299,1,0,0:0:0:0:
320,192,279435,1,0,0:0:0:0:
192,192,279435,1,0,0:0:0:0:
64,192,279435,1,0,0:0:0:0:
64,192,279571,1,0,0:0:0:0:
192,192,279708,1,0,0:0:0:0:
448,192,279708,1,0,0:0:0:0:
320,192,279708,1,0,0:0:0:0:
320,192,279844,1,0,0:0:0:0:
192,192,279980,1,0,0:0:0:0:
448,192,279980,1,0,0:0:0:0:
64,192,279980,1,0,0:0:0:0:
64,192,280117,1,0,0:0:0:0:
448,192,280253,128,0,280799:0:0:0:0:
64,192,280799,128,0,281344:0:0:0:0:
320,192,281344,1,0,0:0:0:0:
192,192,281344,128,0,281617:0:0:0:0:
448,192,281344,128,0,282162:0:0:0:0:
192,192,281958,1,0,0:0:0:0:
64,192,282162,128,0,282980:0:0:0:0:
320,192,282162,1,0,0:0:0:0:
192,192,282299,1,0,0:0:0:0:
448,192,282571,1,0,0:0:0:0:
320,192,282980,128,0,283526:0:0:0:0:
192,192,282980,1,0,0:0:0:0:
448,192,283390,1,0,0:0:0:0:
192,192,283526,128,0,284617:0:0:0:0:
64,192,283526,128,0,283935:0:0:0:0:
320,192,283935,1,0,0:0:0:0:
448,192,284071,1,0,0:0:0:0:
320,192,284208,1,0,0:0:0:0:
64,192,284344,1,0,0:0:0:0:
448,192,284617,128,0,285162:0:0:0:0:
320,192,284617,1,0,0:0:0:0:
192,192,284890,1,0,0:0:0:0:
64,192,285162,128,0,285708:0:0:0:0:
320,192,285162,1,0,0:0:0:0:
448,192,285435,1,0,0:0:0:0:
448,192,285708,128,0,286526:0:0:0:0:
320,192,285844,1,0,0:0:0:0:
64,192,286253,1,0,0:0:0:0:
320,192,286526,128,0,287344:0:0:0:0:
192,192,286662,1,0,0:0:0:0:
448,192,287003,1,0,0:0:0:0:
64,192,287344,128,0,287890:0:0:0:0:
192,192,287344,1,0,0:0:0:0:
448,192,287890,128,0,288980:0:0:0:0:
320,192,287890,1,0,0:0:0:0:
64,192,288299,1,0,0:0:0:0:
192,192,288435,1,0,0:0:0:0:
320,192,288571,1,0,0:0:0:0:
64,192,288844,1,0,0:0:0:0:
192,192,288980,128,0,289526:0:0:0:0:
320,192,288980,1,0,0:0:0:0:
64,192,289253,1,0,0:0:0:0:
320,192,289526,128,0,290071:0:0:0:0:
448,192,289526,1,0,0:0:0:0:
192,192,289799,1,0,0:0:0:0:
64,192,290071,1,0,0:0:0:0:
192,192,290071,1,0,0:0:0:0:
448,192,290071,128,0,290617:0:0:0:0:
320,192,290344,1,0,0:0:0:0:
64,192,290480,1,0,0:0:0:0:
320,192,290617,1,0,0:0:0:0:
192,192,290617,1,0,0:0:0:0:
192,192,290753,1,0,0:0:0:0:
448,192,290753,1,0,0:0:0:0:
64,192,290890,1,0,0:0:0:0:
448,192,290958,1,0,0:0:0:0:
192,192,291026,1,0,0:0:0:0:
320,192,291094,1,0,0:0:0:0:
64,192,291162,1,0,0:0:0:0:
192,192,291162,1,0,0:0:0:0:
448,192,291162,1,0,0:0:0:0:
64,192,291299,1,0,0:0:0:0:
320,192,291299,1,0,0:0:0:0:
192,192,291435,1,0,0:0:0:0:
320,192,291571,1,0,0:0:0:0:
64,192,291571,1,0,0:0:0:0:
448,192,291571,1,0,0:0:0:0:
64,192,291708,1,0,0:0:0:0:
192,192,291708,1,0,0:0:0:0:
320,192,291844,1,0,0:0:0:0:
448,192,291980,1,0,0:0:0:0:
64,192,291980,1,0,0:0:0:0:
320,192,292049,1,0,0:0:0:0:
192,192,292117,1,0,0:0:0:0:
64,192,292185,1,0,0:0:0:0:
192,192,292253,1,0,0:0:0:0:
320,192,292253,1,0,0:0:0:0:
448,192,292253,1,0,0:0:0:0:
320,192,292390,1,0,0:0:0:0:
64,192,292390,1,0,0:0:0:0:
192,192,292526,1,0,0:0:0:0:
320,192,292662,1,0,0:0:0:0:
64,192,292662,1,0,0:0:0:0:
448,192,292662,1,0,0:0:0:0:
192,192,292799,1,0,0:0:0:0:
448,192,292799,1,0,0:0:0:0:
64,192,292935,1,0,0:0:0:0:
320,192,293071,1,0,0:0:0:0:
192,192,293071,1,0,0:0:0:0:
64,192,293208,1,0,0:0:0:0:
448,192,293276,1,0,0:0:0:0:
320,192,293344,1,0,0:0:0:0:
192,192,293344,1,0,0:0:0:0:
64,192,293344,1,0,0:0:0:0:
448,192,293480,1,0,0:0:0:0:
192,192,293480,1,0,0:0:0:0:
320,192,293617,1,0,0:0:0:0:
64,192,293753,1,0,0:0:0:0:
448,192,293753,1,0,0:0:0:0:
192,192,293753,1,0,0:0:0:0:
320,192,293890,1,0,0:0:0:0:
192,192,293890,1,0,0:0:0:0:
448,192,294026,1,0,0:0:0:0:
64,192,294026,1,0,0:0:0:0:
64,192,294162,1,0,0:0:0:0:
320,192,294162,1,0,0:0:0:0:
192,192,294230,1,0,0:0:0:0:
448,192,294299,1,0,0:0:0:0:
320,192,294367,1,0,0:0:0:0:
448,192,294435,1,0,0:0:0:0:
192,192,294435,1,0,0:0:0:0:
64,192,294435,128,0,295253:0:0:0:0:
320,192,294571,1,0,0:0:0:0:
448,192,294708,1,0,0:0:0:0:
320,192,294708,1,0,0:0:0:0:
448,192,294844,1,0,0:0:0:0:
192,192,294980,1,0,0:0:0:0:
320,192,294980,1,0,0:0:0:0:
448,192,295117,1,0,0:0:0:0:
192,192,295117,1,0,0:0:0:0:
320,192,295253,128,0,296071:0:0:0:0:
448,192,295253,1,0,0:0:0:0:
192,192,295390,1,0,0:0:0:0:
448,192,295458,1,0,0:0:0:0:
192,192,295526,1,0,0:0:0:0:
64,192,295526,1,0,0:0:0:0:
448,192,295662,1,0,0:0:0:0:
64,192,295799,1,0,0:0:0:0:
448,192,295799,1,0,0:0:0:0:
64,192,295935,1,0,0:0:0:0:
192,192,295935,1,0,0:0:0:0:
192,192,296071,128,0,296617:0:0:0:0:
448,192,296071,1,0,0:0:0:0:
64,192,296208,1,0,0:0:0:0:
448,192,296344,128,0,296617:0:0:0:0:
320,192,296617,1,0,0:0:0:0:
64,192,296617,1,0,0:0:0:0:
192,192,296753,1,0,0:0:0:0:
448,192,296753,1,0,0:0:0:0:
448,192,296890,1,0,0:0:0:0:
192,192,296890,1,0,0:0:0:0:
64,192,297026,1,0,0:0:0:0:
320,192,297026,1,0,0:0:0:0:
448,192,297026,1,0,0:0:0:0:
192,192,297094,1,0,0:0:0:0:
320,192,297162,1,0,0:0:0:0:
64,192,297162,1,0,0:0:0:0:
448,192,297230,1,0,0:0:0:0:
320,192,297299,1,0,0:0:0:0:
64,192,297299,1,0,0:0:0:0:
192,192,297435,1,0,0:0:0:0:
448,192,297435,1,0,0:0:0:0:
320,192,297503,1,0,0:0:0:0:
448,192,297571,1,0,0:0:0:0:
64,192,297571,1,0,0:0:0:0:
64,192,297708,1,0,0:0:0:0:
192,192,297708,1,0,0:0:0:0:
320,192,297708,1,0,0:0:0:0:
192,192,297844,1,0,0:0:0:0:
448,192,297844,1,0,0:0:0:0:
64,192,297980,1,0,0:0:0:0:
320,192,297980,1,0,0:0:0:0:
192,192,298117,1,0,0:0:0:0:
64,192,298117,1,0,0:0:0:0:
448,192,298253,1,0,0:0:0:0:
192,192,298253,1,0,0:0:0:0:
64,192,298390,1,0,0:0:0:0:
448,192,298390,1,0,0:0:0:0:
320,192,298526,1,0,0:0:0:0:
192,192,298526,1,0,0:0:0:0:
64,192,298662,1,0,0:0:0:0:
448,192,298662,1,0,0:0:0:0:
320,192,298730,1,0,0:0:0:0:
64,192,298799,1,0,0:0:0:0:
192,192,298799,128,0,299480:0:0:0:0:
448,192,298799,1,0,0:0:0:0:
64,192,299071,1,0,0:0:0:0:
320,192,299208,1,0,0:0:0:0:
64,192,299480,1,0,0:0:0:0:
448,192,299617,1,0,0:0:0:0:
320,192,299890,1,0,0:0:0:0:
64,192,300162,1,0,0:0:0:0:
448,192,300299,1,0,0:0:0:0:
192,192,300571,1,0,0:0:0:0:
448,192,300708,1,0,0:0:0:0:
320,192,300980,1,0,0:0:0:0:
64,192,301253,1,0,0:0:0:0:
320,192,301390,1,0,0:0:0:0:
448,192,301662,1,0,0:0:0:0:
192,192,301799,1,0,0:0:0:0:
448,192,302071,1,0,0:0:0:0:
320,192,302344,1,0,0:0:0:0:
64,192,302480,1,0,0:0:0:0:
192,192,302753,1,0,0:0:0:0:
64,192,302890,1,0,0:0:0:0:
192,192,303162,1,0,0:0:0:0:
448,192,303162,1,0,0:0:0:0:
64,192,303162,128,0,303844:0:0:0:0:
320,192,303435,1,0,0:0:0:0:
448,192,303571,1,0,0:0:0:0:
320,192,303844,1,0,0:0:0:0:
192,192,303980,1,0,0:0:0:0:
320,192,304253,1,0,0:0:0:0:
64,192,304253,1,0,0:0:0:0:
448,192,304253,128,0,304935:0:0:0:0:
192,192,304526,1,0,0:0:0:0:
320,192,304662,1,0,0:0:0:0:
64,192,304935,1,0,0:0:0:0:
320,192,305071,1,0,0:0:0:0:
448,192,305344,1,0,0:0:0:0:
64,192,305344,1,0,0:0:0:0:
192,192,305344,128,0,305617:0:0:0:0:
448,192,305617,1,0,0:0:0:0:
64,192,305753,1,0,0:0:0:0:
320,192,305890,128,0,306162:0:0:0:0:
192,192,306026,1,0,0:0:0:0:
448,192,306162,1,0,0:0:0:0:
64,192,306435,1,0,0:0:0:0:
448,192,306435,1,0,0:0:0:0:
320,192,306435,128,0,306571:0:0:0:0:
448,192,306708,128,0,306844:0:0:0:0:
192,192,306708,1,0,0:0:0:0:
64,192,306708,1,0,0:0:0:0:
320,192,306844,1,0,0:0:0:0:
64,192,306980,1,0,0:0:0:0:
320,192,306980,1,0,0:0:0:0:
192,192,307117,1,0,0:0:0:0:
448,192,307117,1,0,0:0:0:0:
320,192,307253,128,0,307390:0:0:0:0:
192,192,307253,128,0,307390:0:0:0:0:
448,192,307526,1,0,0:0:0:0:
64,192,307526,1,0,0:0:0:0:
320,192,307526,1,0,0:0:0:0:
192,192,307662,1,0,0:0:0:0:
448,192,307799,1,0,0:0:0:0:
64,192,307799,1,0,0:0:0:0:
192,192,307935,1,0,0:0:0:0:
320,192,307935,1,0,0:0:0:0:
64,192,307935,1,0,0:0:0:0:
448,192,308071,1,0,0:0:0:0:
192,192,308208,1,0,0:0:0:0:
320,192,308208,1,0,0:0:0:0:
64,192,308344,1,0,0:0:0:0:
448,192,308344,1,0,0:0:0:0:
320,192,308412,1,0,0:0:0:0:
192,192,308480,1,0,0:0:0:0:
448,192,308480,1,0,0:0:0:0:
320,192,308617,1,0,0:0:0:0:
192,192,308617,1,0,0:0:0:0:
64,192,308617,1,0,0:0:0:0:
448,192,308753,1,0,0:0:0:0:
320,192,308890,1,0,0:0:0:0:
64,192,308890,1,0,0:0:0:0:
192,192,309026,1,0,0:0:0:0:
448,192,309026,1,0,0:0:0:0:
64,192,309026,1,0,0:0:0:0:
320,192,309162,1,0,0:0:0:0:
192,192,309299,1,0,0:0:0:0:
448,192,309299,1,0,0:0:0:0:
64,192,309435,1,0,0:0:0:0:
320,192,309435,1,0,0:0:0:0:
448,192,309503,1,0,0:0:0:0:
320,192,309571,1,0,0:0:0:0:
192,192,309571,1,0,0:0:0:0:
448,192,309640,1,0,0:0:0:0:
192,192,309708,1,0,0:0:0:0:
320,192,309708,1,0,0:0:0:0:
64,192,309708,1,0,0:0:0:0:
448,192,309844,1,0,0:0:0:0:
64,192,309980,1,0,0:0:0:0:
320,192,309980,1,0,0:0:0:0:
64,192,310117,1,0,0:0:0:0:
192,192,310117,1,0,0:0:0:0:
448,192,310117,1,0,0:0:0:0:
320,192,310253,1,0,0:0:0:0:
192,192,310390,1,0,0:0:0:0:
448,192,310390,1,0,0:0:0:0:
64,192,310526,1,0,0:0:0:0:
320,192,310526,1,0,0:0:0:0:
448,192,310594,1,0,0:0:0:0:
64,192,310662,1,0,0:0:0:0:
192,192,310662,1,0,0:0:0:0:
192,192,310799,1,0,0:0:0:0:
320,192,310799,1,0,0:0:0:0:
448,192,310799,1,0,0:0:0:0:
64,192,310935,1,0,0:0:0:0:
320,192,310935,1,0,0:0:0:0:
192,192,311071,1,0,0:0:0:0:
448,192,311071,1,0,0:0:0:0:
320,192,311208,1,0,0:0:0:0:
192,192,311208,1,0,0:0:0:0:
64,192,311208,1,0,0:0:0:0:
448,192,311344,1,0,0:0:0:0:
192,192,311480,1,0,0:0:0:0:
320,192,311480,1,0,0:0:0:0:
64,192,311617,1,0,0:0:0:0:
448,192,311617,1,0,0:0:0:0:
320,192,311685,1,0,0:0:0:0:
448,192,311753,1,0,0:0:0:0:
192,192,311753,1,0,0:0:0:0:
320,192,311821,1,0,0:0:0:0:
192,192,311890,1,0,0:0:0:0:
64,192,311890,1,0,0:0:0:0:
448,192,311890,1,0,0:0:0:0:
320,192,312026,1,0,0:0:0:0:
64,192,312162,1,0,0:0:0:0:
448,192,312162,1,0,0:0:0:0:
192,192,312299,1,0,0:0:0:0:
320,192,312299,1,0,0:0:0:0:
64,192,312299,1,0,0:0:0:0:
320,192,312435,1,0,0:0:0:0:
448,192,312571,1,0,0:0:0:0:
192,192,312571,1,0,0:0:0:0:
64,192,312708,1,0,0:0:0:0:
320,192,312708,1,0,0:0:0:0:
192,192,312776,1,0,0:0:0:0:
448,192,312844,1,0,0:0:0:0:
320,192,312844,1,0,0:0:0:0:
448,192,312980,1,0,0:0:0:0:
192,192,312980,1,0,0:0:0:0:
64,192,312980,1,0,0:0:0:0:
320,192,313117,1,0,0:0:0:0:
64,192,313253,1,0,0:0:0:0:
448,192,313253,1,0,0:0:0:0:
192,192,313390,1,0,0:0:0:0:
320,192,313390,1,0,0:0:0:0:
64,192,313390,1,0,0:0:0:0:
192,192,313526,1,0,0:0:0:0:
448,192,313662,1,0,0:0:0:0:
320,192,313662,1,0,0:0:0:0:
64,192,313799,1,0,0:0:0:0:
448,192,313799,1,0,0:0:0:0:
192,192,313867,1,0,0:0:0:0:
320,192,313935,1,0,0:0:0:0:
64,192,313935,1,0,0:0:0:0:
448,192,314003,1,0,0:0:0:0:
320,192,314071,1,0,0:0:0:0:
64,192,314071,1,0,0:0:0:0:
192,192,314071,1,0,0:0:0:0:
192,192,314208,1,0,0:0:0:0:
64,192,314344,1,0,0:0:0:0:
448,192,314344,1,0,0:0:0:0:
192,192,314480,1,0,0:0:0:0:
320,192,314480,1,0,0:0:0:0:
448,192,314480,1,0,0:0:0:0:
64,192,314617,1,0,0:0:0:0:
448,192,314753,1,0,0:0:0:0:
320,192,314753,1,0,0:0:0:0:
64,192,314890,1,0,0:0:0:0:
448,192,314890,1,0,0:0:0:0:
192,192,314958,1,0,0:0:0:0:
320,192,315026,1,0,0:0:0:0:
64,192,315026,1,0,0:0:0:0:
192,192,315162,1,0,0:0:0:0:
320,192,315162,1,0,0:0:0:0:
448,192,315162,1,0,0:0:0:0:
64,192,315299,1,0,0:0:0:0:
448,192,315435,128,0,315571:0:0:0:0:
192,192,315435,1,0,0:0:0:0:
320,192,315571,1,0,0:0:0:0:
64,192,315571,1,0,0:0:0:0:
192,192,315571,1,0,0:0:0:0:
320,192,315708,1,0,0:0:0:0:
192,192,315844,1,0,0:0:0:0:
448,192,315844,1,0,0:0:0:0:
320,192,315912,1,0,0:0:0:0:
64,192,315980,1,0,0:0:0:0:
448,192,315980,128,0,316117:0:0:0:0:
64,192,316253,1,0,0:0:0:0:
320,192,316253,1,0,0:0:0:0:
192,192,316253,1,0,0:0:0:0:
448,192,316390,1,0,0:0:0:0:
192,192,316526,1,0,0:0:0:0:
320,192,316526,1,0,0:0:0:0:
64,192,316662,1,0,0:0:0:0:
320,192,316662,1,0,0:0:0:0:
448,192,316662,1,0,0:0:0:0:
192,192,316799,1,0,0:0:0:0:
448,192,316935,1,0,0:0:0:0:
64,192,316935,1,0,0:0:0:0:
192,192,317071,1,0,0:0:0:0:
320,192,317071,1,0,0:0:0:0:
448,192,317208,1,0,0:0:0:0:
192,192,317208,1,0,0:0:0:0:
448,192,317344,1,0,0:0:0:0:
64,192,317344,1,0,0:0:0:0:
320,192,317344,1,0,0:0:0:0:
320,192,317480,1,0,0:0:0:0:
64,192,317617,1,0,0:0:0:0:
448,192,317617,1,0,0:0:0:0:
320,192,317753,1,0,0:0:0:0:
64,192,317753,1,0,0:0:0:0:
192,192,317753,1,0,0:0:0:0:
320,192,317890,1,0,0:0:0:0:
192,192,318026,1,0,0:0:0:0:
448,192,318026,1,0,0:0:0:0:
64,192,318162,1,0,0:0:0:0:
320,192,318162,1,0,0:0:0:0:
192,192,318230,1,0,0:0:0:0:
448,192,318299,1,0,0:0:0:0:
64,192,318299,1,0,0:0:0:0:
192,192,318435,1,0,0:0:0:0:
448,192,318435,1,0,0:0:0:0:
320,192,318435,1,0,0:0:0:0:
64,192,318571,1,0,0:0:0:0:
448,192,318708,1,0,0:0:0:0:
192,192,318708,1,0,0:0:0:0:
192,192,318844,1,0,0:0:0:0:
320,192,318844,1,0,0:0:0:0:
64,192,318844,1,0,0:0:0:0:
448,192,318980,1,0,0:0:0:0:
64,192,319117,1,0,0:0:0:0:
192,192,319117,1,0,0:0:0:0:
64,192,319253,1,0,0:0:0:0:
448,192,319253,1,0,0:0:0:0:
192,192,319390,1,0,0:0:0:0:
320,192,319390,1,0,0:0:0:0:
64,192,319526,1,0,0:0:0:0:
448,192,319526,1,0,0:0:0:0:
320,192,319526,1,0,0:0:0:0:
192,192,319662,1,0,0:0:0:0:
64,192,319799,1,0,0:0:0:0:
448,192,319799,1,0,0:0:0:0:
320,192,319935,1,0,0:0:0:0:
192,192,319935,1,0,0:0:0:0:
64,192,319935,1,0,0:0:0:0:
448,192,320071,1,0,0:0:0:0:
192,192,320208,1,0,0:0:0:0:
64,192,320344,1,0,0:0:0:0:
320,192,320344,1,0,0:0:0:0:
448,192,320480,1,0,0:0:0:0:
64,192,320617,1,0,0:0:0:0:
192,192,320617,1,0,0:0:0:0:
320,192,320617,1,0,0:0:0:0:
192,192,320753,1,0,0:0:0:0:
64,192,320890,1,0,0:0:0:0:
448,192,320890,1,0,0:0:0:0:
192,192,321026,1,0,0:0:0:0:
320,192,321026,1,0,0:0:0:0:
448,192,321026,1,0,0:0:0:0:
64,192,321162,1,0,0:0:0:0:
192,192,321299,1,0,0:0:0:0:
320,192,321299,1,0,0:0:0:0:
448,192,321435,1,0,0:0:0:0:
64,192,321435,1,0,0:0:0:0:
320,192,321571,1,0,0:0:0:0:
64,192,321571,1,0,0:0:0:0:
320,192,321708,1,0,0:0:0:0:
192,192,321708,1,0,0:0:0:0:
448,192,321708,1,0,0:0:0:0:
192,192,321844,1,0,0:0:0:0:
448,192,321980,1,0,0:0:0:0:
320,192,321980,1,0,0:0:0:0:
192,192,322117,1,0,0:0:0:0:
448,192,322117,1,0,0:0:0:0:
64,192,322117,1,0,0:0:0:0:
192,192,322253,1,0,0:0:0:0:
64,192,322390,1,0,0:0:0:0:
448,192,322390,1,0,0:0:0:0:
320,192,322526,1,0,0:0:0:0:
192,192,322526,1,0,0:0:0:0:
448,192,322594,1,0,0:0:0:0:
320,192,322662,1,0,0:0:0:0:
64,192,322662,1,0,0:0:0:0:
64,192,322799,1,0,0:0:0:0:
192,192,322799,1,0,0:0:0:0:
448,192,322799,1,0,0:0:0:0:
320,192,322935,1,0,0:0:0:0:
448,192,323071,1,0,0:0:0:0:
64,192,323071,1,0,0:0:0:0:
64,192,323208,1,0,0:0:0:0:
320,192,323208,1,0,0:0:0:0:
192,192,323208,1,0,0:0:0:0:
320,192,323344,1,0,0:0:0:0:
192,192,323480,1,0,0:0:0:0:
448,192,323480,1,0,0:0:0:0:
448,192,323617,1,0,0:0:0:0:
64,192,323617,1,0,0:0:0:0:
320,192,323685,1,0,0:0:0:0:
192,192,323753,1,0,0:0:0:0:
64,192,323753,1,0,0:0:0:0:
448,192,323821,1,0,0:0:0:0:
64,192,323890,1,0,0:0:0:0:
320,192,323890,1,0,0:0:0:0:
192,192,323890,128,0,324026:0:0:0:0:
448,192,324026,128,0,324162:0:0:0:0:
320,192,324026,1,0,0:0:0:0:
64,192,324162,128,0,324299:0:0:0:0:
192,192,324162,1,0,0:0:0:0:
320,192,324299,128,0,324435:0:0:0:0:
448,192,324299,1,0,0:0:0:0:
192,192,324435,128,0,324571:0:0:0:0:
448,192,324435,1,0,0:0:0:0:
320,192,324571,1,0,0:0:0:0:
64,192,324571,1,0,0:0:0:0:
192,192,324708,1,0,0:0:0:0:
448,192,324708,1,0,0:0:0:0:
320,192,324844,128,0,324980:0:0:0:0:
192,192,324980,1,0,0:0:0:0:
448,192,324980,1,0,0:0:0:0:
64,192,324980,128,0,325526:0:0:0:0:
448,192,325117,1,0,0:0:0:0:
320,192,325253,1,0,0:0:0:0:
320,192,325390,1,0,0:0:0:0:
448,192,325526,128,0,325935:0:0:0:0:
192,192,325526,1,0,0:0:0:0:
192,192,325662,1,0,0:0:0:0:
320,192,325799,1,0,0:0:0:0:
192,192,325935,128,0,326344:0:0:0:0:
320,192,325935,1,0,0:0:0:0:
64,192,326071,1,0,0:0:0:0:
64,192,326208,1,0,0:0:0:0:
320,192,326344,128,0,326617:0:0:0:0:
448,192,326344,1,0,0:0:0:0:
448,192,326480,1,0,0:0:0:0:
448,192,326617,128,0,326890:0:0:0:0:
64,192,326617,1,0,0:0:0:0:
64,192,326753,1,0,0:0:0:0:
64,192,327026,1,0,0:0:0:0:
192,192,327026,1,0,0:0:0:0:
192,192,327162,128,0,327708:0:0:0:0:
320,192,327162,1,0,0:0:0:0:
320,192,327299,1,0,0:0:0:0:
448,192,327435,1,0,0:0:0:0:
448,192,327571,1,0,0:0:0:0:
320,192,327708,1,0,0:0:0:0:
64,192,327708,1,0,0:0:0:0:
192,192,327844,1,0,0:0:0:0:
320,192,327844,1,0,0:0:0:0:
64,192,327980,1,0,0:0:0:0:
448,192,327980,128,0,328117:0:0:0:0:
64,192,328117,1,0,0:0:0:0:
192,192,328253,128,0,328526:0:0:0:0:
320,192,328253,1,0,0:0:0:0:
320,192,328390,1,0,0:0:0:0:
448,192,328526,128,0,328799:0:0:0:0:
64,192,328526,1,0,0:0:0:0:
64,192,328662,1,0,0:0:0:0:
320,192,328799,128,0,329071:0:0:0:0:
192,192,328799,1,0,0:0:0:0:
192,192,328935,1,0,0:0:0:0:
64,192,329071,128,0,329344:0:0:0:0:
448,192,329071,1,0,0:0:0:0:
448,192,329208,1,0,0:0:0:0:
192,192,329344,1,0,0:0:0:0:
192,192,329480,1,0,0:0:0:0:
320,192,329480,128,0,329890:0:0:0:0:
448,192,329617,1,0,0:0:0:0:
448,192,329753,1,0,0:0:0:0:
64,192,329890,128,0,330299:0:0:0:0:
192,192,329890,1,0,0:0:0:0:
192,192,330026,1,0,0:0:0:0:
448,192,330162,1,0,0:0:0:0:
192,192,330299,128,0,330571:0:0:0:0:
448,192,330299,1,0,0:0:0:0:
320,192,330435,1,0,0:0:0:0:
448,192,330571,128,0,330980:0:0:0:0:
320,192,330571,1,0,0:0:0:0:
64,192,330708,1,0,0:0:0:0:
64,192,330844,1,0,0:0:0:0:
320,192,330980,128,0,331253:0:0:0:0:
192,192,330980,1,0,0:0:0:0:
192,192,331117,1,0,0:0:0:0:
64,192,331253,1,0,0:0:0:0:
448,192,331390,1,0,0:0:0:0:
64,192,331390,1,0,0:0:0:0:
192,192,331526,128,0,331935:0:0:0:0:
320,192,331526,1,0,0:0:0:0:
320,192,331662,1,0,0:0:0:0:
64,192,331799,1,0,0:0:0:0:
448,192,331935,1,0,0:0:0:0:
64,192,331935,1,0,0:0:0:0:
320,192,332071,1,0,0:0:0:0:
448,192,332071,1,0,0:0:0:0:
64,192,332208,128,0,332480:0:0:0:0:
320,192,332208,1,0,0:0:0:0:
192,192,332344,1,0,0:0:0:0:
448,192,332480,1,0,0:0:0:0:
192,192,332480,1,0,0:0:0:0:
320,192,332617,128,0,332890:0:0:0:0:
64,192,332617,1,0,0:0:0:0:
192,192,332890,1,0,0:0:0:0:
448,192,333026,128,0,333299:0:0:0:0:
192,192,333026,1,0,0:0:0:0:
192,192,333299,1,0,0:0:0:0:
64,192,333435,128,0,333708:0:0:0:0:
320,192,333435,1,0,0:0:0:0:
192,192,333708,1,0,0:0:0:0:
448,192,333708,1,0,0:0:0:0:
320,192,333776,1,0,0:0:0:0:
64,192,333844,1,0,0:0:0:0:
448,192,333912,1,0,0:0:0:0:
192,192,333980,1,0,0:0:0:0:
320,192,333980,1,0,0:0:0:0:
64,192,334049,1,0,0:0:0:0:
448,192,334117,1,0,0:0:0:0:
192,192,334117,1,0,0:0:0:0:
320,192,334185,1,0,0:0:0:0:
64,192,334253,1,0,0:0:0:0:
448,192,334321,1,0,0:0:0:0:
192,192,334390,1,0,0:0:0:0:
320,192,334458,1,0,0:0:0:0:
448,192,334526,1,0,0:0:0:0:
192,192,334526,1,0,0:0:0:0:
64,192,334594,1,0,0:0:0:0:
320,192,334662,1,0,0:0:0:0:
448,192,334662,1,0,0:0:0:0:
192,192,334730,1,0,0:0:0:0:
64,192,334799,1,0,0:0:0:0:
320,192,334799,1,0,0:0:0:0:
448,192,334867,1,0,0:0:0:0:
192,192,334935,1,0,0:0:0:0:
320,192,335003,1,0,0:0:0:0:
448,192,335071,1,0,0:0:0:0:
64,192,335071,1,0,0:0:0:0:
320,192,335140,1,0,0:0:0:0:
192,192,335208,1,0,0:0:0:0:
64,192,335208,1,0,0:0:0:0:
448,192,335276,1,0,0:0:0:0:
192,192,335344,1,0,0:0:0:0:
320,192,335412,1,0,0:0:0:0:
64,192,335480,1,0,0:0:0:0:
448,192,335549,1,0,0:0:0:0:
192,192,335617,1,0,0:0:0:0:
320,192,335617,1,0,0:0:0:0:
448,192,335685,1,0,0:0:0:0:
320,192,335753,1,0,0:0:0:0:
64,192,335753,1,0,0:0:0:0:
192,192,335821,1,0,0:0:0:0:
64,192,335890,1,0,0:0:0:0:
448,192,335890,1,0,0:0:0:0:
320,192,335958,1,0,0:0:0:0:
192,192,336026,1,0,0:0:0:0:
448,192,336094,1,0,0:0:0:0:
64,192,336162,1,0,0:0:0:0:
320,192,336162,1,0,0:0:0:0:
192,192,336230,1,0,0:0:0:0:
64,192,336299,1,0,0:0:0:0:
448,192,336299,1,0,0:0:0:0:
320,192,336367,1,0,0:0:0:0:
192,192,336435,1,0,0:0:0:0:
448,192,336503,1,0,0:0:0:0:
64,192,336571,1,0,0:0:0:0:
320,192,336640,1,0,0:0:0:0:
192,192,336708,1,0,0:0:0:0:
448,192,336708,1,0,0:0:0:0:
64,192,336776,1,0,0:0:0:0:
320,192,336844,1,0,0:0:0:0:
448,192,336844,1,0,0:0:0:0:
192,192,336912,1,0,0:0:0:0:
64,192,336980,1,0,0:0:0:0:
320,192,336980,1,0,0:0:0:0:
448,192,337049,1,0,0:0:0:0:
64,192,337117,1,0,0:0:0:0:
320,192,337185,1,0,0:0:0:0:
192,192,337253,1,0,0:0:0:0:
448,192,337253,1,0,0:0:0:0:
64,192,337321,1,0,0:0:0:0:
320,192,337390,1,0,0:0:0:0:
192,192,337390,1,0,0:0:0:0:
448,192,337458,1,0,0:0:0:0:
64,192,337526,1,0,0:0:0:0:
320,192,337594,1,0,0:0:0:0:
448,192,337662,1,0,0:0:0:0:
64,192,337730,1,0,0:0:0:0:
192,192,337799,1,0,0:0:0:0:
320,192,337799,1,0,0:0:0:0:
448,192,337867,1,0,0:0:0:0:
320,192,337935,1,0,0:0:0:0:
64,192,337935,1,0,0:0:0:0:
192,192,338003,1,0,0:0:0:0:
64,192,338071,1,0,0:0:0:0:
448,192,338071,1,0,0:0:0:0:
320,192,338208,1,0,0:0:0:0:
320,192,338344,1,0,0:0:0:0:
192,192,338480,1,0,0:0:0:0:
448,192,338480,1,0,0:0:0:0:
64,192,338617,1,0,0:0:0:0:
64,192,338753,1,0,0:0:0:0:
192,192,338890,1,0,0:0:0:0:
448,192,338890,1,0,0:0:0:0:
320,192,338958,1,0,0:0:0:0:
64,192,339026,1,0,0:0:0:0:
192,192,339162,128,0,339299:0:0:0:0:
320,192,339162,1,0,0:0:0:0:
448,192,339299,128,0,339435:0:0:0:0:
320,192,339435,128,0,339571:0:0:0:0:
64,192,339571,128,0,339708:0:0:0:0:
192,192,339571,1,0,0:0:0:0:
448,192,339708,128,0,339844:0:0:0:0:
192,192,339844,128,0,339980:0:0:0:0:
64,192,339980,1,0,0:0:0:0:
320,192,339980,1,0,0:0:0:0:
448,192,340049,1,0,0:0:0:0:
320,192,340117,1,0,0:0:0:0:
192,192,340117,1,0,0:0:0:0:
448,192,340253,1,0,0:0:0:0:
64,192,340253,1,0,0:0:0:0:
320,192,340321,1,0,0:0:0:0:
192,192,340390,1,0,0:0:0:0:
448,192,340458,1,0,0:0:0:0:
64,192,340526,1,0,0:0:0:0:
320,192,340526,1,0,0:0:0:0:
192,192,340594,1,0,0:0:0:0:
448,192,340662,1,0,0:0:0:0:
64,192,340662,1,0,0:0:0:0:
320,192,340730,1,0,0:0:0:0:
448,192,340799,1,0,0:0:0:0:
192,192,340867,1,0,0:0:0:0:
64,192,340935,1,0,0:0:0:0:
320,192,341003,1,0,0:0:0:0:
448,192,341071,1,0,0:0:0:0:
192,192,341071,1,0,0:0:0:0:
64,192,341140,1,0,0:0:0:0:
320,192,341208,1,0,0:0:0:0:
192,192,341208,1,0,0:0:0:0:
448,192,341276,1,0,0:0:0:0:
64,192,341344,128,0,341617:0:0:0:0:
320,192,341344,1,0,0:0:0:0:
448,192,341617,128,0,341753:0:0:0:0:
192,192,341617,1,0,0:0:0:0:
320,192,341753,128,0,342026:0:0:0:0:
192,192,341753,1,0,0:0:0:0:
64,192,342026,128,0,342162:0:0:0:0:
448,192,342026,1,0,0:0:0:0:
192,192,342162,128,0,342435:0:0:0:0:
320,192,342162,1,0,0:0:0:0:
64,192,342435,1,0,0:0:0:0:
320,192,342435,1,0,0:0:0:0:
448,192,342435,128,0,342708:0:0:0:0:
64,192,342708,128,0,342980:0:0:0:0:
192,192,342708,1,0,0:0:0:0:
320,192,342980,128,0,343253:0:0:0:0:
448,192,342980,1,0,0:0:0:0:
448,192,343253,128,0,343390:0:0:0:0:
192,192,343253,1,0,0:0:0:0:
64,192,343390,128,0,343526:0:0:0:0:
192,192,343526,128,0,343799:0:0:0:0:
320,192,343526,1,0,0:0:0:0:
448,192,343799,128,0,344071:0:0:0:0:
64,192,343799,1,0,0:0:0:0:
64,192,344071,128,0,344344:0:0:0:0:
320,192,344071,1,0,0:0:0:0:
320,192,344344,128,0,344480:0:0:0:0:
192,192,344344,1,0,0:0:0:0:
448,192,344480,128,0,344617:0:0:0:0:
192,192,344617,128,0,344890:0:0:0:0:
64,192,344617,1,0,0:0:0:0:
448,192,344890,128,0,345162:0:0:0:0:
320,192,344890,1,0,0:0:0:0:
64,192,345162,128,0,345299:0:0:0:0:
192,192,345162,1,0,0:0:0:0:
320,192,345299,128,0,345435:0:0:0:0:
448,192,345435,128,0,345571:0:0:0:0:
192,192,345435,1,0,0:0:0:0:
192,192,345571,128,0,345708:0:0:0:0:
320,192,345708,128,0,345980:0:0:0:0:
64,192,345708,1,0,0:0:0:0:
64,192,345980,128,0,346117:0:0:0:0:
448,192,345980,1,0,0:0:0:0:
448,192,346117,128,0,346253:0:0:0:0:
192,192,346253,128,0,346526:0:0:0:0:
320,192,346526,128,0,346799:0:0:0:0:
64,192,346799,1,0,0:0:0:0:
192,192,346799,1,0,0:0:0:0:
448,192,346799,1,0,0:0:0:0:
192,192,346935,1,0,0:0:0:0:
64,192,347071,1,0,0:0:0:0:
320,192,347071,1,0,0:0:0:0:
448,192,347071,1,0,0:0:0:0:
192,192,347140,1,0,0:0:0:0:
448,192,347208,1,0,0:0:0:0:
192,192,347344,1,0,0:0:0:0:
320,192,347344,1,0,0:0:0:0:
64,192,347344,1,0,0:0:0:0:
64,192,347480,1,0,0:0:0:0:
448,192,347480,1,0,0:0:0:0:
192,192,347617,1,0,0:0:0:0:
320,192,347617,1,0,0:0:0:0:
448,192,347617,1,0,0:0:0:0:
320,192,347753,1,0,0:0:0:0:
64,192,347890,1,0,0:0:0:0:
192,192,347890,1,0,0:0:0:0:
448,192,347890,1,0,0:0:0:0:
192,192,348026,1,0,0:0:0:0:
64,192,348162,1,0,0:0:0:0:
320,192,348162,1,0,0:0:0:0:
448,192,348162,1,0,0:0:0:0:
192,192,348230,1,0,0:0:0:0:
448,192,348299,1,0,0:0:0:0:
64,192,348435,1,0,0:0:0:0:
192,192,348435,1,0,0:0:0:0:
320,192,348435,1,0,0:0:0:0:
64,192,348571,1,0,0:0:0:0:
448,192,348571,1,0,0:0:0:0:
192,192,348708,1,0,0:0:0:0:
448,192,348708,1,0,0:0:0:0:
320,192,348708,1,0,0:0:0:0:
320,192,348844,1,0,0:0:0:0:
64,192,348980,1,0,0:0:0:0:
192,192,348980,1,0,0:0:0:0:
448,192,348980,1,0,0:0:0:0:
64,192,349117,1,0,0:0:0:0:
192,192,349253,1,0,0:0:0:0:
448,192,349253,1,0,0:0:0:0:
320,192,349253,1,0,0:0:0:0:
64,192,349321,1,0,0:0:0:0:
320,192,349390,1,0,0:0:0:0:
192,192,349526,1,0,0:0:0:0:
64,192,349526,1,0,0:0:0:0:
448,192,349526,1,0,0:0:0:0:
320,192,349662,1,0,0:0:0:0:
64,192,349662,1,0,0:0:0:0:
448,192,349799,1,0,0:0:0:0:
192,192,349799,1,0,0:0:0:0:
320,192,349799,1,0,0:0:0:0:
192,192,349935,1,0,0:0:0:0:
64,192,349935,1,0,0:0:0:0:
64,192,350071,1,0,0:0:0:0:
448,192,350071,1,0,0:0:0:0:
320,192,350071,1,0,0:0:0:0:
192,192,350208,1,0,0:0:0:0:
448,192,350208,1,0,0:0:0:0:
320,192,350344,1,0,0:0:0:0:
64,192,350344,1,0,0:0:0:0:
64,192,350480,1,0,0:0:0:0:
448,192,350480,1,0,0:0:0:0:
192,192,350617,1,0,0:0:0:0:
448,192,350617,1,0,0:0:0:0:
192,192,350753,1,0,0:0:0:0:
448,192,350753,1,0,0:0:0:0:
320,192,350890,1,0,0:0:0:0:
64,192,350890,1,0,0:0:0:0:
64,192,351026,1,0,0:0:0:0:
320,192,351026,1,0,0:0:0:0:
64,192,351162,1,0,0:0:0:0:
192,192,351162,1,0,0:0:0:0:
448,192,351162,1,0,0:0:0:0:
320,192,351299,1,0,0:0:0:0:
448,192,351435,1,0,0:0:0:0:
192,192,351435,1,0,0:0:0:0:
320,192,351435,1,0,0:0:0:0:
64,192,351571,1,0,0:0:0:0:
64,192,351708,1,0,0:0:0:0:
448,192,351708,1,0,0:0:0:0:
320,192,351708,1,0,0:0:0:0:
192,192,351776,1,0,0:0:0:0:
448,192,351844,1,0,0:0:0:0:
320,192,351980,1,0,0:0:0:0:
64,192,351980,1,0,0:0:0:0:
192,192,351980,1,0,0:0:0:0:
64,192,352117,1,0,0:0:0:0:
192,192,352253,1,0,0:0:0:0:
448,192,352253,1,0,0:0:0:0:
320,192,352253,1,0,0:0:0:0:
320,192,352390,1,0,0:0:0:0:
64,192,352526,1,0,0:0:0:0:
192,192,352526,1,0,0:0:0:0:
448,192,352526,1,0,0:0:0:0:
320,192,352594,1,0,0:0:0:0:
64,192,352662,1,0,0:0:0:0:
320,192,352799,1,0,0:0:0:0:
192,192,352799,1,0,0:0:0:0:
448,192,352799,1,0,0:0:0:0:
64,192,352935,1,0,0:0:0:0:
448,192,352935,1,0,0:0:0:0:
64,192,353071,1,0,0:0:0:0:
320,192,353071,1,0,0:0:0:0:
192,192,353071,1,0,0:0:0:0:
192,192,353208,1,0,0:0:0:0:
64,192,353344,1,0,0:0:0:0:
320,192,353344,1,0,0:0:0:0:
448,192,353344,1,0,0:0:0:0:
320,192,353480,1,0,0:0:0:0:
64,192,353617,1,0,0:0:0:0:
192,192,353617,1,0,0:0:0:0:
448,192,353617,1,0,0:0:0:0:
320,192,353685,1,0,0:0:0:0:
64,192,353753,1,0,0:0:0:0:
192,192,353890,1,0,0:0:0:0:
320,192,353890,1,0,0:0:0:0:
448,192,353890,1,0,0:0:0:0:
448,192,354026,1,0,0:0:0:0:
64,192,354026,1,0,0:0:0:0:
64,192,354162,1,0,0:0:0:0:
192,192,354162,1,0,0:0:0:0:
320,192,354162,1,0,0:0:0:0:
320,192,354299,1,0,0:0:0:0:
64,192,354435,1,0,0:0:0:0:
192,192,354435,1,0,0:0:0:0:
448,192,354435,1,0,0:0:0:0:
64,192,354571,1,0,0:0:0:0:
192,192,354708,1,0,0:0:0:0:
320,192,354708,1,0,0:0:0:0:
448,192,354708,1,0,0:0:0:0:
64,192,354776,1,0,0:0:0:0:
448,192,354844,1,0,0:0:0:0:
64,192,354980,1,0,0:0:0:0:
192,192,354980,1,0,0:0:0:0:
320,192,354980,1,0,0:0:0:0:
192,192,355117,1,0,0:0:0:0:
448,192,355117,1,0,0:0:0:0:
64,192,355253,1,0,0:0:0:0:
320,192,355253,1,0,0:0:0:0:
448,192,355253,1,0,0:0:0:0:
320,192,355390,1,0,0:0:0:0:
64,192,355526,1,0,0:0:0:0:
192,192,355526,1,0,0:0:0:0:
448,192,355526,1,0,0:0:0:0:
192,192,355662,1,0,0:0:0:0:
64,192,355799,1,0,0:0:0:0:
448,192,355799,1,0,0:0:0:0:
320,192,355799,1,0,0:0:0:0:
192,192,355867,1,0,0:0:0:0:
448,192,355935,1,0,0:0:0:0:
320,192,356071,1,0,0:0:0:0:
192,192,356071,1,0,0:0:0:0:
64,192,356071,1,0,0:0:0:0:
64,192,356208,1,0,0:0:0:0:
448,192,356208,1,0,0:0:0:0:
192,192,356344,1,0,0:0:0:0:
320,192,356344,1,0,0:0:0:0:
448,192,356344,1,0,0:0:0:0:
192,192,356480,1,0,0:0:0:0:
64,192,356617,1,0,0:0:0:0:
448,192,356617,1,0,0:0:0:0:
320,192,356617,1,0,0:0:0:0:
320,192,356753,1,0,0:0:0:0:
64,192,356890,1,0,0:0:0:0:
192,192,356890,1,0,0:0:0:0:
448,192,356890,1,0,0:0:0:0:
320,192,356958,1,0,0:0:0:0:
64,192,357026,1,0,0:0:0:0:
192,192,357162,1,0,0:0:0:0:
320,192,357162,1,0,0:0:0:0:
448,192,357162,1,0,0:0:0:0:
64,192,357299,1,0,0:0:0:0:
448,192,357299,1,0,0:0:0:0:
192,192,357435,1,0,0:0:0:0:
320,192,357435,1,0,0:0:0:0:
64,192,357435,1,0,0:0:0:0:
192,192,357571,1,0,0:0:0:0:
320,192,357708,1,0,0:0:0:0:
448,192,357708,1,0,0:0:0:0:
64,192,357708,1,0,0:0:0:0:
448,192,357844,1,0,0:0:0:0:
64,192,357980,1,0,0:0:0:0:
192,192,357980,1,0,0:0:0:0:
320,192,357980,1,0,0:0:0:0:
448,192,358049,1,0,0:0:0:0:
192,192,358117,1,0,0:0:0:0:
64,192,358253,1,0,0:0:0:0:
320,192,358253,1,0,0:0:0:0:
448,192,358253,1,0,0:0:0:0:
192,192,358390,1,0,0:0:0:0:
320,192,358390,1,0,0:0:0:0:
64,192,358526,1,0,0:0:0:0:
192,192,358526,1,0,0:0:0:0:
448,192,358526,1,0,0:0:0:0:
448,192,358662,1,0,0:0:0:0:
320,192,358799,1,0,0:0:0:0:
64,192,358799,1,0,0:0:0:0:
448,192,358867,1,0,0:0:0:0:
320,192,358935,1,0,0:0:0:0:
192,192,358935,1,0,0:0:0:0:
64,192,359003,1,0,0:0:0:0:
448,192,359071,1,0,0:0:0:0:
192,192,359071,1,0,0:0:0:0:
320,192,359208,1,0,0:0:0:0:
64,192,359208,1,0,0:0:0:0:
448,192,359276,1,0,0:0:0:0:
320,192,359344,1,0,0:0:0:0:
192,192,359344,1,0,0:0:0:0:
64,192,359412,1,0,0:0:0:0:
192,192,359480,1,0,0:0:0:0:
448,192,359480,1,0,0:0:0:0:
64,192,359617,1,0,0:0:0:0:
320,192,359617,1,0,0:0:0:0:
64,192,359753,1,0,0:0:0:0:
320,192,359753,1,0,0:0:0:0:
192,192,359890,1,0,0:0:0:0:
64,192,359890,1,0,0:0:0:0:
448,192,359890,128,0,362071:0:0:0:0:
320,192,360162,1,0,0:0:0:0:
64,192,360435,1,0,0:0:0:0:
192,192,360708,1,0,0:0:0:0:
64,192,360980,1,0,0:0:0:0:
320,192,361390,1,0,0:0:0:0:
192,192,361799,1,0,0:0:0:0:
64,192,362071,128,0,363299:0:0:0:0:
320,192,363299,128,0,364253:0:0:0:0:
192,192,364253,128,0,366571:0:0:0:0:
448,192,364526,1,0,0:0:0:0:
64,192,364799,1,0,0:0:0:0:
448,192,365071,1,0,0:0:0:0:
320,192,365344,1,0,0:0:0:0:
64,192,365753,1,0,0:0:0:0:
448,192,366162,1,0,0:0:0:0:
448,192,366571,128,0,367662:0:0:0:0:
320,192,366980,1,0,0:0:0:0:
64,192,367321,1,0,0:0:0:0:
320,192,367390,1,0,0:0:0:0:
192,192,367458,1,0,0:0:0:0:
64,192,367526,1,0,0:0:0:0:
320,192,367662,128,0,368617:0:0:0:0:
64,192,368617,128,0,370799:0:0:0:0:
192,192,368890,1,0,0:0:0:0:
448,192,369162,1,0,0:0:0:0:
320,192,369435,1,0,0:0:0:0:
192,192,369708,1,0,0:0:0:0:
448,192,370117,1,0,0:0:0:0:
448,192,370526,1,0,0:0:0:0:
448,192,370799,128,0,371890:0:0:0:0:
192,192,371890,128,0,372980:0:0:0:0:
320,192,372162,1,0,0:0:0:0:
64,192,372435,1,0,0:0:0:0:
448,192,372708,1,0,0:0:0:0:
320,192,372980,128,0,375162:0:0:0:0:
64,192,373253,1,0,0:0:0:0:
448,192,373662,1,0,0:0:0:0:
448,192,374071,1,0,0:0:0:0:
192,192,374617,1,0,0:0:0:0:
448,192,375162,128,0,377071:0:0:0:0:
64,192,375162,1,0,0:0:0:0:
192,192,375708,1,0,0:0:0:0:
320,192,375980,1,0,0:0:0:0:
64,192,377071,1,0,0:0:0:0:
320,192,377071,1,0,0:0:0:0:
192,192,377208,1,0,0:0:0:0:
320,192,377208,1,0,0:0:0:0:
64,192,377344,1,0,0:0:0:0:
192,192,377344,1,0,0:0:0:0:
448,192,377344,1,0,0:0:0:0:
320,192,377412,1,0,0:0:0:0:
448,192,377480,1,0,0:0:0:0:
64,192,377549,1,0,0:0:0:0:
320,192,377617,1,0,0:0:0:0:
192,192,377685,1,0,0:0:0:0:
64,192,377753,1,0,0:0:0:0:
320,192,377753,1,0,0:0:0:0:
448,192,377753,1,0,0:0:0:0:
192,192,377821,1,0,0:0:0:0:
448,192,377890,1,0,0:0:0:0:
64,192,377958,1,0,0:0:0:0:
320,192,378026,1,0,0:0:0:0:
192,192,378094,1,0,0:0:0:0:
64,192,378162,1,0,0:0:0:0:
448,192,378162,1,0,0:0:0:0:
320,192,378230,1,0,0:0:0:0:
192,192,378299,1,0,0:0:0:0:
448,192,378299,1,0,0:0:0:0:
64,192,378367,1,0,0:0:0:0:
192,192,378435,1,0,0:0:0:0:
320,192,378435,1,0,0:0:0:0:
448,192,378435,1,0,0:0:0:0:
64,192,378503,1,0,0:0:0:0:
320,192,378571,1,0,0:0:0:0:
192,192,378640,1,0,0:0:0:0:
448,192,378708,1,0,0:0:0:0:
192,192,378776,1,0,0:0:0:0:
320,192,378844,1,0,0:0:0:0:
448,192,378844,1,0,0:0:0:0:
64,192,378844,1,0,0:0:0:0:
192,192,378912,1,0,0:0:0:0:
320,192,378980,1,0,0:0:0:0:
64,192,379049,1,0,0:0:0:0:
448,192,379117,1,0,0:0:0:0:
192,192,379185,1,0,0:0:0:0:
64,192,379253,1,0,0:0:0:0:
320,192,379253,1,0,0:0:0:0:
448,192,379321,1,0,0:0:0:0:
192,192,379390,1,0,0:0:0:0:
320,192,379390,1,0,0:0:0:0:
64,192,379458,1,0,0:0:0:0:
192,192,379526,1,0,0:0:0:0:
320,192,379526,1,0,0:0:0:0:
448,192,379526,1,0,0:0:0:0:
64,192,379594,1,0,0:0:0:0:
448,192,379662,1,0,0:0:0:0:
192,192,379730,1,0,0:0:0:0:
320,192,379799,1,0,0:0:0:0:
448,192,379867,1,0,0:0:0:0:
192,192,379935,1,0,0:0:0:0:
320,192,379935,1,0,0:0:0:0:
64,192,379935,1,0,0:0:0:0:
448,192,380003,1,0,0:0:0:0:
192,192,380071,1,0,0:0:0:0:
64,192,380140,1,0,0:0:0:0:
320,192,380208,1,0,0:0:0:0:
192,192,380276,1,0,0:0:0:0:
64,192,380344,1,0,0:0:0:0:
448,192,380344,1,0,0:0:0:0:
320,192,380412,1,0,0:0:0:0:
192,192,380480,1,0,0:0:0:0:
64,192,380480,1,0,0:0:0:0:
320,192,380549,1,0,0:0:0:0:
64,192,380617,1,0,0:0:0:0:
448,192,380617,1,0,0:0:0:0:
192,192,380617,1,0,0:0:0:0:
320,192,380685,1,0,0:0:0:0:
64,192,380753,1,0,0:0:0:0:
448,192,380821,1,0,0:0:0:0:
192,192,380890,1,0,0:0:0:0:
448,192,380958,1,0,0:0:0:0:
64,192,381026,1,0,0:0:0:0:
192,192,381026,1,0,0:0:0:0:
320,192,381026,1,0,0:0:0:0:
448,192,381094,1,0,0:0:0:0:
192,192,381162,1,0,0:0:0:0:
64,192,381230,1,0,0:0:0:0:
192,192,381299,1,0,0:0:0:0:
320,192,381367,1,0,0:0:0:0:
64,192,381435,1,0,0:0:0:0:
448,192,381435,1,0,0:0:0:0:
192,192,381503,1,0,0:0:0:0:
64,192,381571,1,0,0:0:0:0:
320,192,381571,1,0,0:0:0:0:
192,192,381640,1,0,0:0:0:0:
320,192,381708,1,0,0:0:0:0:
448,192,381708,1,0,0:0:0:0:
64,192,381708,1,0,0:0:0:0:
448,192,381980,1,0,0:0:0:0:
64,192,381980,1,0,0:0:0:0:
64,192,382117,1,0,0:0:0:0:
192,192,382117,1,0,0:0:0:0:
320,192,382117,1,0,0:0:0:0:
448,192,382526,1,0,0:0:0:0:
64,192,382526,1,0,0:0:0:0:
320,192,382662,1,0,0:0:0:0:
64,192,382799,1,0,0:0:0:0:
448,192,382799,1,0,0:0:0:0:
192,192,382799,1,0,0:0:0:0:
320,192,382935,1,0,0:0:0:0:
192,192,383071,1,0,0:0:0:0:
448,192,383071,1,0,0:0:0:0:
64,192,383208,1,0,0:0:0:0:
320,192,383208,1,0,0:0:0:0:
448,192,383208,1,0,0:0:0:0:
192,192,383344,1,0,0:0:0:0:
448,192,383480,1,0,0:0:0:0:
64,192,383480,1,0,0:0:0:0:
320,192,383549,1,0,0:0:0:0:
448,192,383617,1,0,0:0:0:0:
192,192,383617,1,0,0:0:0:0:
64,192,383753,1,0,0:0:0:0:
320,192,383753,1,0,0:0:0:0:
192,192,383890,1,0,0:0:0:0:
448,192,383890,1,0,0:0:0:0:
64,192,383890,1,0,0:0:0:0:
320,192,383958,1,0,0:0:0:0:
448,192,384026,1,0,0:0:0:0:
64,192,384094,1,0,0:0:0:0:
320,192,384162,1,0,0:0:0:0:
192,192,384230,1,0,0:0:0:0:
64,192,384299,1,0,0:0:0:0:
320,192,384299,1,0,0:0:0:0:
448,192,384299,1,0,0:0:0:0:
192,192,384367,1,0,0:0:0:0:
448,192,384435,1,0,0:0:0:0:
64,192,384503,1,0,0:0:0:0:
320,192,384571,1,0,0:0:0:0:
192,192,384640,1,0,0:0:0:0:
64,192,384708,1,0,0:0:0:0:
448,192,384708,1,0,0:0:0:0:
192,192,384776,1,0,0:0:0:0:
320,192,384844,1,0,0:0:0:0:
448,192,384844,1,0,0:0:0:0:
64,192,384912,1,0,0:0:0:0:
192,192,384980,1,0,0:0:0:0:
320,192,384980,1,0,0:0:0:0:
448,192,384980,1,0,0:0:0:0:
64,192,385117,1,0,0:0:0:0:
448,192,385253,1,0,0:0:0:0:
192,192,385253,1,0,0:0:0:0:
320,192,385390,1,0,0:0:0:0:
64,192,385390,1,0,0:0:0:0:
192,192,385526,1,0,0:0:0:0:
448,192,385662,1,0,0:0:0:0:
64,192,385662,1,0,0:0:0:0:
320,192,385730,1,0,0:0:0:0:
192,192,385799,1,0,0:0:0:0:
448,192,385799,1,0,0:0:0:0:
192,192,385935,1,0,0:0:0:0:
320,192,385935,1,0,0:0:0:0:
64,192,386071,1,0,0:0:0:0:
320,192,386071,1,0,0:0:0:0:
448,192,386071,1,0,0:0:0:0:
192,192,386140,1,0,0:0:0:0:
448,192,386208,1,0,0:0:0:0:
64,192,386276,1,0,0:0:0:0:
320,192,386344,1,0,0:0:0:0:
448,192,386412,1,0,0:0:0:0:
320,192,386480,1,0,0:0:0:0:
192,192,386480,1,0,0:0:0:0:
64,192,386480,1,0,0:0:0:0:
448,192,386549,1,0,0:0:0:0:
192,192,386617,1,0,0:0:0:0:
64,192,386685,1,0,0:0:0:0:
320,192,386753,1,0,0:0:0:0:
448,192,386821,1,0,0:0:0:0:
64,192,386890,1,0,0:0:0:0:
320,192,386890,1,0,0:0:0:0:
192,192,386958,1,0,0:0:0:0:
448,192,387026,1,0,0:0:0:0:
64,192,387026,1,0,0:0:0:0:
320,192,387094,1,0,0:0:0:0:
192,192,387162,1,0,0:0:0:0:
448,192,387162,1,0,0:0:0:0:
64,192,387162,1,0,0:0:0:0:
320,192,387230,1,0,0:0:0:0:
192,192,387299,1,0,0:0:0:0:
448,192,387367,1,0,0:0:0:0:
64,192,387435,1,0,0:0:0:0:
192,192,387503,1,0,0:0:0:0:
64,192,387571,1,0,0:0:0:0:
448,192,387571,1,0,0:0:0:0:
320,192,387571,1,0,0:0:0:0:
192,192,387640,1,0,0:0:0:0:
448,192,387708,1,0,0:0:0:0:
320,192,387776,1,0,0:0:0:0:
64,192,387844,1,0,0:0:0:0:
448,192,387912,1,0,0:0:0:0:
64,192,387980,1,0,0:0:0:0:
320,192,387980,1,0,0:0:0:0:
192,192,388049,1,0,0:0:0:0:
320,192,388117,1,0,0:0:0:0:
448,192,388117,1,0,0:0:0:0:
192,192,388185,1,0,0:0:0:0:
64,192,388253,1,0,0:0:0:0:
320,192,388253,1,0,0:0:0:0:
448,192,388253,1,0,0:0:0:0:
192,192,388321,1,0,0:0:0:0:
64,192,388390,1,0,0:0:0:0:
448,192,388458,1,0,0:0:0:0:
192,192,388526,1,0,0:0:0:0:
320,192,388594,1,0,0:0:0:0:
448,192,388662,1,0,0:0:0:0:
192,192,388662,1,0,0:0:0:0:
64,192,388662,1,0,0:0:0:0:
320,192,388730,1,0,0:0:0:0:
64,192,388799,1,0,0:0:0:0:
448,192,388867,1,0,0:0:0:0:
192,192,388935,1,0,0:0:0:0:
320,192,389003,1,0,0:0:0:0:
64,192,389071,1,0,0:0:0:0:
448,192,389071,1,0,0:0:0:0:
192,192,389140,1,0,0:0:0:0:
320,192,389208,1,0,0:0:0:0:
448,192,389208,1,0,0:0:0:0:
64,192,389276,1,0,0:0:0:0:
192,192,389344,1,0,0:0:0:0:
320,192,389344,1,0,0:0:0:0:
448,192,389344,1,0,0:0:0:0:
64,192,389412,1,0,0:0:0:0:
192,192,389480,1,0,0:0:0:0:
448,192,389549,1,0,0:0:0:0:
64,192,389617,1,0,0:0:0:0:
320,192,389685,1,0,0:0:0:0:
192,192,389753,1,0,0:0:0:0:
448,192,389753,1,0,0:0:0:0:
64,192,389753,1,0,0:0:0:0:
320,192,389821,1,0,0:0:0:0:
448,192,389890,1,0,0:0:0:0:
64,192,389958,1,0,0:0:0:0:
320,192,390026,1,0,0:0:0:0:
192,192,390094,1,0,0:0:0:0:
64,192,390162,1,0,0:0:0:0:
448,192,390162,1,0,0:0:0:0:
320,192,390230,1,0,0:0:0:0:
192,192,390299,1,0,0:0:0:0:
448,192,390299,1,0,0:0:0:0:
64,192,390367,1,0,0:0:0:0:
448,192,390435,1,0,0:0:0:0:
320,192,390435,1,0,0:0:0:0:
192,192,390435,1,0,0:0:0:0:
64,192,390708,1,0,0:0:0:0:
448,192,390708,1,0,0:0:0:0:
320,192,390844,1,0,0:0:0:0:
192,192,390844,1,0,0:0:0:0:
64,192,390844,1,0,0:0:0:0:
448,192,391253,1,0,0:0:0:0:
64,192,391253,1,0,0:0:0:0:
192,192,391390,1,0,0:0:0:0:
320,192,391526,1,0,0:0:0:0:
64,192,391526,1,0,0:0:0:0:
448,192,391526,1,0,0:0:0:0:
192,192,391662,1,0,0:0:0:0:
448,192,391799,1,0,0:0:0:0:
64,192,391799,1,0,0:0:0:0:
192,192,391935,1,0,0:0:0:0:
320,192,391935,1,0,0:0:0:0:
64,192,391935,1,0,0:0:0:0:
448,192,392071,1,0,0:0:0:0:
192,192,392208,1,0,0:0:0:0:
448,192,392344,1,0,0:0:0:0:
64,192,392344,1,0,0:0:0:0:
320,192,392480,1,0,0:0:0:0:
64,192,392617,1,0,0:0:0:0:
448,192,392617,1,0,0:0:0:0:
192,192,392617,1,0,0:0:0:0:
320,192,392685,1,0,0:0:0:0:
64,192,392753,1,0,0:0:0:0:
448,192,392821,1,0,0:0:0:0:
192,192,392890,1,0,0:0:0:0:
64,192,392958,1,0,0:0:0:0:
192,192,393026,1,0,0:0:0:0:
320,192,393026,1,0,0:0:0:0:
448,192,393026,1,0,0:0:0:0:
64,192,393094,1,0,0:0:0:0:
448,192,393162,1,0,0:0:0:0:
320,192,393230,1,0,0:0:0:0:
192,192,393299,1,0,0:0:0:0:
448,192,393367,1,0,0:0:0:0:
320,192,393435,1,0,0:0:0:0:
64,192,393435,1,0,0:0:0:0:
192,192,393503,1,0,0:0:0:0:
64,192,393571,1,0,0:0:0:0:
448,192,393571,1,0,0:0:0:0:
320,192,393708,128,0,393980:0:0:0:0:
448,192,393980,128,0,394117:0:0:0:0:
64,192,394117,128,0,394253:0:0:0:0:
192,192,394390,128,0,394526:0:0:0:0:
448,192,394526,128,0,394799:0:0:0:0:
64,192,394799,1,0,0:0:0:0:
320,192,394799,128,0,395071:0:0:0:0:
448,192,394935,1,0,0:0:0:0:
64,192,395071,1,0,0:0:0:0:
192,192,395071,128,0,395344:0:0:0:0:
448,192,395208,1,0,0:0:0:0:
320,192,395344,1,0,0:0:0:0:
448,192,395344,128,0,395617:0:0:0:0:
64,192,395480,1,0,0:0:0:0:
320,192,395617,1,0,0:0:0:0:
192,192,395617,128,0,395753:0:0:0:0:
448,192,395753,128,0,395890:0:0:0:0:
64,192,395890,128,0,396162:0:0:0:0:
320,192,395890,1,0,0:0:0:0:
448,192,396162,128,0,396435:0:0:0:0:
192,192,396435,128,0,396708:0:0:0:0:
448,192,396708,128,0,396844:0:0:0:0:
320,192,396844,128,0,396980:0:0:0:0:
64,192,396980,128,0,397253:0:0:0:0:
448,192,396980,1,0,0:0:0:0:
192,192,397117,1,0,0:0:0:0:
448,192,397253,128,0,397526:0:0:0:0:
320,192,397253,1,0,0:0:0:0:
192,192,397390,1,0,0:0:0:0:
320,192,397526,128,0,397662:0:0:0:0:
64,192,397662,128,0,397799:0:0:0:0:
448,192,397799,128,0,397935:0:0:0:0:
320,192,397935,128,0,398071:0:0:0:0:
192,192,397935,1,0,0:0:0:0:
64,192,398071,1,0,0:0:0:0:
192,192,398071,128,0,398344:0:0:0:0:
448,192,398344,128,0,398480:0:0:0:0:
320,192,398344,1,0,0:0:0:0:
64,192,398480,128,0,398617:0:0:0:0:
192,192,398480,1,0,0:0:0:0:
320,192,398617,128,0,398890:0:0:0:0:
448,192,398617,1,0,0:0:0:0:
448,192,398890,128,0,399026:0:0:0:0:
64,192,398890,1,0,0:0:0:0:
192,192,398958,1,0,0:0:0:0:
64,192,399026,128,0,399162:0:0:0:0:
320,192,399026,1,0,0:0:0:0:
192,192,399162,1,0,0:0:0:0:
448,192,399162,128,0,399435:0:0:0:0:
320,192,399299,1,0,0:0:0:0:
64,192,399435,1,0,0:0:0:0:
192,192,399435,128,0,399708:0:0:0:0:
320,192,399571,1,0,0:0:0:0:
64,192,399708,128,0,399980:0:0:0:0:
448,192,399844,1,0,0:0:0:0:
192,192,399980,1,0,0:0:0:0:
320,192,400117,128,0,400253:0:0:0:0:
64,192,400253,128,0,400526:0:0:0:0:
448,192,400253,1,0,0:0:0:0:
320,192,400526,128,0,400799:0:0:0:0:
448,192,400799,128,0,401071:0:0:0:0:
192,192,401071,128,0,401208:0:0:0:0:
64,192,401208,128,0,401344:0:0:0:0:
320,192,401344,128,0,401617:0:0:0:0:
448,192,401344,1,0,0:0:0:0:
192,192,401480,1,0,0:0:0:0:
64,192,401617,128,0,401890:0:0:0:0:
448,192,401617,1,0,0:0:0:0:
320,192,401753,1,0,0:0:0:0:
448,192,401890,128,0,402162:0:0:0:0:
320,192,402162,128,0,402299:0:0:0:0:
64,192,402299,128,0,402435:0:0:0:0:
192,192,402299,1,0,0:0:0:0:
192,192,402435,128,0,402708:0:0:0:0:
448,192,402435,1,0,0:0:0:0:
448,192,402708,128,0,402844:0:0:0:0:
320,192,402708,1,0,0:0:0:0:
64,192,402844,128,0,402980:0:0:0:0:
192,192,402844,1,0,0:0:0:0:
320,192,402980,128,0,403253:0:0:0:0:
448,192,402980,1,0,0:0:0:0:
448,192,403253,1,0,0:0:0:0:
192,192,403321,1,0,0:0:0:0:
64,192,403390,1,0,0:0:0:0:
448,192,403458,1,0,0:0:0:0:
320,192,403526,1,0,0:0:0:0:
192,192,403526,128,0,403799:0:0:0:0:
64,192,403662,1,0,0:0:0:0:
448,192,403799,128,0,404071:0:0:0:0:
320,192,403799,1,0,0:0:0:0:
192,192,403935,1,0,0:0:0:0:
64,192,404071,128,0,404208:0:0:0:0:
320,192,404208,128,0,404344:0:0:0:0:
192,192,404208,1,0,0:0:0:0:
448,192,404344,128,0,404480:0:0:0:0:
192,192,404344,1,0,0:0:0:0:
64,192,404480,128,0,404617:0:0:0:0:
192,192,404617,128,0,404890:0:0:0:0:
320,192,404617,1,0,0:0:0:0:
448,192,404890,128,0,405162:0:0:0:0:
320,192,405162,128,0,405435:0:0:0:0:
64,192,405435,128,0,405708:0:0:0:0:
192,192,405708,128,0,405844:0:0:0:0:
320,192,405708,1,0,0:0:0:0:
448,192,405844,128,0,405980:0:0:0:0:
64,192,405980,128,0,406253:0:0:0:0:
192,192,406117,1,0,0:0:0:0:
320,192,406253,128,0,406526:0:0:0:0:
448,192,406662,1,0,0:0:0:0:
192,192,406799,128,0,406935:0:0:0:0:
64,192,406799,1,0,0:0:0:0:
448,192,406935,128,0,407208:0:0:0:0:
320,192,407071,1,0,0:0:0:0:
64,192,407208,128,0,407344:0:0:0:0:
192,192,407208,1,0,0:0:0:0:
320,192,407344,128,0,407617:0:0:0:0:
448,192,407344,1,0,0:0:0:0:
448,192,407617,1,0,0:0:0:0:
64,192,407685,1,0,0:0:0:0:
192,192,407753,1,0,0:0:0:0:
320,192,407821,1,0,0:0:0:0:
64,192,407890,128,0,408162:0:0:0:0:
448,192,407890,1,0,0:0:0:0:
192,192,408026,1,0,0:0:0:0:
448,192,408162,128,0,408435:0:0:0:0:
320,192,408162,1,0,0:0:0:0:
192,192,408299,1,0,0:0:0:0:
64,192,408435,128,0,408571:0:0:0:0:
448,192,408571,128,0,408708:0:0:0:0:
192,192,408571,1,0,0:0:0:0:
320,192,408708,128,0,408844:0:0:0:0:
64,192,408708,1,0,0:0:0:0:
192,192,408844,128,0,408980:0:0:0:0:
64,192,408980,128,0,409253:0:0:0:0:
448,192,408980,1,0,0:0:0:0:
448,192,409253,128,0,409526:0:0:0:0:
320,192,409526,128,0,409799:0:0:0:0:
64,192,409799,128,0,410071:0:0:0:0:
448,192,410071,128,0,410208:0:0:0:0:
320,192,410071,1,0,0:0:0:0:
192,192,410208,128,0,410344:0:0:0:0:
320,192,410344,128,0,410617:0:0:0:0:
64,192,410344,1,0,0:0:0:0:
448,192,410480,1,0,0:0:0:0:
64,192,410617,128,0,410890:0:0:0:0:
448,192,411162,128,0,411435:0:0:0:0:
64,192,411435,128,0,411571:0:0:0:0:
320,192,411571,128,0,411844:0:0:0:0:
448,192,411844,128,0,411980:0:0:0:0:
192,192,411980,128,0,412253:0:0:0:0:
64,192,412253,1,0,0:0:0:0:
320,192,412253,1,0,0:0:0:0:
448,192,412253,1,0,0:0:0:0:
192,192,412526,1,0,0:0:0:0:
320,192,412526,1,0,0:0:0:0:
448,192,412662,1,0,0:0:0:0:
192,192,412662,1,0,0:0:0:0:
64,192,412935,1,0,0:0:0:0:
448,192,412935,1,0,0:0:0:0:
320,192,413071,1,0,0:0:0:0:
64,192,413071,1,0,0:0:0:0:
64,192,413344,1,0,0:0:0:0:
448,192,413344,1,0,0:0:0:0:
192,192,413617,1,0,0:0:0:0:
448,192,413617,1,0,0:0:0:0:
320,192,413753,1,0,0:0:0:0:
192,192,413753,1,0,0:0:0:0:
448,192,414026,1,0,0:0:0:0:
64,192,414026,1,0,0:0:0:0:
192,192,414299,1,0,0:0:0:0:
448,192,414299,1,0,0:0:0:0:
320,192,414435,1,0,0:0:0:0:
192,192,414435,1,0,0:0:0:0:
64,192,414708,1,0,0:0:0:0:
448,192,414708,1,0,0:0:0:0:
320,192,414844,1,0,0:0:0:0:
64,192,414844,1,0,0:0:0:0:
192,192,415117,1,0,0:0:0:0:
320,192,415117,1,0,0:0:0:0:
64,192,415253,1,0,0:0:0:0:
448,192,415253,1,0,0:0:0:0:
64,192,415526,1,0,0:0:0:0:
320,192,415526,1,0,0:0:0:0:
192,192,415799,1,0,0:0:0:0:
448,192,415799,1,0,0:0:0:0:
320,192,415935,1,0,0:0:0:0:
192,192,415935,1,0,0:0:0:0:
64,192,416208,1,0,0:0:0:0:
448,192,416208,1,0,0:0:0:0:
64,192,416480,1,0,0:0:0:0:
448,192,416480,1,0,0:0:0:0:
320,192,416617,1,0,0:0:0:0:
64,192,416617,1,0,0:0:0:0:
448,192,416617,1,0,0:0:0:0:
192,192,416890,1,0,0:0:0:0:
448,192,416890,1,0,0:0:0:0:
320,192,417026,1,0,0:0:0:0:
192,192,417026,1,0,0:0:0:0:
64,192,417299,1,0,0:0:0:0:
320,192,417299,1,0,0:0:0:0:
448,192,417435,1,0,0:0:0:0:
64,192,417435,1,0,0:0:0:0:
64,192,417708,1,0,0:0:0:0:
320,192,417708,1,0,0:0:0:0:
192,192,417980,1,0,0:0:0:0:
448,192,417980,1,0,0:0:0:0:
448,192,418117,1,0,0:0:0:0:
320,192,418117,1,0,0:0:0:0:
64,192,418390,1,0,0:0:0:0:
448,192,418390,1,0,0:0:0:0:
320,192,418526,1,0,0:0:0:0:
64,192,418526,1,0,0:0:0:0:
192,192,418662,1,0,0:0:0:0:
448,192,418662,1,0,0:0:0:0:
64,192,418799,1,0,0:0:0:0:
448,192,418799,1,0,0:0:0:0:
192,192,419071,1,0,0:0:0:0:
448,192,419071,1,0,0:0:0:0:
320,192,419208,1,0,0:0:0:0:
64,192,419208,1,0,0:0:0:0:
64,192,419480,1,0,0:0:0:0:
448,192,419480,1,0,0:0:0:0:
192,192,419617,1,0,0:0:0:0:
448,192,419617,1,0,0:0:0:0:
320,192,419753,1,0,0:0:0:0:
64,192,419753,1,0,0:0:0:0:
64,192,419890,1,0,0:0:0:0:
448,192,419890,1,0,0:0:0:0:
192,192,420162,1,0,0:0:0:0:
320,192,420162,1,0,0:0:0:0:
448,192,420299,1,0,0:0:0:0:
192,192,420299,1,0,0:0:0:0:
64,192,420571,1,0,0:0:0:0:
320,192,420571,1,0,0:0:0:0:
192,192,420708,1,0,0:0:0:0:
64,192,420708,1,0,0:0:0:0:
320,192,420844,1,0,0:0:0:0:
448,192,420844,1,0,0:0:0:0:
192,192,420980,1,0,0:0:0:0:
448,192,420980,1,0,0:0:0:0:
64,192,420980,1,0,0:0:0:0:
320,192,421117,1,0,0:0:0:0:
64,192,421253,1,0,0:0:0:0:
448,192,421390,1,0,0:0:0:0:
192,192,421526,1,0,0:0:0:0:
448,192,421526,1,0,0:0:0:0:
64,192,421662,1,0,0:0:0:0:
192,192,421799,1,0,0:0:0:0:
320,192,421799,1,0,0:0:0:0:
448,192,421935,1,0,0:0:0:0:
192,192,421935,1,0,0:0:0:0:
64,192,422071,1,0,0:0:0:0:
448,192,422071,1,0,0:0:0:0:
320,192,422208,1,0,0:0:0:0:
192,192,422344,1,0,0:0:0:0:
448,192,422344,1,0,0:0:0:0:
320,192,422480,1,0,0:0:0:0:
64,192,422480,1,0,0:0:0:0:
192,192,422617,1,0,0:0:0:0:
64,192,422753,1,0,0:0:0:0:
448,192,422753,1,0,0:0:0:0:
192,192,422890,1,0,0:0:0:0:
448,192,422890,1,0,0:0:0:0:
320,192,423026,1,0,0:0:0:0:
64,192,423026,1,0,0:0:0:0:
64,192,423162,1,0,0:0:0:0:
192,192,423162,1,0,0:0:0:0:
448,192,423162,1,0,0:0:0:0:
320,192,423299,1,0,0:0:0:0:
192,192,423435,1,0,0:0:0:0:
448,192,423435,1,0,0:0:0:0:
320,192,423571,1,0,0:0:0:0:
192,192,423571,1,0,0:0:0:0:
64,192,423708,1,0,0:0:0:0:
448,192,423844,1,0,0:0:0:0:
192,192,423844,1,0,0:0:0:0:
320,192,423980,1,0,0:0:0:0:
64,192,423980,1,0,0:0:0:0:
448,192,424049,1,0,0:0:0:0:
192,192,424117,1,0,0:0:0:0:
64,192,424253,1,0,0:0:0:0:
320,192,424253,1,0,0:0:0:0:
448,192,424390,1,0,0:0:0:0:
192,192,424526,1,0,0:0:0:0:
320,192,424526,1,0,0:0:0:0:
64,192,424662,1,0,0:0:0:0:
320,192,424662,1,0,0:0:0:0:
192,192,424799,1,0,0:0:0:0:
64,192,424935,1,0,0:0:0:0:
448,192,424935,1,0,0:0:0:0:
320,192,425003,1,0,0:0:0:0:
192,192,425071,1,0,0:0:0:0:
448,192,425071,1,0,0:0:0:0:
64,192,425140,1,0,0:0:0:0:
320,192,425208,1,0,0:0:0:0:
192,192,425208,1,0,0:0:0:0:
64,192,425344,1,0,0:0:0:0:
320,192,425344,1,0,0:0:0:0:
448,192,425344,1,0,0:0:0:0:
192,192,425480,1,0,0:0:0:0:
64,192,425617,1,0,0:0:0:0:
448,192,425617,1,0,0:0:0:0:
192,192,425753,1,0,0:0:0:0:
448,192,425753,1,0,0:0:0:0:
320,192,425890,1,0,0:0:0:0:
64,192,426026,1,0,0:0:0:0:
448,192,426026,1,0,0:0:0:0:
320,192,426162,1,0,0:0:0:0:
64,192,426162,1,0,0:0:0:0:
448,192,426230,1,0,0:0:0:0:
192,192,426299,1,0,0:0:0:0:
64,192,426435,1,0,0:0:0:0:
320,192,426435,1,0,0:0:0:0:
448,192,426435,1,0,0:0:0:0:
320,192,426571,1,0,0:0:0:0:
64,192,426708,1,0,0:0:0:0:
448,192,426708,1,0,0:0:0:0:
64,192,426844,1,0,0:0:0:0:
320,192,426844,1,0,0:0:0:0:
192,192,426980,1,0,0:0:0:0:
320,192,427117,1,0,0:0:0:0:
448,192,427117,1,0,0:0:0:0:
192,192,427253,1,0,0:0:0:0:
448,192,427253,1,0,0:0:0:0:
320,192,427321,1,0,0:0:0:0:
64,192,427390,1,0,0:0:0:0:
192,192,427390,1,0,0:0:0:0:
64,192,427526,1,0,0:0:0:0:
320,192,427526,1,0,0:0:0:0:
448,192,427526,1,0,0:0:0:0:
448,192,427662,1,0,0:0:0:0:
192,192,427799,1,0,0:0:0:0:
320,192,427799,1,0,0:0:0:0:
64,192,427935,1,0,0:0:0:0:
448,192,427935,1,0,0:0:0:0:
64,192,428071,1,0,0:0:0:0:
192,192,428071,1,0,0:0:0:0:
320,192,428071,1,0,0:0:0:0:
448,192,428208,1,0,0:0:0:0:
320,192,428344,1,0,0:0:0:0:
64,192,428344,1,0,0:0:0:0:
448,192,428480,1,0,0:0:0:0:
192,192,428480,1,0,0:0:0:0:
64,192,428617,1,0,0:0:0:0:
448,192,428617,1,0,0:0:0:0:
320,192,428617,1,0,0:0:0:0:
192,192,428753,1,0,0:0:0:0:
64,192,428890,1,0,0:0:0:0:
320,192,428890,1,0,0:0:0:0:
192,192,428890,1,0,0:0:0:0:
448,192,429026,1,0,0:0:0:0:
192,192,429162,1,0,0:0:0:0:
320,192,429162,1,0,0:0:0:0:
448,192,429162,1,0,0:0:0:0:
64,192,429299,1,0,0:0:0:0:
192,192,429299,1,0,0:0:0:0:
64,192,429435,1,0,0:0:0:0:
448,192,429435,1,0,0:0:0:0:
320,192,429435,1,0,0:0:0:0:
64,192,429708,1,0,0:0:0:0:
192,192,429708,1,0,0:0:0:0:
448,192,429708,1,0,0:0:0:0:
