osu file format v14

[General]
AudioFilename: audio.mp3
AudioLeadIn: 0
PreviewTime: 52009
Countdown: 1
SampleSet: None
StackLeniency: 0.7
Mode: 0
LetterboxInBreaks: 0
WidescreenStoryboard: 1

[Editor]
Bookmarks: 9328,104781,130690,136417,203779,205416
DistanceSpacing: 2.6
BeatDivisor: 8
GridSize: 8
TimelineZoom: 3.399999

[Metadata]
Title:Banned Forever
TitleUnicode:Banned Forever
Artist:Renard
ArtistUnicode:Renard
Creator:zPeanut
Version:Tunaep v2
Source:
Tags:
BeatmapID:1814298
BeatmapSetID:850790

[Difficulty]
HPDrainRate:2
CircleSize:4
OverallDifficulty:8
ApproachRate:9
SliderMultiplier:1.8
SliderTickRate:2

[Events]
//Background and Video events
0,0,"123.png",0,0
//Break Periods
2,17709,25637
2,87527,88364
2,89710,90409
2,91891,92727
2,94073,94909
2,139890,156544
//Storyboard Layer 0 (Background)
//Storyboard Layer 1 (Fail)
//Storyboard Layer 2 (Pass)
//Storyboard Layer 3 (Foreground)
//Storyboard Sound Samples

[TimingPoints]
56,272.727272727273,4,1,0,60,1,0
26237,272.727272727273,4,1,0,60,1,0
34692,2181.81818181818,4,1,0,60,1,0
34964,272.727272727273,4,1,0,60,1,0
43691,-133.333333333333,4,1,0,60,0,0
51736,-133.333333333333,4,1,0,10,0,0
52418,-133.333333333333,4,1,0,60,0,1
69873,-133.333333333333,4,1,0,60,0,0
85964,-666.666666666667,4,1,0,60,0,0
86782,-100,4,1,0,60,0,0
96054,-83.3333333333333,4,1,0,60,0,0
104509,2181.81818181818,4,1,0,60,1,0
104781,272.727272727273,4,1,0,60,1,1
106962,-66.6666666666667,4,1,0,60,0,1
108599,-100,4,1,0,60,0,1
111326,-66.6666666666667,4,1,0,60,0,1
113508,-100,4,1,0,60,0,1
115690,-66.6666666666667,4,1,0,60,0,1
117326,-100,4,1,0,60,0,1
120053,-66.6666666666667,4,1,0,60,0,1
121690,-66.6666666666667,4,1,0,60,0,0
122235,-66.6666666666667,4,1,0,60,0,1
124417,-33.3333333333333,4,1,0,60,0,1
124826,-66.6666666666667,4,1,0,60,0,1
125371,-50,4,1,0,60,0,1
126053,-100,4,1,0,60,0,1
126599,-66.6666666666667,4,1,0,60,0,1
139690,-66.6666666666667,4,1,0,100,0,0
139758,-66.6666666666667,4,1,0,60,0,0
157144,-133.333333333333,4,1,0,30,0,0
158235,-200,4,1,0,30,0,0
172281,2727.27272727273,4,2,0,25,1,0
174598,272.727272727273,4,1,0,60,1,1
209507,-100,4,1,0,60,0,0

[Colours]
Combo1 : 81,0,0
Combo2 : 255,128,128
Combo3 : 138,0,0
Combo4 : 250,154,169

[HitObjects]
70,47,56,5,0,0:0:0:0:
116,109,192,1,0,0:0:0:0:
204,60,328,2,0,P|263:69|318:112,1,90,8|0,0:0|0:0,0:0:0:0:
342,155,601,1,0,0:0:0:0:
256,157,737,2,0,P|192:174|165:205,1,90,0|0,0:0|0:0,0:0:0:0:
245,235,1010,2,0,P|271:278|314:301,1,90,0|0,0:0|0:0,0:0:0:0:
386,308,1283,1,0,0:0:0:0:
416,206,1419,6,0,P|366:174|334:140,1,90,0|0,0:0|0:0,0:0:0:0:
298,81,1692,1,8,0:0:0:0:
260,154,1828,2,0,P|225:189|168:195,1,90,8|8,0:0|0:0,0:0:0:0:
96,126,2101,1,8,0:0:0:0:
146,294,2237,1,0,0:0:0:0:
253,259,2374,2,0,P|320:273|364:257,1,90,0|0,0:0|0:0,0:0:0:0:
405,221,2646,1,0,0:0:0:0:
335,155,2783,1,0,0:0:0:0:
401,95,2919,1,0,0:0:0:0:
313,42,3056,2,0,P|238:46|198:77,1,90,0|0,0:0|0:0,0:0:0:0:
148,91,3328,5,0,0:0:0:0:
115,192,3465,1,0,0:0:0:0:
169,275,3601,2,0,P|210:251|291:259,1,90,0|0,0:0|0:0,0:0:0:0:
327,277,3874,1,0,0:0:0:0:
366,296,3942,1,0,0:0:0:0:
409,286,4010,1,0,0:0:0:0:
434,251,4078,1,0,0:0:0:0:
431,207,4146,1,0,0:0:0:0:
407,127,4283,1,0,0:0:0:0:
351,58,4419,6,0,P|294:93|248:90,1,90,0|0,0:0|0:0,0:0:0:0:
177,38,4692,1,8,0:0:0:0:
132,134,4828,1,0,0:0:0:0:
236,195,4965,2,0,P|279:171|351:182,1,90,0|0,0:0|0:0,0:0:0:0:
405,203,5237,1,0,0:0:0:0:
326,277,5374,1,0,0:0:0:0:
233,195,5510,2,0,P|180:212|128:202,1,90,0|8,0:0|0:0,0:0:0:0:
101,121,5783,1,0,0:0:0:0:
159,293,5919,1,0,0:0:0:0:
251,99,6056,6,0,P|296:105|344:135,1,90,0|8,0:0|0:0,0:0:0:0:
399,193,6328,1,8,0:0:0:0:
312,202,6465,2,0,P|249:207|210:191,1,90,8|0,0:0|0:0,0:0:0:0:
159,127,6737,2,0,L|116:228,1,90,0|0,0:0|0:0,0:0:0:0:
155,304,7010,1,0,0:0:0:0:
275,277,7146,2,0,P|319:241|357:199,3,90,8|0|8|0,0:0|0:0|0:0|0:0,0:0:0:0:
395,125,7692,6,0,P|335:117|273:91,1,90,0|0,0:0|0:0,0:0:0:0:
215,17,7965,1,0,0:0:0:0:
137,103,8101,1,0,0:0:0:0:
234,144,8237,5,0,0:0:0:0:
222,168,8305,1,0,0:0:0:0:
206,190,8373,1,0,0:0:0:0:
187,208,8441,1,0,0:0:0:0:
164,224,8509,1,0,0:0:0:0:
136,238,8578,1,0,0:0:0:0:
143,281,8646,1,0,0:0:0:0:
177,310,8714,1,0,0:0:0:0:
221,310,8782,5,0,0:0:0:0:
358,244,8919,1,0,0:0:0:0:
324,120,9056,2,0,P|268:151|231:155,1,90,8|2,0:0|0:0,0:0:0:0:
252,67,9328,2,0,P|208:77|171:101,1,90,0|0,0:0|0:0,0:0:0:0:
87,174,9601,1,0,0:0:0:0:
157,266,9737,1,8,0:0:0:0:
271,205,9874,2,0,P|339:209|382:192,1,90,2|8,0:0|0:0,0:0:0:0:
392,128,10146,1,0,0:0:0:0:
470,203,10283,1,0,0:0:0:0:
404,304,10419,2,0,P|346:292|274:302,1,90,0|8,0:0|0:0,0:0:0:0:
316,200,10692,5,8,0:0:0:0:
191,318,10828,1,8,0:0:0:0:
218,222,10965,2,0,P|188:172|171:117,1,90,8|0,0:0|0:0,0:0:0:0:
159,57,11237,1,0,0:0:0:0:
290,147,11374,1,0,0:0:0:0:
172,190,11510,2,0,P|136:227|121:285,1,90,8|0,0:0|0:0,0:0:0:0:
245,313,11783,1,8,0:0:0:0:
57,122,11919,2,0,P|106:127|168:120,1,90,8|0,0:0|0:0,0:0:0:0:
227,38,12192,1,0,0:0:0:0:
127,257,12328,1,0,0:0:0:0:
232,191,12465,1,8,0:0:0:0:
276,199,12533,1,0,0:0:0:0:
321,198,12601,1,8,0:0:0:0:
380,93,12737,5,0,0:0:0:0:
423,311,12874,2,0,P|377:293|306:292,1,90,0|0,0:0|0:0,0:0:0:0:
291,166,13146,1,0,0:0:0:0:
166,245,13283,2,0,P|133:198|147:153,1,90,0|8,0:0|0:0,0:0:0:0:
318,35,13556,1,0,0:0:0:0:
281,201,13692,2,0,P|218:197|177:230,1,90,8|0,0:0|0:0,0:0:0:0:
69,143,13965,1,0,0:0:0:0:
184,286,14101,1,8,0:0:0:0:
206,71,14237,2,0,P|270:79|311:73,1,90,0|8,0:0|0:0,0:0:0:0:
375,28,14510,1,8,0:0:0:0:
428,154,14646,1,0,0:0:0:0:
364,273,14783,6,0,P|304:244|256:244,1,90,0|8,0:0|0:0,0:0:0:0:
204,114,15056,1,8,0:0:0:0:
179,247,15192,2,0,P|135:255|77:217,1,90,8|8,0:0|0:0,0:0:0:0:
40,135,15465,1,0,0:0:0:0:
158,319,15601,1,0,0:0:0:0:
148,73,15737,2,0,P|209:107|250:109,1,90,0|8,0:0|0:0,0:0:0:0:
339,17,16010,1,0,0:0:0:0:
385,123,16146,2,0,P|380:172|346:222,1,90,8|8,0:0|0:0,0:0:0:0:
242,177,16419,1,0,0:0:0:0:
282,338,16556,1,0,0:0:0:0:
163,262,16692,6,0,P|114:216|100:165,1,90,0|0,0:0|0:0,0:0:0:0:
142,113,16965,2,0,P|177:140|200:179,1,90,0|0,0:0|0:0,0:0:0:0:
246,248,17237,1,0,0:0:0:0:
289,260,17305,1,0,0:0:0:0:
333,258,17373,1,0,0:0:0:0:
375,241,17441,1,0,0:0:0:0:
408,212,17509,1,4,0:0:0:0:
225,70,26237,6,0,P|171:108|108:115,1,90,6|0,0:0|0:0,0:0:0:0:
55,104,26509,1,0,0:0:0:0:
73,198,26646,2,0,P|108:250|142:260,1,90,14|0,0:0|0:0,0:0:0:0:
210,209,26918,1,0,0:0:0:0:
252,293,27055,1,0,0:0:0:0:
318,197,27191,1,0,0:0:0:0:
395,99,27327,6,0,P|426:175|299:331,1,270,6|6,0:0|0:0,0:0:0:0:
227,310,27873,1,0,0:0:0:0:
277,220,28009,2,0,P|223:221|188:201,1,90,0|0,0:0|0:0,0:0:0:0:
145,127,28282,1,0,0:0:0:0:
225,67,28418,6,0,P|273:97|474:52,1,270,8|8,0:0|0:0,0:0:0:0:
508,139,28964,1,0,0:0:0:0:
421,200,29100,2,0,P|377:223|323:221,1,90,0|0,0:0|0:0,0:0:0:0:
269,151,29373,1,0,0:0:0:0:
234,310,29509,2,0,P|190:260|211:60,1,270,14|14,0:0|0:0,0:0:0:0:
279,150,30055,2,0,P|318:188|359:199,1,90,0|0,0:0|0:0,0:0:0:0:
428,233,30327,2,0,P|389:271|348:282,1,90,0|0,0:0|0:0,0:0:0:0:
297,344,30600,6,0,P|164:275|145:146,1,270,6|6,0:0|0:0,0:0:0:0:
163,62,31146,1,0,0:0:0:0:
226,126,31282,2,0,P|278:143|330:127,1,90,0|0,0:0|0:0,0:0:0:0:
386,66,31555,1,0,0:0:0:0:
424,206,31691,6,0,P|316:210|166:317,1,270,14|14,0:0|0:0,0:0:0:0:
98,333,32237,1,0,0:0:0:0:
25,260,32373,2,0,P|53:219|51:157,1,90,0|0,0:0|0:0,0:0:0:0:
7,96,32646,1,0,0:0:0:0:
71,37,32782,6,0,P|107:81|229:105,1,180,14|0,0:0|0:0,0:0:0:0:
314,121,33191,2,0,P|278:165|150:204,1,180,0|0,0:0|0:0,0:0:0:0:
63,167,33600,1,0,0:0:0:0:
55,283,33737,2,0,P|102:279|152:312,1,90,0|8,0:0|0:0,0:0:0:0:
229,270,34009,1,0,0:0:0:0:
319,298,34146,2,0,P|366:266|390:219,1,90,0|0,0:0|0:0,0:0:0:0:
397,118,34418,2,0,P|367:155|315:172,1,90,0|0,0:0|0:0,0:0:0:0:
249,120,34692,6,2,L|235:156,1,22.5,0|0,0:0|0:0,0:0:0:0:
201,212,35236,1,2,0:0:0:0:
88,117,35509,2,0,P|78:193|86:225,1,90,0|2,0:0|0:0,0:0:0:0:
204,296,35918,1,2,0:0:0:0:
273,146,36191,2,0,P|326:162|366:206,1,90,0|2,0:0|0:0,0:0:0:0:
416,210,36464,1,0,0:0:0:0:
370,276,36600,6,0,P|290:262|258:228,1,90,0|0,0:0|0:0,0:0:0:0:
248,164,36873,2,0,P|205:187|176:237,1,90,0|0,0:0|0:0,0:0:0:0:
155,303,37145,1,2,0:0:0:0:
52,121,37418,1,8,0:0:0:0:
145,58,37691,5,0,0:0:0:0:
222,42,37827,1,2,0:0:0:0:
197,118,37964,1,0,0:0:0:0:
273,99,38100,1,8,0:0:0:0:
405,46,38373,5,0,0:0:0:0:
405,46,38509,1,2,0:0:0:0:
375,136,38645,1,2,0:0:0:0:
322,201,38782,1,2,0:0:0:0:
257,264,38918,1,2,0:0:0:0:
183,313,39054,1,0,0:0:0:0:
92,308,39191,1,0,0:0:0:0:
67,173,39327,6,0,P|151:156|269:172,1,180,4|0,0:0|0:0,0:0:0:0:
199,242,39736,1,0,0:0:0:0:
292,275,39873,2,0,P|347:256|372:220,1,90,0|0,0:0|0:0,0:0:0:0:
398,141,40145,1,0,0:0:0:0:
314,175,40282,2,0,P|236:162|148:250,1,180,0|0,0:0|0:0,0:0:0:0:
165,327,40691,1,0,0:0:0:0:
246,271,40827,2,0,P|308:272|353:252,1,90,0|0,0:0|0:0,0:0:0:0:
394,173,41100,1,0,0:0:0:0:
358,72,41236,1,0,0:0:0:0:
274,150,41373,1,0,0:0:0:0:
198,85,41509,6,0,P|115:106|79:189,1,180,0|0,0:0|0:0,0:0:0:0:
61,270,41918,1,0,0:0:0:0:
131,311,42054,6,0,P|176:289|209:241,1,90,0|0,0:0|0:0,0:0:0:0:
252,173,42327,1,0,0:0:0:0:
281,75,42464,2,0,P|342:109|456:86,1,180,0|0,0:0|0:0,0:0:0:0:
471,181,42873,1,0,0:0:0:0:
405,242,43009,2,0,P|360:251|291:241,1,90,0|0,0:0|0:0,0:0:0:0:
277,170,43282,1,0,0:0:0:0:
211,233,43418,6,0,P|162:286|30:274,1,180,0|6,0:0|0:0,0:0:0:0:
54,99,44100,1,6,0:0:0:0:
192,105,44509,2,0,P|206:160|169:255,1,135.000005149842,0|6,0:0|0:0,0:0:0:0:
287,198,45191,1,6,0:0:0:0:
301,86,45600,2,0,P|362:80|423:136,1,135.000005149842,0|6,0:0|0:0,0:0:0:0:
424,244,46282,1,6,0:0:0:0:
309,217,46691,6,0,P|236:231|125:165,1,202.500007724762,0|0,0:0|0:0,0:0:0:0:
77,85,47236,1,6,0:0:0:0:
180,47,47372,1,0,0:0:0:0:
234,143,47509,2,0,P|267:145|315:135,1,67.5000025749208,0|0,0:0|0:0,0:0:0:0:
271,69,47781,2,0,P|304:67|352:77,1,67.5000025749208,8|8,0:0|0:0,0:0:0:0:
435,113,48054,6,0,P|425:148|309:276,1,202.500007724762,6|6,0:0|0:0,0:0:0:0:
281,153,48873,1,0,0:0:0:0:
248,272,49145,2,0,P|174:255|66:348,1,202.500007724762,6|6,0:0|0:0,0:0:0:0:
144,119,49964,1,0,0:0:0:0:
231,147,50236,6,0,P|296:172|404:103,1,202.500007724762,0|8,0:0|0:0,0:0:0:0:
439,20,51054,1,6,0:0:0:0:
477,148,51327,6,0,P|427:209|355:234,1,135.000005149842,14|4,0:0|0:0,0:0:0:0:
314,142,51736,1,4,0:0:0:0:
271,311,51873,1,4,0:0:0:0:
219,208,52009,2,0,P|160:181|144:163,1,67.5000025749208,4|4,0:0|0:0,0:0:0:0:
97,99,52282,1,0,0:0:0:0:
196,46,52418,6,0,P|237:74|272:71,1,67.5000025749208,4|0,0:0|0:0,0:0:0:0:
344,64,52691,2,0,P|352:115|336:150,1,67.5000025749208,0|0,0:0|0:0,0:0:0:0:
335,242,52964,1,0,0:0:0:0:
255,166,53100,1,0,0:0:0:0:
223,266,53236,2,0,P|176:248|148:222,1,67.5000025749208,0|0,0:0|0:0,0:0:0:0:
138,147,53509,1,0,0:0:0:0:
104,327,53645,1,0,0:0:0:0:
208,226,53782,2,0,P|258:216|290:225,1,67.5000025749208,0|0,0:0|0:0,0:0:0:0:
340,268,54054,1,0,0:0:0:0:
396,194,54191,2,0,P|400:153|388:123,1,67.5000025749208,0|0,0:0|0:0,0:0:0:0:
358,37,54464,1,0,0:0:0:0:
282,142,54600,5,0,0:0:0:0:
170,178,54736,1,0,0:0:0:0:
179,38,54873,1,0,0:0:0:0:
92,33,55009,6,0,P|62:76|60:122,1,67.5000025749208,8|0,0:0|0:0,0:0:0:0:
133,100,55282,2,0,P|163:143|165:189,1,67.5000025749208,0|0,0:0|0:0,0:0:0:0:
80,200,55554,1,0,0:0:0:0:
128,273,55691,2,0,P|170:258|214:263,1,67.5000025749208,8|8,0:0|0:0,0:0:0:0:
269,264,55964,2,0,P|310:262|347:251,1,67.5000025749208,8|0,0:0|0:0,0:0:0:0:
441,252,56236,1,8,0:0:0:0:
423,223,56304,1,0,0:0:0:0:
405,194,56372,1,8,0:0:0:0:
388,165,56440,1,0,0:0:0:0:
370,136,56508,1,8,0:0:0:0:
261,196,56645,1,0,0:0:0:0:
219,72,56782,6,0,P|158:76|131:60,1,67.5000025749208,2|0,0:0|0:0,0:0:0:0:
54,15,57054,1,2,0:0:0:0:
54,255,57191,1,2,0:0:0:0:
27,132,57327,2,0,P|72:146|102:172,1,67.5000025749208,2|0,0:0|0:0,0:0:0:0:
153,263,57600,5,2,0:0:0:0:
214,73,57736,2,0,P|251:75|279:94,1,67.5000025749208,2|4,0:0|0:0,0:0:0:0:
223,145,58009,1,0,0:0:0:0:
392,156,58145,2,0,P|381:119|354:91,1,67.5000025749208,8|0,0:0|0:0,0:0:0:0:
401,290,58418,1,8,0:0:0:0:
253,271,58554,6,0,P|234:243|227:210,1,67.5000025749208,0|8,0:0|0:0,0:0:0:0:
280,78,58827,1,0,0:0:0:0:
305,185,58964,2,0,P|248:192|218:167,1,67.5000025749208,2|0,0:0|0:0,0:0:0:0:
161,80,59236,1,0,0:0:0:0:
66,173,59373,2,0,P|88:201|92:249,1,67.5000025749208,0|2,0:0|0:0,0:0:0:0:
33,70,59645,1,0,0:0:0:0:
177,63,59782,6,0,L|270:37,1,67.5000025749208,0|0,0:0|0:0,0:0:0:0:
195,140,60054,2,0,L|288:163,1,67.5000025749208,2|0,0:0|0:0,0:0:0:0:
204,222,60327,2,0,L|273:289,1,67.5000025749208,6|0,0:0|0:0,0:0:0:0:
165,303,60600,5,8,0:0:0:0:
189,326,60668,1,0,0:0:0:0:
215,346,60736,1,8,0:0:0:0:
249,347,60804,1,0,0:0:0:0:
282,349,60872,1,8,0:0:0:0:
316,350,60940,1,0,0:0:0:0:
335,325,61009,1,8,0:0:0:0:
350,295,61077,1,0,0:0:0:0:
361,263,61145,6,0,P|357:222|341:184,1,67.5000025749208,2|0,0:0|0:0,0:0:0:0:
281,103,61418,1,0,0:0:0:0:
240,207,61554,2,0,P|193:182|178:158,1,67.5000025749208,0|2,0:0|0:0,0:0:0:0:
134,70,61827,1,0,0:0:0:0:
12,285,61964,1,0,0:0:0:0:
82,189,62100,2,0,P|111:232|123:271,1,67.5000025749208,0|2,0:0|0:0,0:0:0:0:
176,340,62373,1,0,0:0:0:0:
241,256,62509,2,0,P|284:231|331:233,1,67.5000025749208,0|0,0:0|0:0,0:0:0:0:
385,226,62782,1,2,0:0:0:0:
246,83,62918,1,0,0:0:0:0:
309,340,63054,1,0,0:0:0:0:
216,209,63191,6,0,P|171:198|141:173,1,67.5000025749208,0|2,0:0|0:0,0:0:0:0:
117,96,63464,1,0,0:0:0:0:
85,273,63600,1,0,0:0:0:0:
244,166,63736,2,0,P|272:148|306:143,1,67.5000025749208,0|2,0:0|0:0,0:0:0:0:
305,220,64009,2,0,P|333:238|366:243,1,67.5000025749208,0|0,0:0|0:0,0:0:0:0:
412,181,64282,1,0,0:0:0:0:
368,65,64418,1,8,0:0:0:0:
330,330,64554,1,8,0:0:0:0:
253,248,64691,2,0,P|192:252|171:259,1,67.5000025749208,8|8,0:0|0:0,0:0:0:0:
121,316,64964,5,8,0:0:0:0:
100,288,65032,1,0,0:0:0:0:
80,261,65100,1,8,0:0:0:0:
61,234,65168,1,0,0:0:0:0:
61,200,65236,1,8,0:0:0:0:
61,166,65304,1,0,0:0:0:0:
61,133,65373,1,8,0:0:0:0:
61,99,65441,1,0,0:0:0:0:
63,62,65509,6,0,P|105:83|130:78,1,67.5000025749208,2|0,0:0|0:0,0:0:0:0:
207,26,65782,1,2,0:0:0:0:
275,104,65918,2,0,P|274:144|249:168,1,67.5000025749208,0|2,0:0|0:0,0:0:0:0:
187,212,66191,1,0,0:0:0:0:
79,170,66327,1,0,0:0:0:0:
153,315,66464,2,0,P|202:300|233:276,1,67.5000025749208,0|2,0:0|0:0,0:0:0:0:
242,198,66736,1,0,0:0:0:0:
309,277,66873,2,0,P|361:261|379:234,1,67.5000025749208,0|0,0:0|0:0,0:0:0:0:
426,203,67145,1,2,0:0:0:0:
345,138,67282,1,2,0:0:0:0:
401,54,67418,2,0,P|351:41|326:47,1,67.5000025749208,2|0,0:0|0:0,0:0:0:0:
244,33,67691,6,0,P|227:74|199:103,1,67.5000025749208,8|0,0:0|0:0,0:0:0:0:
122,82,67964,2,0,P|127:129|141:166,1,67.5000025749208,0|0,0:0|0:0,0:0:0:0:
174,235,68236,1,8,0:0:0:0:
275,160,68373,1,0,0:0:0:0:
270,277,68509,1,0,0:0:0:0:
350,219,68645,6,0,P|378:200|399:150,1,67.5000025749208,0|0,0:0|0:0,0:0:0:0:
398,46,68918,1,0,0:0:0:0:
288,146,69054,1,2,0:0:0:0:
219,53,69191,5,0,0:0:0:0:
194,75,69259,1,0,0:0:0:0:
162,87,69327,1,10,0:0:0:0:
129,84,69395,1,0,0:0:0:0:
101,68,69464,1,10,0:0:0:0:
125,91,69532,1,0,0:0:0:0:
142,120,69600,1,10,0:0:0:0:
152,152,69668,1,0,0:0:0:0:
154,185,69736,1,10,0:0:0:0:
148,218,69804,1,0,0:0:0:0:
133,253,69873,6,0,P|184:269|217:253,1,67.5000025749208,10|0,0:0|0:0,0:0:0:0:
249,192,70145,1,0,0:0:0:0:
362,254,70282,2,0,P|311:270|278:254,1,67.5000025749208,2|0,0:0|0:0,0:0:0:0:
248,190,70554,1,0,0:0:0:0:
250,88,70691,1,0,0:0:0:0:
190,32,70827,2,0,L|126:57,2,67.5000025749208,0|2|0,0:0|0:0|0:0,0:0:0:0:
311,31,71236,2,0,L|375:56,2,67.5000025749208,0|2|0,0:0|0:0|0:0,0:0:0:0:
248,85,71645,1,0,0:0:0:0:
246,190,71782,1,0,0:0:0:0:
203,252,71918,6,0,P|165:212|153:187,1,67.5000025749208,0|2,0:0|0:0,0:0:0:0:
135,121,72191,1,0,0:0:0:0:
227,132,72327,2,0,P|262:147|312:141,1,67.5000025749208,0|0,0:0|0:0,0:0:0:0:
360,83,72600,1,2,0:0:0:0:
436,201,72736,2,0,L|349:232,1,67.5000025749208,0|0,0:0|0:0,0:0:0:0:
357,147,73009,1,0,0:0:0:0:
282,280,73145,1,2,0:0:0:0:
296,88,73282,1,0,0:0:0:0:
187,247,73418,5,0,0:0:0:0:
169,257,73486,1,0,0:0:0:0:
150,264,73554,1,0,0:0:0:0:
130,266,73622,1,0,0:0:0:0:
110,264,73690,1,0,0:0:0:0:
91,258,73758,1,0,0:0:0:0:
73,248,73827,1,8,0:0:0:0:
59,234,73895,1,0,0:0:0:0:
47,217,73963,1,8,0:0:0:0:
40,199,74031,1,0,0:0:0:0:
36,179,74099,1,8,0:0:0:0:
37,159,74168,1,0,0:0:0:0:
39,135,74236,6,0,P|92:147|119:160,1,67.5000025749208,2|0,0:0|0:0,0:0:0:0:
193,179,74509,2,0,P|238:208|277:205,1,67.5000025749208,0|2,0:0|0:0,0:0:0:0:
239,77,74782,1,0,0:0:0:0:
326,272,74918,1,0,0:0:0:0:
159,79,75054,2,0,P|128:92|110:126,1,67.5000025749208,0|0,0:0|0:0,0:0:0:0:
87,203,75327,1,2,0:0:0:0:
239,58,75464,1,0,0:0:0:0:
195,280,75600,2,0,P|236:266|273:249,1,67.5000025749208,0|2,0:0|0:0,0:0:0:0:
326,217,75873,5,0,0:0:0:0:
396,136,76009,1,0,0:0:0:0:
302,120,76145,2,0,P|253:125|226:106,1,67.5000025749208,0|0,0:0|0:0,0:0:0:0:
153,160,76418,2,0,L|128:241,1,67.5000025749208,2|0,0:0|0:0,0:0:0:0:
206,292,76691,2,0,L|231:211,1,67.5000025749208,0|2,0:0|0:0,0:0:0:0:
320,186,76964,2,0,L|295:267,1,67.5000025749208,0|0,0:0|0:0,0:0:0:0:
278,324,77236,1,2,0:0:0:0:
396,220,77373,1,0,0:0:0:0:
398,120,77509,6,0,P|346:119|311:101,1,67.5000025749208,2|0,0:0|0:0,0:0:0:0:
268,25,77782,1,2,0:0:0:0:
314,206,77918,1,0,0:0:0:0:
221,104,78054,1,8,0:0:0:0:
206,134,78122,1,0,0:0:0:0:
202,167,78190,1,0,0:0:0:0:
210,200,78258,1,0,0:0:0:0:
228,228,78326,5,0,0:0:0:0:
255,249,78394,1,0,0:0:0:0:
287,259,78463,1,8,0:0:0:0:
320,259,78531,1,0,0:0:0:0:
348,248,78600,6,0,P|377:217|392:176,1,67.5000025749208,0|0,0:0|0:0,0:0:0:0:
390,91,78873,1,0,0:0:0:0:
291,190,79009,2,0,P|296:138|277:96,1,67.5000025749208,0|0,0:0|0:0,0:0:0:0:
236,60,79282,1,0,0:0:0:0:
289,258,79418,1,0,0:0:0:0:
196,147,79554,2,0,P|162:171|123:176,1,67.5000025749208,0|0,0:0|0:0,0:0:0:0:
130,74,79827,1,0,0:0:0:0:
227,266,79964,2,0,P|263:242|278:210,1,67.5000025749208,0|0,0:0|0:0,0:0:0:0:
267,131,80236,2,0,L|177:150,1,67.5000025749208,0|0,0:0|0:0,0:0:0:0:
106,170,80509,2,0,L|163:245,1,67.5000025749208,0|0,0:0|0:0,0:0:0:0:
150,56,80782,2,0,P|87:58|62:81,1,67.5000025749208,0|0,0:0|0:0,0:0:0:0:
34,129,81054,5,0,0:0:0:0:
50,262,81191,1,0,0:0:0:0:
144,193,81327,2,0,P|193:198|232:184,1,67.5000025749208,0|0,0:0|0:0,0:0:0:0:
284,230,81600,2,0,P|257:250|226:262,1,67.5000025749208,0|0,0:0|0:0,0:0:0:0:
147,264,81873,1,0,0:0:0:0:
64,331,82009,1,0,0:0:0:0:
107,60,82145,1,8,0:0:0:0:
122,161,82282,5,8,0:0:0:0:
155,165,82350,1,0,0:0:0:0:
189,167,82418,1,8,0:0:0:0:
222,167,82486,1,0,0:0:0:0:
256,164,82554,1,8,0:0:0:0:
289,159,82622,5,0,0:0:0:0:
322,152,82691,1,8,0:0:0:0:
354,142,82759,1,0,0:0:0:0:
386,129,82827,1,8,0:0:0:0:
416,115,82895,1,0,0:0:0:0:
447,97,82964,6,0,P|460:131|451:178,1,67.5000025749208,8|0,0:0|0:0,0:0:0:0:
380,282,83236,1,0,0:0:0:0:
346,77,83373,2,0,P|312:114|265:114,1,67.5000025749208,0|0,0:0|0:0,0:0:0:0:
176,72,83645,1,0,0:0:0:0:
253,206,83782,2,0,P|208:225|178:220,1,67.5000025749208,0|0,0:0|0:0,0:0:0:0:
277,47,84054,1,0,0:0:0:0:
279,339,84190,1,0,0:0:0:0:
100,109,84327,1,0,0:0:0:0:
355,194,84463,2,0,P|363:253|349:288,1,67.5000025749208,0|0,0:0|0:0,0:0:0:0:
406,334,84736,5,0,0:0:0:0:
490,233,84873,2,0,P|495:194|481:147,1,67.5000025749208,0|0,0:0|0:0,0:0:0:0:
489,166,85077,1,0,0:0:0:0:
489,166,85145,1,0,0:0:0:0:
420,37,85282,1,0,0:0:0:0:
321,127,85418,6,0,L|369:186,1,67.5000025749208,0|0,0:0|0:0,0:0:0:0:
275,191,85691,2,0,L|287:266,1,67.5000025749208,0|0,0:0|0:0,0:0:0:0:
207,246,85964,2,0,L|179:317,1,67.5000025749208,0|0,0:0|0:0,0:0:0:0:
99,354,86782,5,10,0:0:0:0:
86,330,86850,1,0,0:0:0:0:
76,305,86918,1,10,0:0:0:0:
67,279,86986,1,0,0:0:0:0:
60,253,87054,1,10,0:0:0:0:
55,226,87122,1,0,0:0:0:0:
53,200,87191,1,10,0:0:0:0:
52,173,87259,1,0,0:0:0:0:
53,146,87327,5,10,0:0:0:0:
172,270,88964,5,8,0:0:0:0:
268,97,89101,1,8,0:0:0:0:
118,162,89237,1,8,0:0:0:0:
306,239,89373,1,8,0:0:0:0:
154,65,89510,1,10,0:0:0:0:
106,255,91009,5,8,0:0:0:0:
138,86,91145,1,8,0:0:0:0:
318,109,91282,1,8,0:0:0:0:
288,273,91418,1,8,0:0:0:0:
213,182,91554,1,8,0:0:0:0:
226,63,91691,1,10,0:0:0:0:
102,80,93327,5,8,0:0:0:0:
280,82,93463,1,8,0:0:0:0:
78,237,93600,1,12,0:0:0:0:
259,237,93736,1,12,0:0:0:0:
102,80,93873,1,12,0:0:0:0:
78,96,95509,5,2,0:0:0:0:
97,106,95577,1,2,0:0:0:0:
119,113,95645,1,2,0:0:0:0:
141,117,95713,1,2,0:0:0:0:
163,118,95781,1,2,0:0:0:0:
219,227,95918,1,2,0:0:0:0:
315,294,96054,6,0,P|334:228|320:194,1,107.999996704102,2|0,0:0|0:0,0:0:0:0:
254,81,96327,1,2,0:0:0:0:
214,171,96464,2,0,P|167:227|96:238,1,107.999996704102,0|8,0:0|0:0,0:0:0:0:
125,113,96736,1,0,0:0:0:0:
269,303,96873,2,0,P|300:239|300:192,1,107.999996704102,0|8,0:0|0:0,0:0:0:0:
380,233,97145,2,0,P|371:169|328:122,1,107.999996704102,0|8,0:0|0:0,0:0:0:0:
310,69,97418,1,8,0:0:0:0:
200,250,97554,1,0,0:0:0:0:
194,135,97691,2,0,P|93:139|71:120,1,107.999996704102,8|0,0:0|0:0,0:0:0:0:
144,55,97964,1,2,0:0:0:0:
131,256,98100,6,0,P|197:278|237:247,1,107.999996704102,0|2,0:0|0:0,0:0:0:0:
268,173,98373,1,0,0:0:0:0:
341,249,98509,2,0,P|386:212|400:147,1,107.999996704102,0|0,0:0|0:0,0:0:0:0:
328,115,98782,1,2,0:0:0:0:
403,55,98918,2,0,P|346:31|262:29,1,107.999996704102,0|0,0:0|0:0,0:0:0:0:
223,43,99191,2,0,P|167:91|128:104,1,107.999996704102,0|0,0:0|0:0,0:0:0:0:
57,56,99464,1,0,0:0:0:0:
41,261,99600,1,8,0:0:0:0:
142,182,99736,5,10,0:0:0:0:
393,258,99873,1,10,0:0:0:0:
135,257,100009,1,10,0:0:0:0:
392,184,100145,1,10,0:0:0:0:
151,325,100282,1,2,0:0:0:0:
371,112,100418,2,0,P|290:93|250:70,1,107.999996704102,0|0,0:0|0:0,0:0:0:0:
196,37,100691,5,0,0:0:0:0:
45,71,100827,1,0,0:0:0:0:
110,150,100964,2,0,P|178:164|230:200,2,107.999996704102,0|0|0,0:0|0:0|0:0,0:0:0:0:
46,62,101373,1,0,0:0:0:0:
28,175,101509,2,0,P|33:250|55:314,1,107.999996704102,0|0,0:0|0:0,0:0:0:0:
112,222,101782,1,0,0:0:0:0:
136,312,101918,1,0,0:0:0:0:
231,168,102054,6,0,P|278:205|301:252,1,107.999996704102,0|0,0:0|0:0,0:0:0:0:
284,332,102327,2,0,P|237:295|214:248,1,107.999996704102,0|0,0:0|0:0,0:0:0:0:
165,144,102600,1,0,0:0:0:0:
95,293,102736,1,0,0:0:0:0:
40,76,102873,2,0,P|75:165|98:187,1,107.999996704102,0|0,0:0|0:0,0:0:0:0:
105,27,103145,1,0,0:0:0:0:
165,144,103282,1,0,0:0:0:0:
226,60,103418,2,0,P|285:79|336:75,1,107.999996704102,0|0,0:0|0:0,0:0:0:0:
406,27,103691,5,0,0:0:0:0:
464,197,103827,1,0,0:0:0:0:
315,176,103964,2,0,P|251:203|207:190,1,107.999996704102,0|0,0:0|0:0,0:0:0:0:
135,120,104236,5,0,0:0:0:0:
134,173,104304,1,0,0:0:0:0:
143,226,104372,1,0,0:0:0:0:
162,276,104440,1,0,0:0:0:0:
188,323,104509,2,0,L|228:323,1,22.5,0|4,0:0|0:0,0:0:0:0:
288,259,104917,5,0,0:0:0:0:
393,289,105053,2,0,P|386:236|356:184,1,90,8|0,0:0|0:0,0:0:0:0:
343,117,105326,1,0,0:0:0:0:
269,182,105462,2,0,P|207:178|181:160,1,90,8|0,0:0|0:0,0:0:0:0:
162,57,105735,1,8,0:0:0:0:
61,151,105871,1,0,0:0:0:0:
124,278,106008,1,2,0:0:0:0:
234,260,106144,6,0,P|297:263|339:238,1,90,2|0,0:0|0:0,0:0:0:0:
376,166,106417,1,2,0:0:0:0:
421,289,106553,1,2,0:0:0:0:
297,82,106690,2,0,P|241:102|199:129,1,90,2|0,0:0|0:0,0:0:0:0:
104,128,106962,2,8,L|61:48,2,67.5000025749208,8|0|8,0:0|0:0|0:0,0:0:0:0:
191,202,107235,2,8,L|222:261,2,67.5000025749208,8|0|8,0:0|0:0|0:0,0:0:0:0:
62,193,107508,5,2,0:0:0:0:
32,298,107644,1,0,0:0:0:0:
143,351,107781,1,0,0:0:0:0:
258,287,107917,1,0,0:0:0:0:
371,282,108053,6,8,L|484:333,2,67.5000025749208,8|0|8,0:0|0:0|0:0,0:0:0:0:
361,197,108326,2,8,L|474:146,2,67.5000025749208,8|0|8,0:0|0:0|0:0,0:0:0:0:
268,224,108599,2,0,P|214:203|171:167,1,90,8|8,0:0|0:0,0:0:0:0:
260,146,108871,2,0,P|223:100|204:48,1,90,8|0,0:0|0:0,0:0:0:0:
321,48,109144,5,0,0:0:0:0:
356,139,109281,1,0,0:0:0:0:
293,234,109417,2,0,P|234:224|188:193,1,90,2|0,0:0|0:0,0:0:0:0:
213,113,109690,1,0,0:0:0:0:
304,150,109826,2,0,P|303:220|264:258,1,90,2|0,0:0|0:0,0:0:0:0:
213,113,110099,1,0,0:0:0:0:
304,150,110235,2,0,P|371:169|414:163,1,90,2|0,0:0|0:0,0:0:0:0:
451,83,110508,5,2,0:0:0:0:
485,210,110644,1,0,0:0:0:0:
423,312,110781,1,2,0:0:0:0:
369,211,110917,2,0,P|316:212|258:218,1,90,2|2,0:0|0:0,0:0:0:0:
236,291,111190,1,0,0:0:0:0:
174,185,111326,6,8,L|210:75,2,67.5000025749208,8|0|8,0:0|0:0|0:0,0:0:0:0:
236,291,111599,2,8,L|200:401,2,67.5000025749208,8|0|8,0:0|0:0|0:0,0:0:0:0:
275,205,111871,6,0,P|351:190|418:111,1,135.000005149842,2|0,0:0|0:0,0:0:0:0:
475,50,112144,1,2,0:0:0:0:
465,307,112281,1,0,0:0:0:0:
347,305,112417,6,8,L|256:278,2,67.5000025749208,8|0|8,0:0|0:0|0:0,0:0:0:0:
404,234,112690,2,8,L|495:207,2,67.5000025749208,8|0|8,0:0|0:0|0:0,0:0:0:0:
303,155,112962,5,8,0:0:0:0:
88,237,113099,1,0,0:0:0:0:
286,219,113235,5,8,0:0:0:0:
30,167,113371,1,0,0:0:0:0:
125,62,113508,5,0,0:0:0:0:
146,174,113644,1,0,0:0:0:0:
198,268,113781,2,0,P|268:263|307:252,1,90,2|0,0:0|0:0,0:0:0:0:
302,105,114053,5,0,0:0:0:0:
404,243,114189,1,2,0:0:0:0:
407,77,114326,5,0,0:0:0:0:
269,304,114462,1,2,0:0:0:0:
277,154,114599,6,0,P|199:137|149:146,1,90,0|0,0:0|0:0,0:0:0:0:
110,73,114871,1,2,0:0:0:0:
63,178,115008,1,0,0:0:0:0:
122,285,115144,6,0,P|173:275|224:237,1,90,0|0,0:0|0:0,0:0:0:0:
281,136,115417,1,2,0:0:0:0:
239,352,115553,1,0,0:0:0:0:
358,209,115690,2,8,P|407:168|437:116,2,67.5000025749208,8|0|8,0:0|0:0|0:0,0:0:0:0:
321,283,115962,2,8,P|272:242|242:190,2,67.5000025749208,8|0|8,0:0|0:0|0:0,0:0:0:0:
416,305,116235,1,2,0:0:0:0:
495,269,116371,1,0,0:0:0:0:
503,180,116508,1,2,0:0:0:0:
435,118,116644,1,0,0:0:0:0:
340,141,116781,2,8,L|290:199,2,67.5000025749208,10|0|8,0:0|0:0|0:0,0:0:0:0:
373,51,117053,2,8,L|423:-7,2,67.5000025749208,10|0|8,0:0|0:0|0:0,0:0:0:0:
256,43,117326,6,0,P|219:65|163:59,1,90,8|0,0:0|0:0,0:0:0:0:
111,3,117599,2,0,P|85:72|95:106,1,90,8|0,0:0|0:0,0:0:0:0:
122,168,117871,1,0,0:0:0:0:
204,240,118008,1,0,0:0:0:0:
308,286,118144,6,0,P|367:252|370:204,1,90,2|0,0:0|0:0,0:0:0:0:
388,157,118417,1,0,0:0:0:0:
330,85,118553,2,0,P|277:91|219:116,1,90,2|0,0:0|0:0,0:0:0:0:
163,45,118826,1,2,0:0:0:0:
93,130,118962,1,0,0:0:0:0:
144,224,119099,2,0,P|198:226|227:202,1,90,0|2,0:0|0:0,0:0:0:0:
229,68,119371,1,0,0:0:0:0:
333,241,119508,1,2,0:0:0:0:
407,77,119644,2,0,P|360:123|326:136,1,90,0|2,0:0|0:0,0:0:0:0:
284,53,119917,1,0,0:0:0:0:
323,298,120053,2,8,L|233:277,2,67.5000025749208,8|0|8,0:0|0:0|0:0,0:0:0:0:
162,102,120326,2,8,L|252:123,2,67.5000025749208,8|0|8,0:0|0:0|0:0,0:0:0:0:
51,140,120599,5,0,0:0:0:0:
132,215,120735,1,0,0:0:0:0:
254,229,120871,1,0,0:0:0:0:
361,168,121008,1,0,0:0:0:0:
431,93,121144,6,8,L|516:64,2,67.5000025749208,8|0|8,0:0|0:0|0:0,0:0:0:0:
340,296,121417,2,8,L|255:325,2,67.5000025749208,8|0|8,0:0|0:0|0:0,0:0:0:0:
460,327,121690,5,8,0:0:0:0:
449,287,121758,1,0,0:0:0:0:
434,250,121826,1,8,0:0:0:0:
415,214,121894,1,0,0:0:0:0:
393,181,121962,1,8,0:0:0:0:
366,150,122030,1,0,0:0:0:0:
336,123,122099,1,8,0:0:0:0:
303,99,122167,1,0,0:0:0:0:
266,79,122235,6,0,P|201:134|124:157,1,135.000005149842,12|0,0:0|0:0,0:0:0:0:
110,56,122508,1,8,0:0:0:0:
182,245,122644,2,0,P|255:239|336:271,1,135.000005149842,0|0,0:0|0:0,0:0:0:0:
356,178,122917,1,8,0:0:0:0:
444,271,123053,2,0,P|451:198|421:113,1,135.000005149842,0|0,0:0|0:0,0:0:0:0:
369,55,123326,1,8,0:0:0:0:
326,207,123462,1,0,0:0:0:0:
214,31,123599,1,2,0:0:0:0:
197,188,123735,2,0,P|129:178|62:119,1,135.000005149842,0|2,0:0|0:0,0:0:0:0:
95,52,124008,1,0,0:0:0:0:
32,261,124144,2,0,P|109:293|169:290,1,135.000005149842,2|0,0:0|0:0,0:0:0:0:
254,269,124417,6,8,L|423:164,2,135.000005149842,8|8|8,0:0|0:0|0:0,0:0:0:0:
207,193,124690,2,8,L|38:88,2,135.000005149842,8|8|8,0:0|0:0|0:0,0:0:0:0:
155,66,124962,2,0,P|243:108|298:102,1,135.000005149842,2|0,0:0|0:0,0:0:0:0:
371,26,125235,1,2,0:0:0:0:
473,75,125371,1,0,0:0:0:0:
457,152,125508,6,8,L|387:270,2,90,8|8|8,0:0|0:0|0:0,0:0:0:0:
374,77,125781,2,8,L|444:-41,2,90,8|8|8,0:0|0:0|0:0,0:0:0:0:
325,161,126053,2,0,P|290:189|248:202,1,90,8|0,0:0|0:0,0:0:0:0:
253,126,126326,2,0,P|210:138|176:167,1,90,8|0,0:0|0:0,0:0:0:0:
156,247,126599,5,0,0:0:0:0:
216,327,126735,1,0,0:0:0:0:
322,301,126871,2,0,P|363:231|344:162,1,135.000005149842,2|0,0:0|0:0,0:0:0:0:
272,222,127144,1,0,0:0:0:0:
289,114,127281,2,0,P|206:133|159:112,1,135.000005149842,2|0,0:0|0:0,0:0:0:0:
133,207,127553,1,2,0:0:0:0:
224,50,127690,2,0,P|316:52|372:89,1,135.000005149842,0|0,0:0|0:0,0:0:0:0:
438,73,127962,1,2,0:0:0:0:
444,245,128099,1,0,0:0:0:0:
319,343,128235,1,2,0:0:0:0:
323,187,128371,2,0,P|243:194|186:213,1,135.000005149842,0|2,0:0|0:0,0:0:0:0:
105,251,128644,1,0,0:0:0:0:
326,190,128781,2,0,L|322:113,3,67.5000025749208,8|8|8|0,0:0|0:0|0:0|0:0,0:0:0:0:
297,231,129053,2,0,L|301:308,3,67.5000025749208,8|8|8|0,0:0|0:0|0:0|0:0,0:0:0:0:
281,186,129326,6,0,P|194:218|154:209,1,135.000005149842,2|0,0:0|0:0,0:0:0:0:
176,94,129599,1,0,0:0:0:0:
52,272,129735,1,8,0:0:0:0:
183,287,129871,2,8,P|262:214|308:211,1,135.000005149842,8|8,0:0|0:0,0:0:0:0:
368,227,130144,1,8,0:0:0:0:
260,93,130281,1,8,0:0:0:0:
253,290,130417,2,8,P|287:225|298:165,1,135.000005149842,2|0,0:0|0:0,0:0:0:0:
260,93,130690,2,8,P|226:158|215:218,1,135.000005149842,2|0,0:0|0:0,0:0:0:0:
186,314,130962,5,0,0:0:0:0:
103,265,131099,1,0,0:0:0:0:
73,156,131235,2,0,P|134:67|208:45,1,135.000005149842,2|0,0:0|0:0,0:0:0:0:
169,156,131508,1,0,0:0:0:0:
206,247,131644,2,0,P|291:242|358:193,1,135.000005149842,2|0,0:0|0:0,0:0:0:0:
270,152,131917,1,0,0:0:0:0:
245,72,132053,6,0,P|348:69|406:104,1,135.000005149842,0|0,0:0|0:0,0:0:0:0:
375,81,132258,1,0,0:0:0:0:
375,81,132326,1,2,0:0:0:0:
426,183,132462,1,0,0:0:0:0:
396,276,132599,6,0,P|288:288|215:274,1,135.000005149842,2|0,0:0|0:0,0:0:0:0:
317,189,132871,1,2,0:0:0:0:
135,288,133008,1,0,0:0:0:0:
87,161,133144,6,8,L|60:46,2,67.5000025749208,8|8|8,0:0|0:0|0:0,0:0:0:0:
87,161,133417,6,8,L|114:276,2,67.5000025749208,8|8|8,0:0|0:0|0:0,0:0:0:0:
161,133,133690,5,8,0:0:0:0:
262,108,133826,1,4,0:0:0:0:
351,155,133962,1,4,0:0:0:0:
442,115,134099,1,4,0:0:0:0:
482,212,134235,5,8,0:0:0:0:
482,212,134303,1,0,0:0:0:0:
482,212,134371,1,8,0:0:0:0:
416,283,134508,1,8,0:0:0:0:
416,283,134576,1,0,0:0:0:0:
416,283,134644,1,8,0:0:0:0:
351,209,134781,6,0,P|283:217|216:255,1,135.000005149842,8|0,0:0|0:0,0:0:0:0:
217,149,135053,2,0,P|136:207|87:212,1,135.000005149842,8|0,0:0|0:0,0:0:0:0:
16,213,135326,5,2,0:0:0:0:
115,304,135462,1,0,0:0:0:0:
252,282,135599,2,0,P|306:231|279:135,1,135.000005149842,8|0,0:0|0:0,0:0:0:0:
210,193,135871,1,2,0:0:0:0:
306,174,136008,2,0,P|255:120|159:147,1,135.000005149842,8|0,0:0|0:0,0:0:0:0:
214,194,136281,1,8,0:0:0:0:
198,119,136417,2,0,P|144:169|171:266,1,135.000005149842,0|0,0:0|0:0,0:0:0:0:
214,194,136690,1,2,0:0:0:0:
143,226,136826,2,0,P|193:280|290:253,1,135.000005149842,0|2,0:0|0:0,0:0:0:0:
304,202,137099,1,0,0:0:0:0:
381,303,137235,1,2,0:0:0:0:
448,207,137371,1,0,0:0:0:0:
460,106,137508,5,14,0:0:0:0:
453,104,137576,1,0,0:0:0:0:
446,102,137644,1,14,0:0:0:0:
440,100,137712,1,0,0:0:0:0:
433,99,137780,1,14,0:0:0:0:
427,97,137848,1,0,0:0:0:0:
420,95,137917,1,14,0:0:0:0:
414,94,137985,1,0,0:0:0:0:
407,92,138053,5,14,0:0:0:0:
339,209,138190,1,2,0:0:0:0:
217,27,138326,1,2,0:0:0:0:
98,243,138462,1,2,0:0:0:0:
80,55,138599,5,14,0:0:0:0:
85,58,138667,1,0,0:0:0:0:
90,62,138735,1,14,0:0:0:0:
96,66,138803,1,0,0:0:0:0:
101,70,138871,1,14,0:0:0:0:
107,74,138939,1,0,0:0:0:0:
112,78,139008,1,14,0:0:0:0:
118,82,139076,1,0,0:0:0:0:
123,86,139144,5,14,0:0:0:0:
234,237,139281,1,2,0:0:0:0:
471,11,139417,1,8,0:0:0:0:
0,362,139690,5,14,0:0:0:0:
35,77,157144,6,0,P|80:109|220:75,1,202.500007724762,4|2,0:0|0:0,0:0:0:0:
223,197,157962,1,0,0:0:0:0:
281,96,158235,2,0,P|365:126|426:209,1,180,4|0,0:0|0:0,0:0:0:0:
446,260,158917,1,0,0:0:0:0:
368,292,159053,1,0,0:0:0:0:
329,206,159189,1,0,0:0:0:0:
213,282,159326,5,2,0:0:0:0:
84,60,159599,1,0,0:0:0:0:
284,133,159871,2,0,L|325:93,2,45,0|0|0,0:0|0:0|0:0,0:0:0:0:
166,246,160417,1,6,0:0:0:0:
223,37,160690,1,0,0:0:0:0:
297,259,160962,2,0,L|320:319,2,45,0|0|0,0:0|0:0|0:0,0:0:0:0:
263,189,161371,1,0,0:0:0:0:
233,114,161508,5,4,0:0:0:0:
118,295,162053,1,4,0:0:0:0:
46,55,162462,1,4,0:0:0:0:
102,281,163690,6,0,P|150:238|156:198,1,90,2|0,0:0|0:0,0:0:0:0:
207,61,164235,2,0,L|231:12,2,45,0|0|0,0:0|0:0|0:0,0:0:0:0:
238,239,164781,1,2,0:0:0:0:
377,76,165053,1,4,0:0:0:0:
429,203,165326,2,0,L|459:261,2,45,0|0|0,0:0|0:0|0:0,0:0:0:0:
398,303,165735,1,0,0:0:0:0:
484,317,165871,5,4,0:0:0:0:
277,158,166281,1,2,0:0:0:0:
128,315,166690,2,0,P|96:282|72:225,1,90,0|4,0:0|0:0,0:0:0:0:
62,147,167235,1,0,0:0:0:0:
102,71,167508,1,0,0:0:0:0:
165,16,167781,1,0,0:0:0:0:
228,142,168053,5,4,0:0:0:0:
380,50,168326,1,0,0:0:0:0:
342,226,168599,2,0,L|361:266,2,45,0|0|0,0:0|0:0|0:0,0:0:0:0:
254,49,169144,1,4,0:0:0:0:
342,226,169417,1,0,0:0:0:0:
201,150,169690,2,0,L|141:140,2,45,0|0|0,0:0|0:0|0:0,0:0:0:0:
304,136,170099,1,0,0:0:0:0:
379,55,170235,5,4,0:0:0:0:
131,79,170781,1,4,0:0:0:0:
256,192,171190,1,4,0:0:0:0:
256,192,172281,2,0,L|184:192,1,67.5,0|0,0:0|0:0,0:0:0:0:
48,95,174598,6,0,P|110:138|161:141,1,90,4|0,0:0|0:0,0:0:0:0:
194,72,174870,1,0,0:0:0:0:
256,162,175007,2,0,P|324:156|362:134,1,90,0|0,0:0|0:0,0:0:0:0:
423,74,175279,1,0,0:0:0:0:
459,256,175416,1,0,0:0:0:0:
375,308,175552,6,0,P|310:293|256:300,1,90,0|2,0:0|0:0,0:0:0:0:
233,218,175825,1,0,0:0:0:0:
154,295,175961,2,0,P|96:282|74:262,1,90,0|0,0:0|0:0,0:0:0:0:
63,163,176234,1,0,0:0:0:0:
113,88,176370,1,0,0:0:0:0:
206,44,176507,6,0,P|241:74|296:77,1,90,0|0,0:0|0:0,0:0:0:0:
376,38,176779,1,2,0:0:0:0:
426,138,176916,2,0,P|418:202|382:234,1,90,0|0,0:0|0:0,0:0:0:0:
344,142,177188,1,0,0:0:0:0:
314,303,177325,1,2,0:0:0:0:
204,121,177461,2,0,P|158:151|128:187,2,90,0|2|0,0:0|0:0|0:0,0:0:0:0:
286,87,177870,1,0,0:0:0:0:
386,78,178007,1,0,0:0:0:0:
364,171,178143,6,0,P|321:212|274:231,1,90,8|0,0:0|0:0,0:0:0:0:
224,251,178416,2,0,P|156:261|115:249,1,90,0|0,0:0|0:0,0:0:0:0:
135,256,178620,1,0,0:0:0:0:
135,256,178688,5,8,0:0:0:0:
84,160,178825,1,0,0:0:0:0:
139,61,178961,6,0,P|204:86|260:85,1,90,2|0,0:0|0:0,0:0:0:0:
299,44,179234,2,0,P|323:110|310:146,1,90,0|0,0:0|0:0,0:0:0:0:
291,204,179507,1,2,0:0:0:0:
221,265,179643,1,0,0:0:0:0:
111,279,179779,2,0,P|146:237|158:192,1,90,0|0,0:0|0:0,0:0:0:0:
163,98,180052,1,2,0:0:0:0:
203,320,180188,1,0,0:0:0:0:
311,103,180325,1,2,0:0:0:0:
350,333,180461,6,0,P|377:291|385:233,1,90,0|0,0:0|0:0,0:0:0:0:
397,162,180734,2,0,P|331:172|288:185,1,90,0|0,0:0|0:0,0:0:0:0:
216,203,181007,1,0,0:0:0:0:
112,270,181143,6,0,P|95:221|105:147,1,90,2|2,0:0|0:0,0:0:0:0:
120,98,181416,1,2,0:0:0:0:
194,219,181552,2,0,P|246:221|297:203,1,90,0|8,0:0|0:0,0:0:0:0:
379,177,181825,1,8,0:0:0:0:
300,92,181961,1,8,0:0:0:0:
282,210,182098,2,0,P|267:276|222:300,1,90,0|0,0:0|0:0,0:0:0:0:
170,339,182370,5,0,0:0:0:0:
116,261,182507,1,2,0:0:0:0:
89,162,182711,1,0,0:0:0:0:
109,122,182779,1,0,0:0:0:0:
140,89,182848,1,0,0:0:0:0:
178,65,182916,1,0,0:0:0:0:
220,50,182984,1,0,0:0:0:0:
264,50,183052,1,0,0:0:0:0:
306,64,183120,1,0,0:0:0:0:
343,88,183188,1,0,0:0:0:0:
370,124,183257,1,0,0:0:0:0:
384,166,183325,6,0,P|337:204|273:213,1,90,2|0,0:0|0:0,0:0:0:0:
239,155,183598,1,2,0:0:0:0:
143,303,183734,1,0,0:0:0:0:
145,213,183870,2,0,P|218:247|246:276,1,90,2|0,0:0|0:0,0:0:0:0:
303,306,184143,1,2,0:0:0:0:
401,279,184279,1,2,0:0:0:0:
420,187,184416,6,0,P|370:149|321:137,1,90,0|2,0:0|0:0,0:0:0:0:
262,121,184688,1,0,0:0:0:0:
320,217,184825,2,0,P|253:250|209:248,1,90,2|0,0:0|0:0,0:0:0:0:
139,203,185098,1,2,0:0:0:0:
43,91,185234,2,0,P|116:81|166:90,1,90,0|0,0:0|0:0,0:0:0:0:
245,133,185507,5,8,0:0:0:0:
349,59,185643,1,0,0:0:0:0:
426,171,185779,2,0,P|408:224|380:248,1,90,0|0,0:0|0:0,0:0:0:0:
313,306,186052,1,8,0:0:0:0:
224,237,186188,1,0,0:0:0:0:
193,335,186325,1,0,0:0:0:0:
241,150,186461,1,0,0:0:0:0:
335,145,186598,6,0,P|297:71|275:59,1,90,0|0,0:0|0:0,0:0:0:0:
151,142,186870,2,0,P|189:216|211:228,1,90,0|0,0:0|0:0,0:0:0:0:
273,261,187143,1,0,0:0:0:0:
311,274,187211,1,0,0:0:0:0:
351,269,187279,1,0,0:0:0:0:
387,250,187348,1,0,0:0:0:0:
416,222,187416,1,0,0:0:0:0:
441,191,187484,1,0,0:0:0:0:
448,151,187552,1,0,0:0:0:0:
441,111,187620,1,0,0:0:0:0:
420,76,187688,6,0,P|362:99|317:98,1,90,2|0,0:0|0:0,0:0:0:0:
254,85,187961,1,2,0:0:0:0:
173,74,188098,2,0,P|89:95|72:117,1,90,0|2,0:0|0:0,0:0:0:0:
64,171,188370,1,0,0:0:0:0:
95,246,188507,1,0,0:0:0:0:
166,283,188643,2,0,P|234:283|279:248,1,90,0|2,0:0|0:0,0:0:0:0:
304,211,188916,1,0,0:0:0:0:
330,134,189052,2,0,P|369:70|413:61,1,90,0|0,0:0|0:0,0:0:0:0:
411,142,189325,2,0,P|372:206|328:215,1,90,0|0,0:0|0:0,0:0:0:0:
290,250,189598,1,0,0:0:0:0:
216,217,189734,1,0,0:0:0:0:
150,169,189870,6,0,P|130:220|132:257,1,90,2|0,0:0|0:0,0:0:0:0:
185,315,190143,1,0,0:0:0:0:
253,272,190279,1,0,0:0:0:0:
296,203,190416,2,0,P|329:136|372:107,1,90,2|0,0:0|0:0,0:0:0:0:
341,45,190688,2,0,P|266:52|241:72,1,90,2|8,0:0|0:0,0:0:0:0:
190,108,190961,5,8,0:0:0:0:
135,168,191098,1,8,0:0:0:0:
125,248,191234,1,8,0:0:0:0:
183,304,191370,1,8,0:0:0:0:
263,295,191507,1,0,0:0:0:0:
295,271,191575,1,0,0:0:0:0:
317,237,191643,1,0,0:0:0:0:
329,198,191711,1,0,0:0:0:0:
319,158,191779,1,0,0:0:0:0:
296,123,191848,1,0,0:0:0:0:
260,103,191916,1,0,0:0:0:0:
219,107,191984,1,0,0:0:0:0:
197,141,192052,6,0,P|182:195|148:221,1,90,6|0,0:0|0:0,0:0:0:0:
88,247,192325,1,0,0:0:0:0:
107,108,192461,1,2,0:0:0:0:
200,298,192598,2,0,P|293:285|315:260,1,90,2|2,0:0|0:0,0:0:0:0:
325,202,192870,1,0,0:0:0:0:
423,287,193007,1,2,0:0:0:0:
434,148,193143,2,0,P|389:103|344:91,1,90,0|0,0:0|0:0,0:0:0:0:
280,79,193416,1,2,0:0:0:0:
179,121,193552,1,0,0:0:0:0:
130,205,193688,1,0,0:0:0:0:
187,286,193825,6,0,P|273:279|301:254,1,90,0|0,0:0|0:0,0:0:0:0:
337,211,194098,1,0,0:0:0:0:
279,134,194234,2,0,P|229:136|190:127,1,90,2|0,0:0|0:0,0:0:0:0:
138,64,194507,2,0,P|181:54|226:57,1,90,2|0,0:0|0:0,0:0:0:0:
313,75,194779,1,2,0:0:0:0:
394,132,194916,1,0,0:0:0:0:
427,222,195052,1,0,0:0:0:0:
381,305,195188,6,0,P|310:299|278:278,1,90,2|0,0:0|0:0,0:0:0:0:
255,198,195461,1,0,0:0:0:0:
152,278,195598,1,2,0:0:0:0:
147,174,195734,2,0,P|151:121|172:87,4,90,0|0|0|0|0,0:0|0:0|0:0|0:0|0:0,0:0:0:0:
171,277,196416,5,2,0:0:0:0:
361,336,196552,2,0,P|387:299|396:252,1,90,0|2,0:0|0:0,0:0:0:0:
339,134,196825,1,0,0:0:0:0:
282,228,196961,2,0,P|211:224|174:201,1,90,0|2,0:0|0:0,0:0:0:0:
195,216,197166,1,0,0:0:0:0:
195,216,197234,1,0,0:0:0:0:
138,87,197370,6,0,P|107:138|101:178,1,90,2|0,0:0|0:0,0:0:0:0:
122,290,197643,1,0,0:0:0:0:
214,323,197779,2,0,P|281:299|316:265,1,90,0|0,0:0|0:0,0:0:0:0:
357,224,198052,5,0,0:0:0:0:
376,130,198188,1,0,0:0:0:0:
293,58,198325,1,0,0:0:0:0:
193,88,198461,1,0,0:0:0:0:
119,137,198598,6,0,P|84:164|36:168,1,90,2|0,0:0|0:0,0:0:0:0:
39,250,198870,2,0,P|80:282|125:280,1,90,0|0,0:0|0:0,0:0:0:0:
185,233,199143,1,2,0:0:0:0:
246,165,199279,1,0,0:0:0:0:
325,108,199416,1,0,0:0:0:0:
416,79,199552,2,0,P|421:124|400:179,1,90,0|2,0:0|0:0,0:0:0:0:
355,236,199825,1,0,0:0:0:0:
283,58,199961,1,0,0:0:0:0:
229,288,200098,2,0,P|172:248|156:217,1,90,0|0,0:0|0:0,0:0:0:0:
139,197,200302,5,0,0:0:0:0:
124,159,200370,1,0,0:0:0:0:
126,118,200438,1,0,0:0:0:0:
141,80,200507,1,0,0:0:0:0:
172,54,200575,1,0,0:0:0:0:
211,44,200643,1,0,0:0:0:0:
251,40,200711,1,0,0:0:0:0:
287,56,200779,6,0,P|336:118|338:146,1,90,2|0,0:0|0:0,0:0:0:0:
256,280,201052,1,2,0:0:0:0:
145,82,201188,2,0,P|96:115|62:118,1,90,0|0,0:0|0:0,0:0:0:0:
42,235,201461,1,2,0:0:0:0:
217,311,201598,2,0,B|274:279|306:239|308:232,1,90,0|2,0:0|0:0,0:0:0:0:
302,67,201870,2,0,P|231:82|181:74,1,90,0|0,0:0|0:0,0:0:0:0:
52,69,202143,5,0,0:0:0:0:
149,319,202279,1,0,0:0:0:0:
275,104,202416,1,0,0:0:0:0:
44,204,202552,2,0,P|106:188|159:194,1,90,0|8,0:0|0:0,0:0:0:0:
240,241,202825,1,0,0:0:0:0:
373,313,202961,6,0,P|414:272|417:210,1,90,6|0,0:0|0:0,0:0:0:0:
410,68,203234,1,6,0:0:0:0:
273,324,203370,2,0,P|227:294|207:263,1,90,0|0,0:0|0:0,0:0:0:0:
275,118,203643,1,0,0:0:0:0:
365,258,203779,2,0,P|416:217|426:174,1,90,8|0,0:0|0:0,0:0:0:0:
420,37,204052,1,0,0:0:0:0:
311,331,204188,1,0,0:0:0:0:
295,15,204325,1,2,0:0:0:0:
220,217,204461,5,0,0:0:0:0:
182,200,204529,1,0,0:0:0:0:
160,165,204598,1,2,0:0:0:0:
144,127,204666,1,0,0:0:0:0:
113,100,204734,1,2,0:0:0:0:
72,103,204802,1,0,0:0:0:0:
44,132,204870,1,2,0:0:0:0:
29,169,204938,1,0,0:0:0:0:
32,209,205007,1,0,0:0:0:0:
52,243,205075,1,0,0:0:0:0:
80,271,205143,6,0,P|144:289|207:275,1,90,2|0,0:0|0:0,0:0:0:0:
300,218,205416,1,2,0:0:0:0:
420,121,205552,2,0,P|403:57|357:42,1,90,0|0,0:0|0:0,0:0:0:0:
261,58,205825,5,2,0:0:0:0:
27,55,205961,1,0,0:0:0:0:
331,314,206098,1,2,0:0:0:0:
449,45,206234,2,0,P|392:96|383:123,1,90,0|0,0:0|0:0,0:0:0:0:
379,244,206507,1,0,0:0:0:0:
109,108,206643,1,0,0:0:0:0:
337,319,206779,1,0,0:0:0:0:
161,52,206916,1,0,0:0:0:0:
221,335,207052,2,0,L|263:243,1,90,2|2,0:0|0:0,0:0:0:0:
272,0,207325,2,0,L|230:92,1,90,2|0,0:0|0:0,0:0:0:0:
161,280,207598,1,0,0:0:0:0:
397,22,207734,1,0,0:0:0:0:
408,192,207870,6,0,P|347:195|305:178,1,90,0|0,0:0|0:0,0:0:0:0:
14,117,208143,2,0,P|6:189|27:231,1,90,0|0,0:0|0:0,0:0:0:0:
159,319,208416,1,0,0:0:0:0:
216,343,208484,1,0,0:0:0:0:
278,343,208552,1,0,0:0:0:0:
338,326,208620,1,0,0:0:0:0:
381,280,208688,1,0,0:0:0:0:
407,222,208757,1,0,0:0:0:0:
412,159,208825,1,0,0:0:0:0:
390,99,208893,1,0,0:0:0:0:
343,56,208961,5,0,0:0:0:0:
283,37,209029,1,0,0:0:0:0:
219,42,209098,1,0,0:0:0:0:
162,68,209166,1,0,0:0:0:0:
135,124,209234,2,0,L|116:118,2,11.25,0|0|0,0:0|0:0|0:0,0:0:0:0:
145,181,209302,2,0,L|125:184,2,11.25,0|0|0,0:0|0:0|0:0,0:0:0:0:
158,237,209370,2,0,L|142:247,2,11.25,0|0|0,0:0|0:0|0:0,0:0:0:0:
206,269,209438,2,4,L|197:280,2,11.25,0|0|0,0:0|0:0|0:0,0:0:0:0:
266,267,209507,5,4,0:0:0:0:
