osu file format v14

[General]
AudioFilename: audio.mp3
AudioLeadIn: 0
PreviewTime: -1
Countdown: 1
SampleSet: Normal
StackLeniency: 0.7
Mode: 1
LetterboxInBreaks: 0
WidescreenStoryboard: 0

[Editor]
DistanceSpacing: 1.1
BeatDivisor: 4
GridSize: 32
TimelineZoom: 1

[Metadata]
Title:Banned Forever
TitleUnicode:Banned Forever
Artist:Renard
ArtistUnicode:Renard
Creator:Kbludoh
Version:Inner Oni Forever
Source:
Tags:
BeatmapID:1869573
BeatmapSetID:894691

[Difficulty]
HPDrainRate:6
CircleSize:5
OverallDifficulty:6
ApproachRate:5
SliderMultiplier:1.4
SliderTickRate:1

[Events]
//Background and Video events
0,0,"651px-RenardBust.jpg",0,0
//Break Periods
2,139892,154856
//Storyboard Layer 0 (Background)
//Storyboard Layer 1 (Fail)
//Storyboard Layer 2 (Pass)
//Storyboard Layer 3 (Foreground)
//Storyboard Sound Samples

[TimingPoints]
56,272.727272727273,4,1,0,65,1,0
52419,-100,4,1,0,65,0,1
69874,-100,4,1,0,65,0,0
104783,-100,4,1,0,65,0,1
121760,-99.009900990099,4,1,0,65,0,1
121828,-98.0392156862745,4,1,0,65,0,1
121896,-97.0873786407767,4,1,0,65,0,1
121965,-96.1538461538461,4,1,0,65,0,1
122033,-95.2380952380952,4,1,0,65,0,1
122101,-94.3396226415094,4,1,0,65,0,1
122169,-93.4579439252336,4,1,0,65,0,1
122237,-92.5925925925926,4,1,0,65,0,1
122374,-90.9090909090909,4,1,0,65,0,1
137510,-90.9090909090909,4,1,0,65,0,0
137578,-91.743119266055,4,1,0,65,0,0
137646,-92.5925925925926,4,1,0,65,0,0
137715,-93.4579439252336,4,1,0,65,0,0
137783,-94.3396226415094,4,1,0,65,0,0
137851,-95.2380952380952,4,1,0,65,0,0
137919,-96.1538461538461,4,1,0,65,0,0
137987,-97.0873786407767,4,1,0,65,0,0
138056,-98.0392156862745,4,1,0,65,0,0
138192,-100,4,1,0,65,0,0
138669,-100.502512562814,4,1,0,65,0,0
138737,-101.010101010101,4,1,0,65,0,0
138806,-101.522842639594,4,1,0,65,0,0
138874,-102.040816326531,4,1,0,65,0,0
138942,-102.564102564103,4,1,0,65,0,0
139010,-103.092783505155,4,1,0,65,0,0
139078,-103.626943005181,4,1,0,65,0,0
139146,-104.166666666667,4,1,0,65,0,0
139283,-105.263157894737,4,1,0,65,0,0
139828,-100,4,1,0,65,0,0
174601,-100,4,1,0,65,0,1
191578,-98.0392156862745,4,1,0,65,0,1
191646,-96.1538461538461,4,1,0,65,0,1
191715,-94.3396226415094,4,1,0,65,0,1
191783,-92.5925925925926,4,1,0,65,0,1
191851,-90.9090909090909,4,1,0,65,0,1
191919,-89.2857142857143,4,1,0,65,0,1
191987,-87.719298245614,4,1,0,65,0,1
192056,-86.2068965517241,4,1,0,65,0,1
192192,-83.3333333333333,4,1,0,65,0,1
209578,-100,4,1,0,65,0,0

[Colours]
Combo1 : 102,68,68
Combo2 : 228,126,126

[HitObjects]
256,192,56,5,0,0:0:0:0:
256,192,192,1,0,0:0:0:0:
256,192,328,1,8,0:0:0:0:
256,192,465,1,0,0:0:0:0:
256,192,533,1,8,0:0:0:0:
256,192,601,1,8,0:0:0:0:
256,192,737,1,8,0:0:0:0:
256,192,806,1,8,0:0:0:0:
256,192,874,1,0,0:0:0:0:
256,192,942,1,8,0:0:0:0:
256,192,1010,1,8,0:0:0:0:
256,192,1146,1,8,0:0:0:0:
256,192,1215,1,0,0:0:0:0:
256,192,1283,1,8,0:0:0:0:
256,192,1419,1,0,0:0:0:0:
256,192,1556,1,0,0:0:0:0:
256,192,1692,1,0,0:0:0:0:
256,192,1760,1,0,0:0:0:0:
256,192,1828,1,8,0:0:0:0:
256,192,1965,1,8,0:0:0:0:
256,192,2101,1,8,0:0:0:0:
256,192,2237,1,8,0:0:0:0:
256,192,2374,1,8,0:0:0:0:
256,192,2442,1,0,0:0:0:0:
256,192,2510,1,8,0:0:0:0:
256,192,2578,1,8,0:0:0:0:
256,192,2646,1,0,0:0:0:0:
256,192,2715,1,0,0:0:0:0:
256,192,2783,1,8,0:0:0:0:
256,192,2919,1,0,0:0:0:0:
256,192,2987,1,0,0:0:0:0:
256,192,3056,1,8,0:0:0:0:
256,192,3192,1,8,0:0:0:0:
256,192,3328,1,0,0:0:0:0:
256,192,3465,1,0,0:0:0:0:
256,192,3601,1,0,0:0:0:0:
256,192,3737,1,0,0:0:0:0:
256,192,3874,1,8,0:0:0:0:
256,192,4010,1,8,0:0:0:0:
256,192,4078,1,8,0:0:0:0:
256,192,4146,1,0,0:0:0:0:
256,192,4283,1,8,0:0:0:0:
256,192,4419,1,0,0:0:0:0:
256,192,4556,1,0,0:0:0:0:
256,192,4692,1,8,0:0:0:0:
256,192,4828,1,8,0:0:0:0:
256,192,4896,1,0,0:0:0:0:
256,192,4965,1,8,0:0:0:0:
256,192,5101,1,8,0:0:0:0:
256,192,5169,1,8,0:0:0:0:
256,192,5237,1,0,0:0:0:0:
256,160,5306,1,8,0:0:0:0:
256,160,5374,1,8,0:0:0:0:
256,192,5510,1,0,0:0:0:0:
256,192,5578,1,8,0:0:0:0:
256,192,5646,1,8,0:0:0:0:
256,192,5783,1,0,0:0:0:0:
256,192,5919,1,0,0:0:0:0:
256,192,6056,1,0,0:0:0:0:
256,192,6124,1,0,0:0:0:0:
256,192,6192,1,8,0:0:0:0:
256,192,6328,1,8,0:0:0:0:
256,192,6465,1,8,0:0:0:0:
256,192,6601,1,8,0:0:0:0:
256,192,6737,1,8,0:0:0:0:
256,192,6806,1,0,0:0:0:0:
256,192,6874,1,8,0:0:0:0:
256,192,6942,1,8,0:0:0:0:
256,192,7010,1,0,0:0:0:0:
256,192,7078,1,0,0:0:0:0:
256,192,7146,1,8,0:0:0:0:
256,192,7283,1,0,0:0:0:0:
256,192,7351,1,0,0:0:0:0:
256,192,7419,1,8,0:0:0:0:
256,192,7556,1,8,0:0:0:0:
256,192,7692,1,0,0:0:0:0:
256,192,7828,1,0,0:0:0:0:
256,192,7965,1,0,0:0:0:0:
256,192,8101,1,0,0:0:0:0:
256,192,8237,1,8,0:0:0:0:
256,192,8306,1,8,0:0:0:0:
256,192,8374,1,0,0:0:0:0:
256,192,8442,1,8,0:0:0:0:
256,192,8510,1,0,0:0:0:0:
256,192,8578,1,0,0:0:0:0:
256,192,8646,1,8,0:0:0:0:
256,192,8715,1,8,0:0:0:0:
256,192,8783,1,0,0:0:0:0:
256,192,8919,1,0,0:0:0:0:
256,192,9056,1,8,0:0:0:0:
256,192,9192,1,8,0:0:0:0:
256,192,9260,1,0,0:0:0:0:
256,192,9328,1,8,0:0:0:0:
256,192,9465,1,8,0:0:0:0:
256,192,9533,1,0,0:0:0:0:
256,192,9601,1,8,0:0:0:0:
256,192,9669,1,0,0:0:0:0:
256,192,9737,1,8,0:0:0:0:
256,192,9874,1,8,0:0:0:0:
256,192,9942,1,8,0:0:0:0:
256,192,10010,1,0,0:0:0:0:
256,192,10146,1,8,0:0:0:0:
256,192,10283,1,8,0:0:0:0:
256,192,10419,1,0,0:0:0:0:
256,192,10487,1,0,0:0:0:0:
256,192,10556,1,8,0:0:0:0:
256,192,10692,1,8,0:0:0:0:
256,192,10828,1,8,0:0:0:0:
256,192,10965,1,0,0:0:0:0:
256,192,11101,1,8,0:0:0:0:
256,192,11169,1,0,0:0:0:0:
256,192,11237,1,8,0:0:0:0:
256,192,11306,1,0,0:0:0:0:
256,192,11374,1,0,0:0:0:0:
256,192,11442,1,0,0:0:0:0:
256,192,11510,1,8,0:0:0:0:
256,192,11646,1,0,0:0:0:0:
256,192,11715,1,0,0:0:0:0:
256,192,11783,1,8,0:0:0:0:
256,192,11919,1,8,0:0:0:0:
256,192,12056,1,0,0:0:0:0:
256,192,12192,1,0,0:0:0:0:
256,192,12328,1,0,0:0:0:0:
256,192,12465,1,0,0:0:0:0:
256,192,12533,1,8,0:0:0:0:
256,192,12601,1,8,0:0:0:0:
256,192,12737,1,8,0:0:0:0:
256,192,12806,1,8,0:0:0:0:
256,192,12874,1,0,0:0:0:0:
256,192,13010,1,8,0:0:0:0:
256,192,13146,1,0,0:0:0:0:
256,192,13283,1,0,0:0:0:0:
256,192,13419,1,8,0:0:0:0:
256,192,13556,1,8,0:0:0:0:
256,192,13624,1,0,0:0:0:0:
256,192,13692,1,8,0:0:0:0:
256,192,13828,1,8,0:0:0:0:
256,192,13896,1,0,0:0:0:0:
256,192,13965,1,8,0:0:0:0:
256,192,14033,1,0,0:0:0:0:
256,192,14101,1,8,0:0:0:0:
256,192,14237,1,8,0:0:0:0:
256,192,14306,1,8,0:0:0:0:
256,192,14374,1,0,0:0:0:0:
256,192,14510,1,8,0:0:0:0:
256,192,14646,1,8,0:0:0:0:
256,192,14783,1,0,0:0:0:0:
256,192,14919,1,8,0:0:0:0:
256,192,15056,1,8,0:0:0:0:
256,192,15192,1,0,0:0:0:0:
256,192,15328,1,8,0:0:0:0:
256,192,15396,1,0,0:0:0:0:
256,192,15465,1,8,0:0:0:0:
256,192,15533,1,0,0:0:0:0:
256,192,15601,1,8,0:0:0:0:
256,192,15737,1,0,0:0:0:0:
256,192,15806,1,0,0:0:0:0:
256,192,15874,1,8,0:0:0:0:
256,192,16010,1,0,0:0:0:0:
256,192,16078,1,0,0:0:0:0:
256,192,16146,1,8,0:0:0:0:
256,192,16283,1,8,0:0:0:0:
256,192,16419,1,8,0:0:0:0:
256,192,16556,1,0,0:0:0:0:
256,192,16692,1,0,0:0:0:0:
256,192,16828,1,8,0:0:0:0:
256,192,16896,1,8,0:0:0:0:
256,192,16965,1,0,0:0:0:0:
256,192,17101,1,0,0:0:0:0:
256,192,17237,1,8,0:0:0:0:
256,192,17306,1,8,0:0:0:0:
256,192,17374,1,8,0:0:0:0:
256,192,17442,1,8,0:0:0:0:
256,192,17510,1,4,0:0:0:0:
256,192,17919,1,4,0:0:0:0:
256,192,18328,1,12,0:0:0:0:
224,192,18601,1,4,0:0:0:0:
288,192,19010,1,4,0:0:0:0:
288,192,19419,1,12,0:0:0:0:
288,192,19692,1,4,0:0:0:0:
288,192,20101,1,4,0:0:0:0:
288,192,20510,1,12,0:0:0:0:
288,192,20783,1,4,0:0:0:0:
288,192,21056,1,8,0:0:0:0:
288,192,21192,1,4,0:0:0:0:
288,192,21601,1,8,0:0:0:0:
288,192,21874,1,4,0:0:0:0:
288,192,22283,1,4,0:0:0:0:
288,192,22692,1,12,0:0:0:0:
288,192,22965,1,4,0:0:0:0:
288,192,23374,1,4,0:0:0:0:
288,192,23783,1,12,0:0:0:0:
288,192,24056,1,4,0:0:0:0:
288,192,24465,1,4,0:0:0:0:
288,192,24874,1,12,0:0:0:0:
288,192,25147,1,4,0:0:0:0:
288,192,25419,1,8,0:0:0:0:
288,192,25556,1,4,0:0:0:0:
288,192,25828,1,8,0:0:0:0:
288,192,25965,1,8,0:0:0:0:
288,192,26101,1,8,0:0:0:0:
288,192,26238,1,4,0:0:0:0:
288,192,26374,1,0,0:0:0:0:
288,192,26442,1,0,0:0:0:0:
288,192,26510,1,8,0:0:0:0:
256,192,26646,1,0,0:0:0:0:
256,192,26715,1,8,0:0:0:0:
256,192,26783,1,8,0:0:0:0:
256,192,26919,1,0,0:0:0:0:
256,192,26987,1,8,0:0:0:0:
256,192,27056,1,0,0:0:0:0:
256,192,27124,1,8,0:0:0:0:
256,192,27192,1,8,0:0:0:0:
256,192,27328,1,0,0:0:0:0:
256,192,27396,1,8,0:0:0:0:
256,192,27465,1,8,0:0:0:0:
256,192,27601,1,0,0:0:0:0:
256,192,27737,1,0,0:0:0:0:
224,192,27874,1,0,0:0:0:0:
224,192,28010,1,8,0:0:0:0:
224,192,28146,1,8,0:0:0:0:
224,192,28283,1,8,0:0:0:0:
224,192,28419,1,8,0:0:0:0:
256,192,28556,1,0,0:0:0:0:
256,192,28624,1,8,0:0:0:0:
256,192,28692,1,0,0:0:0:0:
256,192,28760,1,8,0:0:0:0:
256,192,28828,1,0,0:0:0:0:
256,192,28965,1,8,0:0:0:0:
256,192,29237,1,8,0:0:0:0:
256,192,29374,1,8,0:0:0:0:
256,192,29510,1,0,0:0:0:0:
256,192,29646,1,0,0:0:0:0:
256,192,29783,1,0,0:0:0:0:
256,192,29919,1,0,0:0:0:0:
256,192,30056,1,8,0:0:0:0:
256,192,30192,1,8,0:0:0:0:
256,192,30260,1,8,0:0:0:0:
256,192,30328,1,0,0:0:0:0:
256,192,30465,1,8,0:0:0:0:
256,192,30601,1,0,0:0:0:0:
256,192,30737,1,8,0:0:0:0:
256,192,30874,1,8,0:0:0:0:
256,192,31010,1,8,0:0:0:0:
256,192,31078,1,0,0:0:0:0:
256,192,31146,1,8,0:0:0:0:
256,192,31283,1,8,0:0:0:0:
256,192,31351,1,8,0:0:0:0:
256,192,31419,1,0,0:0:0:0:
256,192,31487,1,8,0:0:0:0:
256,192,31556,1,8,0:0:0:0:
256,192,31692,1,0,0:0:0:0:
256,192,31760,1,8,0:0:0:0:
256,192,31828,1,8,0:0:0:0:
256,160,31965,1,0,0:0:0:0:
256,160,32101,1,0,0:0:0:0:
256,160,32237,1,0,0:0:0:0:
256,160,32374,1,8,0:0:0:0:
256,160,32510,1,8,0:0:0:0:
256,160,32646,1,8,0:0:0:0:
256,160,32783,1,8,0:0:0:0:
256,160,32919,1,8,0:0:0:0:
256,160,32987,1,8,0:0:0:0:
256,160,33056,1,0,0:0:0:0:
256,160,33124,1,8,0:0:0:0:
256,160,33192,1,0,0:0:0:0:
256,160,33328,1,8,0:0:0:0:
256,160,33465,1,0,0:0:0:0:
256,160,33601,1,8,0:0:0:0:
256,160,33737,1,8,0:0:0:0:
256,160,33874,1,0,0:0:0:0:
256,160,34010,1,0,0:0:0:0:
256,160,34146,1,0,0:0:0:0:
256,160,34283,1,8,0:0:0:0:
256,160,34419,1,8,0:0:0:0:
256,160,34487,1,8,0:0:0:0:
256,160,34556,1,0,0:0:0:0:
256,160,34624,1,0,0:0:0:0:
256,192,34965,1,4,0:0:0:0:
256,192,35237,1,8,0:0:0:0:
256,192,35510,1,0,0:0:0:0:
256,192,35646,1,8,0:0:0:0:
256,192,35919,1,8,0:0:0:0:
256,192,36192,1,0,0:0:0:0:
256,192,36328,1,8,0:0:0:0:
256,192,36601,1,0,0:0:0:0:
256,192,36737,1,8,0:0:0:0:
256,192,36874,1,8,0:0:0:0:
256,192,37010,1,8,0:0:0:0:
256,192,37146,1,8,0:0:0:0:
256,192,37419,1,0,0:0:0:0:
256,192,37692,1,0,0:0:0:0:
256,192,37828,1,8,0:0:0:0:
256,192,37965,1,8,0:0:0:0:
256,192,38101,1,0,0:0:0:0:
256,192,38374,1,0,0:0:0:0:
256,192,38510,1,8,0:0:0:0:
256,192,38646,1,0,0:0:0:0:
256,192,38783,1,8,0:0:0:0:
256,192,38919,1,8,0:0:0:0:
256,192,39056,1,0,0:0:0:0:
256,192,39192,1,0,0:0:0:0:
256,160,39328,1,8,0:0:0:0:
256,192,39600,1,8,0:0:0:0:
256,192,39873,1,0,0:0:0:0:
256,192,40009,1,8,0:0:0:0:
256,192,40282,1,8,0:0:0:0:
256,192,40555,1,0,0:0:0:0:
256,192,40691,1,8,0:0:0:0:
256,192,40964,1,0,0:0:0:0:
256,192,41100,1,8,0:0:0:0:
256,192,41237,1,0,0:0:0:0:
256,192,41373,1,0,0:0:0:0:
256,192,41509,1,8,0:0:0:0:
256,192,41782,1,0,0:0:0:0:
256,192,42055,1,0,0:0:0:0:
256,192,42191,1,8,0:0:0:0:
256,192,42328,1,8,0:0:0:0:
256,192,42464,1,0,0:0:0:0:
256,192,42737,1,0,0:0:0:0:
256,192,42873,1,0,0:0:0:0:
256,192,43009,1,8,0:0:0:0:
256,192,43146,1,8,0:0:0:0:
256,192,43282,1,8,0:0:0:0:
256,192,43692,1,4,0:0:0:0:
256,192,44101,1,4,0:0:0:0:
256,192,44510,1,12,0:0:0:0:
256,192,44783,1,4,0:0:0:0:
256,192,45192,1,4,0:0:0:0:
256,192,45601,1,12,0:0:0:0:
256,192,45874,1,4,0:0:0:0:
256,192,46283,1,4,0:0:0:0:
256,192,46692,1,12,0:0:0:0:
256,192,46965,1,4,0:0:0:0:
256,192,47237,1,8,0:0:0:0:
256,192,47374,1,4,0:0:0:0:
256,160,47510,1,8,0:0:0:0:
256,160,47646,1,8,0:0:0:0:
256,192,47783,1,4,0:0:0:0:
256,192,48056,1,4,0:0:0:0:
256,192,48465,1,4,0:0:0:0:
256,192,48874,1,12,0:0:0:0:
256,192,49146,1,4,0:0:0:0:
256,192,49555,1,4,0:0:0:0:
256,192,49964,1,12,0:0:0:0:
256,192,50237,1,4,0:0:0:0:
256,192,50646,1,4,0:0:0:0:
256,192,51055,1,12,0:0:0:0:
256,192,51328,1,4,0:0:0:0:
256,192,51601,1,8,0:0:0:0:
256,192,51737,1,4,0:0:0:0:
256,192,51874,1,8,0:0:0:0:
256,192,52010,1,8,0:0:0:0:
256,192,52146,1,8,0:0:0:0:
256,192,52283,1,8,0:0:0:0:
256,192,52419,1,12,0:0:0:0:
256,192,52556,1,8,0:0:0:0:
256,192,52624,1,8,0:0:0:0:
256,192,52692,1,0,0:0:0:0:
256,192,52828,1,0,0:0:0:0:
256,192,52965,1,8,0:0:0:0:
256,192,53101,1,0,0:0:0:0:
256,192,53169,1,0,0:0:0:0:
256,192,53237,1,8,0:0:0:0:
256,192,53374,1,8,0:0:0:0:
256,160,53510,1,0,0:0:0:0:
256,160,53646,1,8,0:0:0:0:
256,160,53715,1,8,0:0:0:0:
256,160,53783,1,0,0:0:0:0:
256,160,53919,1,0,0:0:0:0:
256,160,54056,1,8,0:0:0:0:
256,160,54124,1,8,0:0:0:0:
256,160,54192,1,0,0:0:0:0:
256,160,54260,1,0,0:0:0:0:
256,160,54328,1,8,0:0:0:0:
256,192,54465,1,8,0:0:0:0:
256,160,54601,1,0,0:0:0:0:
256,160,54737,1,8,0:0:0:0:
256,160,54806,1,8,0:0:0:0:
256,160,54874,1,0,0:0:0:0:
256,160,55010,1,0,0:0:0:0:
256,192,55146,1,8,0:0:0:0:
256,192,55215,1,8,0:0:0:0:
256,192,55283,1,0,0:0:0:0:
256,192,55419,1,8,0:0:0:0:
256,192,55556,1,8,0:0:0:0:
256,192,55692,1,0,0:0:0:0:
256,192,55760,1,0,0:0:0:0:
256,192,55828,1,8,0:0:0:0:
256,192,55965,1,8,0:0:0:0:
256,192,56101,1,0,0:0:0:0:
256,192,56237,1,8,0:0:0:0:
256,192,56306,1,8,0:0:0:0:
256,192,56374,1,0,0:0:0:0:
224,160,56442,1,0,0:0:0:0:
256,192,56510,1,8,0:0:0:0:
256,192,56646,1,8,0:0:0:0:
256,192,56783,1,8,0:0:0:0:
256,192,56919,1,8,0:0:0:0:
256,192,56987,1,8,0:0:0:0:
256,192,57056,1,0,0:0:0:0:
256,192,57192,1,0,0:0:0:0:
256,192,57328,1,8,0:0:0:0:
256,192,57396,1,8,0:0:0:0:
256,192,57465,1,0,0:0:0:0:
256,192,57533,1,0,0:0:0:0:
256,192,57601,1,8,0:0:0:0:
256,192,57737,1,8,0:0:0:0:
256,192,57874,1,0,0:0:0:0:
256,192,58010,1,8,0:0:0:0:
256,192,58078,1,8,0:0:0:0:
256,192,58146,1,0,0:0:0:0:
256,192,58283,1,0,0:0:0:0:
256,192,58419,1,8,0:0:0:0:
256,192,58487,1,8,0:0:0:0:
256,192,58556,1,0,0:0:0:0:
256,192,58692,1,8,0:0:0:0:
256,192,58828,1,8,0:0:0:0:
256,192,58965,1,0,0:0:0:0:
256,192,59101,1,8,0:0:0:0:
256,192,59169,1,8,0:0:0:0:
256,192,59237,1,0,0:0:0:0:
256,160,59374,1,0,0:0:0:0:
256,160,59510,1,8,0:0:0:0:
256,160,59646,1,0,0:0:0:0:
256,160,59715,1,0,0:0:0:0:
256,160,59783,1,8,0:0:0:0:
256,160,59919,1,8,0:0:0:0:
224,160,60056,1,0,0:0:0:0:
224,160,60192,1,8,0:0:0:0:
224,160,60260,1,8,0:0:0:0:
224,160,60328,1,0,0:0:0:0:
224,160,60465,1,8,0:0:0:0:
224,160,60601,1,0,0:0:0:0:
224,160,60737,1,8,0:0:0:0:
224,160,60874,1,8,0:0:0:0:
224,160,61010,1,8,0:0:0:0:
256,192,61146,1,8,0:0:0:0:
256,192,61283,1,0,0:0:0:0:
256,192,61351,1,0,0:0:0:0:
256,192,61419,1,8,0:0:0:0:
256,192,61556,1,0,0:0:0:0:
256,192,61692,1,8,0:0:0:0:
256,192,61760,1,8,0:0:0:0:
256,192,61828,1,0,0:0:0:0:
256,192,61896,1,0,0:0:0:0:
256,192,61965,1,8,0:0:0:0:
256,192,62101,1,8,0:0:0:0:
256,192,62237,1,0,0:0:0:0:
256,192,62374,1,8,0:0:0:0:
256,192,62442,1,8,0:0:0:0:
256,192,62510,1,0,0:0:0:0:
256,192,62646,1,8,0:0:0:0:
256,192,62715,1,8,0:0:0:0:
256,192,62783,1,0,0:0:0:0:
256,192,62919,1,0,0:0:0:0:
256,192,63056,1,8,0:0:0:0:
256,192,63192,1,0,0:0:0:0:
256,192,63328,1,0,0:0:0:0:
256,192,63465,1,8,0:0:0:0:
256,192,63533,1,8,0:0:0:0:
256,192,63601,1,0,0:0:0:0:
256,192,63737,1,0,0:0:0:0:
256,192,63874,1,8,0:0:0:0:
256,192,63942,1,8,0:0:0:0:
256,192,64010,1,0,0:0:0:0:
256,192,64146,1,8,0:0:0:0:
256,192,64283,1,8,0:0:0:0:
256,192,64419,1,0,0:0:0:0:
256,192,64487,1,0,0:0:0:0:
256,192,64556,1,8,0:0:0:0:
256,192,64624,1,8,0:0:0:0:
256,192,64692,1,0,0:0:0:0:
256,192,64828,1,8,0:0:0:0:
256,192,64965,1,0,0:0:0:0:
256,192,65101,1,8,0:0:0:0:
256,192,65169,1,8,0:0:0:0:
256,192,65237,1,8,0:0:0:0:
256,192,65374,1,8,0:0:0:0:
256,192,65510,1,8,0:0:0:0:
256,192,65646,1,8,0:0:0:0:
256,192,65715,1,8,0:0:0:0:
256,192,65783,1,0,0:0:0:0:
256,192,65919,1,0,0:0:0:0:
256,192,65987,1,0,0:0:0:0:
256,192,66056,1,8,0:0:0:0:
224,160,66192,1,0,0:0:0:0:
224,160,66328,1,8,0:0:0:0:
224,160,66465,1,8,0:0:0:0:
224,128,66601,1,0,0:0:0:0:
224,128,66669,1,0,0:0:0:0:
224,128,66737,1,8,0:0:0:0:
224,128,66806,1,8,0:0:0:0:
224,128,66874,1,0,0:0:0:0:
224,192,67010,1,8,0:0:0:0:
224,192,67078,1,8,0:0:0:0:
224,192,67146,1,0,0:0:0:0:
224,192,67283,1,0,0:0:0:0:
224,192,67419,1,8,0:0:0:0:
224,160,67556,1,8,0:0:0:0:
224,160,67692,1,0,0:0:0:0:
224,160,67828,1,8,0:0:0:0:
224,160,67896,1,8,0:0:0:0:
224,160,67965,1,0,0:0:0:0:
224,160,68101,1,0,0:0:0:0:
224,160,68237,1,8,0:0:0:0:
224,160,68374,1,0,0:0:0:0:
224,160,68442,1,0,0:0:0:0:
224,160,68510,1,8,0:0:0:0:
224,160,68646,1,8,0:0:0:0:
192,160,68783,1,0,0:0:0:0:
192,160,68919,1,8,0:0:0:0:
192,160,68987,1,8,0:0:0:0:
192,160,69056,1,0,0:0:0:0:
192,160,69192,1,0,0:0:0:0:
192,160,69328,1,0,0:0:0:0:
192,160,69396,1,8,0:0:0:0:
192,160,69465,1,0,0:0:0:0:
192,160,69533,1,0,0:0:0:0:
192,160,69601,1,8,0:0:0:0:
192,160,69669,1,0,0:0:0:0:
192,160,69737,1,8,0:0:0:0:
192,160,69806,1,8,0:0:0:0:
192,160,69874,1,4,0:0:0:0:
256,192,70010,1,8,0:0:0:0:
256,192,70146,1,8,0:0:0:0:
256,192,70215,1,8,0:0:0:0:
256,192,70283,1,0,0:0:0:0:
256,192,70419,1,8,0:0:0:0:
256,192,70556,1,0,0:0:0:0:
256,192,70624,1,0,0:0:0:0:
256,192,70692,1,8,0:0:0:0:
256,192,70828,1,8,0:0:0:0:
256,192,70965,1,8,0:0:0:0:
256,192,71033,1,8,0:0:0:0:
256,192,71102,1,0,0:0:0:0:
256,224,71169,1,0,0:0:0:0:
256,192,71237,1,8,0:0:0:0:
256,192,71374,1,8,0:0:0:0:
256,192,71510,1,0,0:0:0:0:
251,195,71578,1,0,0:0:0:0:
256,192,71646,1,8,0:0:0:0:
256,192,71783,1,8,0:0:0:0:
256,192,71919,1,8,0:0:0:0:
256,192,72056,1,8,0:0:0:0:
256,192,72192,1,0,0:0:0:0:
288,192,72260,1,0,0:0:0:0:
256,192,72328,1,8,0:0:0:0:
256,192,72465,1,8,0:0:0:0:
256,192,72601,1,8,0:0:0:0:
256,192,72669,1,8,0:0:0:0:
256,192,72737,1,0,0:0:0:0:
256,192,72874,1,8,0:0:0:0:
256,192,73010,1,8,0:0:0:0:
256,192,73146,1,0,0:0:0:0:
256,192,73283,1,0,0:0:0:0:
256,192,73351,1,0,0:0:0:0:
256,192,73419,1,8,0:0:0:0:
256,192,73556,1,8,0:0:0:0:
256,192,73692,1,8,0:0:0:0:
256,192,73760,1,8,0:0:0:0:
256,192,73828,1,0,0:0:0:0:
256,192,73896,1,0,0:0:0:0:
256,192,73965,1,8,0:0:0:0:
256,192,74101,1,8,0:0:0:0:
256,192,74237,1,0,0:0:0:0:
256,192,74374,1,8,0:0:0:0:
256,192,74510,1,8,0:0:0:0:
256,192,74578,1,8,0:0:0:0:
256,192,74646,1,0,0:0:0:0:
256,160,74783,1,8,0:0:0:0:
288,192,74919,1,8,0:0:0:0:
224,192,74987,1,8,0:0:0:0:
256,160,75056,1,0,0:0:0:0:
288,192,75124,1,0,0:0:0:0:
256,160,75192,1,8,0:0:0:0:
256,192,75328,1,8,0:0:0:0:
256,192,75396,1,8,0:0:0:0:
256,192,75465,1,0,0:0:0:0:
256,192,75601,1,0,0:0:0:0:
256,192,75737,1,8,0:0:0:0:
256,192,75874,1,0,0:0:0:0:
256,192,76010,1,8,0:0:0:0:
256,192,76146,1,8,0:0:0:0:
256,192,76283,1,8,0:0:0:0:
256,192,76419,1,0,0:0:0:0:
256,192,76556,1,0,0:0:0:0:
256,192,76624,1,0,0:0:0:0:
256,192,76693,1,8,0:0:0:0:
256,192,76829,1,0,0:0:0:0:
256,192,76965,1,8,0:0:0:0:
256,192,77101,1,0,0:0:0:0:
256,192,77237,1,8,0:0:0:0:
256,192,77374,1,8,0:0:0:0:
256,192,77510,1,0,0:0:0:0:
256,192,77646,1,8,0:0:0:0:
256,192,77715,1,8,0:0:0:0:
256,192,77783,1,0,0:0:0:0:
256,192,77919,1,0,0:0:0:0:
256,192,78056,1,8,0:0:0:0:
256,192,78124,1,8,0:0:0:0:
256,192,78192,1,0,0:0:0:0:
256,192,78260,1,8,0:0:0:0:
256,192,78328,1,0,0:0:0:0:
256,192,78396,1,0,0:0:0:0:
256,192,78465,1,8,0:0:0:0:
256,192,78533,1,0,0:0:0:0:
256,192,78601,1,0,0:0:0:0:
256,192,78737,1,8,0:0:0:0:
256,192,78874,1,8,0:0:0:0:
256,192,78942,1,8,0:0:0:0:
256,192,79010,1,0,0:0:0:0:
256,192,79146,1,8,0:0:0:0:
256,192,79283,1,8,0:0:0:0:
256,192,79351,1,8,0:0:0:0:
256,192,79419,1,0,0:0:0:0:
256,192,79487,1,8,0:0:0:0:
256,192,79556,1,8,0:0:0:0:
256,192,79692,1,8,0:0:0:0:
256,192,79828,1,8,0:0:0:0:
256,192,79896,1,8,0:0:0:0:
256,192,79965,1,0,0:0:0:0:
256,192,80101,1,0,0:0:0:0:
256,192,80237,1,8,0:0:0:0:
256,192,80374,1,8,0:0:0:0:
224,160,80510,1,8,0:0:0:0:
224,160,80646,1,8,0:0:0:0:
224,160,80783,1,0,0:0:0:0:
224,160,80919,1,8,0:0:0:0:
224,160,80987,1,8,0:0:0:0:
224,160,81056,1,0,0:0:0:0:
224,160,81192,1,0,0:0:0:0:
224,160,81328,1,8,0:0:0:0:
256,160,81465,1,0,0:0:0:0:
256,160,81601,1,8,0:0:0:0:
256,160,81737,1,8,0:0:0:0:
256,160,81874,1,0,0:0:0:0:
256,160,82010,1,0,0:0:0:0:
256,160,82078,1,0,0:0:0:0:
256,160,82146,1,8,0:0:0:0:
256,160,82283,1,0,0:0:0:0:
256,160,82419,1,8,0:0:0:0:
256,160,82556,1,8,0:0:0:0:
256,160,82624,1,8,0:0:0:0:
256,160,82692,1,8,0:0:0:0:
256,160,82828,1,8,0:0:0:0:
256,160,82965,1,0,0:0:0:0:
256,160,83101,1,8,0:0:0:0:
256,160,83237,1,0,0:0:0:0:
256,160,83306,1,0,0:0:0:0:
256,160,83374,1,8,0:0:0:0:
224,160,83510,1,8,0:0:0:0:
224,160,83646,1,0,0:0:0:0:
224,160,83715,1,0,0:0:0:0:
224,160,83783,1,8,0:0:0:0:
224,160,83919,1,8,0:0:0:0:
256,192,84056,1,0,0:0:0:0:
256,192,84124,1,8,0:0:0:0:
256,192,84192,1,8,0:0:0:0:
256,192,84260,1,8,0:0:0:0:
256,192,84328,1,0,0:0:0:0:
256,192,84465,1,0,0:0:0:0:
256,192,84601,1,0,0:0:0:0:
256,192,84737,1,8,0:0:0:0:
256,192,84874,1,8,0:0:0:0:
256,192,85010,1,8,0:0:0:0:
256,192,85146,1,8,0:0:0:0:
256,192,85283,1,0,0:0:0:0:
256,192,85351,1,0,0:0:0:0:
256,192,85419,1,8,0:0:0:0:
256,192,85556,1,0,0:0:0:0:
256,192,85692,1,8,0:0:0:0:
256,192,85828,1,0,0:0:0:0:
256,192,85965,1,8,0:0:0:0:
256,192,86101,1,8,0:0:0:0:
256,192,86783,1,8,0:0:0:0:
256,192,86851,1,0,0:0:0:0:
256,192,86919,1,8,0:0:0:0:
256,192,86987,1,8,0:0:0:0:
256,192,87056,1,0,0:0:0:0:
256,192,87124,1,8,0:0:0:0:
256,192,87192,1,0,0:0:0:0:
256,192,87260,1,0,0:0:0:0:
256,192,87328,1,12,0:0:0:0:
256,192,87600,1,8,0:0:0:0:
256,192,87873,1,0,0:0:0:0:
256,192,88009,1,8,0:0:0:0:
256,192,88282,1,8,0:0:0:0:
256,192,88555,1,0,0:0:0:0:
256,192,88691,1,8,0:0:0:0:
256,192,88964,1,0,0:0:0:0:
256,192,89100,1,8,0:0:0:0:
256,192,89237,1,8,0:0:0:0:
256,192,89373,1,8,0:0:0:0:
256,192,89509,1,8,0:0:0:0:
256,192,89782,1,0,0:0:0:0:
256,192,90055,1,0,0:0:0:0:
256,192,90191,1,8,0:0:0:0:
256,192,90328,1,8,0:0:0:0:
256,192,90464,1,0,0:0:0:0:
256,192,90737,1,0,0:0:0:0:
256,192,90873,1,8,0:0:0:0:
256,192,91009,1,0,0:0:0:0:
256,192,91146,1,8,0:0:0:0:
256,192,91282,1,8,0:0:0:0:
256,192,91419,1,0,0:0:0:0:
256,192,91556,1,0,0:0:0:0:
256,192,91692,1,8,0:0:0:0:
256,192,91964,1,8,0:0:0:0:
256,192,92237,1,0,0:0:0:0:
256,192,92373,1,8,0:0:0:0:
256,192,92646,1,8,0:0:0:0:
256,192,92919,1,0,0:0:0:0:
256,192,93055,1,8,0:0:0:0:
256,192,93328,1,0,0:0:0:0:
256,192,93464,1,8,0:0:0:0:
256,192,93601,1,8,0:0:0:0:
256,192,93737,1,8,0:0:0:0:
256,192,93873,1,8,0:0:0:0:
256,192,94146,1,0,0:0:0:0:
256,192,94419,1,0,0:0:0:0:
256,192,94555,1,8,0:0:0:0:
256,192,94692,1,8,0:0:0:0:
256,192,94828,1,0,0:0:0:0:
256,192,95101,1,0,0:0:0:0:
256,192,95237,1,8,0:0:0:0:
256,192,95373,1,0,0:0:0:0:
256,192,95510,1,8,0:0:0:0:
256,192,95578,1,0,0:0:0:0:
256,192,95646,1,8,0:0:0:0:
256,192,95715,1,0,0:0:0:0:
256,192,95783,1,8,0:0:0:0:
256,192,95851,1,8,0:0:0:0:
256,192,95919,1,8,0:0:0:0:
256,192,95987,1,8,0:0:0:0:
256,192,96056,5,0,0:0:0:0:
256,192,96192,1,0,0:0:0:0:
256,192,96328,1,8,0:0:0:0:
256,192,96465,1,0,0:0:0:0:
256,192,96533,1,8,0:0:0:0:
256,192,96601,1,8,0:0:0:0:
256,192,96737,1,8,0:0:0:0:
256,192,96806,1,8,0:0:0:0:
256,192,96874,1,0,0:0:0:0:
256,192,96942,1,8,0:0:0:0:
256,192,97010,1,8,0:0:0:0:
256,192,97146,1,8,0:0:0:0:
256,192,97215,1,0,0:0:0:0:
256,192,97283,1,8,0:0:0:0:
256,192,97419,1,0,0:0:0:0:
256,192,97556,1,0,0:0:0:0:
256,192,97692,1,0,0:0:0:0:
256,192,97760,1,0,0:0:0:0:
256,192,97828,1,8,0:0:0:0:
256,192,97965,1,8,0:0:0:0:
256,192,98101,1,8,0:0:0:0:
256,192,98237,1,8,0:0:0:0:
256,192,98374,1,8,0:0:0:0:
256,192,98442,1,0,0:0:0:0:
256,192,98510,1,8,0:0:0:0:
256,192,98578,1,8,0:0:0:0:
256,192,98646,1,0,0:0:0:0:
256,192,98715,1,0,0:0:0:0:
256,192,98783,1,8,0:0:0:0:
256,192,98919,1,0,0:0:0:0:
256,192,98987,1,0,0:0:0:0:
256,192,99056,1,8,0:0:0:0:
256,192,99192,1,8,0:0:0:0:
256,192,99328,1,0,0:0:0:0:
256,192,99465,1,0,0:0:0:0:
256,192,99601,1,0,0:0:0:0:
256,192,99737,1,0,0:0:0:0:
256,192,99874,1,8,0:0:0:0:
256,192,100010,1,8,0:0:0:0:
256,192,100078,1,8,0:0:0:0:
256,192,100146,1,0,0:0:0:0:
256,192,100283,1,8,0:0:0:0:
256,192,100419,1,0,0:0:0:0:
256,192,100556,1,0,0:0:0:0:
256,192,100692,1,8,0:0:0:0:
256,192,100828,1,8,0:0:0:0:
256,192,100896,1,0,0:0:0:0:
256,192,100965,1,8,0:0:0:0:
256,192,101101,1,8,0:0:0:0:
256,192,101169,1,8,0:0:0:0:
256,192,101237,1,0,0:0:0:0:
256,160,101306,1,8,0:0:0:0:
256,160,101374,1,8,0:0:0:0:
256,192,101510,1,0,0:0:0:0:
256,192,101578,1,8,0:0:0:0:
256,192,101646,1,8,0:0:0:0:
256,192,101783,1,0,0:0:0:0:
256,192,101919,1,0,0:0:0:0:
256,192,102056,1,0,0:0:0:0:
256,192,102124,1,0,0:0:0:0:
256,192,102192,1,8,0:0:0:0:
256,192,102328,1,8,0:0:0:0:
256,192,102465,1,8,0:0:0:0:
256,192,102601,1,8,0:0:0:0:
256,192,102737,1,8,0:0:0:0:
256,192,102806,1,0,0:0:0:0:
256,192,102874,1,8,0:0:0:0:
256,192,102942,1,8,0:0:0:0:
256,192,103010,1,0,0:0:0:0:
256,192,103078,1,0,0:0:0:0:
256,192,103146,1,8,0:0:0:0:
256,192,103283,1,0,0:0:0:0:
256,192,103351,1,0,0:0:0:0:
256,192,103419,1,8,0:0:0:0:
256,192,103556,1,8,0:0:0:0:
256,192,103692,1,0,0:0:0:0:
256,192,103828,1,0,0:0:0:0:
256,192,103965,1,0,0:0:0:0:
256,192,104101,1,0,0:0:0:0:
256,192,104237,1,8,0:0:0:0:
256,192,104306,1,8,0:0:0:0:
256,192,104374,1,8,0:0:0:0:
256,192,104442,1,8,0:0:0:0:
256,192,104783,1,4,0:0:0:0:
256,192,104919,1,0,0:0:0:0:
256,192,105056,1,8,0:0:0:0:
256,192,105192,1,8,0:0:0:0:
256,192,105260,1,8,0:0:0:0:
256,192,105328,1,0,0:0:0:0:
256,192,105465,1,8,0:0:0:0:
256,192,105533,1,8,0:0:0:0:
256,192,105601,1,0,0:0:0:0:
256,192,105737,1,8,0:0:0:0:
256,192,105874,1,8,0:0:0:0:
256,192,106010,1,0,0:0:0:0:
256,192,106078,1,0,0:0:0:0:
256,192,106146,1,8,0:0:0:0:
256,192,106283,1,8,0:0:0:0:
256,192,106419,1,0,0:0:0:0:
256,192,106487,1,0,0:0:0:0:
256,192,106556,1,8,0:0:0:0:
256,192,106624,1,0,0:0:0:0:
256,192,106692,1,8,0:0:0:0:
256,192,106828,1,8,0:0:0:0:
256,192,106965,1,0,0:0:0:0:
256,192,107033,1,0,0:0:0:0:
256,192,107101,1,8,0:0:0:0:
256,192,107169,1,8,0:0:0:0:
256,192,107237,1,0,0:0:0:0:
256,192,107374,1,0,0:0:0:0:
256,192,107510,1,0,0:0:0:0:
256,192,107578,1,8,0:0:0:0:
256,192,107646,1,0,0:0:0:0:
256,192,107715,1,8,0:0:0:0:
256,192,107783,1,8,0:0:0:0:
256,192,107919,1,8,0:0:0:0:
288,160,108056,1,0,0:0:0:0:
288,160,108124,1,0,0:0:0:0:
288,160,108192,1,8,0:0:0:0:
288,160,108260,1,8,0:0:0:0:
288,160,108328,1,0,0:0:0:0:
288,160,108465,1,0,0:0:0:0:
288,160,108601,1,8,0:0:0:0:
288,160,108669,1,8,0:0:0:0:
288,160,108737,1,0,0:0:0:0:
288,160,108806,1,8,0:0:0:0:
288,160,108874,1,8,0:0:0:0:
288,160,109010,1,8,0:0:0:0:
256,192,109146,1,0,0:0:0:0:
256,192,109283,1,0,0:0:0:0:
256,192,109419,1,8,0:0:0:0:
256,192,109556,1,8,0:0:0:0:
256,192,109624,1,8,0:0:0:0:
256,192,109692,1,0,0:0:0:0:
288,192,109828,1,8,0:0:0:0:
288,192,109896,1,8,0:0:0:0:
288,192,109965,1,0,0:0:0:0:
288,192,110101,1,8,0:0:0:0:
256,192,110237,1,8,0:0:0:0:
256,160,110374,1,0,0:0:0:0:
256,160,110442,1,8,0:0:0:0:
256,160,110510,1,8,0:0:0:0:
256,160,110646,1,8,0:0:0:0:
256,192,110783,1,0,0:0:0:0:
256,192,110851,1,8,0:0:0:0:
256,192,110919,1,8,0:0:0:0:
256,192,111056,1,8,0:0:0:0:
256,192,111124,1,8,0:0:0:0:
256,192,111192,1,0,0:0:0:0:
256,192,111328,1,0,0:0:0:0:
256,192,111396,1,8,0:0:0:0:
256,192,111465,1,0,0:0:0:0:
256,192,111533,1,0,0:0:0:0:
256,192,111601,1,8,0:0:0:0:
256,192,111737,1,0,0:0:0:0:
256,192,111874,1,8,0:0:0:0:
256,192,111942,1,0,0:0:0:0:
256,192,112010,1,0,0:0:0:0:
256,192,112078,1,0,0:0:0:0:
256,192,112146,1,8,0:0:0:0:
256,192,112283,1,8,0:0:0:0:
256,192,112419,1,0,0:0:0:0:
256,192,112556,1,8,0:0:0:0:
256,192,112624,1,8,0:0:0:0:
256,192,112692,1,0,0:0:0:0:
256,192,112828,1,0,0:0:0:0:
256,192,112965,1,8,0:0:0:0:
256,192,113033,1,8,0:0:0:0:
256,192,113101,1,0,0:0:0:0:
256,192,113169,1,8,0:0:0:0:
256,192,113237,1,0,0:0:0:0:
256,192,113306,1,0,0:0:0:0:
256,192,113374,1,8,0:0:0:0:
256,192,113442,1,0,0:0:0:0:
256,160,113510,1,0,0:0:0:0:
256,192,113646,1,0,0:0:0:0:
256,192,113783,1,8,0:0:0:0:
256,192,113919,1,0,0:0:0:0:
256,160,113987,1,0,0:0:0:0:
288,160,114056,1,8,0:0:0:0:
288,160,114192,1,0,0:0:0:0:
288,160,114260,1,0,0:0:0:0:
288,160,114328,1,8,0:0:0:0:
256,160,114465,1,8,0:0:0:0:
256,160,114601,1,0,0:0:0:0:
256,160,114669,1,8,0:0:0:0:
256,160,114737,1,0,0:0:0:0:
256,160,114806,1,8,0:0:0:0:
256,160,114874,1,8,0:0:0:0:
256,160,115010,1,8,0:0:0:0:
256,160,115146,1,8,0:0:0:0:
256,160,115215,1,8,0:0:0:0:
256,160,115283,1,0,0:0:0:0:
224,192,115351,1,8,0:0:0:0:
256,160,115419,1,8,0:0:0:0:
256,160,115556,1,0,0:0:0:0:
256,160,115692,1,8,0:0:0:0:
256,160,115828,1,0,0:0:0:0:
256,160,115896,1,0,0:0:0:0:
256,160,115965,1,8,0:0:0:0:
256,160,116101,1,0,0:0:0:0:
256,192,116237,1,0,0:0:0:0:
256,160,116374,1,8,0:0:0:0:
256,192,116442,1,8,0:0:0:0:
256,192,116510,1,8,0:0:0:0:
256,192,116646,1,8,0:0:0:0:
256,192,116783,1,0,0:0:0:0:
256,192,116919,1,8,0:0:0:0:
256,192,116987,1,8,0:0:0:0:
256,192,117056,1,0,0:0:0:0:
256,192,117192,1,0,0:0:0:0:
256,192,117328,1,8,0:0:0:0:
256,160,117465,1,8,0:0:0:0:
256,192,117533,1,8,0:0:0:0:
256,160,117601,1,8,0:0:0:0:
256,160,117737,1,8,0:0:0:0:
256,192,117874,1,0,0:0:0:0:
256,192,118010,1,0,0:0:0:0:
256,192,118146,1,8,0:0:0:0:
256,192,118283,1,0,0:0:0:0:
256,192,118351,1,0,0:0:0:0:
256,192,118419,1,8,0:0:0:0:
256,192,118556,1,0,0:0:0:0:
256,192,118624,1,0,0:0:0:0:
256,192,118692,1,8,0:0:0:0:
256,192,118828,1,8,0:0:0:0:
256,192,118965,1,0,0:0:0:0:
256,192,119101,1,0,0:0:0:0:
256,192,119169,1,8,0:0:0:0:
256,192,119237,1,8,0:0:0:0:
256,192,119374,1,8,0:0:0:0:
256,192,119510,1,8,0:0:0:0:
256,192,119578,1,8,0:0:0:0:
256,192,119646,1,0,0:0:0:0:
256,192,119715,1,0,0:0:0:0:
256,192,119783,1,8,0:0:0:0:
256,192,119919,1,0,0:0:0:0:
256,192,120056,1,8,0:0:0:0:
256,192,120192,1,0,0:0:0:0:
256,192,120260,1,0,0:0:0:0:
256,192,120328,1,8,0:0:0:0:
256,192,120465,1,0,0:0:0:0:
256,192,120601,1,8,0:0:0:0:
256,192,120669,1,0,0:0:0:0:
256,192,120737,1,0,0:0:0:0:
256,192,120806,1,0,0:0:0:0:
256,192,120874,1,8,0:0:0:0:
256,192,121010,1,0,0:0:0:0:
256,192,121146,1,0,0:0:0:0:
256,192,121283,1,8,0:0:0:0:
256,192,121351,1,8,0:0:0:0:
256,192,121419,1,0,0:0:0:0:
256,192,121556,1,0,0:0:0:0:
256,192,121692,1,0,0:0:0:0:
256,192,121760,1,8,0:0:0:0:
256,192,121828,1,0,0:0:0:0:
256,192,121896,1,0,0:0:0:0:
256,192,121965,1,8,0:0:0:0:
256,192,122033,1,0,0:0:0:0:
256,192,122101,1,8,0:0:0:0:
256,192,122169,1,8,0:0:0:0:
256,192,122237,1,4,0:0:0:0:
256,192,122374,1,0,0:0:0:0:
256,192,122510,1,8,0:0:0:0:
256,192,122578,1,8,0:0:0:0:
256,192,122646,1,0,0:0:0:0:
256,160,122783,1,8,0:0:0:0:
256,160,122919,1,8,0:0:0:0:
256,160,122987,1,8,0:0:0:0:
256,160,123056,1,0,0:0:0:0:
256,160,123192,1,8,0:0:0:0:
256,160,123260,1,8,0:0:0:0:
256,160,123328,1,0,0:0:0:0:
256,160,123465,1,0,0:0:0:0:
256,160,123533,1,8,0:0:0:0:
256,160,123601,1,8,0:0:0:0:
256,160,123737,1,8,0:0:0:0:
224,160,123874,1,0,0:0:0:0:
224,160,124010,1,8,0:0:0:0:
224,160,124146,1,8,0:0:0:0:
224,160,124215,1,8,0:0:0:0:
224,160,124283,1,0,0:0:0:0:
192,160,124351,1,0,0:0:0:0:
192,160,124419,1,8,0:0:0:0:
192,160,124556,1,0,0:0:0:0:
192,160,124692,1,8,0:0:0:0:
192,160,124828,1,0,0:0:0:0:
256,192,124965,1,0,0:0:0:0:
256,160,125033,1,0,0:0:0:0:
256,192,125101,1,8,0:0:0:0:
256,192,125169,1,8,0:0:0:0:
256,192,125237,1,8,0:0:0:0:
256,192,125374,1,8,0:0:0:0:
256,192,125510,1,0,0:0:0:0:
256,192,125646,1,8,0:0:0:0:
256,192,125715,1,8,0:0:0:0:
256,192,125783,1,0,0:0:0:0:
256,192,125919,1,8,0:0:0:0:
256,192,126056,1,8,0:0:0:0:
256,192,126124,1,8,0:0:0:0:
256,192,126192,1,0,0:0:0:0:
256,192,126260,1,8,0:0:0:0:
256,192,126328,1,8,0:0:0:0:
256,192,126465,1,8,0:0:0:0:
256,192,126601,1,0,0:0:0:0:
256,192,126737,1,8,0:0:0:0:
256,160,126874,1,8,0:0:0:0:
256,160,126942,1,8,0:0:0:0:
256,160,127010,1,0,0:0:0:0:
256,160,127146,1,8,0:0:0:0:
256,160,127283,1,8,0:0:0:0:
256,160,127351,1,8,0:0:0:0:
256,160,127419,1,0,0:0:0:0:
256,192,127556,1,8,0:0:0:0:
256,192,127624,1,8,0:0:0:0:
256,192,127692,1,0,0:0:0:0:
256,160,127828,1,8,0:0:0:0:
256,160,127896,1,8,0:0:0:0:
256,160,127965,1,8,0:0:0:0:
256,160,128101,1,8,0:0:0:0:
256,160,128237,1,0,0:0:0:0:
256,160,128374,1,8,0:0:0:0:
256,160,128510,1,0,0:0:0:0:
256,160,128578,1,0,0:0:0:0:
256,160,128646,1,8,0:0:0:0:
256,160,128783,1,8,0:0:0:0:
256,160,128919,1,0,0:0:0:0:
256,160,129056,1,0,0:0:0:0:
256,160,129192,1,8,0:0:0:0:
256,192,129328,1,0,0:0:0:0:
256,192,129396,1,8,0:0:0:0:
256,192,129465,1,8,0:0:0:0:
256,192,129533,1,0,0:0:0:0:
256,192,129601,1,8,0:0:0:0:
256,192,129738,1,8,0:0:0:0:
256,192,129806,1,8,0:0:0:0:
256,192,129874,1,0,0:0:0:0:
256,192,130010,1,0,0:0:0:0:
256,192,130078,1,0,0:0:0:0:
256,192,130146,1,8,0:0:0:0:
256,192,130283,1,8,0:0:0:0:
256,192,130419,1,8,0:0:0:0:
256,192,130487,1,8,0:0:0:0:
256,192,130556,1,0,0:0:0:0:
256,192,130624,1,0,0:0:0:0:
256,192,130692,1,8,0:0:0:0:
256,192,130760,1,0,0:0:0:0:
256,192,130828,1,0,0:0:0:0:
256,160,130896,1,8,0:0:0:0:
256,160,130965,1,0,0:0:0:0:
256,192,131101,1,0,0:0:0:0:
256,192,131237,1,0,0:0:0:0:
256,192,131306,1,0,0:0:0:0:
256,192,131374,1,8,0:0:0:0:
224,160,131510,1,0,0:0:0:0:
224,160,131646,1,0,0:0:0:0:
224,160,131715,1,0,0:0:0:0:
224,160,131783,1,8,0:0:0:0:
224,160,131919,1,0,0:0:0:0:
224,160,131987,1,0,0:0:0:0:
224,160,132056,1,8,0:0:0:0:
256,192,132192,1,8,0:0:0:0:
256,192,132260,1,0,0:0:0:0:
256,192,132328,1,8,0:0:0:0:
256,160,132465,1,8,0:0:0:0:
256,160,132601,1,0,0:0:0:0:
256,160,132737,1,8,0:0:0:0:
256,192,132874,1,0,0:0:0:0:
256,192,132942,1,0,0:0:0:0:
256,192,133010,1,8,0:0:0:0:
256,192,133078,1,8,0:0:0:0:
256,192,133146,1,0,0:0:0:0:
256,192,133283,1,0,0:0:0:0:
256,192,133419,1,8,0:0:0:0:
256,192,133556,1,0,0:0:0:0:
256,192,133692,1,0,0:0:0:0:
256,192,133828,1,0,0:0:0:0:
256,192,133896,1,8,0:0:0:0:
256,192,133965,1,8,0:0:0:0:
256,192,134101,1,8,0:0:0:0:
256,192,134169,1,8,0:0:0:0:
256,192,134237,1,0,0:0:0:0:
256,192,134374,1,0,0:0:0:0:
256,192,134442,1,0,0:0:0:0:
256,192,134510,1,8,0:0:0:0:
256,192,134646,1,0,0:0:0:0:
256,192,134783,1,8,0:0:0:0:
256,192,134851,1,0,0:0:0:0:
256,192,134919,1,0,0:0:0:0:
256,192,134987,1,0,0:0:0:0:
256,192,135056,1,8,0:0:0:0:
256,192,135124,1,8,0:0:0:0:
256,192,135192,1,0,0:0:0:0:
256,192,135260,1,8,0:0:0:0:
256,192,135328,1,0,0:0:0:0:
256,192,135465,1,0,0:0:0:0:
256,192,135601,1,0,0:0:0:0:
256,192,135669,1,0,0:0:0:0:
256,192,135737,1,8,0:0:0:0:
256,192,135874,1,0,0:0:0:0:
256,192,136010,1,0,0:0:0:0:
256,192,136078,1,0,0:0:0:0:
256,192,136146,1,8,0:0:0:0:
256,192,136283,1,0,0:0:0:0:
256,192,136351,1,0,0:0:0:0:
256,192,136419,1,8,0:0:0:0:
256,160,136556,1,0,0:0:0:0:
256,160,136624,1,8,0:0:0:0:
256,160,136692,1,8,0:0:0:0:
256,160,136828,1,8,0:0:0:0:
256,160,136965,1,8,0:0:0:0:
256,160,137101,1,0,0:0:0:0:
256,160,137237,1,8,0:0:0:0:
256,160,137306,1,8,0:0:0:0:
256,160,137374,1,0,0:0:0:0:
256,192,137510,1,8,0:0:0:0:
256,192,137578,1,8,0:0:0:0:
256,192,137646,1,0,0:0:0:0:
256,192,137715,1,0,0:0:0:0:
256,192,137783,1,8,0:0:0:0:
256,192,137851,1,8,0:0:0:0:
256,192,137919,1,0,0:0:0:0:
256,160,137987,1,0,0:0:0:0:
256,160,138056,1,8,0:0:0:0:
256,160,138192,1,0,0:0:0:0:
256,160,138328,1,8,0:0:0:0:
256,192,138465,1,0,0:0:0:0:
256,192,138601,1,8,0:0:0:0:
256,192,138669,1,0,0:0:0:0:
256,192,138737,1,8,0:0:0:0:
256,192,138806,1,0,0:0:0:0:
256,192,138874,1,0,0:0:0:0:
256,192,138942,1,8,0:0:0:0:
256,192,139010,1,0,0:0:0:0:
256,192,139078,1,8,0:0:0:0:
256,160,139146,1,8,0:0:0:0:
256,160,139283,1,8,0:0:0:0:
256,160,139419,1,0,0:0:0:0:
256,160,139692,1,12,0:0:0:0:
256,192,156056,12,0,156874,0:0:0:0:
256,192,157146,5,8,0:0:0:0:
256,192,157419,1,8,0:0:0:0:
256,192,157692,1,0,0:0:0:0:
256,192,159328,1,8,0:0:0:0:
256,192,159601,1,0,0:0:0:0:
256,192,159874,1,0,0:0:0:0:
256,192,160010,1,8,0:0:0:0:
256,192,160146,1,8,0:0:0:0:
256,192,160692,1,8,0:0:0:0:
256,192,160965,1,8,0:0:0:0:
256,192,161101,1,8,0:0:0:0:
256,192,161237,1,0,0:0:0:0:
256,192,161510,1,8,0:0:0:0:
256,192,161783,1,8,0:0:0:0:
256,192,162056,1,0,0:0:0:0:
256,192,163692,1,8,0:0:0:0:
256,192,163965,1,0,0:0:0:0:
256,192,164237,1,8,0:0:0:0:
256,192,164374,1,0,0:0:0:0:
256,192,164510,1,8,0:0:0:0:
256,192,165056,1,8,0:0:0:0:
256,192,165328,1,8,0:0:0:0:
256,192,165465,1,0,0:0:0:0:
256,192,165601,1,0,0:0:0:0:
256,192,165737,1,0,0:0:0:0:
256,192,165874,1,8,0:0:0:0:
256,192,166146,1,8,0:0:0:0:
256,192,166419,1,0,0:0:0:0:
256,192,168056,1,8,0:0:0:0:
256,192,168328,1,0,0:0:0:0:
256,192,168601,1,8,0:0:0:0:
256,192,168737,1,0,0:0:0:0:
256,192,168874,1,8,0:0:0:0:
256,192,169419,1,0,0:0:0:0:
256,192,169692,1,8,0:0:0:0:
256,192,169828,1,8,0:0:0:0:
256,192,169965,1,0,0:0:0:0:
256,192,170237,1,8,0:0:0:0:
256,192,170510,1,8,0:0:0:0:
256,192,170783,1,0,0:0:0:0:
256,192,174601,1,0,0:0:0:0:
256,192,174737,1,8,0:0:0:0:
256,192,174806,1,8,0:0:0:0:
256,192,174874,1,0,0:0:0:0:
256,192,175010,1,0,0:0:0:0:
256,192,175146,1,8,0:0:0:0:
256,192,175283,1,0,0:0:0:0:
256,192,175419,1,8,0:0:0:0:
256,192,175487,1,8,0:0:0:0:
256,192,175556,1,8,0:0:0:0:
256,192,175692,1,0,0:0:0:0:
256,192,175828,1,8,0:0:0:0:
256,192,175896,1,8,0:0:0:0:
256,192,175965,1,0,0:0:0:0:
256,192,176101,1,0,0:0:0:0:
256,192,176237,1,8,0:0:0:0:
256,192,176374,1,0,0:0:0:0:
256,192,176442,1,0,0:0:0:0:
256,192,176510,1,8,0:0:0:0:
256,192,176646,1,8,0:0:0:0:
256,192,176783,1,0,0:0:0:0:
256,192,176919,1,8,0:0:0:0:
256,192,176987,1,8,0:0:0:0:
256,192,177056,1,0,0:0:0:0:
256,192,177192,1,0,0:0:0:0:
256,192,177328,1,8,0:0:0:0:
256,192,177465,1,0,0:0:0:0:
256,192,177533,1,0,0:0:0:0:
256,192,177601,1,8,0:0:0:0:
256,192,177737,1,8,0:0:0:0:
256,192,177874,1,0,0:0:0:0:
256,192,178010,1,8,0:0:0:0:
256,192,178078,1,8,0:0:0:0:
256,192,178146,1,0,0:0:0:0:
256,192,178283,1,8,0:0:0:0:
256,192,178419,1,8,0:0:0:0:
256,192,178487,1,8,0:0:0:0:
256,192,178556,1,0,0:0:0:0:
256,192,178624,1,0,0:0:0:0:
256,192,178692,1,8,0:0:0:0:
256,192,178828,1,8,0:0:0:0:
256,192,178965,1,0,0:0:0:0:
256,192,179101,1,8,0:0:0:0:
256,192,179169,1,8,0:0:0:0:
256,192,179237,1,0,0:0:0:0:
256,192,179374,1,0,0:0:0:0:
256,192,179510,1,8,0:0:0:0:
256,192,179646,1,0,0:0:0:0:
256,192,179783,1,8,0:0:0:0:
256,192,179851,1,8,0:0:0:0:
256,192,179919,1,8,0:0:0:0:
256,192,180056,1,0,0:0:0:0:
256,192,180192,1,8,0:0:0:0:
256,192,180260,1,8,0:0:0:0:
256,192,180328,1,0,0:0:0:0:
256,192,180465,1,0,0:0:0:0:
256,192,180601,1,8,0:0:0:0:
256,192,180737,1,0,0:0:0:0:
256,192,180806,1,0,0:0:0:0:
256,192,180874,1,8,0:0:0:0:
256,192,181010,1,8,0:0:0:0:
256,192,181146,1,0,0:0:0:0:
256,192,181283,1,8,0:0:0:0:
256,192,181351,1,8,0:0:0:0:
256,192,181419,1,0,0:0:0:0:
256,192,181556,1,0,0:0:0:0:
256,192,181692,1,8,0:0:0:0:
256,192,181828,1,0,0:0:0:0:
256,192,181896,1,0,0:0:0:0:
256,192,181965,1,8,0:0:0:0:
256,192,182101,1,8,0:0:0:0:
256,192,182237,1,0,0:0:0:0:
256,192,182374,1,8,0:0:0:0:
256,192,182442,1,8,0:0:0:0:
256,192,182510,1,0,0:0:0:0:
256,192,182646,1,0,0:0:0:0:
256,192,182783,1,0,0:0:0:0:
256,192,182851,1,8,0:0:0:0:
256,192,182919,1,8,0:0:0:0:
256,192,182987,1,0,0:0:0:0:
256,192,183056,1,8,0:0:0:0:
256,192,183192,1,8,0:0:0:0:
256,192,183328,1,0,0:0:0:0:
256,192,183465,1,0,0:0:0:0:
256,192,183533,1,0,0:0:0:0:
256,192,183601,1,8,0:0:0:0:
256,192,183737,1,0,0:0:0:0:
256,192,183874,1,8,0:0:0:0:
256,192,184010,1,0,0:0:0:0:
256,192,184146,1,8,0:0:0:0:
256,192,184215,1,8,0:0:0:0:
256,192,184283,1,8,0:0:0:0:
256,192,184419,1,0,0:0:0:0:
256,192,184556,1,0,0:0:0:0:
256,192,184624,1,0,0:0:0:0:
256,192,184692,1,8,0:0:0:0:
256,192,184828,1,0,0:0:0:0:
256,192,184965,1,8,0:0:0:0:
256,192,185101,1,0,0:0:0:0:
256,192,185169,1,8,0:0:0:0:
256,192,185237,1,8,0:0:0:0:
256,192,185374,1,8,0:0:0:0:
256,192,185510,1,0,0:0:0:0:
256,192,185646,1,0,0:0:0:0:
256,192,185715,1,0,0:0:0:0:
256,192,185783,1,8,0:0:0:0:
256,192,185919,1,0,0:0:0:0:
224,192,186056,1,8,0:0:0:0:
224,160,186192,1,0,0:0:0:0:
224,160,186260,1,0,0:0:0:0:
224,160,186328,1,8,0:0:0:0:
224,160,186465,1,8,0:0:0:0:
224,160,186601,1,8,0:0:0:0:
224,160,186737,1,8,0:0:0:0:
224,160,186806,1,8,0:0:0:0:
224,160,186874,1,0,0:0:0:0:
224,160,187010,1,0,0:0:0:0:
224,160,187146,1,8,0:0:0:0:
224,160,187283,1,8,0:0:0:0:
224,160,187351,1,8,0:0:0:0:
224,160,187419,1,8,0:0:0:0:
224,160,187556,1,8,0:0:0:0:
224,160,187692,1,0,0:0:0:0:
224,160,187828,1,0,0:0:0:0:
224,160,187896,1,0,0:0:0:0:
224,160,187965,1,8,0:0:0:0:
224,160,188101,1,0,0:0:0:0:
224,160,188237,1,8,0:0:0:0:
224,160,188374,1,8,0:0:0:0:
224,160,188442,1,8,0:0:0:0:
224,160,188510,1,8,0:0:0:0:
224,160,188646,1,8,0:0:0:0:
224,160,188783,1,0,0:0:0:0:
224,160,188919,1,0,0:0:0:0:
224,160,188987,1,0,0:0:0:0:
224,160,189056,1,8,0:0:0:0:
224,160,189192,1,0,0:0:0:0:
224,160,189328,1,8,0:0:0:0:
224,160,189465,1,8,0:0:0:0:
224,160,189601,1,0,0:0:0:0:
224,160,189669,1,0,0:0:0:0:
224,160,189737,1,8,0:0:0:0:
224,160,189874,1,0,0:0:0:0:
224,160,190010,1,0,0:0:0:0:
224,160,190078,1,0,0:0:0:0:
224,160,190146,1,8,0:0:0:0:
224,160,190283,1,8,0:0:0:0:
224,160,190419,1,0,0:0:0:0:
224,160,190487,1,0,0:0:0:0:
224,160,190556,1,8,0:0:0:0:
224,160,190692,1,8,0:0:0:0:
224,160,190828,1,8,0:0:0:0:
224,160,190965,1,0,0:0:0:0:
224,160,191101,1,8,0:0:0:0:
224,160,191169,1,8,0:0:0:0:
224,160,191237,1,0,0:0:0:0:
224,160,191374,1,0,0:0:0:0:
224,160,191510,1,0,0:0:0:0:
224,160,191578,1,8,0:0:0:0:
224,160,191646,1,0,0:0:0:0:
224,160,191715,1,0,0:0:0:0:
224,160,191783,1,8,0:0:0:0:
224,160,191851,1,0,0:0:0:0:
224,160,191919,1,8,0:0:0:0:
224,160,191987,1,8,0:0:0:0:
256,192,192056,1,4,0:0:0:0:
256,192,192192,1,8,0:0:0:0:
256,192,192260,1,8,0:0:0:0:
256,192,192328,1,4,0:0:0:0:
256,192,192465,1,8,0:0:0:0:
256,192,192601,1,4,0:0:0:0:
256,192,192737,1,8,0:0:0:0:
256,192,192806,1,8,0:0:0:0:
256,192,192874,1,4,0:0:0:0:
256,192,193010,1,8,0:0:0:0:
256,192,193146,1,4,0:0:0:0:
256,160,193283,1,8,0:0:0:0:
256,192,193419,1,4,0:0:0:0:
256,192,193556,1,0,0:0:0:0:
256,192,193692,1,4,0:0:0:0:
256,192,193828,1,8,0:0:0:0:
256,192,193896,1,8,0:0:0:0:
256,192,193965,1,4,0:0:0:0:
256,160,194101,1,8,0:0:0:0:
256,192,194237,1,4,0:0:0:0:
256,160,194374,1,8,0:0:0:0:
256,192,194510,1,4,0:0:0:0:
256,160,194646,1,0,0:0:0:0:
256,192,194783,1,4,0:0:0:0:
256,160,194919,1,8,0:0:0:0:
256,192,195056,1,4,0:0:0:0:
256,160,195192,1,8,0:0:0:0:
256,160,195260,1,8,0:0:0:0:
256,192,195328,1,4,0:0:0:0:
256,160,195465,1,8,0:0:0:0:
256,160,195601,1,4,0:0:0:0:
224,128,195737,1,8,0:0:0:0:
256,160,195874,1,4,0:0:0:0:
224,128,196010,1,8,0:0:0:0:
224,128,196078,1,8,0:0:0:0:
256,160,196146,1,4,0:0:0:0:
224,128,196283,1,8,0:0:0:0:
256,192,196419,1,4,0:0:0:0:
256,192,196555,1,8,0:0:0:0:
256,192,196623,1,8,0:0:0:0:
256,192,196691,1,4,0:0:0:0:
256,192,196828,1,8,0:0:0:0:
256,192,196964,1,4,0:0:0:0:
256,192,197100,1,8,0:0:0:0:
256,192,197169,1,8,0:0:0:0:
256,192,197237,1,4,0:0:0:0:
256,192,197373,1,8,0:0:0:0:
256,192,197509,1,4,0:0:0:0:
256,160,197646,1,8,0:0:0:0:
256,192,197782,1,4,0:0:0:0:
256,192,197919,1,0,0:0:0:0:
256,192,198055,1,4,0:0:0:0:
256,192,198191,1,8,0:0:0:0:
256,192,198259,1,8,0:0:0:0:
256,192,198328,1,4,0:0:0:0:
256,160,198464,1,8,0:0:0:0:
256,192,198600,1,4,0:0:0:0:
256,192,198737,1,8,0:0:0:0:
256,192,198873,1,4,0:0:0:0:
256,160,199009,1,0,0:0:0:0:
256,192,199146,1,4,0:0:0:0:
256,160,199282,1,8,0:0:0:0:
256,192,199419,1,4,0:0:0:0:
256,160,199555,1,8,0:0:0:0:
256,160,199623,1,8,0:0:0:0:
256,192,199691,1,4,0:0:0:0:
256,160,199828,1,8,0:0:0:0:
256,160,199964,1,4,0:0:0:0:
224,128,200100,1,8,0:0:0:0:
256,192,200237,1,8,0:0:0:0:
256,192,200306,1,8,0:0:0:0:
256,192,200374,1,0,0:0:0:0:
256,192,200442,1,8,0:0:0:0:
256,192,200510,1,0,0:0:0:0:
256,192,200578,1,0,0:0:0:0:
256,192,200646,1,8,0:0:0:0:
256,192,200715,1,8,0:0:0:0:
256,192,200783,1,4,0:0:0:0:
256,192,200919,1,8,0:0:0:0:
256,192,200987,1,8,0:0:0:0:
256,192,201055,1,4,0:0:0:0:
256,192,201192,1,8,0:0:0:0:
256,192,201328,1,4,0:0:0:0:
256,192,201464,1,8,0:0:0:0:
256,192,201533,1,8,0:0:0:0:
256,192,201601,1,4,0:0:0:0:
256,192,201737,1,8,0:0:0:0:
256,192,201873,1,4,0:0:0:0:
256,160,202010,1,8,0:0:0:0:
256,192,202146,1,4,0:0:0:0:
256,192,202283,1,0,0:0:0:0:
256,192,202419,1,4,0:0:0:0:
256,192,202555,1,8,0:0:0:0:
256,192,202623,1,8,0:0:0:0:
256,192,202692,1,4,0:0:0:0:
256,160,202828,1,8,0:0:0:0:
256,192,202964,1,4,0:0:0:0:
256,160,203101,1,8,0:0:0:0:
256,192,203237,1,4,0:0:0:0:
256,160,203373,1,0,0:0:0:0:
256,192,203510,1,4,0:0:0:0:
256,160,203646,1,8,0:0:0:0:
256,192,203783,1,4,0:0:0:0:
256,160,203919,1,8,0:0:0:0:
256,160,203987,1,8,0:0:0:0:
256,192,204055,1,4,0:0:0:0:
256,160,204192,1,8,0:0:0:0:
256,160,204328,1,4,0:0:0:0:
224,128,204464,1,8,0:0:0:0:
256,160,204601,1,4,0:0:0:0:
224,128,204737,1,8,0:0:0:0:
256,160,204873,1,0,0:0:0:0:
256,160,204942,1,8,0:0:0:0:
224,128,205010,1,8,0:0:0:0:
256,160,205078,1,8,0:0:0:0:
256,192,205146,1,4,0:0:0:0:
256,192,205282,1,0,0:0:0:0:
256,160,205351,1,0,0:0:0:0:
256,192,205419,1,8,0:0:0:0:
256,192,205487,1,8,0:0:0:0:
256,192,205555,1,0,0:0:0:0:
256,192,205692,1,4,0:0:0:0:
256,192,205828,1,0,0:0:0:0:
256,160,205896,1,8,0:0:0:0:
256,160,205965,1,8,0:0:0:0:
224,160,206033,1,8,0:0:0:0:
256,192,206100,1,0,0:0:0:0:
256,160,206237,1,4,0:0:0:0:
256,160,206373,1,0,0:0:0:0:
224,128,206442,1,8,0:0:0:0:
256,192,206510,1,8,0:0:0:0:
224,128,206578,1,8,0:0:0:0:
256,192,206646,1,8,0:0:0:0:
224,128,206715,1,8,0:0:0:0:
256,192,206783,1,4,0:0:0:0:
256,192,206918,1,8,0:0:0:0:
256,192,207056,1,8,0:0:0:0:
192,128,207124,1,8,0:0:0:0:
256,192,207192,1,8,0:0:0:0:
256,192,207260,1,8,0:0:0:0:
256,160,207328,1,4,0:0:0:0:
256,160,207465,1,8,0:0:0:0:
256,192,207600,1,8,0:0:0:0:
256,160,207669,1,8,0:0:0:0:
256,160,207736,1,0,0:0:0:0:
256,160,207874,1,4,0:0:0:0:
256,160,208009,1,8,0:0:0:0:
256,192,208146,1,0,0:0:0:0:
256,160,208215,1,0,0:0:0:0:
256,160,208282,1,0,0:0:0:0:
256,192,208419,1,0,0:0:0:0:
256,192,208487,1,8,0:0:0:0:
256,192,208556,1,0,0:0:0:0:
256,192,208624,1,0,0:0:0:0:
256,192,208692,1,8,0:0:0:0:
256,192,208760,1,0,0:0:0:0:
256,192,208828,1,0,0:0:0:0:
256,192,208896,1,8,0:0:0:0:
256,192,208965,1,8,0:0:0:0:
256,192,209033,1,8,0:0:0:0:
256,192,209101,1,8,0:0:0:0:
256,192,209169,1,8,0:0:0:0:
256,192,209237,1,0,0:0:0:0:
256,192,209283,1,0,0:0:0:0:
256,192,209328,1,0,0:0:0:0:
256,192,209374,1,0,0:0:0:0:
256,192,209419,1,0,0:0:0:0:
256,192,209465,1,0,0:0:0:0:
256,192,209510,1,12,0:0:0:0:
