osu file format v14

[General]
AudioFilename: Renard - Banned Forever.mp3
AudioLeadIn: 0
PreviewTime: 51601
Countdown: 1
SampleSet: Soft
StackLeniency: 0.7
Mode: 3
LetterboxInBreaks: 1
SpecialStyle: 0
WidescreenStoryboard: 1

[Editor]
DistanceSpacing: 1.1
BeatDivisor: 4
GridSize: 8
TimelineZoom: 4.099998

[Metadata]
Title:Banned Forever
TitleUnicode:Banned Forever
Artist:Renard
ArtistUnicode:Renard
Creator:Arzenvald
Version:ADVANCED
Source:
Tags:ExUsagi Raggacore Lapfox
BeatmapID:723855
BeatmapSetID:325666

[Difficulty]
HPDrainRate:7.7
CircleSize:4
OverallDifficulty:6.6
ApproachRate:5
SliderMultiplier:1.4
SliderTickRate:1

[Events]
//Background and Video events
0,0,"renarddd.jpg",0,0
//Break Periods
//Storyboard Layer 0 (Background)
//Storyboard Layer 1 (Fail)
//Storyboard Layer 2 (Pass)
//Storyboard Layer 3 (Foreground)
//Storyboard Sound Samples

[TimingPoints]
56,272.727272727273,4,2,1,70,1,0

[HitObjects]
64,192,56,5,0,0:0:0:0:
64,192,192,1,0,0:0:0:0:
448,192,328,1,0,0:0:0:0:
64,192,465,1,0,0:0:0:0:
320,192,533,1,0,0:0:0:0:
448,192,601,1,0,0:0:0:0:
320,192,737,1,0,0:0:0:0:
64,192,806,1,0,0:0:0:0:
192,192,874,1,0,0:0:0:0:
320,192,942,1,0,0:0:0:0:
448,192,1010,1,0,0:0:0:0:
64,192,1146,1,0,0:0:0:0:
192,192,1215,1,0,0:0:0:0:
448,192,1283,1,0,0:0:0:0:
64,192,1419,1,0,0:0:0:0:
320,192,1556,1,0,0:0:0:0:
192,192,1692,1,0,0:0:0:0:
320,192,1760,1,0,0:0:0:0:
448,192,1828,1,0,0:0:0:0:
448,192,1965,1,0,0:0:0:0:
320,192,2101,1,0,0:0:0:0:
448,192,2237,1,0,0:0:0:0:
192,192,2374,1,0,0:0:0:0:
448,192,2442,1,0,0:0:0:0:
320,192,2510,1,0,0:0:0:0:
64,192,2578,1,0,0:0:0:0:
192,192,2646,1,0,0:0:0:0:
320,192,2715,1,0,0:0:0:0:
448,192,2783,1,0,0:0:0:0:
192,192,2919,1,0,0:0:0:0:
64,192,2987,1,0,0:0:0:0:
448,192,3056,1,0,0:0:0:0:
448,192,3192,1,0,0:0:0:0:
192,192,3328,1,0,0:0:0:0:
64,192,3465,1,0,0:0:0:0:
192,192,3601,1,0,0:0:0:0:
64,192,3737,1,0,0:0:0:0:
448,192,3874,1,0,0:0:0:0:
320,192,4010,1,0,0:0:0:0:
192,192,4078,1,0,0:0:0:0:
64,192,4146,1,0,0:0:0:0:
448,192,4283,1,0,0:0:0:0:
64,192,4419,5,0,0:0:0:0:
64,192,4556,1,0,0:0:0:0:
448,192,4692,1,0,0:0:0:0:
64,192,4828,1,0,0:0:0:0:
320,192,4896,1,0,0:0:0:0:
448,192,4965,1,0,0:0:0:0:
320,192,5101,1,0,0:0:0:0:
64,192,5169,1,0,0:0:0:0:
192,192,5237,1,0,0:0:0:0:
320,192,5306,1,0,0:0:0:0:
448,192,5374,1,0,0:0:0:0:
64,192,5510,1,0,0:0:0:0:
192,192,5578,1,0,0:0:0:0:
448,192,5646,1,0,0:0:0:0:
64,192,5783,1,0,0:0:0:0:
320,192,5919,1,0,0:0:0:0:
192,192,6056,1,0,0:0:0:0:
320,192,6124,1,0,0:0:0:0:
448,192,6192,1,0,0:0:0:0:
448,192,6328,1,0,0:0:0:0:
320,192,6465,1,0,0:0:0:0:
448,192,6601,1,0,0:0:0:0:
192,192,6737,1,0,0:0:0:0:
448,192,6806,1,0,0:0:0:0:
320,192,6874,1,0,0:0:0:0:
64,192,6942,1,0,0:0:0:0:
192,192,7010,1,0,0:0:0:0:
320,192,7078,1,0,0:0:0:0:
448,192,7146,1,0,0:0:0:0:
192,192,7283,1,0,0:0:0:0:
64,192,7351,1,0,0:0:0:0:
448,192,7419,1,0,0:0:0:0:
448,192,7556,1,0,0:0:0:0:
192,192,7692,1,0,0:0:0:0:
64,192,7828,1,0,0:0:0:0:
192,192,7965,1,0,0:0:0:0:
64,192,8101,1,0,0:0:0:0:
448,192,8237,1,0,0:0:0:0:
320,192,8306,1,0,0:0:0:0:
192,192,8374,1,0,0:0:0:0:
64,192,8442,1,0,0:0:0:0:
448,192,8510,1,0,0:0:0:0:
320,192,8578,1,0,0:0:0:0:
192,192,8646,1,0,0:0:0:0:
64,192,8715,1,0,0:0:0:0:
448,192,8783,1,0,0:0:0:0:
64,192,8919,1,0,0:0:0:0:
448,192,9056,1,0,0:0:0:0:
64,192,9192,1,0,0:0:0:0:
192,192,9260,1,0,0:0:0:0:
448,192,9328,1,0,0:0:0:0:
320,192,9465,1,0,0:0:0:0:
64,192,9533,1,0,0:0:0:0:
448,192,9601,1,0,0:0:0:0:
192,192,9669,1,0,0:0:0:0:
448,192,9737,1,0,0:0:0:0:
320,192,9874,1,0,0:0:0:0:
192,192,9942,1,0,0:0:0:0:
64,192,10010,1,0,0:0:0:0:
448,192,10146,1,0,0:0:0:0:
320,192,10283,1,0,0:0:0:0:
192,192,10351,1,0,0:0:0:0:
64,192,10419,1,0,0:0:0:0:
320,192,10487,1,0,0:0:0:0:
448,192,10556,1,0,0:0:0:0:
448,192,10692,1,0,0:0:0:0:
64,192,10828,1,0,0:0:0:0:
64,192,10965,1,0,0:0:0:0:
320,192,11101,1,0,0:0:0:0:
192,192,11169,1,0,0:0:0:0:
64,192,11237,1,0,0:0:0:0:
320,192,11306,1,0,0:0:0:0:
192,192,11374,1,0,0:0:0:0:
448,192,11510,1,0,0:0:0:0:
64,192,11646,1,0,0:0:0:0:
320,192,11715,1,0,0:0:0:0:
64,192,11783,1,0,0:0:0:0:
448,192,11919,1,0,0:0:0:0:
320,192,12056,1,0,0:0:0:0:
64,192,12192,1,0,0:0:0:0:
64,192,12328,1,0,0:0:0:0:
448,192,12465,1,0,0:0:0:0:
320,192,12533,1,0,0:0:0:0:
448,192,12601,1,0,0:0:0:0:
64,192,12737,1,0,0:0:0:0:
192,192,12806,1,0,0:0:0:0:
64,192,12874,1,0,0:0:0:0:
448,192,13010,1,0,0:0:0:0:
192,192,13146,1,0,0:0:0:0:
64,192,13283,1,0,0:0:0:0:
448,192,13419,1,0,0:0:0:0:
192,192,13556,1,0,0:0:0:0:
320,192,13624,1,0,0:0:0:0:
448,192,13692,1,0,0:0:0:0:
64,192,13828,1,0,0:0:0:0:
320,192,13896,1,0,0:0:0:0:
64,192,13965,1,0,0:0:0:0:
192,192,14033,1,0,0:0:0:0:
448,192,14101,1,0,0:0:0:0:
320,192,14237,1,0,0:0:0:0:
192,192,14306,1,0,0:0:0:0:
64,192,14374,1,0,0:0:0:0:
448,192,14510,1,0,0:0:0:0:
320,192,14646,1,0,0:0:0:0:
64,192,14783,1,0,0:0:0:0:
192,192,14851,1,0,0:0:0:0:
448,192,14919,1,0,0:0:0:0:
448,192,15056,1,0,0:0:0:0:
192,192,15192,1,0,0:0:0:0:
192,192,15328,1,0,0:0:0:0:
320,192,15465,1,0,0:0:0:0:
192,192,15533,1,0,0:0:0:0:
64,192,15601,1,0,0:0:0:0:
320,192,15669,1,0,0:0:0:0:
192,192,15737,1,0,0:0:0:0:
64,192,15806,1,0,0:0:0:0:
448,192,15874,1,0,0:0:0:0:
320,192,16010,1,0,0:0:0:0:
192,192,16078,1,0,0:0:0:0:
64,192,16146,1,0,0:0:0:0:
448,192,16283,1,0,0:0:0:0:
448,192,16419,1,0,0:0:0:0:
64,192,16556,1,0,0:0:0:0:
192,192,16692,1,0,0:0:0:0:
320,192,16828,1,0,0:0:0:0:
448,192,16896,1,0,0:0:0:0:
64,192,16965,1,0,0:0:0:0:
64,192,17101,1,0,0:0:0:0:
448,192,17237,1,0,0:0:0:0:
320,192,17306,1,0,0:0:0:0:
192,192,17374,1,0,0:0:0:0:
64,192,17442,1,0,0:0:0:0:
448,192,17510,1,0,0:0:0:0:
320,192,17510,1,0,0:0:0:0:
448,192,17919,1,0,0:0:0:0:
320,192,17919,1,0,0:0:0:0:
448,192,18328,1,0,0:0:0:0:
320,192,18328,1,0,0:0:0:0:
448,192,18601,1,0,0:0:0:0:
320,192,18601,1,0,0:0:0:0:
448,192,19010,1,0,0:0:0:0:
320,192,19010,1,0,0:0:0:0:
448,192,19419,1,0,0:0:0:0:
320,192,19419,1,0,0:0:0:0:
64,192,19692,1,0,0:0:0:0:
192,192,19692,1,0,0:0:0:0:
64,192,20101,1,0,0:0:0:0:
192,192,20101,1,0,0:0:0:0:
64,192,20510,1,0,0:0:0:0:
192,192,20510,1,0,0:0:0:0:
192,192,20783,1,0,0:0:0:0:
320,192,20783,1,0,0:0:0:0:
64,192,21056,1,0,0:0:0:0:
448,192,21056,1,0,0:0:0:0:
192,192,21192,1,0,0:0:0:0:
320,192,21192,1,0,0:0:0:0:
64,192,21601,1,0,0:0:0:0:
448,192,21601,1,0,0:0:0:0:
448,192,21874,1,0,0:0:0:0:
320,192,21874,1,0,0:0:0:0:
448,192,22283,1,0,0:0:0:0:
320,192,22283,1,0,0:0:0:0:
448,192,22692,1,0,0:0:0:0:
320,192,22692,1,0,0:0:0:0:
448,192,22965,1,0,0:0:0:0:
320,192,22965,1,0,0:0:0:0:
448,192,23374,1,0,0:0:0:0:
320,192,23374,1,0,0:0:0:0:
448,192,23783,1,0,0:0:0:0:
320,192,23783,1,0,0:0:0:0:
64,192,24056,1,0,0:0:0:0:
192,192,24056,1,0,0:0:0:0:
64,192,24465,1,0,0:0:0:0:
192,192,24465,1,0,0:0:0:0:
64,192,24874,1,0,0:0:0:0:
192,192,24874,1,0,0:0:0:0:
192,192,25146,1,0,0:0:0:0:
320,192,25146,1,0,0:0:0:0:
64,192,25419,1,0,0:0:0:0:
448,192,25419,1,0,0:0:0:0:
192,192,25556,1,0,0:0:0:0:
320,192,25556,1,0,0:0:0:0:
64,192,25828,1,0,0:0:0:0:
448,192,25828,1,0,0:0:0:0:
320,192,25965,1,0,0:0:0:0:
192,192,25965,1,0,0:0:0:0:
64,192,26101,1,0,0:0:0:0:
448,192,26101,1,0,0:0:0:0:
192,192,26237,1,0,0:0:0:0:
320,192,26237,1,0,0:0:0:0:
64,192,26374,1,0,0:0:0:0:
448,192,26510,1,0,0:0:0:0:
64,192,26646,1,0,0:0:0:0:
192,192,26715,1,0,0:0:0:0:
320,192,26783,1,0,0:0:0:0:
448,192,26919,1,0,0:0:0:0:
64,192,26987,1,0,0:0:0:0:
192,192,27056,1,0,0:0:0:0:
448,192,27124,1,0,0:0:0:0:
320,192,27192,1,0,0:0:0:0:
448,192,27328,1,0,0:0:0:0:
192,192,27396,1,0,0:0:0:0:
64,192,27465,1,0,0:0:0:0:
320,192,27601,1,0,0:0:0:0:
448,192,27737,1,0,0:0:0:0:
192,192,27874,1,0,0:0:0:0:
64,192,28010,1,0,0:0:0:0:
320,192,28146,1,0,0:0:0:0:
448,192,28283,1,0,0:0:0:0:
320,192,28419,1,0,0:0:0:0:
448,192,28556,1,0,0:0:0:0:
320,192,28624,1,0,0:0:0:0:
192,192,28692,1,0,0:0:0:0:
64,192,28828,1,0,0:0:0:0:
320,192,28965,1,0,0:0:0:0:
64,192,29101,1,0,0:0:0:0:
320,192,29237,1,0,0:0:0:0:
448,192,29374,1,0,0:0:0:0:
192,192,29510,1,0,0:0:0:0:
320,192,29646,1,0,0:0:0:0:
448,192,29783,1,0,0:0:0:0:
64,192,29919,1,0,0:0:0:0:
448,192,30056,1,0,0:0:0:0:
192,192,30124,1,0,0:0:0:0:
448,192,30192,1,0,0:0:0:0:
64,192,30260,1,0,0:0:0:0:
320,192,30328,1,0,0:0:0:0:
192,192,30465,1,0,0:0:0:0:
64,192,30601,1,0,0:0:0:0:
64,192,30737,1,0,0:0:0:0:
448,192,30874,1,0,0:0:0:0:
64,192,31010,1,0,0:0:0:0:
192,192,31078,1,0,0:0:0:0:
320,192,31146,1,0,0:0:0:0:
448,192,31283,1,0,0:0:0:0:
64,192,31351,1,0,0:0:0:0:
192,192,31419,1,0,0:0:0:0:
448,192,31487,1,0,0:0:0:0:
320,192,31556,1,0,0:0:0:0:
448,192,31692,1,0,0:0:0:0:
192,192,31760,1,0,0:0:0:0:
64,192,31828,1,0,0:0:0:0:
320,192,31965,1,0,0:0:0:0:
448,192,32101,1,0,0:0:0:0:
192,192,32237,1,0,0:0:0:0:
64,192,32374,1,0,0:0:0:0:
320,192,32510,1,0,0:0:0:0:
448,192,32646,1,0,0:0:0:0:
320,192,32783,1,0,0:0:0:0:
192,192,32919,1,0,0:0:0:0:
320,192,32987,1,0,0:0:0:0:
448,192,33056,1,0,0:0:0:0:
64,192,33192,1,0,0:0:0:0:
320,192,33328,1,0,0:0:0:0:
64,192,33465,1,0,0:0:0:0:
320,192,33601,1,0,0:0:0:0:
448,192,33737,1,0,0:0:0:0:
192,192,33874,1,0,0:0:0:0:
320,192,34010,1,0,0:0:0:0:
448,192,34146,1,0,0:0:0:0:
64,192,34283,1,0,0:0:0:0:
448,192,34419,1,0,0:0:0:0:
320,192,34487,1,0,0:0:0:0:
192,192,34556,1,0,0:0:0:0:
64,192,34624,1,0,0:0:0:0:
64,192,34965,1,0,0:0:0:0:
192,189,34965,1,0,0:0:0:0:
64,192,35237,1,0,0:0:0:0:
192,192,35510,1,0,0:0:0:0:
320,192,35646,1,0,0:0:0:0:
448,192,35919,1,0,0:0:0:0:
320,192,36192,1,0,0:0:0:0:
192,192,36328,1,0,0:0:0:0:
64,192,36601,1,0,0:0:0:0:
192,192,36737,1,0,0:0:0:0:
320,192,36874,1,0,0:0:0:0:
64,192,37010,1,0,0:0:0:0:
448,192,37146,1,0,0:0:0:0:
192,192,37419,1,0,0:0:0:0:
64,192,37692,1,0,0:0:0:0:
448,192,37828,1,0,0:0:0:0:
320,192,37965,1,0,0:0:0:0:
64,192,38101,1,0,0:0:0:0:
192,192,38374,1,0,0:0:0:0:
448,192,38510,1,0,0:0:0:0:
64,192,38646,1,0,0:0:0:0:
320,192,38783,1,0,0:0:0:0:
320,192,38919,1,0,0:0:0:0:
64,192,39056,1,0,0:0:0:0:
192,192,39192,1,0,0:0:0:0:
320,192,39328,1,0,0:0:0:0:
320,192,39601,1,0,0:0:0:0:
448,192,39874,1,0,0:0:0:0:
64,192,40010,1,0,0:0:0:0:
192,192,40283,1,0,0:0:0:0:
64,192,40556,1,0,0:0:0:0:
448,192,40692,1,0,0:0:0:0:
320,192,40965,1,0,0:0:0:0:
448,192,41101,1,0,0:0:0:0:
64,192,41237,1,0,0:0:0:0:
320,192,41374,1,0,0:0:0:0:
192,192,41510,1,0,0:0:0:0:
448,192,41783,1,0,0:0:0:0:
64,192,42056,1,0,0:0:0:0:
320,192,42192,1,0,0:0:0:0:
192,192,42328,1,0,0:0:0:0:
64,192,42465,1,0,0:0:0:0:
448,192,42737,1,0,0:0:0:0:
192,192,42874,1,0,0:0:0:0:
320,192,43010,1,0,0:0:0:0:
64,192,43146,1,0,0:0:0:0:
64,192,43283,1,0,0:0:0:0:
448,192,43692,1,0,0:0:0:0:
320,192,43692,1,0,0:0:0:0:
64,192,43828,1,0,0:0:0:0:
448,192,44101,1,0,0:0:0:0:
320,192,44101,1,0,0:0:0:0:
64,192,44237,1,0,0:0:0:0:
448,192,44510,1,0,0:0:0:0:
320,192,44510,1,0,0:0:0:0:
192,192,44646,1,0,0:0:0:0:
320,192,44783,1,0,0:0:0:0:
448,192,44783,1,0,0:0:0:0:
64,192,44919,1,0,0:0:0:0:
448,192,45192,1,0,0:0:0:0:
320,192,45192,1,0,0:0:0:0:
64,192,45328,1,0,0:0:0:0:
320,192,45601,1,0,0:0:0:0:
448,192,45601,1,0,0:0:0:0:
192,192,45737,1,0,0:0:0:0:
448,192,45874,1,0,0:0:0:0:
64,192,45874,1,0,0:0:0:0:
320,192,46010,1,0,0:0:0:0:
64,192,46283,1,0,0:0:0:0:
448,192,46283,1,0,0:0:0:0:
320,192,46419,1,0,0:0:0:0:
448,192,46692,1,0,0:0:0:0:
64,192,46692,1,0,0:0:0:0:
320,192,46828,1,0,0:0:0:0:
192,192,46965,1,0,0:0:0:0:
64,192,46965,1,0,0:0:0:0:
448,192,47101,1,0,0:0:0:0:
64,192,47237,1,0,0:0:0:0:
448,192,47374,1,0,0:0:0:0:
448,192,47510,1,0,0:0:0:0:
448,192,47646,1,0,0:0:0:0:
64,192,47783,1,0,0:0:0:0:
192,192,47919,1,0,0:0:0:0:
320,192,48056,1,0,0:0:0:0:
448,192,48056,1,0,0:0:0:0:
64,192,48192,1,0,0:0:0:0:
448,192,48465,1,0,0:0:0:0:
320,192,48465,1,0,0:0:0:0:
64,192,48601,1,0,0:0:0:0:
448,192,48874,1,0,0:0:0:0:
320,192,48874,1,0,0:0:0:0:
192,192,49010,1,0,0:0:0:0:
448,192,49146,1,0,0:0:0:0:
320,192,49146,1,0,0:0:0:0:
64,192,49283,1,0,0:0:0:0:
448,192,49556,1,0,0:0:0:0:
320,192,49556,1,0,0:0:0:0:
64,192,49692,1,0,0:0:0:0:
448,192,49965,1,0,0:0:0:0:
320,192,49965,1,0,0:0:0:0:
192,192,50101,1,0,0:0:0:0:
64,192,50237,1,0,0:0:0:0:
448,192,50237,1,0,0:0:0:0:
320,192,50374,1,0,0:0:0:0:
64,192,50646,1,0,0:0:0:0:
448,192,50646,1,0,0:0:0:0:
320,192,50783,1,0,0:0:0:0:
448,192,51056,1,0,0:0:0:0:
64,192,51056,1,0,0:0:0:0:
320,192,51192,1,0,0:0:0:0:
64,192,51328,1,0,0:0:0:0:
192,192,51328,1,0,0:0:0:0:
448,192,51465,1,0,0:0:0:0:
64,192,51601,1,0,0:0:0:0:
448,192,51737,1,0,0:0:0:0:
320,192,51874,1,0,0:0:0:0:
448,192,52010,1,0,0:0:0:0:
320,192,52146,1,0,0:0:0:0:
448,192,52283,1,0,0:0:0:0:
64,192,52419,1,0,0:0:0:0:
192,192,52419,1,0,0:0:0:0:
448,192,52556,1,0,0:0:0:0:
192,192,52692,1,0,0:0:0:0:
320,192,52828,1,0,0:0:0:0:
192,192,52896,1,0,0:0:0:0:
64,192,52965,1,0,0:0:0:0:
448,192,53101,1,0,0:0:0:0:
64,192,53237,1,0,0:0:0:0:
192,192,53374,1,0,0:0:0:0:
448,192,53510,1,0,0:0:0:0:
64,192,53646,1,0,0:0:0:0:
320,192,53783,1,0,0:0:0:0:
448,192,53919,1,0,0:0:0:0:
64,192,54056,1,0,0:0:0:0:
192,192,54192,1,0,0:0:0:0:
448,192,54328,1,0,0:0:0:0:
192,192,54465,1,0,0:0:0:0:
320,192,54601,1,0,0:0:0:0:
448,192,54737,1,0,0:0:0:0:
192,192,54874,1,0,0:0:0:0:
64,192,55010,1,0,0:0:0:0:
448,192,55146,1,0,0:0:0:0:
320,192,55283,1,0,0:0:0:0:
192,192,55419,1,0,0:0:0:0:
64,192,55692,1,0,0:0:0:0:
448,192,55965,1,0,0:0:0:0:
320,192,56237,1,0,0:0:0:0:
192,192,56306,1,0,0:0:0:0:
64,192,56374,1,0,0:0:0:0:
448,192,56510,1,0,0:0:0:0:
64,192,56646,1,0,0:0:0:0:
192,192,56783,1,0,0:0:0:0:
448,192,56919,1,0,0:0:0:0:
64,192,57056,1,0,0:0:0:0:
320,192,57192,1,0,0:0:0:0:
192,192,57260,1,0,0:0:0:0:
64,192,57328,1,0,0:0:0:0:
448,192,57465,1,0,0:0:0:0:
64,192,57601,1,0,0:0:0:0:
192,192,57737,1,0,0:0:0:0:
448,192,57874,1,0,0:0:0:0:
64,192,58010,1,0,0:0:0:0:
192,192,58146,1,0,0:0:0:0:
448,192,58283,1,0,0:0:0:0:
64,192,58419,1,0,0:0:0:0:
320,192,58556,1,0,0:0:0:0:
448,192,58692,1,0,0:0:0:0:
192,192,58828,1,0,0:0:0:0:
320,192,58965,1,0,0:0:0:0:
448,192,59101,1,0,0:0:0:0:
192,192,59237,1,0,0:0:0:0:
64,192,59374,1,0,0:0:0:0:
320,192,59510,1,0,0:0:0:0:
448,192,59646,1,0,0:0:0:0:
192,192,59783,1,0,0:0:0:0:
64,192,60056,1,0,0:0:0:0:
448,192,60328,1,0,0:0:0:0:
64,192,60601,1,0,0:0:0:0:
192,192,60669,1,0,0:0:0:0:
320,192,60737,1,0,0:0:0:0:
448,192,60874,1,0,0:0:0:0:
64,192,61010,1,0,0:0:0:0:
192,192,61146,1,0,0:0:0:0:
448,192,61283,1,0,0:0:0:0:
64,192,61419,1,0,0:0:0:0:
320,192,61556,1,0,0:0:0:0:
192,192,61624,1,0,0:0:0:0:
64,192,61692,1,0,0:0:0:0:
448,192,61828,1,0,0:0:0:0:
320,192,61965,1,0,0:0:0:0:
192,192,62101,1,0,0:0:0:0:
448,192,62237,1,0,0:0:0:0:
64,192,62374,1,0,0:0:0:0:
320,192,62510,1,0,0:0:0:0:
448,192,62646,1,0,0:0:0:0:
64,192,62783,1,0,0:0:0:0:
192,192,62919,1,0,0:0:0:0:
448,192,63056,1,0,0:0:0:0:
64,192,63192,1,0,0:0:0:0:
448,192,63328,1,0,0:0:0:0:
192,192,63465,1,0,0:0:0:0:
320,192,63601,1,0,0:0:0:0:
64,192,63737,1,0,0:0:0:0:
192,192,63874,1,0,0:0:0:0:
448,192,64010,1,0,0:0:0:0:
64,192,64146,1,0,0:0:0:0:
448,192,64419,1,0,0:0:0:0:
64,192,64692,1,0,0:0:0:0:
448,192,64828,1,0,0:0:0:0:
320,192,64965,1,0,0:0:0:0:
192,192,65033,1,0,0:0:0:0:
64,192,65101,1,0,0:0:0:0:
448,192,65237,1,0,0:0:0:0:
320,192,65374,1,0,0:0:0:0:
192,192,65510,1,0,0:0:0:0:
448,192,65646,1,0,0:0:0:0:
64,192,65783,1,0,0:0:0:0:
320,192,65919,1,0,0:0:0:0:
192,192,65987,1,0,0:0:0:0:
64,192,66056,1,0,0:0:0:0:
448,192,66192,1,0,0:0:0:0:
320,192,66328,1,0,0:0:0:0:
192,192,66465,1,0,0:0:0:0:
448,192,66601,1,0,0:0:0:0:
64,192,66737,1,0,0:0:0:0:
192,192,66874,1,0,0:0:0:0:
448,192,67010,1,0,0:0:0:0:
64,192,67146,1,0,0:0:0:0:
320,192,67283,1,0,0:0:0:0:
448,192,67419,1,0,0:0:0:0:
64,192,67556,1,0,0:0:0:0:
448,192,67692,1,0,0:0:0:0:
192,192,67828,1,0,0:0:0:0:
320,192,67965,1,0,0:0:0:0:
64,192,68101,1,0,0:0:0:0:
320,192,68237,1,0,0:0:0:0:
448,192,68374,1,0,0:0:0:0:
64,192,68510,1,0,0:0:0:0:
320,192,68783,1,0,0:0:0:0:
448,192,69056,1,0,0:0:0:0:
448,192,69192,1,0,0:0:0:0:
64,192,69328,1,0,0:0:0:0:
192,192,69396,1,0,0:0:0:0:
320,192,69465,1,0,0:0:0:0:
448,192,69533,1,0,0:0:0:0:
64,192,69601,1,0,0:0:0:0:
192,192,69669,1,0,0:0:0:0:
320,192,69737,1,0,0:0:0:0:
448,192,69806,1,0,0:0:0:0:
64,192,69874,1,0,0:0:0:0:
64,192,70010,1,0,0:0:0:0:
448,192,70146,1,0,0:0:0:0:
320,192,70283,1,0,0:0:0:0:
192,192,70351,1,0,0:0:0:0:
64,192,70419,1,0,0:0:0:0:
192,192,70556,1,0,0:0:0:0:
320,192,70624,1,0,0:0:0:0:
448,192,70692,1,0,0:0:0:0:
192,192,70828,1,0,0:0:0:0:
448,192,70965,1,0,0:0:0:0:
320,192,71033,1,0,0:0:0:0:
64,192,71101,1,0,0:0:0:0:
192,192,71237,1,0,0:0:0:0:
320,192,71374,1,0,0:0:0:0:
448,192,71510,1,0,0:0:0:0:
64,192,71646,1,0,0:0:0:0:
192,192,71783,1,0,0:0:0:0:
320,192,71919,1,0,0:0:0:0:
192,192,72056,1,0,0:0:0:0:
320,192,72192,1,0,0:0:0:0:
192,192,72260,1,0,0:0:0:0:
64,192,72328,1,0,0:0:0:0:
448,192,72465,1,0,0:0:0:0:
320,192,72601,1,0,0:0:0:0:
448,192,72737,1,0,0:0:0:0:
192,192,72874,1,0,0:0:0:0:
320,192,73010,1,0,0:0:0:0:
448,192,73146,1,0,0:0:0:0:
192,192,73283,1,0,0:0:0:0:
320,192,73419,1,0,0:0:0:0:
64,192,73556,1,0,0:0:0:0:
320,192,73692,1,0,0:0:0:0:
320,192,73828,1,0,0:0:0:0:
192,192,73896,1,0,0:0:0:0:
64,192,73965,1,0,0:0:0:0:
448,192,74101,1,0,0:0:0:0:
64,192,74237,1,0,0:0:0:0:
64,192,74374,1,0,0:0:0:0:
320,192,74510,1,0,0:0:0:0:
320,192,74646,1,0,0:0:0:0:
192,192,74715,1,0,0:0:0:0:
64,192,74783,1,0,0:0:0:0:
192,192,74919,1,0,0:0:0:0:
320,192,74987,1,0,0:0:0:0:
448,192,75056,1,0,0:0:0:0:
192,192,75124,1,0,0:0:0:0:
64,192,75192,1,0,0:0:0:0:
448,192,75328,1,0,0:0:0:0:
320,192,75396,1,0,0:0:0:0:
64,192,75465,1,0,0:0:0:0:
192,192,75601,1,0,0:0:0:0:
320,192,75737,1,0,0:0:0:0:
448,192,75874,1,0,0:0:0:0:
64,192,76010,1,0,0:0:0:0:
192,192,76146,1,0,0:0:0:0:
448,192,76283,1,0,0:0:0:0:
192,192,76419,1,0,0:0:0:0:
448,192,76556,1,0,0:0:0:0:
320,192,76624,1,0,0:0:0:0:
192,192,76692,1,0,0:0:0:0:
64,192,76828,1,0,0:0:0:0:
320,192,76965,1,0,0:0:0:0:
64,192,77101,1,0,0:0:0:0:
192,192,77237,1,0,0:0:0:0:
448,192,77374,1,0,0:0:0:0:
448,192,77510,1,0,0:0:0:0:
64,192,77646,1,0,0:0:0:0:
64,192,77783,1,0,0:0:0:0:
192,192,77919,1,0,0:0:0:0:
448,192,78056,1,0,0:0:0:0:
320,192,78124,1,0,0:0:0:0:
192,192,78192,1,0,0:0:0:0:
64,192,78260,1,0,0:0:0:0:
448,192,78328,1,0,0:0:0:0:
320,192,78396,1,0,0:0:0:0:
192,192,78465,1,0,0:0:0:0:
64,192,78533,1,0,0:0:0:0:
192,192,78601,1,0,0:0:0:0:
192,192,78737,1,0,0:0:0:0:
320,192,78874,1,0,0:0:0:0:
192,192,79010,1,0,0:0:0:0:
320,192,79078,1,0,0:0:0:0:
448,192,79146,1,0,0:0:0:0:
64,192,79283,1,0,0:0:0:0:
192,192,79351,1,0,0:0:0:0:
320,192,79419,1,0,0:0:0:0:
64,192,79556,1,0,0:0:0:0:
448,192,79692,1,0,0:0:0:0:
320,192,79760,1,0,0:0:0:0:
192,192,79828,1,0,0:0:0:0:
64,192,79965,1,0,0:0:0:0:
320,192,80101,1,0,0:0:0:0:
448,192,80237,1,0,0:0:0:0:
192,192,80374,1,0,0:0:0:0:
448,192,80510,1,0,0:0:0:0:
320,192,80646,1,0,0:0:0:0:
448,192,80783,1,0,0:0:0:0:
192,192,80919,1,0,0:0:0:0:
320,192,80987,1,0,0:0:0:0:
448,192,81056,1,0,0:0:0:0:
192,192,81192,1,0,0:0:0:0:
448,192,81328,1,0,0:0:0:0:
64,192,81465,1,0,0:0:0:0:
448,192,81601,1,0,0:0:0:0:
320,192,81737,1,0,0:0:0:0:
192,192,81874,1,0,0:0:0:0:
64,192,82010,1,0,0:0:0:0:
320,192,82146,1,0,0:0:0:0:
192,192,82283,1,0,0:0:0:0:
448,192,82419,1,0,0:0:0:0:
448,192,82556,1,0,0:0:0:0:
192,192,82624,1,0,0:0:0:0:
64,192,82692,1,0,0:0:0:0:
448,192,82828,1,0,0:0:0:0:
192,192,82965,1,0,0:0:0:0:
192,192,83101,1,0,0:0:0:0:
320,192,83237,1,0,0:0:0:0:
192,192,83374,1,0,0:0:0:0:
448,192,83442,1,0,0:0:0:0:
64,192,83510,1,0,0:0:0:0:
320,192,83646,1,0,0:0:0:0:
192,192,83715,1,0,0:0:0:0:
448,192,83783,1,0,0:0:0:0:
320,192,83851,1,0,0:0:0:0:
64,192,83919,1,0,0:0:0:0:
320,192,84056,1,0,0:0:0:0:
448,192,84124,1,0,0:0:0:0:
192,192,84192,1,0,0:0:0:0:
64,192,84328,1,0,0:0:0:0:
320,192,84465,1,0,0:0:0:0:
64,192,84601,1,0,0:0:0:0:
320,192,84737,1,0,0:0:0:0:
448,192,84874,1,0,0:0:0:0:
64,192,85010,1,0,0:0:0:0:
448,192,85146,1,0,0:0:0:0:
448,192,85283,1,0,0:0:0:0:
320,192,85351,1,0,0:0:0:0:
64,192,85419,1,0,0:0:0:0:
192,192,85556,1,0,0:0:0:0:
320,192,85692,1,0,0:0:0:0:
192,192,85828,1,0,0:0:0:0:
64,192,85965,1,0,0:0:0:0:
448,192,86101,1,0,0:0:0:0:
448,192,86783,1,0,0:0:0:0:
320,192,86851,1,0,0:0:0:0:
64,192,86919,1,0,0:0:0:0:
192,192,86987,1,0,0:0:0:0:
448,192,87056,1,0,0:0:0:0:
320,192,87124,1,0,0:0:0:0:
64,192,87192,1,0,0:0:0:0:
192,192,87260,1,0,0:0:0:0:
320,192,87328,1,0,0:0:0:0:
448,192,87328,1,0,0:0:0:0:
448,192,87601,1,0,0:0:0:0:
64,192,87874,1,0,0:0:0:0:
192,192,88010,1,0,0:0:0:0:
448,192,88283,1,0,0:0:0:0:
64,192,88556,1,0,0:0:0:0:
192,192,88692,1,0,0:0:0:0:
448,192,88965,1,0,0:0:0:0:
320,192,89101,1,0,0:0:0:0:
448,192,89237,1,0,0:0:0:0:
64,192,89374,1,0,0:0:0:0:
448,192,89510,1,0,0:0:0:0:
192,192,89783,1,0,0:0:0:0:
64,192,90056,1,0,0:0:0:0:
448,192,90192,1,0,0:0:0:0:
320,192,90328,1,0,0:0:0:0:
192,192,90465,1,0,0:0:0:0:
64,192,90737,1,0,0:0:0:0:
320,192,90874,1,0,0:0:0:0:
448,192,91010,1,0,0:0:0:0:
448,192,91146,1,0,0:0:0:0:
448,192,91283,1,0,0:0:0:0:
64,192,91419,1,0,0:0:0:0:
192,192,91556,1,0,0:0:0:0:
448,192,91692,1,0,0:0:0:0:
448,192,91965,1,0,0:0:0:0:
64,192,92237,1,0,0:0:0:0:
192,192,92374,1,0,0:0:0:0:
448,192,92646,1,0,0:0:0:0:
64,192,92919,1,0,0:0:0:0:
192,192,93056,1,0,0:0:0:0:
448,192,93328,1,0,0:0:0:0:
320,192,93465,1,0,0:0:0:0:
448,192,93601,1,0,0:0:0:0:
64,192,93737,1,0,0:0:0:0:
448,192,93874,1,0,0:0:0:0:
192,192,94146,1,0,0:0:0:0:
64,192,94419,1,0,0:0:0:0:
448,192,94556,1,0,0:0:0:0:
320,192,94692,1,0,0:0:0:0:
192,192,94828,1,0,0:0:0:0:
64,192,95101,1,0,0:0:0:0:
320,192,95237,1,0,0:0:0:0:
448,192,95374,1,0,0:0:0:0:
448,192,95510,1,0,0:0:0:0:
320,192,95578,1,0,0:0:0:0:
192,192,95646,1,0,0:0:0:0:
64,192,95715,1,0,0:0:0:0:
448,192,95783,1,0,0:0:0:0:
448,192,95919,1,0,0:0:0:0:
64,192,96056,1,0,0:0:0:0:
64,192,96192,1,0,0:0:0:0:
448,192,96328,1,0,0:0:0:0:
192,192,96465,1,0,0:0:0:0:
320,192,96533,1,0,0:0:0:0:
448,192,96601,1,0,0:0:0:0:
320,192,96737,1,0,0:0:0:0:
192,192,96806,1,0,0:0:0:0:
64,192,96874,1,0,0:0:0:0:
320,192,96942,1,0,0:0:0:0:
448,192,97010,1,0,0:0:0:0:
192,192,97146,1,0,0:0:0:0:
64,192,97215,1,0,0:0:0:0:
448,192,97283,1,0,0:0:0:0:
192,192,97419,1,0,0:0:0:0:
320,192,97556,1,0,0:0:0:0:
192,192,97692,1,0,0:0:0:0:
320,192,97828,1,0,0:0:0:0:
448,192,97965,1,0,0:0:0:0:
320,192,98101,1,0,0:0:0:0:
448,192,98237,1,0,0:0:0:0:
64,192,98374,1,0,0:0:0:0:
448,192,98442,1,0,0:0:0:0:
320,192,98510,1,0,0:0:0:0:
192,192,98578,1,0,0:0:0:0:
64,192,98646,1,0,0:0:0:0:
320,192,98715,1,0,0:0:0:0:
448,192,98783,1,0,0:0:0:0:
64,192,98919,1,0,0:0:0:0:
192,192,98987,1,0,0:0:0:0:
448,192,99056,1,0,0:0:0:0:
448,192,99192,1,0,0:0:0:0:
64,192,99328,1,0,0:0:0:0:
192,192,99465,1,0,0:0:0:0:
64,192,99601,1,0,0:0:0:0:
192,192,99737,1,0,0:0:0:0:
448,192,99874,1,0,0:0:0:0:
320,192,100010,1,0,0:0:0:0:
64,192,100078,1,0,0:0:0:0:
192,192,100146,1,0,0:0:0:0:
448,192,100283,1,0,0:0:0:0:
192,192,100419,5,0,0:0:0:0:
192,192,100556,1,0,0:0:0:0:
448,192,100692,1,0,0:0:0:0:
192,192,100828,1,0,0:0:0:0:
320,192,100896,1,0,0:0:0:0:
448,192,100965,1,0,0:0:0:0:
320,192,101101,1,0,0:0:0:0:
192,192,101169,1,0,0:0:0:0:
64,192,101237,1,0,0:0:0:0:
320,192,101306,1,0,0:0:0:0:
448,192,101374,1,0,0:0:0:0:
192,192,101510,1,0,0:0:0:0:
64,192,101578,1,0,0:0:0:0:
448,192,101646,1,0,0:0:0:0:
192,192,101783,1,0,0:0:0:0:
320,192,101919,1,0,0:0:0:0:
192,192,102056,1,0,0:0:0:0:
320,192,102192,1,0,0:0:0:0:
448,192,102328,1,0,0:0:0:0:
320,192,102465,1,0,0:0:0:0:
448,192,102601,1,0,0:0:0:0:
64,192,102737,1,0,0:0:0:0:
448,192,102806,1,0,0:0:0:0:
320,192,102874,1,0,0:0:0:0:
192,192,102942,1,0,0:0:0:0:
64,192,103010,1,0,0:0:0:0:
320,192,103078,1,0,0:0:0:0:
448,192,103146,1,0,0:0:0:0:
64,192,103283,1,0,0:0:0:0:
192,192,103351,1,0,0:0:0:0:
448,192,103419,1,0,0:0:0:0:
448,192,103556,1,0,0:0:0:0:
320,192,103692,1,0,0:0:0:0:
64,192,103828,1,0,0:0:0:0:
192,192,103965,1,0,0:0:0:0:
64,192,104101,1,0,0:0:0:0:
448,192,104237,1,0,0:0:0:0:
320,192,104306,1,0,0:0:0:0:
192,192,104374,1,0,0:0:0:0:
64,192,104442,1,0,0:0:0:0:
64,192,104783,1,0,0:0:0:0:
448,192,104783,1,0,0:0:0:0:
192,192,104919,1,0,0:0:0:0:
448,192,105056,1,0,0:0:0:0:
64,192,105192,1,0,0:0:0:0:
320,192,105328,1,0,0:0:0:0:
448,192,105465,1,0,0:0:0:0:
64,192,105601,1,0,0:0:0:0:
448,192,105737,1,0,0:0:0:0:
64,192,105874,1,0,0:0:0:0:
448,192,106010,1,0,0:0:0:0:
192,192,106078,1,0,0:0:0:0:
448,192,106146,1,0,0:0:0:0:
448,192,106283,1,0,0:0:0:0:
64,192,106419,1,0,0:0:0:0:
192,192,106556,1,0,0:0:0:0:
448,192,106692,1,0,0:0:0:0:
192,192,106760,1,0,0:0:0:0:
64,192,106828,1,0,0:0:0:0:
448,192,106965,1,0,0:0:0:0:
320,192,107101,1,0,0:0:0:0:
64,192,107237,1,0,0:0:0:0:
192,192,107374,1,0,0:0:0:0:
320,192,107510,1,0,0:0:0:0:
448,192,107646,1,0,0:0:0:0:
64,192,107783,1,0,0:0:0:0:
448,192,108056,1,0,0:0:0:0:
64,192,108192,1,0,0:0:0:0:
320,192,108260,1,0,0:0:0:0:
64,192,108328,1,0,0:0:0:0:
64,192,108465,1,0,0:0:0:0:
448,192,108601,1,0,0:0:0:0:
320,192,108669,1,0,0:0:0:0:
192,192,108737,1,0,0:0:0:0:
64,192,108806,1,0,0:0:0:0:
448,192,108874,1,0,0:0:0:0:
320,192,108942,1,0,0:0:0:0:
192,192,109010,1,0,0:0:0:0:
64,192,109078,1,0,0:0:0:0:
448,192,109146,1,0,0:0:0:0:
192,192,109283,1,0,0:0:0:0:
448,192,109419,1,0,0:0:0:0:
320,192,109556,1,0,0:0:0:0:
64,192,109692,1,0,0:0:0:0:
448,192,109828,1,0,0:0:0:0:
192,192,109965,1,0,0:0:0:0:
448,192,110101,1,0,0:0:0:0:
64,192,110237,1,0,0:0:0:0:
448,192,110374,1,0,0:0:0:0:
192,192,110442,1,0,0:0:0:0:
448,192,110510,1,0,0:0:0:0:
448,192,110646,1,0,0:0:0:0:
64,192,110783,1,0,0:0:0:0:
192,192,110919,1,0,0:0:0:0:
448,192,111056,1,0,0:0:0:0:
320,192,111124,1,0,0:0:0:0:
64,192,111192,1,0,0:0:0:0:
192,192,111328,1,0,0:0:0:0:
320,192,111465,1,0,0:0:0:0:
64,192,111601,1,0,0:0:0:0:
320,192,111737,1,0,0:0:0:0:
192,192,111874,1,0,0:0:0:0:
448,192,112010,1,0,0:0:0:0:
448,192,112419,1,0,0:0:0:0:
64,192,112556,1,0,0:0:0:0:
320,192,112624,1,0,0:0:0:0:
64,192,112692,1,0,0:0:0:0:
64,192,112828,1,0,0:0:0:0:
448,192,112965,1,0,0:0:0:0:
192,192,113033,1,0,0:0:0:0:
320,192,113101,1,0,0:0:0:0:
64,192,113169,1,0,0:0:0:0:
448,192,113237,1,0,0:0:0:0:
192,192,113306,1,0,0:0:0:0:
320,192,113374,1,0,0:0:0:0:
64,192,113442,1,0,0:0:0:0:
448,192,113510,1,0,0:0:0:0:
320,192,113646,1,0,0:0:0:0:
448,192,113783,1,0,0:0:0:0:
192,192,113919,1,0,0:0:0:0:
64,192,114056,1,0,0:0:0:0:
448,192,114192,1,0,0:0:0:0:
320,192,114328,1,0,0:0:0:0:
448,192,114465,1,0,0:0:0:0:
64,192,114601,1,0,0:0:0:0:
448,192,114737,1,0,0:0:0:0:
192,192,114806,1,0,0:0:0:0:
448,192,114874,1,0,0:0:0:0:
448,192,115010,1,0,0:0:0:0:
64,192,115146,1,0,0:0:0:0:
320,192,115283,1,0,0:0:0:0:
448,192,115419,1,0,0:0:0:0:
192,192,115487,1,0,0:0:0:0:
64,192,115556,1,0,0:0:0:0:
320,192,115692,1,0,0:0:0:0:
192,192,115828,1,0,0:0:0:0:
64,192,115965,1,0,0:0:0:0:
320,192,116101,1,0,0:0:0:0:
192,192,116237,1,0,0:0:0:0:
448,192,116374,1,0,0:0:0:0:
448,192,116783,1,0,0:0:0:0:
192,192,116919,1,0,0:0:0:0:
320,192,116987,1,0,0:0:0:0:
64,192,117056,1,0,0:0:0:0:
64,192,117192,1,0,0:0:0:0:
448,192,117328,1,0,0:0:0:0:
320,192,117396,1,0,0:0:0:0:
192,192,117465,1,0,0:0:0:0:
64,192,117533,1,0,0:0:0:0:
448,192,117601,1,0,0:0:0:0:
320,192,117669,1,0,0:0:0:0:
192,192,117737,1,0,0:0:0:0:
64,192,117806,1,0,0:0:0:0:
448,192,117874,1,0,0:0:0:0:
320,192,118010,1,0,0:0:0:0:
448,192,118146,1,0,0:0:0:0:
192,192,118283,1,0,0:0:0:0:
64,192,118419,1,0,0:0:0:0:
448,192,118556,1,0,0:0:0:0:
320,192,118692,1,0,0:0:0:0:
448,192,118828,1,0,0:0:0:0:
64,192,118965,1,0,0:0:0:0:
448,192,119101,1,0,0:0:0:0:
192,192,119169,1,0,0:0:0:0:
448,192,119237,1,0,0:0:0:0:
448,192,119374,1,0,0:0:0:0:
64,192,119510,1,0,0:0:0:0:
320,192,119646,1,0,0:0:0:0:
448,192,119783,1,0,0:0:0:0:
192,192,119851,1,0,0:0:0:0:
64,192,119919,1,0,0:0:0:0:
320,192,120056,1,0,0:0:0:0:
192,192,120192,1,0,0:0:0:0:
64,192,120328,1,0,0:0:0:0:
192,192,120465,1,0,0:0:0:0:
320,192,120601,1,0,0:0:0:0:
448,192,120737,1,0,0:0:0:0:
192,192,120874,1,0,0:0:0:0:
64,192,121010,1,0,0:0:0:0:
448,192,121146,1,0,0:0:0:0:
192,192,121283,1,0,0:0:0:0:
320,192,121351,1,0,0:0:0:0:
448,192,121419,1,0,0:0:0:0:
192,192,121556,1,0,0:0:0:0:
64,192,121692,1,0,0:0:0:0:
192,192,121760,1,0,0:0:0:0:
320,192,121828,1,0,0:0:0:0:
448,192,121896,1,0,0:0:0:0:
64,192,121965,1,0,0:0:0:0:
192,192,122033,1,0,0:0:0:0:
320,192,122101,1,0,0:0:0:0:
448,192,122169,1,0,0:0:0:0:
192,192,122237,1,0,0:0:0:0:
64,192,122374,1,0,0:0:0:0:
448,192,122510,1,0,0:0:0:0:
320,192,122646,1,0,0:0:0:0:
64,192,122715,1,0,0:0:0:0:
192,192,122783,1,0,0:0:0:0:
448,192,122919,1,0,0:0:0:0:
64,192,123056,1,0,0:0:0:0:
320,192,123124,1,0,0:0:0:0:
448,192,123192,1,0,0:0:0:0:
192,192,123328,1,0,0:0:0:0:
64,192,123465,1,0,0:0:0:0:
320,192,123533,1,0,0:0:0:0:
448,192,123601,1,0,0:0:0:0:
448,192,123737,1,0,0:0:0:0:
192,192,123874,1,0,0:0:0:0:
64,192,124010,1,0,0:0:0:0:
448,192,124146,1,0,0:0:0:0:
320,192,124215,1,0,0:0:0:0:
192,192,124283,1,0,0:0:0:0:
64,192,124419,1,0,0:0:0:0:
320,192,124556,1,0,0:0:0:0:
192,192,124692,1,0,0:0:0:0:
64,192,124828,1,0,0:0:0:0:
320,192,124965,1,0,0:0:0:0:
448,192,125101,1,0,0:0:0:0:
192,192,125237,1,0,0:0:0:0:
320,192,125374,1,0,0:0:0:0:
192,192,125442,1,0,0:0:0:0:
448,192,125510,1,0,0:0:0:0:
320,192,125646,1,0,0:0:0:0:
64,192,125715,1,0,0:0:0:0:
192,192,125783,1,0,0:0:0:0:
192,192,125919,1,0,0:0:0:0:
448,192,126056,1,0,0:0:0:0:
320,192,126124,1,0,0:0:0:0:
64,192,126192,1,0,0:0:0:0:
192,192,126260,1,0,0:0:0:0:
448,192,126328,1,0,0:0:0:0:
320,192,126396,1,0,0:0:0:0:
64,192,126465,1,0,0:0:0:0:
192,192,126533,1,0,0:0:0:0:
448,192,126601,1,0,0:0:0:0:
64,192,126737,1,0,0:0:0:0:
448,192,126874,1,0,0:0:0:0:
320,192,127010,1,0,0:0:0:0:
64,192,127078,1,0,0:0:0:0:
192,192,127146,1,0,0:0:0:0:
448,192,127283,1,0,0:0:0:0:
64,192,127419,1,0,0:0:0:0:
320,192,127487,1,0,0:0:0:0:
448,192,127556,1,0,0:0:0:0:
192,192,127692,1,0,0:0:0:0:
64,192,127828,1,0,0:0:0:0:
320,192,127896,1,0,0:0:0:0:
448,192,127965,1,0,0:0:0:0:
448,192,128101,1,0,0:0:0:0:
192,192,128237,1,0,0:0:0:0:
64,192,128374,1,0,0:0:0:0:
448,192,128510,1,0,0:0:0:0:
320,192,128578,1,0,0:0:0:0:
192,192,128646,1,0,0:0:0:0:
64,192,128783,1,0,0:0:0:0:
320,192,128919,1,0,0:0:0:0:
192,192,129056,1,0,0:0:0:0:
320,192,129192,1,0,0:0:0:0:
64,192,129328,1,0,0:0:0:0:
448,192,129465,1,0,0:0:0:0:
320,192,129601,1,0,0:0:0:0:
192,192,129737,1,0,0:0:0:0:
448,192,129874,1,0,0:0:0:0:
320,192,130010,1,0,0:0:0:0:
64,192,130078,1,0,0:0:0:0:
192,192,130146,1,0,0:0:0:0:
192,192,130283,1,0,0:0:0:0:
448,192,130419,1,0,0:0:0:0:
64,192,130487,1,0,0:0:0:0:
320,192,130556,1,0,0:0:0:0:
192,192,130624,1,0,0:0:0:0:
448,192,130692,1,0,0:0:0:0:
64,192,130760,1,0,0:0:0:0:
320,192,130828,1,0,0:0:0:0:
192,192,130896,1,0,0:0:0:0:
448,192,130965,1,0,0:0:0:0:
320,192,131101,1,0,0:0:0:0:
448,192,131237,1,0,0:0:0:0:
64,192,131374,1,0,0:0:0:0:
320,192,131442,1,0,0:0:0:0:
192,192,131510,1,0,0:0:0:0:
448,192,131646,1,0,0:0:0:0:
320,192,131783,1,0,0:0:0:0:
64,192,131851,1,0,0:0:0:0:
448,192,131919,1,0,0:0:0:0:
192,192,132056,1,0,0:0:0:0:
320,192,132192,1,0,0:0:0:0:
64,192,132260,1,0,0:0:0:0:
448,192,132328,1,0,0:0:0:0:
448,192,132465,1,0,0:0:0:0:
192,192,132601,1,0,0:0:0:0:
320,192,132737,1,0,0:0:0:0:
448,192,132874,1,0,0:0:0:0:
64,192,132942,1,0,0:0:0:0:
192,192,133010,1,0,0:0:0:0:
320,192,133146,1,0,0:0:0:0:
64,192,133283,1,0,0:0:0:0:
192,192,133419,1,0,0:0:0:0:
320,192,133556,1,0,0:0:0:0:
64,192,133692,1,0,0:0:0:0:
448,192,133828,1,0,0:0:0:0:
192,192,133965,1,0,0:0:0:0:
64,192,134101,1,0,0:0:0:0:
192,192,134169,1,0,0:0:0:0:
448,192,134237,1,0,0:0:0:0:
64,192,134374,1,0,0:0:0:0:
320,192,134442,1,0,0:0:0:0:
192,192,134510,1,0,0:0:0:0:
192,192,134646,1,0,0:0:0:0:
448,192,134783,1,0,0:0:0:0:
320,192,134851,1,0,0:0:0:0:
64,192,134919,1,0,0:0:0:0:
192,192,134987,1,0,0:0:0:0:
448,192,135056,1,0,0:0:0:0:
320,192,135124,1,0,0:0:0:0:
64,192,135192,1,0,0:0:0:0:
192,192,135260,1,0,0:0:0:0:
448,192,135328,1,0,0:0:0:0:
320,192,135465,1,0,0:0:0:0:
448,192,135601,1,0,0:0:0:0:
64,192,135737,1,0,0:0:0:0:
320,192,135806,1,0,0:0:0:0:
192,192,135874,1,0,0:0:0:0:
448,192,136010,1,0,0:0:0:0:
320,192,136146,1,0,0:0:0:0:
64,192,136215,1,0,0:0:0:0:
448,192,136283,1,0,0:0:0:0:
192,192,136419,1,0,0:0:0:0:
320,192,136556,1,0,0:0:0:0:
64,192,136624,1,0,0:0:0:0:
448,192,136692,1,0,0:0:0:0:
448,192,136828,1,0,0:0:0:0:
192,192,136965,1,0,0:0:0:0:
320,192,137101,1,0,0:0:0:0:
448,192,137237,1,0,0:0:0:0:
64,192,137306,1,0,0:0:0:0:
192,192,137374,1,0,0:0:0:0:
320,192,137510,1,0,0:0:0:0:
192,192,137578,1,0,0:0:0:0:
64,192,137646,1,0,0:0:0:0:
448,192,137715,1,0,0:0:0:0:
320,192,137783,1,0,0:0:0:0:
192,192,137851,1,0,0:0:0:0:
64,192,137919,1,0,0:0:0:0:
448,192,137987,1,0,0:0:0:0:
320,192,138056,1,0,0:0:0:0:
192,192,138192,1,0,0:0:0:0:
320,192,138328,1,0,0:0:0:0:
192,192,138465,1,0,0:0:0:0:
64,192,138601,1,0,0:0:0:0:
192,192,138669,1,0,0:0:0:0:
448,192,138737,1,0,0:0:0:0:
320,192,138806,1,0,0:0:0:0:
64,192,138874,1,0,0:0:0:0:
192,192,138942,1,0,0:0:0:0:
448,192,139010,1,0,0:0:0:0:
320,192,139078,1,0,0:0:0:0:
192,192,139146,1,0,0:0:0:0:
192,192,139283,1,0,0:0:0:0:
64,192,139419,1,0,0:0:0:0:
320,192,139692,1,0,0:0:0:0:
448,192,139692,1,0,0:0:0:0:
64,192,140101,1,0,0:0:0:0:
320,192,140510,1,0,0:0:0:0:
448,192,140783,1,0,0:0:0:0:
448,192,141328,1,0,0:0:0:0:
64,192,141874,1,0,0:0:0:0:
64,192,142146,1,0,0:0:0:0:
320,192,142419,1,0,0:0:0:0:
448,192,142556,1,0,0:0:0:0:
64,192,142965,1,0,0:0:0:0:
192,189,143237,1,0,0:0:0:0:
64,192,143783,1,0,0:0:0:0:
448,192,144056,1,0,0:0:0:0:
320,192,144601,1,0,0:0:0:0:
192,192,145010,1,0,0:0:0:0:
448,192,145283,1,0,0:0:0:0:
64,192,145828,1,0,0:0:0:0:
448,192,145965,1,0,0:0:0:0:
320,192,146101,1,0,0:0:0:0:
192,192,146237,1,0,0:0:0:0:
64,192,146510,1,0,0:0:0:0:
448,192,146919,1,0,0:0:0:0:
320,192,147192,1,0,0:0:0:0:
64,192,147465,1,0,0:0:0:0:
192,192,148419,1,0,0:0:0:0:
64,192,148828,1,0,0:0:0:0:
320,192,149237,1,0,0:0:0:0:
448,192,149510,1,0,0:0:0:0:
448,192,150056,1,0,0:0:0:0:
64,192,150601,1,0,0:0:0:0:
64,192,150874,1,0,0:0:0:0:
192,192,151146,1,0,0:0:0:0:
448,192,151283,1,0,0:0:0:0:
64,192,151692,1,0,0:0:0:0:
192,189,151965,1,0,0:0:0:0:
64,192,152510,1,0,0:0:0:0:
448,192,152783,1,0,0:0:0:0:
320,192,153328,1,0,0:0:0:0:
192,192,153737,1,0,0:0:0:0:
448,192,154010,1,0,0:0:0:0:
64,192,154556,1,0,0:0:0:0:
448,192,154692,1,0,0:0:0:0:
320,192,154828,1,0,0:0:0:0:
192,192,154965,1,0,0:0:0:0:
64,192,155237,1,0,0:0:0:0:
448,192,155646,1,0,0:0:0:0:
320,192,155919,1,0,0:0:0:0:
64,192,156192,1,0,0:0:0:0:
192,192,157146,1,0,0:0:0:0:
448,192,157283,1,0,0:0:0:0:
192,192,157419,1,0,0:0:0:0:
64,192,157692,1,0,0:0:0:0:
192,192,159328,1,0,0:0:0:0:
64,192,159601,1,0,0:0:0:0:
320,192,159874,1,0,0:0:0:0:
448,192,160010,1,0,0:0:0:0:
192,192,160146,1,0,0:0:0:0:
192,192,160692,1,0,0:0:0:0:
320,192,160965,1,0,0:0:0:0:
192,192,161101,1,0,0:0:0:0:
64,192,161237,1,0,0:0:0:0:
192,192,161510,1,0,0:0:0:0:
448,192,161646,1,0,0:0:0:0:
192,192,161783,1,0,0:0:0:0:
64,192,162056,1,0,0:0:0:0:
192,192,163692,1,0,0:0:0:0:
64,192,163965,1,0,0:0:0:0:
320,192,164237,1,0,0:0:0:0:
448,192,164374,1,0,0:0:0:0:
192,192,164510,1,0,0:0:0:0:
448,192,165056,1,0,0:0:0:0:
64,192,165328,1,0,0:0:0:0:
320,192,165465,1,0,0:0:0:0:
192,192,165601,1,0,0:0:0:0:
64,192,165737,1,0,0:0:0:0:
320,192,165874,1,0,0:0:0:0:
448,192,166010,1,0,0:0:0:0:
192,192,166146,1,0,0:0:0:0:
64,192,166419,1,0,0:0:0:0:
192,192,168056,1,0,0:0:0:0:
64,192,168328,1,0,0:0:0:0:
320,192,168601,1,0,0:0:0:0:
448,192,168737,1,0,0:0:0:0:
192,192,168874,1,0,0:0:0:0:
192,192,169419,1,0,0:0:0:0:
320,192,169692,1,0,0:0:0:0:
192,192,169828,1,0,0:0:0:0:
64,192,169965,1,0,0:0:0:0:
192,192,170237,1,0,0:0:0:0:
448,192,170374,1,0,0:0:0:0:
192,192,170510,1,0,0:0:0:0:
64,192,170783,1,0,0:0:0:0:
320,192,172419,1,0,0:0:0:0:
192,192,172692,1,0,0:0:0:0:
448,192,173101,1,0,0:0:0:0:
192,192,173374,1,0,0:0:0:0:
64,192,173646,1,0,0:0:0:0:
192,192,174601,1,0,0:0:0:0:
64,192,174601,1,0,0:0:0:0:
448,192,174737,1,0,0:0:0:0:
320,192,174874,1,0,0:0:0:0:
192,192,175010,1,0,0:0:0:0:
64,192,175010,1,0,0:0:0:0:
320,192,175078,1,0,0:0:0:0:
448,192,175146,1,0,0:0:0:0:
64,192,175283,1,0,0:0:0:0:
320,192,175419,1,0,0:0:0:0:
192,192,175419,1,0,0:0:0:0:
64,192,175556,1,0,0:0:0:0:
192,192,175624,1,0,0:0:0:0:
320,192,175692,1,0,0:0:0:0:
448,192,175692,1,0,0:0:0:0:
192,192,175828,1,0,0:0:0:0:
64,192,175965,1,0,0:0:0:0:
448,192,176101,1,0,0:0:0:0:
320,192,176101,1,0,0:0:0:0:
192,192,176237,1,0,0:0:0:0:
64,192,176374,1,0,0:0:0:0:
320,192,176510,1,0,0:0:0:0:
448,192,176510,1,0,0:0:0:0:
192,192,176646,1,0,0:0:0:0:
448,192,176783,1,0,0:0:0:0:
64,192,176783,1,0,0:0:0:0:
320,192,176919,1,0,0:0:0:0:
192,192,177056,1,0,0:0:0:0:
64,192,177192,1,0,0:0:0:0:
448,192,177192,1,0,0:0:0:0:
320,192,177328,1,0,0:0:0:0:
192,192,177465,1,0,0:0:0:0:
64,192,177601,1,0,0:0:0:0:
448,192,177601,1,0,0:0:0:0:
192,192,177737,1,0,0:0:0:0:
64,192,177874,1,0,0:0:0:0:
320,192,177874,1,0,0:0:0:0:
448,192,178010,1,0,0:0:0:0:
192,192,178146,1,0,0:0:0:0:
64,192,178283,1,0,0:0:0:0:
320,192,178283,1,0,0:0:0:0:
448,192,178351,1,0,0:0:0:0:
320,192,178419,1,0,0:0:0:0:
192,192,178487,1,0,0:0:0:0:
64,192,178556,1,0,0:0:0:0:
192,192,178624,1,0,0:0:0:0:
448,192,178692,1,0,0:0:0:0:
320,192,178692,1,0,0:0:0:0:
64,192,178828,1,0,0:0:0:0:
320,192,178965,1,0,0:0:0:0:
192,192,178965,1,0,0:0:0:0:
448,192,179101,1,0,0:0:0:0:
320,192,179237,1,0,0:0:0:0:
192,192,179374,1,0,0:0:0:0:
64,192,179374,1,0,0:0:0:0:
320,192,179442,1,0,0:0:0:0:
448,192,179510,1,0,0:0:0:0:
64,192,179646,1,0,0:0:0:0:
320,192,179783,1,0,0:0:0:0:
192,192,179783,1,0,0:0:0:0:
64,192,179919,1,0,0:0:0:0:
192,192,179987,1,0,0:0:0:0:
320,192,180056,1,0,0:0:0:0:
448,192,180056,1,0,0:0:0:0:
192,192,180192,1,0,0:0:0:0:
64,192,180328,1,0,0:0:0:0:
448,192,180465,1,0,0:0:0:0:
320,192,180465,1,0,0:0:0:0:
192,192,180601,1,0,0:0:0:0:
64,192,180737,1,0,0:0:0:0:
448,192,180874,1,0,0:0:0:0:
320,192,180874,1,0,0:0:0:0:
192,192,181010,1,0,0:0:0:0:
64,192,181146,1,0,0:0:0:0:
448,192,181146,1,0,0:0:0:0:
320,192,181283,1,0,0:0:0:0:
192,192,181419,1,0,0:0:0:0:
64,192,181556,1,0,0:0:0:0:
448,192,181556,1,0,0:0:0:0:
320,192,181692,1,0,0:0:0:0:
192,192,181828,1,0,0:0:0:0:
448,192,181965,1,0,0:0:0:0:
64,192,181965,1,0,0:0:0:0:
192,192,182101,1,0,0:0:0:0:
64,192,182237,1,0,0:0:0:0:
320,192,182237,1,0,0:0:0:0:
448,192,182374,1,0,0:0:0:0:
192,192,182510,1,0,0:0:0:0:
64,192,182646,1,0,0:0:0:0:
320,192,182646,1,0,0:0:0:0:
192,192,182715,1,0,0:0:0:0:
448,192,182783,1,0,0:0:0:0:
320,192,182851,1,0,0:0:0:0:
64,192,182919,1,0,0:0:0:0:
448,192,182987,1,0,0:0:0:0:
320,192,183056,1,0,0:0:0:0:
64,192,183056,1,0,0:0:0:0:
64,192,183192,1,0,0:0:0:0:
320,192,183328,1,0,0:0:0:0:
192,192,183328,1,0,0:0:0:0:
448,192,183465,1,0,0:0:0:0:
64,192,183601,1,0,0:0:0:0:
192,192,183737,1,0,0:0:0:0:
320,192,183737,1,0,0:0:0:0:
448,192,183806,1,0,0:0:0:0:
64,192,183874,1,0,0:0:0:0:
192,192,184010,1,0,0:0:0:0:
320,192,184146,1,0,0:0:0:0:
448,192,184146,1,0,0:0:0:0:
192,192,184283,1,0,0:0:0:0:
320,192,184351,1,0,0:0:0:0:
64,192,184419,1,0,0:0:0:0:
448,192,184419,1,0,0:0:0:0:
320,192,184556,1,0,0:0:0:0:
192,192,184692,1,0,0:0:0:0:
448,192,184828,1,0,0:0:0:0:
64,192,184828,1,0,0:0:0:0:
320,192,184965,1,0,0:0:0:0:
192,192,185101,1,0,0:0:0:0:
64,192,185237,1,0,0:0:0:0:
448,192,185237,1,0,0:0:0:0:
320,192,185374,1,0,0:0:0:0:
192,192,185510,1,0,0:0:0:0:
64,192,185510,1,0,0:0:0:0:
448,192,185646,1,0,0:0:0:0:
320,192,185783,1,0,0:0:0:0:
192,192,185919,1,0,0:0:0:0:
64,192,185919,1,0,0:0:0:0:
448,192,186056,1,0,0:0:0:0:
320,192,186192,1,0,0:0:0:0:
64,192,186328,1,0,0:0:0:0:
192,192,186328,1,0,0:0:0:0:
320,192,186465,1,0,0:0:0:0:
448,192,186601,1,0,0:0:0:0:
192,192,186601,1,0,0:0:0:0:
64,192,186737,1,0,0:0:0:0:
320,192,186874,1,0,0:0:0:0:
448,192,187010,1,0,0:0:0:0:
192,192,187010,1,0,0:0:0:0:
64,192,187078,1,0,0:0:0:0:
448,192,187146,1,0,0:0:0:0:
320,192,187215,1,0,0:0:0:0:
192,192,187283,1,0,0:0:0:0:
320,192,187351,1,0,0:0:0:0:
64,192,187419,1,0,0:0:0:0:
448,192,187419,1,0,0:0:0:0:
192,192,187556,1,0,0:0:0:0:
320,192,187692,1,0,0:0:0:0:
448,192,187692,1,0,0:0:0:0:
192,192,187828,1,0,0:0:0:0:
64,192,187965,1,0,0:0:0:0:
192,192,188101,1,0,0:0:0:0:
320,192,188101,1,0,0:0:0:0:
448,192,188169,1,0,0:0:0:0:
64,192,188237,1,0,0:0:0:0:
192,192,188374,1,0,0:0:0:0:
448,192,188510,1,0,0:0:0:0:
320,192,188510,1,0,0:0:0:0:
192,192,188646,1,0,0:0:0:0:
320,192,188715,1,0,0:0:0:0:
448,192,188783,1,0,0:0:0:0:
64,192,188783,1,0,0:0:0:0:
320,192,188919,1,0,0:0:0:0:
192,192,189056,1,0,0:0:0:0:
448,192,189192,1,0,0:0:0:0:
64,192,189192,1,0,0:0:0:0:
320,192,189328,1,0,0:0:0:0:
192,192,189465,1,0,0:0:0:0:
448,192,189601,1,0,0:0:0:0:
64,192,189601,1,0,0:0:0:0:
320,192,189737,1,0,0:0:0:0:
64,192,189874,1,0,0:0:0:0:
192,192,189874,1,0,0:0:0:0:
448,192,190010,1,0,0:0:0:0:
320,192,190146,1,0,0:0:0:0:
192,192,190283,1,0,0:0:0:0:
64,192,190283,1,0,0:0:0:0:
448,192,190419,1,0,0:0:0:0:
320,192,190556,1,0,0:0:0:0:
64,192,190692,1,0,0:0:0:0:
192,192,190692,1,0,0:0:0:0:
320,192,190828,1,0,0:0:0:0:
448,192,190965,1,0,0:0:0:0:
192,192,190965,1,0,0:0:0:0:
448,192,191237,1,0,0:0:0:0:
320,192,191237,1,0,0:0:0:0:
64,192,191374,1,0,0:0:0:0:
192,192,191510,1,0,0:0:0:0:
320,192,191578,1,0,0:0:0:0:
448,192,191646,1,0,0:0:0:0:
64,192,191715,1,0,0:0:0:0:
192,192,191783,1,0,0:0:0:0:
320,192,191851,1,0,0:0:0:0:
448,192,191919,1,0,0:0:0:0:
64,192,191987,1,0,0:0:0:0:
320,192,192056,1,0,0:0:0:0:
448,192,192056,1,0,0:0:0:0:
64,192,192192,1,0,0:0:0:0:
192,192,192260,1,0,0:0:0:0:
320,192,192328,1,0,0:0:0:0:
192,192,192465,1,0,0:0:0:0:
64,192,192533,1,0,0:0:0:0:
448,192,192601,1,0,0:0:0:0:
192,192,192737,1,0,0:0:0:0:
320,192,192806,1,0,0:0:0:0:
448,192,192874,1,0,0:0:0:0:
192,192,192942,1,0,0:0:0:0:
320,192,193010,1,0,0:0:0:0:
64,192,193146,1,0,0:0:0:0:
192,192,193215,1,0,0:0:0:0:
448,192,193283,1,0,0:0:0:0:
64,192,193419,1,0,0:0:0:0:
320,192,193556,1,0,0:0:0:0:
192,192,193692,1,0,0:0:0:0:
320,192,193760,1,0,0:0:0:0:
448,192,193828,1,0,0:0:0:0:
448,192,193965,1,0,0:0:0:0:
320,192,194101,1,0,0:0:0:0:
448,192,194237,1,0,0:0:0:0:
192,192,194374,1,0,0:0:0:0:
448,192,194442,1,0,0:0:0:0:
320,192,194510,1,0,0:0:0:0:
64,192,194578,1,0,0:0:0:0:
192,192,194646,1,0,0:0:0:0:
320,192,194715,1,0,0:0:0:0:
448,192,194783,1,0,0:0:0:0:
192,192,194919,1,0,0:0:0:0:
64,192,194987,1,0,0:0:0:0:
448,192,195056,1,0,0:0:0:0:
448,192,195192,1,0,0:0:0:0:
192,192,195328,1,0,0:0:0:0:
64,192,195465,1,0,0:0:0:0:
192,192,195601,1,0,0:0:0:0:
64,192,195737,1,0,0:0:0:0:
448,192,195874,1,0,0:0:0:0:
320,192,196010,1,0,0:0:0:0:
192,192,196078,1,0,0:0:0:0:
64,192,196146,1,0,0:0:0:0:
448,192,196283,1,0,0:0:0:0:
64,192,196419,5,0,0:0:0:0:
64,192,196556,1,0,0:0:0:0:
448,192,196692,1,0,0:0:0:0:
64,192,196828,1,0,0:0:0:0:
320,192,196896,1,0,0:0:0:0:
448,192,196965,1,0,0:0:0:0:
320,192,197101,1,0,0:0:0:0:
64,192,197169,1,0,0:0:0:0:
192,192,197237,1,0,0:0:0:0:
320,192,197306,1,0,0:0:0:0:
448,192,197374,1,0,0:0:0:0:
64,192,197510,1,0,0:0:0:0:
192,192,197578,1,0,0:0:0:0:
448,192,197646,1,0,0:0:0:0:
64,192,197783,1,0,0:0:0:0:
320,192,197919,1,0,0:0:0:0:
192,192,198056,1,0,0:0:0:0:
320,192,198124,1,0,0:0:0:0:
448,192,198192,1,0,0:0:0:0:
448,192,198328,1,0,0:0:0:0:
320,192,198465,1,0,0:0:0:0:
448,192,198601,1,0,0:0:0:0:
192,192,198737,1,0,0:0:0:0:
448,192,198806,1,0,0:0:0:0:
320,192,198874,1,0,0:0:0:0:
64,192,198942,1,0,0:0:0:0:
192,192,199010,1,0,0:0:0:0:
320,192,199078,1,0,0:0:0:0:
448,192,199146,1,0,0:0:0:0:
192,192,199283,1,0,0:0:0:0:
64,192,199351,1,0,0:0:0:0:
448,192,199419,1,0,0:0:0:0:
448,192,199556,1,0,0:0:0:0:
192,192,199692,1,0,0:0:0:0:
64,192,199828,1,0,0:0:0:0:
192,192,199965,1,0,0:0:0:0:
64,192,200101,1,0,0:0:0:0:
448,192,200237,1,0,0:0:0:0:
320,192,200306,1,0,0:0:0:0:
192,192,200374,1,0,0:0:0:0:
64,192,200442,1,0,0:0:0:0:
448,192,200510,1,0,0:0:0:0:
320,192,200578,1,0,0:0:0:0:
192,192,200646,1,0,0:0:0:0:
64,192,200715,1,0,0:0:0:0:
448,192,200783,1,0,0:0:0:0:
64,192,200919,1,0,0:0:0:0:
448,192,201056,1,0,0:0:0:0:
64,192,201192,1,0,0:0:0:0:
192,192,201260,1,0,0:0:0:0:
448,192,201328,1,0,0:0:0:0:
320,192,201465,1,0,0:0:0:0:
64,192,201533,1,0,0:0:0:0:
448,192,201601,1,0,0:0:0:0:
192,192,201669,1,0,0:0:0:0:
448,192,201737,1,0,0:0:0:0:
320,192,201874,1,0,0:0:0:0:
192,192,201942,1,0,0:0:0:0:
64,192,202010,1,0,0:0:0:0:
448,192,202146,1,0,0:0:0:0:
320,192,202283,1,0,0:0:0:0:
192,192,202351,1,0,0:0:0:0:
64,192,202419,1,0,0:0:0:0:
320,192,202487,1,0,0:0:0:0:
448,192,202556,1,0,0:0:0:0:
448,192,202692,1,0,0:0:0:0:
64,192,202828,1,0,0:0:0:0:
64,192,202965,1,0,0:0:0:0:
320,192,203101,1,0,0:0:0:0:
192,192,203169,1,0,0:0:0:0:
64,192,203237,1,0,0:0:0:0:
320,192,203306,1,0,0:0:0:0:
192,192,203374,1,0,0:0:0:0:
448,192,203510,1,0,0:0:0:0:
64,192,203646,1,0,0:0:0:0:
320,192,203715,1,0,0:0:0:0:
64,192,203783,1,0,0:0:0:0:
448,192,203919,1,0,0:0:0:0:
320,192,204056,5,0,0:0:0:0:
64,192,204192,1,0,0:0:0:0:
64,192,204328,1,0,0:0:0:0:
448,192,204465,1,0,0:0:0:0:
448,192,204601,1,0,0:0:0:0:
320,192,204669,1,0,0:0:0:0:
192,192,204737,1,0,0:0:0:0:
64,192,204806,1,0,0:0:0:0:
192,192,204874,1,0,0:0:0:0:
320,192,204942,1,0,0:0:0:0:
448,192,205010,1,0,0:0:0:0:
320,192,205078,1,0,0:0:0:0:
64,192,205146,1,0,0:0:0:0:
192,192,205146,1,0,0:0:0:0:
448,192,205283,1,0,0:0:0:0:
192,192,205419,1,0,0:0:0:0:
64,192,205419,1,0,0:0:0:0:
448,192,205556,1,0,0:0:0:0:
320,192,205624,1,0,0:0:0:0:
192,192,205692,1,0,0:0:0:0:
64,192,205692,1,0,0:0:0:0:
448,192,205828,1,0,0:0:0:0:
64,192,205965,1,0,0:0:0:0:
192,192,205965,1,0,0:0:0:0:
320,192,206033,1,0,0:0:0:0:
448,192,206101,1,0,0:0:0:0:
64,192,206237,1,0,0:0:0:0:
192,192,206237,1,0,0:0:0:0:
320,192,206306,1,0,0:0:0:0:
448,192,206374,1,0,0:0:0:0:
192,192,206510,1,0,0:0:0:0:
64,192,206510,1,0,0:0:0:0:
448,192,206646,1,0,0:0:0:0:
64,192,206783,1,0,0:0:0:0:
192,192,206783,1,0,0:0:0:0:
320,192,206919,1,0,0:0:0:0:
448,192,207056,1,0,0:0:0:0:
64,192,207056,1,0,0:0:0:0:
192,192,207192,1,0,0:0:0:0:
448,192,207328,1,0,0:0:0:0:
320,192,207328,1,0,0:0:0:0:
64,192,207465,1,0,0:0:0:0:
192,192,207465,1,0,0:0:0:0:
448,192,207601,1,0,0:0:0:0:
320,192,207601,1,0,0:0:0:0:
64,192,207737,1,0,0:0:0:0:
192,192,207737,1,0,0:0:0:0:
320,192,207874,1,0,0:0:0:0:
448,192,207874,1,0,0:0:0:0:
64,192,208010,1,0,0:0:0:0:
192,192,208010,1,0,0:0:0:0:
448,192,208146,1,0,0:0:0:0:
320,192,208146,1,0,0:0:0:0:
64,192,208283,1,0,0:0:0:0:
192,192,208283,1,0,0:0:0:0:
320,192,208419,1,0,0:0:0:0:
448,192,208419,1,0,0:0:0:0:
192,192,208487,1,0,0:0:0:0:
64,192,208556,1,0,0:0:0:0:
448,192,208624,1,0,0:0:0:0:
192,192,208692,1,0,0:0:0:0:
64,192,208692,1,0,0:0:0:0:
320,192,208760,1,0,0:0:0:0:
448,192,208828,1,0,0:0:0:0:
64,192,208896,1,0,0:0:0:0:
448,192,208965,1,0,0:0:0:0:
320,192,209033,1,0,0:0:0:0:
192,192,209101,1,0,0:0:0:0:
64,192,209169,1,0,0:0:0:0:
448,192,209237,1,0,0:0:0:0:
320,192,209306,1,0,0:0:0:0:
192,192,209374,1,0,0:0:0:0:
64,192,209442,1,0,0:0:0:0:
320,192,209510,1,0,0:0:0:0:
448,192,209510,1,0,0:0:0:0:
