osu file format v14

[General]
AudioFilename: audio.mp3
AudioLeadIn: 0
PreviewTime: 47678
Countdown: 0
SampleSet: Normal
StackLeniency: 0.7
Mode: 1
LetterboxInBreaks: 0
WidescreenStoryboard: 1

[Editor]
Bookmarks: 5330,15938,21242,26546,37154,47761,53065,58369,63673,68977,79585,90192
DistanceSpacing: 0.4
BeatDivisor: 4
GridSize: 32
TimelineZoom: 1.300001

[Metadata]
Title:Physicality
TitleUnicode:Physicality
Artist:Renard + Adraen
ArtistUnicode:Renard + Adraen
Creator:radar
Version:HEAVENLY's Kantan
Source:
Tags:chop suey! Acid Intravenous heavenly moon ginjani clockbite breakcore lapfox trax electronic instrumental system of a down soad
BeatmapID:3569266
BeatmapSetID:1719775

[Difficulty]
HPDrainRate:7
CircleSize:5
OverallDifficulty:3
ApproachRate:5
SliderMultiplier:1.4
SliderTickRate:1

[Events]
//Background and Video events
0,0,"bgbg.png",0,0
//Break Periods
//Storyboard Layer 0 (Background)
//Storyboard Layer 1 (Fail)
//Storyboard Layer 2 (Pass)
//Storyboard Layer 3 (Foreground)
//Storyboard Layer 4 (Overlay)
//Storyboard Sound Samples

[TimingPoints]
27,331.491712707182,4,1,0,80,1,0
5330,-100,4,1,0,80,0,0
15317,-100,4,1,0,80,0,0
15399,-100,4,1,0,80,0,0
15482,-100,4,1,0,80,0,0
15565,-100,4,1,0,80,0,0
15689,-100,4,1,0,100,0,0
15814,-100,4,1,0,100,0,0
15938,-100,4,1,0,100,0,1
16435,-100,4,1,0,100,0,1
18507,-100,4,1,0,100,0,1
19004,-100,4,1,0,100,0,1
21159,-100,4,1,0,100,0,1
21739,-100,4,1,0,100,0,1
23811,-100,4,1,0,100,0,1
24391,-100,4,1,0,100,0,1
26463,-100,4,1,0,80,0,1
26546,-100,4,1,0,80,0,0
26712,-100,4,1,0,80,0,0
36532,-100,4,1,0,80,0,0
36614,-100,4,1,0,80,0,0
36697,-100,4,1,0,80,0,0
36780,-100,4,1,0,80,0,0
36904,-100,4,1,0,80,0,0
37029,-100,4,1,0,90,0,0
37112,-100,4,1,0,90,0,0
37319,-100,4,1,0,90,0,0
46352,-100,4,1,0,90,0,0
46684,-100,4,1,0,90,0,0
46891,-100,4,1,0,90,0,0
46974,-100,4,1,0,90,0,0
47057,-100,4,1,0,90,0,0
47140,-100,4,1,0,90,0,0
47223,-100,4,1,0,90,0,0
47306,-100,4,1,0,90,0,0
47388,-100,4,1,0,90,0,0
47596,-100,4,1,0,100,0,0
47761,-100,4,1,0,100,0,1
48259,-100,4,1,0,100,0,1
50330,-100,4,1,0,100,0,1
50828,-100,4,1,0,100,0,1
52982,-100,4,1,0,100,0,1
53480,-100,4,1,0,100,0,1
55634,-100,4,1,0,100,0,1
56131,-100,4,1,0,100,0,1
58286,-100,4,1,0,100,0,1
58783,-100,4,1,0,100,0,1
60938,-100,4,1,0,100,0,1
61435,-100,4,1,0,100,0,1
63590,-100,4,1,0,100,0,1
64087,-100,4,1,0,100,0,1
66242,-100,4,1,0,100,0,1
66739,-100,4,1,0,100,0,1
68977,-100,4,1,0,100,0,0
69060,-100,4,1,0,80,0,0
74198,-100,4,1,0,80,0,0
74364,-100,4,1,0,80,0,0
79502,-100,4,1,0,90,0,0

[HitObjects]
256,192,27,12,0,4999,0:0:0:0:
256,192,5330,5,0,0:0:0:0:
256,192,5828,1,0,0:0:0:0:
256,192,6656,1,2,0:0:0:0:
256,192,7154,1,2,0:0:0:0:
256,192,7982,1,0,0:0:0:0:
256,192,8480,1,0,0:0:0:0:
256,192,9308,1,2,0:0:0:0:
256,192,9806,1,2,0:0:0:0:
256,192,10303,1,0,0:0:0:0:
256,192,10634,1,0,0:0:0:0:
256,192,11131,1,0,0:0:0:0:
256,192,11960,1,2,0:0:0:0:
256,192,12457,1,2,0:0:0:0:
256,192,13286,1,0,0:0:0:0:
256,192,13783,1,0,0:0:0:0:
256,192,14612,1,2,0:0:0:0:
256,192,15109,1,2,0:0:0:0:
256,192,15607,1,2,0:0:0:0:
256,192,15938,1,4,0:0:0:0:
256,192,16601,1,2,0:0:0:0:
256,192,17098,1,2,0:0:0:0:
256,192,17596,1,0,0:0:0:0:
256,192,17927,1,2,0:0:0:0:
256,192,18259,1,0,0:0:0:0:
256,192,18590,1,2,0:0:0:0:
256,192,19253,1,2,0:0:0:0:
256,192,19750,1,0,0:0:0:0:
256,192,20247,1,0,0:0:0:0:
256,192,20579,1,2,0:0:0:0:
256,192,20910,1,2,0:0:0:0:
256,192,21242,1,0,0:0:0:0:
256,192,21905,1,2,0:0:0:0:
256,192,22899,1,2,0:0:0:0:
256,192,23231,1,0,0:0:0:0:
256,192,23562,1,0,0:0:0:0:
256,192,23894,1,2,0:0:0:0:
256,192,24557,1,2,0:0:0:0:
256,192,25054,1,0,0:0:0:0:
256,192,25551,1,0,0:0:0:0:
256,192,25883,1,2,0:0:0:0:
256,192,26546,1,0,0:0:0:0:
256,192,27043,1,0,0:0:0:0:
256,192,27872,1,2,0:0:0:0:
256,192,28369,1,2,0:0:0:0:
256,192,29198,1,0,0:0:0:0:
256,192,29695,1,0,0:0:0:0:
256,192,30524,1,2,0:0:0:0:
256,192,31021,1,2,0:0:0:0:
256,192,31518,1,0,0:0:0:0:
256,192,31850,1,0,0:0:0:0:
256,192,32347,1,0,0:0:0:0:
256,192,33176,1,2,0:0:0:0:
256,192,33673,1,2,0:0:0:0:
256,192,34502,1,0,0:0:0:0:
256,192,34999,1,0,0:0:0:0:
256,192,35828,1,2,0:0:0:0:
256,192,36325,1,2,0:0:0:0:
256,192,36822,1,2,0:0:0:0:
256,192,37154,1,0,0:0:0:0:
256,192,37734,1,0,0:0:0:0:
256,192,38480,1,2,0:0:0:0:
256,192,39060,1,2,0:0:0:0:
256,192,39806,1,0,0:0:0:0:
256,192,40386,1,0,0:0:0:0:
256,192,41131,1,2,0:0:0:0:
256,192,41712,1,2,0:0:0:0:
256,192,42126,1,0,0:0:0:0:
256,192,42457,1,0,0:0:0:0:
256,192,43038,1,0,0:0:0:0:
256,192,43783,1,2,0:0:0:0:
256,192,44364,1,2,0:0:0:0:
256,192,45109,1,0,0:0:0:0:
256,192,46435,1,2,0:0:0:0:
256,192,47098,1,2,0:0:0:0:
256,192,47430,1,2,0:0:0:0:
256,192,47761,1,4,0:0:0:0:
256,192,48424,1,2,0:0:0:0:
256,192,49087,1,0,0:0:0:0:
256,192,49419,1,2,0:0:0:0:
256,192,49750,1,0,0:0:0:0:
256,192,50413,1,2,0:0:0:0:
256,192,51076,1,0,0:0:0:0:
256,192,51739,1,2,0:0:0:0:
256,192,52071,1,2,0:0:0:0:
256,192,52402,1,2,0:0:0:0:
256,192,52734,1,0,0:0:0:0:
256,192,53065,1,2,0:0:0:0:
256,192,54391,1,2,0:0:0:0:
256,192,55054,1,0,0:0:0:0:
256,192,55386,1,0,0:0:0:0:
256,192,55717,1,2,0:0:0:0:
256,192,56380,1,0,0:0:0:0:
256,192,57043,1,2,0:0:0:0:
256,192,57375,1,2,0:0:0:0:
256,192,57706,1,0,0:0:0:0:
256,192,58038,1,2,0:0:0:0:
256,192,58369,1,4,0:0:0:0:
256,192,59695,1,2,0:0:0:0:
256,192,60026,1,2,0:0:0:0:
256,192,60358,1,0,0:0:0:0:
256,192,61021,1,2,0:0:0:0:
256,192,61684,1,0,0:0:0:0:
256,192,62347,1,2,0:0:0:0:
256,192,62678,1,0,0:0:0:0:
256,192,63010,1,2,0:0:0:0:
256,192,63341,1,2,0:0:0:0:
256,192,63673,1,2,0:0:0:0:
256,192,64999,1,2,0:0:0:0:
256,192,65662,1,0,0:0:0:0:
256,192,65993,1,0,0:0:0:0:
256,192,66325,1,2,0:0:0:0:
256,192,66988,1,0,0:0:0:0:
256,192,67651,1,2,0:0:0:0:
256,192,67982,1,2,0:0:0:0:
256,192,68314,1,0,0:0:0:0:
256,192,68645,1,2,0:0:0:0:
256,192,68977,1,4,0:0:0:0:
256,192,69474,1,0,0:0:0:0:
256,192,70303,1,2,0:0:0:0:
256,192,70800,1,2,0:0:0:0:
256,192,71629,1,0,0:0:0:0:
256,192,72126,1,0,0:0:0:0:
256,192,72955,1,2,0:0:0:0:
256,192,73452,1,2,0:0:0:0:
256,192,73949,1,0,0:0:0:0:
256,192,74281,1,4,0:0:0:0:
256,192,74778,1,0,0:0:0:0:
256,192,75607,1,2,0:0:0:0:
256,192,76104,1,2,0:0:0:0:
256,192,76933,1,0,0:0:0:0:
256,192,77430,1,0,0:0:0:0:
256,192,78259,1,2,0:0:0:0:
256,192,79585,1,0,0:0:0:0:
256,192,80082,1,2,0:0:0:0:
256,192,80579,1,0,0:0:0:0:
256,192,80910,1,2,0:0:0:0:
256,192,81408,1,2,0:0:0:0:
256,192,81905,1,0,0:0:0:0:
256,192,82236,1,0,0:0:0:0:
256,192,82734,1,2,0:0:0:0:
256,192,83231,1,0,0:0:0:0:
256,192,83562,1,2,0:0:0:0:
256,192,84060,1,2,0:0:0:0:
256,192,84557,1,0,0:0:0:0:
256,192,84888,1,0,0:0:0:0:
256,192,86214,1,2,0:0:0:0:
256,192,86712,1,2,0:0:0:0:
256,192,87209,1,0,0:0:0:0:
256,192,87540,1,0,0:0:0:0:
256,192,88038,1,2,0:0:0:0:
256,192,88535,1,0,0:0:0:0:
256,192,88866,1,2,0:0:0:0:
256,192,89364,1,0,0:0:0:0:
256,192,89861,1,2,0:0:0:0:
256,192,90192,1,0,0:0:0:0:
256,192,90524,12,0,95330,0:0:0:0:
