osu file format v14

[General]
AudioFilename: audio.mp3
AudioLeadIn: 0
PreviewTime: 47433
Countdown: 0
SampleSet: Normal
StackLeniency: 0.7
Mode: 1
LetterboxInBreaks: 0
WidescreenStoryboard: 0

[Editor]
DistanceSpacing: 0.8
BeatDivisor: 4
GridSize: 32
TimelineZoom: 2.6

[Metadata]
Title:Physicality
TitleUnicode:Physicality
Artist:Renard + Adraen
ArtistUnicode:Renard + Adraen
Creator:Surono
Version:Muzukashii
Source:
Tags:lapfox trax vulpvibe records acid intravenous electronic breakcore system of a down
BeatmapID:1432877
BeatmapSetID:601403

[Difficulty]
HPDrainRate:6
CircleSize:2
OverallDifficulty:5
ApproachRate:10
SliderMultiplier:1.4
SliderTickRate:1

[Events]
//Background and Video events
0,0,"fox stupud.jpg",0,0
//Break Periods
//Storyboard Layer 0 (Background)
//Storyboard Layer 1 (Fail)
//Storyboard Layer 2 (Pass)
//Storyboard Layer 3 (Foreground)
//Storyboard Sound Samples

[TimingPoints]
115,218.181818181818,4,1,0,45,1,0
115,-151.515151515152,4,1,0,45,0,0
5339,331.455087835598,4,1,0,90,1,0
47765,-100,4,1,0,90,0,1
68978,-100,4,1,0,90,0,0
90191,218.181818181818,4,1,0,45,1,0
90191,-151.515151515152,4,1,0,45,0,0

[HitObjects]
256,192,115,12,0,5133,0:0:0:0:
256,192,5339,5,0,0:0:0:0:
256,192,5504,1,0,0:0:0:0:
256,192,5670,1,8,0:0:0:0:
256,192,5836,1,0,0:0:0:0:
256,192,6001,1,0,0:0:0:0:
256,192,6333,1,8,0:0:0:0:
256,192,6664,1,8,0:0:0:0:
256,192,6830,1,8,0:0:0:0:
256,192,6996,1,0,0:0:0:0:
256,192,7162,1,8,0:0:0:0:
256,192,7327,1,8,0:0:0:0:
256,192,7659,1,0,0:0:0:0:
256,192,7990,5,0,0:0:0:0:
256,192,8156,1,0,0:0:0:0:
256,192,8322,1,8,0:0:0:0:
256,192,8487,1,0,0:0:0:0:
256,192,8653,1,0,0:0:0:0:
256,192,8985,1,8,0:0:0:0:
256,192,9316,1,8,0:0:0:0:
256,192,9482,1,8,0:0:0:0:
256,192,9647,1,0,0:0:0:0:
256,192,9813,1,8,0:0:0:0:
256,192,9979,1,8,0:0:0:0:
256,192,10310,1,8,0:0:0:0:
256,192,10476,1,8,0:0:0:0:
256,192,10642,5,0,0:0:0:0:
256,192,10808,1,0,0:0:0:0:
256,192,10973,1,8,0:0:0:0:
256,192,11139,1,0,0:0:0:0:
256,192,11305,1,0,0:0:0:0:
256,192,11636,1,8,0:0:0:0:
256,192,11968,1,8,0:0:0:0:
256,192,12133,1,8,0:0:0:0:
256,192,12299,1,0,0:0:0:0:
256,192,12465,1,8,0:0:0:0:
256,192,12631,1,8,0:0:0:0:
256,192,12962,1,0,0:0:0:0:
256,192,13293,5,0,0:0:0:0:
256,192,13459,1,0,0:0:0:0:
256,192,13625,1,8,0:0:0:0:
256,192,13791,1,0,0:0:0:0:
256,192,13956,1,0,0:0:0:0:
256,192,14288,1,8,0:0:0:0:
256,192,14619,1,8,0:0:0:0:
256,192,14785,1,8,0:0:0:0:
256,192,14951,1,0,0:0:0:0:
256,192,15116,1,8,0:0:0:0:
256,192,15282,1,8,0:0:0:0:
256,192,15614,1,8,0:0:0:0:
256,192,15779,1,8,0:0:0:0:
256,192,15945,1,4,0:0:0:0:
256,192,16277,1,4,0:0:0:0:
256,192,16608,1,8,0:0:0:0:
256,192,16939,1,0,0:0:0:0:
256,192,17105,1,8,0:0:0:0:
256,192,17271,1,0,0:0:0:0:
256,192,17437,1,0,0:0:0:0:
256,192,17519,1,0,0:0:0:0:
256,192,17602,1,0,0:0:0:0:
256,192,17934,1,8,0:0:0:0:
256,192,18100,1,0,0:0:0:0:
256,192,18265,1,8,0:0:0:0:
256,192,18431,1,8,0:0:0:0:
256,192,18597,1,4,0:0:0:0:
256,192,18928,1,0,0:0:0:0:
256,192,19094,1,0,0:0:0:0:
256,192,19260,1,8,0:0:0:0:
256,192,19591,1,0,0:0:0:0:
256,192,19757,1,8,0:0:0:0:
256,192,19923,1,0,0:0:0:0:
256,192,20088,1,8,0:0:0:0:
256,192,20254,1,0,0:0:0:0:
256,192,20585,1,8,0:0:0:0:
256,192,20751,1,0,0:0:0:0:
256,192,20834,1,0,0:0:0:0:
256,192,20917,1,0,0:0:0:0:
256,192,21083,1,8,0:0:0:0:
256,192,21248,1,4,0:0:0:0:
256,192,21580,1,4,0:0:0:0:
256,192,21911,1,8,0:0:0:0:
256,192,22243,1,0,0:0:0:0:
256,192,22408,1,8,0:0:0:0:
256,192,22574,1,0,0:0:0:0:
256,192,22740,1,0,0:0:0:0:
256,192,22823,1,0,0:0:0:0:
256,192,22906,1,0,0:0:0:0:
256,192,23237,1,8,0:0:0:0:
256,192,23403,1,0,0:0:0:0:
256,192,23569,1,8,0:0:0:0:
256,192,23734,1,8,0:0:0:0:
256,192,23900,1,4,0:0:0:0:
256,192,24231,1,0,0:0:0:0:
256,192,24397,1,0,0:0:0:0:
256,192,24563,1,8,0:0:0:0:
256,192,24894,1,0,0:0:0:0:
256,192,25060,1,8,0:0:0:0:
256,192,25226,1,0,0:0:0:0:
256,192,25392,1,8,0:0:0:0:
256,192,25557,1,0,0:0:0:0:
256,192,25889,1,8,0:0:0:0:
256,192,26054,1,0,0:0:0:0:
256,192,26137,1,0,0:0:0:0:
256,192,26220,1,0,0:0:0:0:
256,192,26386,1,8,0:0:0:0:
256,192,26552,5,0,0:0:0:0:
256,192,26717,1,0,0:0:0:0:
256,192,26883,1,8,0:0:0:0:
256,192,27049,1,8,0:0:0:0:
256,192,27215,1,0,0:0:0:0:
256,192,27546,1,8,0:0:0:0:
256,192,27877,1,8,0:0:0:0:
256,192,28043,1,8,0:0:0:0:
256,192,28209,1,0,0:0:0:0:
256,192,28375,1,0,0:0:0:0:
256,192,28540,1,8,0:0:0:0:
256,192,28872,1,0,0:0:0:0:
256,192,29203,5,0,0:0:0:0:
256,192,29369,1,0,0:0:0:0:
256,192,29535,1,8,0:0:0:0:
256,192,29700,1,8,0:0:0:0:
256,192,29866,1,0,0:0:0:0:
256,192,30198,1,8,0:0:0:0:
256,192,30529,1,8,0:0:0:0:
256,192,30695,1,8,0:0:0:0:
256,192,30861,1,0,0:0:0:0:
256,192,31026,1,0,0:0:0:0:
256,192,31192,1,8,0:0:0:0:
256,192,31523,1,8,0:0:0:0:
256,192,31689,1,8,0:0:0:0:
256,192,31855,5,0,0:0:0:0:
256,192,32021,1,0,0:0:0:0:
256,192,32186,1,8,0:0:0:0:
256,192,32352,1,8,0:0:0:0:
256,192,32518,1,0,0:0:0:0:
256,192,32849,1,8,0:0:0:0:
256,192,33181,1,8,0:0:0:0:
256,192,33346,1,8,0:0:0:0:
256,192,33512,1,0,0:0:0:0:
256,192,33678,1,0,0:0:0:0:
256,192,33844,1,8,0:0:0:0:
256,192,34175,1,0,0:0:0:0:
256,192,34507,5,0,0:0:0:0:
256,192,34672,1,0,0:0:0:0:
256,192,34838,1,8,0:0:0:0:
256,192,35004,1,8,0:0:0:0:
256,192,35169,1,0,0:0:0:0:
256,192,35501,1,8,0:0:0:0:
256,192,35832,1,8,0:0:0:0:
256,192,35998,1,8,0:0:0:0:
256,192,36164,1,0,0:0:0:0:
256,192,36330,1,0,0:0:0:0:
256,192,36495,1,8,0:0:0:0:
256,192,36827,1,8,0:0:0:0:
256,192,37158,1,4,0:0:0:0:
256,192,37490,1,8,0:0:0:0:
256,192,37738,1,4,0:0:0:0:
256,192,38153,1,8,0:0:0:0:
256,192,38484,1,12,0:0:0:0:
256,192,38815,1,0,0:0:0:0:
256,192,39064,1,12,0:0:0:0:
256,192,39478,1,8,0:0:0:0:
256,192,39644,1,0,0:0:0:0:
256,192,39810,1,4,0:0:0:0:
256,192,40141,1,8,0:0:0:0:
256,192,40390,1,4,0:0:0:0:
256,192,40804,1,8,0:0:0:0:
256,192,41136,1,12,0:0:0:0:
256,192,41467,1,0,0:0:0:0:
256,192,41716,1,12,0:0:0:0:
256,192,42130,1,8,0:0:0:0:
256,192,42296,1,8,0:0:0:0:
256,192,42461,1,4,0:0:0:0:
256,192,42793,1,8,0:0:0:0:
256,192,43042,1,4,0:0:0:0:
256,192,43456,1,8,0:0:0:0:
256,192,43787,1,12,0:0:0:0:
256,192,44119,1,0,0:0:0:0:
256,192,44367,1,12,0:0:0:0:
256,192,44782,1,8,0:0:0:0:
256,192,44947,1,0,0:0:0:0:
256,192,45113,1,4,0:0:0:0:
256,192,45445,1,8,0:0:0:0:
256,192,45693,1,4,0:0:0:0:
256,192,46107,1,8,0:0:0:0:
256,192,46439,1,12,0:0:0:0:
256,192,46770,1,8,0:0:0:0:
256,192,46936,1,0,0:0:0:0:
256,192,47102,1,8,0:0:0:0:
256,192,47268,1,0,0:0:0:0:
256,192,47433,1,8,0:0:0:0:
256,192,47765,1,4,0:0:0:0:
256,192,48096,1,4,0:0:0:0:
256,192,48428,1,8,0:0:0:0:
256,192,48593,1,0,0:0:0:0:
256,192,48759,1,0,0:0:0:0:
256,192,48925,1,8,0:0:0:0:
256,192,49091,1,0,0:0:0:0:
256,192,49422,1,0,0:0:0:0:
256,192,49588,1,0,0:0:0:0:
256,192,49753,1,8,0:0:0:0:
256,192,49919,1,0,0:0:0:0:
256,192,50085,1,8,0:0:0:0:
256,192,50251,1,8,0:0:0:0:
256,192,50416,1,4,0:0:0:0:
256,192,50748,1,8,0:0:0:0:
256,192,50914,1,8,0:0:0:0:
256,192,50996,1,8,0:0:0:0:
256,192,51079,1,8,0:0:0:0:
256,192,51245,1,0,0:0:0:0:
256,192,51411,1,0,0:0:0:0:
256,192,51742,1,0,0:0:0:0:
256,192,51908,1,0,0:0:0:0:
256,192,52074,1,8,0:0:0:0:
256,192,52405,1,8,0:0:0:0:
256,192,52571,1,0,0:0:0:0:
256,192,52654,1,0,0:0:0:0:
256,192,52737,1,0,0:0:0:0:
256,192,52902,1,8,0:0:0:0:
256,192,53068,1,4,0:0:0:0:
256,192,53399,1,4,0:0:0:0:
256,192,53731,1,8,0:0:0:0:
256,192,54062,1,0,0:0:0:0:
256,192,54228,1,8,0:0:0:0:
256,192,54394,1,0,0:0:0:0:
256,192,54725,1,0,0:0:0:0:
256,192,54891,1,0,0:0:0:0:
256,192,55057,1,8,0:0:0:0:
256,192,55222,1,0,0:0:0:0:
256,192,55388,1,8,0:0:0:0:
256,192,55554,1,8,0:0:0:0:
256,192,55720,1,4,0:0:0:0:
256,192,56051,1,8,0:0:0:0:
256,192,56217,1,8,0:0:0:0:
256,192,56300,1,8,0:0:0:0:
256,192,56383,1,8,0:0:0:0:
256,192,56548,1,0,0:0:0:0:
256,192,56714,1,0,0:0:0:0:
256,192,57045,1,0,0:0:0:0:
256,192,57211,1,0,0:0:0:0:
256,192,57377,1,8,0:0:0:0:
256,192,57708,1,8,0:0:0:0:
256,192,57874,1,0,0:0:0:0:
256,192,57957,1,0,0:0:0:0:
256,192,58040,1,0,0:0:0:0:
256,192,58206,1,8,0:0:0:0:
256,192,58371,1,4,0:0:0:0:
256,192,58703,1,4,0:0:0:0:
256,192,59034,1,8,0:0:0:0:
256,192,59200,1,0,0:0:0:0:
256,192,59366,1,8,0:0:0:0:
256,192,59531,1,8,0:0:0:0:
256,192,59697,1,0,0:0:0:0:
256,192,60029,1,0,0:0:0:0:
256,192,60111,1,0,0:0:0:0:
256,192,60194,1,0,0:0:0:0:
256,192,60360,1,8,0:0:0:0:
256,192,60526,1,0,0:0:0:0:
256,192,60691,1,8,0:0:0:0:
256,192,60857,1,8,0:0:0:0:
256,192,61023,1,4,0:0:0:0:
256,192,61354,1,8,0:0:0:0:
256,192,61520,1,8,0:0:0:0:
256,192,61603,1,8,0:0:0:0:
256,192,61686,1,8,0:0:0:0:
256,192,61852,1,0,0:0:0:0:
256,192,62017,1,8,0:0:0:0:
256,192,62349,1,0,0:0:0:0:
256,192,62515,1,8,0:0:0:0:
256,192,62680,1,8,0:0:0:0:
256,192,63012,1,8,0:0:0:0:
256,192,63177,1,0,0:0:0:0:
256,192,63260,1,0,0:0:0:0:
256,192,63343,1,0,0:0:0:0:
256,192,63509,1,8,0:0:0:0:
256,192,63675,1,4,0:0:0:0:
256,192,64006,1,4,0:0:0:0:
256,192,64338,1,8,0:0:0:0:
256,192,64503,1,0,0:0:0:0:
256,192,64669,1,8,0:0:0:0:
256,192,64835,1,8,0:0:0:0:
256,192,65000,1,0,0:0:0:0:
256,192,65332,1,0,0:0:0:0:
256,192,65415,1,0,0:0:0:0:
256,192,65498,1,0,0:0:0:0:
256,192,65663,1,8,0:0:0:0:
256,192,65829,1,0,0:0:0:0:
256,192,65995,1,8,0:0:0:0:
256,192,66161,1,8,0:0:0:0:
256,192,66326,1,4,0:0:0:0:
256,192,66658,1,8,0:0:0:0:
256,192,66823,1,8,0:0:0:0:
256,192,66906,1,8,0:0:0:0:
256,192,66989,1,8,0:0:0:0:
256,192,67155,1,0,0:0:0:0:
256,192,67321,1,8,0:0:0:0:
256,192,67652,1,0,0:0:0:0:
256,192,67818,1,8,0:0:0:0:
256,192,67984,1,8,0:0:0:0:
256,192,68315,1,8,0:0:0:0:
256,192,68481,1,0,0:0:0:0:
256,192,68564,1,0,0:0:0:0:
256,192,68646,1,0,0:0:0:0:
256,192,68812,1,8,0:0:0:0:
256,192,68978,5,4,0:0:0:0:
256,192,69475,1,0,0:0:0:0:
256,192,70304,1,8,0:0:0:0:
256,192,70801,1,8,0:0:0:0:
256,192,71630,1,0,0:0:0:0:
256,192,72127,1,0,0:0:0:0:
256,192,72955,1,8,0:0:0:0:
256,192,73453,1,8,0:0:0:0:
256,192,73950,1,8,0:0:0:0:
256,192,74281,1,4,0:0:0:0:
256,192,74778,2,4,L|128:128,1,140
256,192,75607,1,8,0:0:0:0:
256,192,76104,2,0,L|128:96,1,140
256,192,76933,1,0,0:0:0:0:
256,192,77430,2,4,L|128:96,1,140
256,192,78259,1,8,0:0:0:0:
256,192,78756,2,8,L|128:128,1,140
256,192,79253,1,8,0:0:0:0:
256,192,79584,5,0,0:0:0:0:
256,192,79750,1,0,0:0:0:0:
256,192,79916,1,8,0:0:0:0:
256,192,80082,1,8,0:0:0:0:
256,192,80247,1,0,0:0:0:0:
256,192,80579,1,8,0:0:0:0:
256,192,80745,1,0,0:0:0:0:
256,192,80910,1,8,0:0:0:0:
256,192,81076,1,8,0:0:0:0:
256,192,81242,1,0,0:0:0:0:
256,192,81407,1,0,0:0:0:0:
256,192,81573,1,8,0:0:0:0:
256,192,81905,1,0,0:0:0:0:
256,192,82070,1,8,0:0:0:0:
256,192,82236,5,0,0:0:0:0:
256,192,82402,1,0,0:0:0:0:
256,192,82568,1,8,0:0:0:0:
256,192,82733,1,8,0:0:0:0:
256,192,82899,1,0,0:0:0:0:
256,192,83230,1,8,0:0:0:0:
256,192,83396,1,0,0:0:0:0:
256,192,83562,1,8,0:0:0:0:
256,192,83728,1,8,0:0:0:0:
256,192,83893,1,0,0:0:0:0:
256,192,84059,1,0,0:0:0:0:
256,192,84225,1,8,0:0:0:0:
256,192,84556,1,8,0:0:0:0:
256,192,84722,1,8,0:0:0:0:
256,192,84888,5,0,0:0:0:0:
256,192,84971,1,0,0:0:0:0:
256,192,85053,1,0,0:0:0:0:
256,192,85219,1,8,0:0:0:0:
256,192,85385,1,8,0:0:0:0:
256,192,85551,1,0,0:0:0:0:
256,192,85882,1,8,0:0:0:0:
256,192,86048,1,0,0:0:0:0:
256,192,86214,1,8,0:0:0:0:
256,192,86379,1,8,0:0:0:0:
256,192,86545,1,0,0:0:0:0:
256,192,86711,1,0,0:0:0:0:
256,192,86876,1,8,0:0:0:0:
256,192,87208,1,0,0:0:0:0:
256,192,87374,1,8,0:0:0:0:
256,192,87539,5,0,0:0:0:0:
256,192,87705,1,0,0:0:0:0:
256,192,87871,1,8,0:0:0:0:
256,192,88037,1,8,0:0:0:0:
256,192,88202,1,0,0:0:0:0:
256,192,88534,1,8,0:0:0:0:
256,192,88699,1,0,0:0:0:0:
256,192,88865,1,8,0:0:0:0:
256,192,89031,1,8,0:0:0:0:
256,192,89197,1,0,0:0:0:0:
256,192,89362,1,0,0:0:0:0:
256,192,89528,1,8,0:0:0:0:
256,192,89860,1,8,0:0:0:0:
256,192,90025,1,8,0:0:0:0:
256,192,90191,12,0,95427,0:0:0:0:
