osu file format v14

[General]
AudioFilename: audio.mp3
AudioLeadIn: 0
PreviewTime: 47433
Countdown: 0
SampleSet: Soft
StackLeniency: 0.7
Mode: 3
LetterboxInBreaks: 0
SpecialStyle: 0
WidescreenStoryboard: 1

[Editor]
DistanceSpacing: 0.8
BeatDivisor: 2
GridSize: 32
TimelineZoom: 2.6

[Metadata]
Title:Physicality
TitleUnicode:Physicality
Artist:Renard + Adraen
ArtistUnicode:Renard + Adraen
Creator:Surono
Version:Easy
Source:
Tags:lapfox trax vulpvibe records acid intravenous electronic breakcore system of a down
BeatmapID:1433236
BeatmapSetID:601403

[Difficulty]
HPDrainRate:6.5
CircleSize:4
OverallDifficulty:6.5
ApproachRate:9
SliderMultiplier:1.4
SliderTickRate:1

[Events]
//Background and Video events
0,0,"fox stupud.jpg",0,0
//Break Periods
//Storyboard Layer 0 (Background)
//Storyboard Layer 1 (Fail)
//Storyboard Layer 2 (Pass)
//Storyboard Layer 3 (Foreground)
//Storyboard Sound Samples

[TimingPoints]
115,218.181818181818,4,2,0,50,1,0
115,-151.515151515152,4,2,0,50,0,0
5339,331.455087835598,4,1,1,50,1,0
15614,-100,4,2,1,35,0,0
26552,-100,4,1,1,50,0,0
36827,-100,4,2,1,35,0,0
47765,-100,4,2,1,35,0,1
68978,-100,4,1,1,50,0,0
90191,218.181818181818,4,2,0,50,1,0
90191,-151.515151515152,4,2,0,50,0,0

[HitObjects]
64,192,115,128,0,551:0:0:0:0:
192,192,551,128,0,987:0:0:0:0:
320,192,987,128,0,1424:0:0:0:0:
448,192,1424,128,0,1860:0:0:0:0:
64,192,1860,128,0,2296:0:0:0:0:
192,192,2296,128,0,2733:0:0:0:0:
448,192,2733,128,0,3169:0:0:0:0:
320,192,3169,128,0,3605:0:0:0:0:
64,192,3605,128,0,4042:0:0:0:0:
192,192,4042,128,0,4478:0:0:0:0:
320,192,4478,128,0,4914:0:0:0:0:
192,192,4914,128,0,5339:0:0:0:0:
448,192,5339,128,0,5670:0:0:0:0:
320,192,5670,1,0,0:0:0:0:
64,192,5836,128,0,6167:0:0:0:0:
192,192,6167,1,0,0:0:0:0:
448,192,6333,1,0,0:0:0:0:
320,192,6664,128,0,6996:0:0:0:0:
448,192,6996,1,0,0:0:0:0:
192,192,7162,128,0,7493:0:0:0:0:
64,192,7493,1,0,0:0:0:0:
320,192,7659,1,0,0:0:0:0:
448,192,7990,128,0,8322:0:0:0:0:
320,192,8322,1,0,0:0:0:0:
64,192,8487,128,0,8819:0:0:0:0:
192,192,8819,1,0,0:0:0:0:
448,192,8985,1,0,0:0:0:0:
320,192,9316,128,0,9647:0:0:0:0:
448,192,9647,1,0,0:0:0:0:
192,192,9813,128,0,10145:0:0:0:0:
64,192,10145,1,0,0:0:0:0:
320,192,10310,1,0,0:0:0:0:
448,192,10476,1,0,0:0:0:0:
64,192,10642,128,0,10973:0:0:0:0:
192,192,10973,1,0,0:0:0:0:
448,192,11139,128,0,11470:0:0:0:0:
320,192,11470,1,0,0:0:0:0:
64,192,11636,1,0,0:0:0:0:
192,192,11968,128,0,12299:0:0:0:0:
64,192,12299,1,0,0:0:0:0:
320,192,12465,128,0,12796:0:0:0:0:
448,192,12796,1,0,0:0:0:0:
192,192,12962,1,0,0:0:0:0:
64,192,13293,128,0,13625:0:0:0:0:
192,192,13625,1,0,0:0:0:0:
448,192,13791,128,0,14122:0:0:0:0:
320,192,14122,1,0,0:0:0:0:
64,192,14288,1,0,0:0:0:0:
192,192,14619,128,0,14951:0:0:0:0:
64,192,14951,1,0,0:0:0:0:
320,192,15116,128,0,15448:0:0:0:0:
448,192,15448,1,0,0:0:0:0:
64,192,15614,1,0,0:0:0:0:
192,192,15614,1,8,0:0:0:0:
320,192,15945,1,0,0:0:0:0:
192,192,16277,1,0,0:0:0:0:
448,192,16608,1,8,0:0:0:0:
320,192,16608,1,8,0:0:0:0:
320,192,17105,1,8,0:0:0:0:
64,192,17105,1,8,0:0:0:0:
192,192,17271,1,0,0:0:0:0:
320,192,17602,1,0,0:0:0:0:
192,192,17934,1,8,0:0:0:0:
448,192,17934,1,8,0:0:0:0:
192,192,18265,1,8,0:0:0:0:
64,192,18265,1,8,0:0:0:0:
320,192,18431,1,8,0:0:0:0:
448,192,18431,1,8,0:0:0:0:
64,192,18597,1,0,0:0:0:0:
448,192,18928,1,0,0:0:0:0:
64,192,19260,1,8,0:0:0:0:
192,192,19260,1,8,0:0:0:0:
448,192,19757,1,8,0:0:0:0:
320,192,19757,1,8,0:0:0:0:
64,192,19923,1,0,0:0:0:0:
448,192,20254,1,0,0:0:0:0:
192,192,20585,1,8,0:0:0:0:
320,192,20585,1,8,0:0:0:0:
64,192,20917,1,0,0:0:0:0:
320,192,21083,1,8,0:0:0:0:
448,192,21083,1,8,0:0:0:0:
192,192,21248,1,0,0:0:0:0:
320,192,21580,1,0,0:0:0:0:
192,192,21911,1,8,0:0:0:0:
64,192,21911,1,8,0:0:0:0:
192,192,22408,1,8,0:0:0:0:
448,192,22408,1,8,0:0:0:0:
320,192,22574,1,0,0:0:0:0:
192,192,22906,1,0,0:0:0:0:
320,192,23237,1,8,0:0:0:0:
64,192,23237,1,8,0:0:0:0:
448,192,23569,1,8,0:0:0:0:
320,192,23569,1,8,0:0:0:0:
192,192,23734,1,8,0:0:0:0:
64,192,23734,1,8,0:0:0:0:
448,192,23900,1,0,0:0:0:0:
64,192,24231,1,0,0:0:0:0:
320,192,24563,1,8,0:0:0:0:
448,192,24563,1,8,0:0:0:0:
192,192,25060,1,8,0:0:0:0:
64,192,25060,1,8,0:0:0:0:
448,192,25226,1,0,0:0:0:0:
64,192,25557,1,0,0:0:0:0:
320,192,25889,1,8,0:0:0:0:
192,192,25889,1,8,0:0:0:0:
448,192,26220,1,0,0:0:0:0:
192,192,26386,1,8,0:0:0:0:
64,192,26386,1,8,0:0:0:0:
448,192,26552,128,0,26883:0:0:0:0:
192,192,26883,1,0,0:0:0:0:
64,192,27049,128,0,27380:0:0:0:0:
320,192,27380,1,0,0:0:0:0:
448,192,27546,1,0,0:0:0:0:
320,192,27877,128,0,28209:0:0:0:0:
64,192,28209,1,0,0:0:0:0:
192,192,28375,128,0,28706:0:0:0:0:
448,192,28706,1,0,0:0:0:0:
64,192,28872,1,0,0:0:0:0:
448,192,29203,128,0,29535:0:0:0:0:
192,192,29535,1,0,0:0:0:0:
64,192,29700,128,0,30032:0:0:0:0:
320,192,30032,1,0,0:0:0:0:
448,192,30198,1,0,0:0:0:0:
320,192,30529,128,0,30861:0:0:0:0:
64,192,30861,1,0,0:0:0:0:
192,192,31026,128,0,31358:0:0:0:0:
448,192,31358,1,0,0:0:0:0:
192,192,31523,1,0,0:0:0:0:
320,192,31689,1,0,0:0:0:0:
64,192,31855,128,0,32186:0:0:0:0:
320,192,32186,1,0,0:0:0:0:
448,192,32352,128,0,32684:0:0:0:0:
192,192,32684,1,0,0:0:0:0:
64,192,32849,1,0,0:0:0:0:
192,192,33181,128,0,33512:0:0:0:0:
448,192,33512,1,0,0:0:0:0:
320,192,33678,128,0,34009:0:0:0:0:
64,192,34009,1,0,0:0:0:0:
448,192,34175,1,0,0:0:0:0:
64,192,34507,128,0,34838:0:0:0:0:
320,192,34838,1,0,0:0:0:0:
448,192,35004,128,0,35335:0:0:0:0:
192,192,35335,1,0,0:0:0:0:
64,192,35501,1,0,0:0:0:0:
192,192,35832,128,0,36164:0:0:0:0:
448,192,36164,1,0,0:0:0:0:
320,192,36330,128,0,36661:0:0:0:0:
64,192,36661,1,0,0:0:0:0:
320,192,36827,1,8,0:0:0:0:
192,192,36827,1,8,0:0:0:0:
64,192,37158,1,0,0:0:0:0:
320,192,37490,1,8,0:0:0:0:
448,192,37490,1,8,0:0:0:0:
192,192,37738,1,0,0:0:0:0:
320,192,38153,1,8,0:0:0:0:
64,192,38153,1,8,0:0:0:0:
448,192,38484,1,0,0:0:0:0:
192,192,38815,1,8,0:0:0:0:
64,192,38815,1,8,0:0:0:0:
320,192,39064,1,0,0:0:0:0:
192,192,39478,1,8,0:0:0:0:
448,192,39478,1,8,0:0:0:0:
64,192,39810,1,0,0:0:0:0:
448,192,40141,1,8,0:0:0:0:
320,192,40141,1,8,0:0:0:0:
192,192,40390,1,0,0:0:0:0:
64,192,40804,1,8,0:0:0:0:
320,192,40804,1,8,0:0:0:0:
448,192,41136,1,0,0:0:0:0:
64,192,41467,1,8,0:0:0:0:
192,192,41467,1,8,0:0:0:0:
320,192,41716,1,0,0:0:0:0:
448,192,42130,1,8,0:0:0:0:
64,192,42130,1,8,0:0:0:0:
192,192,42296,1,0,0:0:0:0:
320,192,42461,1,0,0:0:0:0:
192,192,42793,1,8,0:0:0:0:
448,192,42793,1,8,0:0:0:0:
64,192,43042,1,0,0:0:0:0:
320,192,43456,1,8,0:0:0:0:
448,192,43456,1,8,0:0:0:0:
192,192,43787,1,0,0:0:0:0:
64,192,44119,1,8,0:0:0:0:
320,192,44119,1,8,0:0:0:0:
448,192,44367,1,0,0:0:0:0:
192,192,44782,1,8,0:0:0:0:
64,192,44782,1,8,0:0:0:0:
320,192,45113,1,0,0:0:0:0:
448,192,45445,1,8,0:0:0:0:
192,192,45445,1,8,0:0:0:0:
64,192,45693,1,0,0:0:0:0:
448,192,46107,1,8,0:0:0:0:
320,192,46107,1,8,0:0:0:0:
192,192,46439,1,0,0:0:0:0:
320,192,46770,1,8,0:0:0:0:
64,192,46770,1,8,0:0:0:0:
448,192,47102,1,8,0:0:0:0:
192,192,47102,1,8,0:0:0:0:
64,192,47433,1,8,0:0:0:0:
320,192,47433,1,8,0:0:0:0:
448,192,47765,1,0,0:0:0:0:
192,192,48096,1,0,0:0:0:0:
448,192,48428,1,8,0:0:0:0:
64,192,48428,1,8,0:0:0:0:
320,192,48925,1,8,0:0:0:0:
192,192,48925,1,8,0:0:0:0:
448,192,49091,1,0,0:0:0:0:
64,192,49422,1,0,0:0:0:0:
192,192,49753,1,8,0:0:0:0:
320,192,49753,1,8,0:0:0:0:
448,192,50085,1,8,0:0:0:0:
64,192,50085,1,8,0:0:0:0:
320,192,50251,1,8,0:0:0:0:
192,192,50251,1,8,0:0:0:0:
448,192,50416,1,0,0:0:0:0:
64,192,50748,1,0,0:0:0:0:
448,192,51079,1,8,0:0:0:0:
192,192,51079,1,8,0:0:0:0:
320,192,51576,1,8,0:0:0:0:
64,192,51576,1,8,0:0:0:0:
448,192,51742,1,0,0:0:0:0:
64,192,52074,1,0,0:0:0:0:
192,192,52405,1,8,0:0:0:0:
320,192,52405,1,8,0:0:0:0:
448,192,52737,1,0,0:0:0:0:
192,192,52902,1,8,0:0:0:0:
320,192,52902,1,8,0:0:0:0:
64,192,53068,1,0,0:0:0:0:
320,192,53399,1,0,0:0:0:0:
64,192,53731,1,8,0:0:0:0:
448,192,53731,1,8,0:0:0:0:
192,192,54228,1,8,0:0:0:0:
320,192,54228,1,8,0:0:0:0:
64,192,54394,1,0,0:0:0:0:
448,192,54725,1,0,0:0:0:0:
320,192,55057,1,8,0:0:0:0:
192,192,55057,1,8,0:0:0:0:
64,192,55388,1,8,0:0:0:0:
448,192,55388,1,8,0:0:0:0:
192,192,55554,1,8,0:0:0:0:
320,192,55554,1,8,0:0:0:0:
64,192,55720,1,0,0:0:0:0:
448,192,56051,1,0,0:0:0:0:
64,192,56383,1,8,0:0:0:0:
320,192,56383,1,8,0:0:0:0:
192,192,56880,1,8,0:0:0:0:
448,192,56880,1,8,0:0:0:0:
64,192,57045,1,0,0:0:0:0:
448,192,57377,1,0,0:0:0:0:
320,192,57708,1,8,0:0:0:0:
192,192,57708,1,8,0:0:0:0:
64,192,58040,1,0,0:0:0:0:
320,192,58206,1,8,0:0:0:0:
192,192,58206,1,8,0:0:0:0:
448,192,58371,1,0,0:0:0:0:
64,192,58703,1,0,0:0:0:0:
192,192,59034,1,8,0:0:0:0:
448,192,59034,1,8,0:0:0:0:
64,192,59531,1,8,0:0:0:0:
320,192,59531,1,8,0:0:0:0:
448,192,59697,1,0,0:0:0:0:
64,192,60029,1,0,0:0:0:0:
448,192,60360,1,8,0:0:0:0:
192,192,60360,1,8,0:0:0:0:
64,192,60691,1,8,0:0:0:0:
320,192,60691,1,8,0:0:0:0:
192,192,60857,1,8,0:0:0:0:
448,192,60857,1,8,0:0:0:0:
64,192,61023,1,0,0:0:0:0:
448,192,61354,1,0,0:0:0:0:
320,192,61686,1,8,0:0:0:0:
64,192,61686,1,8,0:0:0:0:
192,192,62183,1,8,0:0:0:0:
448,192,62183,1,8,0:0:0:0:
64,192,62349,1,0,0:0:0:0:
448,192,62680,1,0,0:0:0:0:
320,192,63012,1,8,0:0:0:0:
64,192,63012,1,8,0:0:0:0:
448,192,63343,1,0,0:0:0:0:
320,192,63509,1,8,0:0:0:0:
192,192,63509,1,8,0:0:0:0:
64,192,63675,1,0,0:0:0:0:
448,192,64006,1,0,0:0:0:0:
320,192,64338,1,8,0:0:0:0:
64,192,64338,1,8,0:0:0:0:
448,192,64835,1,8,0:0:0:0:
192,192,64835,1,8,0:0:0:0:
64,192,65000,1,0,0:0:0:0:
448,192,65332,1,0,0:0:0:0:
64,192,65663,1,8,0:0:0:0:
320,192,65663,1,8,0:0:0:0:
448,192,65995,1,8,0:0:0:0:
192,192,65995,1,8,0:0:0:0:
320,192,66161,1,8,0:0:0:0:
64,192,66161,1,8,0:0:0:0:
448,192,66326,1,0,0:0:0:0:
64,192,66658,1,0,0:0:0:0:
192,192,66989,1,8,0:0:0:0:
448,192,66989,1,8,0:0:0:0:
320,192,67486,1,8,0:0:0:0:
64,192,67486,1,8,0:0:0:0:
448,192,67652,1,0,0:0:0:0:
64,192,67984,1,0,0:0:0:0:
192,192,68315,1,8,0:0:0:0:
448,192,68315,1,8,0:0:0:0:
64,192,68646,1,0,0:0:0:0:
192,192,68812,1,8,0:0:0:0:
320,192,68812,1,8,0:0:0:0:
448,192,68978,128,0,69309:0:0:0:0:
192,192,69475,128,0,69807:0:0:0:0:
64,192,70304,128,0,70635:0:0:0:0:
320,192,70801,128,0,71132:0:0:0:0:
448,192,71630,128,0,71961:0:0:0:0:
192,192,72127,128,0,72458:0:0:0:0:
64,192,72955,128,0,73287:0:0:0:0:
320,192,73453,128,0,73784:0:0:0:0:
192,192,73950,128,0,74281:0:0:0:0:
448,192,74281,128,0,74613:0:0:0:0:
320,192,74778,128,0,75110:0:0:0:0:
64,192,75607,128,0,75938:0:0:0:0:
192,192,76104,128,0,76436:0:0:0:0:
448,192,76933,128,0,77264:0:0:0:0:
320,192,77430,128,0,77761:0:0:0:0:
64,192,78259,128,0,78590:0:0:0:0:
192,192,78756,128,0,79087:0:0:0:0:
448,192,79253,128,0,79419:0:0:0:0:
320,192,79419,128,0,79584:0:0:0:0:
64,192,79584,128,0,79916:0:0:0:0:
192,192,79916,1,0,0:0:0:0:
448,192,80082,128,0,80413:0:0:0:0:
320,192,80413,1,0,0:0:0:0:
64,192,80579,1,0,0:0:0:0:
192,192,80910,128,0,81242:0:0:0:0:
64,192,81242,1,0,0:0:0:0:
320,192,81407,128,0,81739:0:0:0:0:
448,192,81739,1,0,0:0:0:0:
192,192,81905,1,0,0:0:0:0:
64,192,82236,128,0,82568:0:0:0:0:
192,192,82568,1,0,0:0:0:0:
448,192,82733,128,0,83065:0:0:0:0:
320,192,83065,1,0,0:0:0:0:
64,192,83230,1,0,0:0:0:0:
192,192,83562,128,0,83893:0:0:0:0:
64,192,83893,1,0,0:0:0:0:
320,192,84059,128,0,84391:0:0:0:0:
448,192,84391,1,0,0:0:0:0:
192,192,84556,1,0,0:0:0:0:
64,192,84722,1,0,0:0:0:0:
448,192,84888,128,0,85219:0:0:0:0:
320,192,85219,1,0,0:0:0:0:
64,192,85385,128,0,85716:0:0:0:0:
192,192,85716,1,0,0:0:0:0:
448,192,85882,1,0,0:0:0:0:
320,192,86214,128,0,86545:0:0:0:0:
448,192,86545,1,0,0:0:0:0:
192,192,86711,128,0,87042:0:0:0:0:
64,192,87042,1,0,0:0:0:0:
320,192,87208,1,0,0:0:0:0:
448,192,87539,128,0,87871:0:0:0:0:
320,192,87871,1,0,0:0:0:0:
64,192,88037,128,0,88368:0:0:0:0:
192,192,88368,1,0,0:0:0:0:
448,192,88534,1,0,0:0:0:0:
320,192,88865,128,0,89197:0:0:0:0:
448,192,89197,1,0,0:0:0:0:
192,192,89362,128,0,89694:0:0:0:0:
64,192,89694,1,0,0:0:0:0:
320,192,89860,1,0,0:0:0:0:
192,192,90191,128,0,90627:0:0:0:0:
320,192,90627,128,0,91063:0:0:0:0:
192,192,91063,128,0,91500:0:0:0:0:
64,192,91500,128,0,91936:0:0:0:0:
320,192,91936,128,0,92372:0:0:0:0:
448,192,92372,128,0,92809:0:0:0:0:
192,192,92809,128,0,93245:0:0:0:0:
64,192,93245,128,0,93681:0:0:0:0:
448,192,93681,128,0,94118:0:0:0:0:
320,192,94118,128,0,94554:0:0:0:0:
192,192,94554,128,0,94991:0:0:0:0:
64,192,94991,128,0,95427:0:0:0:0:
