osu file format v14

[General]
AudioFilename: audio.mp3
AudioLeadIn: 0
PreviewTime: -1
Countdown: 1
SampleSet: None
StackLeniency: 0.7
Mode: 2
LetterboxInBreaks: 0
WidescreenStoryboard: 0

[Editor]
DistanceSpacing: 1
BeatDivisor: 4
GridSize: 8
TimelineZoom: 1

[Metadata]
Title:Todokanai Koi
TitleUnicode:Todokanai Koi
Artist:Rena Uehara
ArtistUnicode:Rena Uehara
Creator:-Kurisu-
Version:Unreachable Love
Source:White Album 2
Tags:white album 2
BeatmapID:1954892
BeatmapSetID:935729

[Difficulty]
HPDrainRate:6
CircleSize:4.2
OverallDifficulty:9.3
ApproachRate:9.3
SliderMultiplier:2.8
SliderTickRate:2

[Events]
//Background and Video events
0,0,"Ogiso.Setsuna.full.1427723.jpg",0,0
//Break Periods
//Storyboard Layer 0 (Background)
//Storyboard Layer 1 (Fail)
//Storyboard Layer 2 (Pass)
//Storyboard Layer 3 (Foreground)
//Storyboard Sound Samples

[TimingPoints]
428,444.444444444444,4,3,0,65,1,0
67988,-100,4,3,0,75,0,1
99983,-100,4,3,0,65,0,0

[HitObjects]
256,192,428,12,0,6650,0:0:0:0:
112,192,6872,5,0,0:0:0:0:
328,192,7094,2,0,B|384:144|448:104|448:104|384:208,1,210,8|0,0:0|0:0,0:0:0:0:
88,96,7539,2,0,P|64:208|80:288,1,140
104,256,7872,1,0,0:0:0:0:
368,80,7983,2,0,P|408:176|376:240,1,140,8|0,0:0|0:0,0:0:0:0:
376,224,8316,1,0,0:0:0:0:
144,104,8428,1,0,0:0:0:0:
320,72,8650,6,0,P|408:176|352:272,1,210
144,80,9094,2,0,L|96:256,1,140
72,224,9427,1,0,0:0:0:0:
288,80,9539,2,0,L|240:288,1,210
416,80,9983,2,0,L|488:304,1,210
120,24,10427,2,0,B|-32:176|160:360|160:360,1,350
376,128,11094,2,0,L|472:256,1,140
488,272,11427,1,0,0:0:0:0:
208,136,11539,6,0,P|144:224|200:304,1,210,8|0,0:0|0:0,0:0:0:0:
400,168,11983,1,0,0:0:0:0:
216,144,12205,2,0,P|168:232|232:352,1,210
416,80,12650,2,0,P|456:168|416:248,1,140
384,232,12983,1,0,0:0:0:0:
112,88,13094,2,0,P|48:216|88:280,1,210
448,104,13539,2,0,L|376:304,1,210
120,24,13983,2,0,P|-16:176|48:360,1,350
448,112,14650,6,0,L|384:304,1,140
328,248,14983,1,0,0:0:0:0:
160,96,15094,2,0,P|120:224|184:312,1,210,8|0,0:3|0:3,0:3:0:0:
400,144,15539,1,0,0:0:0:0:
200,80,15761,2,0,P|120:208|192:248,1,210,0|0,0:3|0:3,0:3:0:0:
440,88,16205,2,0,L|408:320,1,210
64,80,16650,2,0,L|112:344,1,210
432,72,17094,2,0,L|368:312,1,210
89,29,17539,6,0,B|-24:176|136:368,1,350
368,192,18205,2,0,L|448:192,2,70
168,192,18650,2,0,L|8:192,1,140,8|0,0:0|0:0,0:0:0:0:
360,96,19094,2,0,L|512:96,1,140
136,64,19539,2,0,B|80:136|80:136|216:160,1,210,8|0,0:0|0:0,0:0:0:0:
392,216,19983,1,0,0:0:0:0:
504,216,20205,1,0,0:0:0:0:
56,232,20427,2,0,L|208:232,1,140,8|0,0:0|0:0,0:0:0:0:
432,232,20872,6,0,L|256:232,1,140
112,56,21316,2,0,P|48:160|120:240,1,210,8|0,0:0|0:0,0:0:0:0:
328,288,21761,1,0,0:0:0:0:
416,288,21872,1,0,0:0:0:0:
328,288,21983,1,0,0:0:0:0:
480,192,22205,2,0,L|328:192,1,140,8|0,0:0|0:0,0:0:0:0:
96,104,22650,2,0,L|24:104,2,70
464,88,23094,2,0,L|296:88,1,140,8|0,0:0|0:0,0:0:0:0:
32,272,23539,5,0,0:0:0:0:
152,272,23761,1,0,0:0:0:0:
464,272,23983,1,8,0:0:0:0:
40,192,24205,1,2,0:0:0:0:
352,192,24427,2,0,P|488:112|440:48,2,280,4|0|0,0:0|0:0|0:0,0:0:0:0:
176,192,25539,1,0,0:0:0:0:
376,192,25761,1,8,0:0:0:0:
128,192,25983,1,0,0:0:0:0:
408,304,26205,5,0,0:0:0:0:
448,224,26427,1,0,0:0:0:0:
184,256,26650,1,8,0:0:0:0:
392,128,26872,1,0,0:0:0:0:
96,136,27094,1,0,0:0:0:0:
64,224,27316,1,0,0:0:0:0:
296,192,27539,1,8,0:0:0:0:
128,80,27761,1,0,0:0:0:0:
320,80,27983,6,0,L|496:80,1,140
40,192,28427,1,8,0:0:0:0:
176,192,28650,1,0,0:0:0:0:
392,256,28872,2,0,L|456:128,1,140
136,112,29316,1,8,0:0:0:0:
256,40,29539,2,0,P|328:128|240:224,1,210
240,256,29983,1,0,0:0:0:0:
8,192,30205,2,0,L|160:192,1,140,8|0,0:0|0:0,0:0:0:0:
336,192,30650,5,0,0:0:0:0:
456,192,30872,1,0,0:0:0:0:
104,112,31094,1,8,0:0:0:0:
224,112,31316,1,0,0:0:0:0:
48,256,31539,2,0,L|-24:256,2,70
384,56,31983,2,0,P|448:136|392:256,1,210,8|0,0:0|0:0,0:0:0:0:
136,192,32427,1,0,0:0:0:0:
112,88,32650,1,0,0:0:0:0:
416,192,32872,5,8,0:0:0:0:
248,88,33094,1,0,0:0:0:0:
448,80,33316,1,0,0:0:0:0:
400,192,33539,1,0,0:0:0:0:
112,88,33761,1,8,0:0:0:0:
264,80,33983,1,0,0:0:0:0:
456,256,34205,1,0,0:0:0:0:
360,256,34427,1,0,0:0:0:0:
168,256,34650,5,8,0:0:0:0:
360,256,34872,1,0,0:0:0:0:
80,192,35094,2,0,L|224:192,1,140
408,192,35539,1,8,0:0:0:0:
184,216,35761,1,0,0:0:0:0:
384,280,35983,2,0,P|416:144|368:112,1,210
224,112,36427,1,8,0:0:0:0:
32,104,36650,2,0,P|-8:184|64:280,1,210
312,272,37094,5,0,0:0:0:0:
208,272,37316,1,8,0:0:0:0:
432,272,37539,1,0,0:0:0:0:
64,192,37761,1,0,0:0:0:0:
144,192,37983,1,0,0:0:0:0:
384,192,38205,1,8,0:0:0:0:
488,192,38427,1,0,0:0:0:0:
48,112,38650,2,0,L|216:112,1,140,8|0,0:0|0:0,0:0:0:0:
240,112,38983,1,0,0:0:0:0:
480,112,39094,2,0,L|320:112,1,140,8|0,0:0|0:0,0:0:0:0:
128,192,39539,5,0,0:0:0:0:
112,272,39761,1,0,0:0:0:0:
400,192,39983,1,8,0:0:0:0:
240,192,40205,1,0,0:0:0:0:
168,192,40427,1,0,0:0:0:0:
480,288,40650,1,0,0:0:0:0:
184,280,40872,1,8,0:0:0:0:
272,280,41094,1,0,0:0:0:0:
432,192,41316,1,0,0:0:0:0:
400,96,41539,5,0,0:0:0:0:
80,96,41761,1,8,0:0:0:0:
280,192,41983,1,0,0:0:0:0:
304,104,42205,1,0,0:0:0:0:
0,96,42427,1,0,0:0:0:0:
128,264,42650,1,8,0:0:0:0:
464,264,42872,1,0,0:0:0:0:
304,288,43094,2,0,L|264:72,1,210
201,89,43539,1,8,0:0:0:0:
480,96,43761,6,0,L|384:288,1,210
304,288,44205,1,0,0:0:0:0:
0,192,44427,2,0,L|168:192,1,140,8|0,0:0|0:0,0:0:0:0:
32,112,44872,1,0,0:0:0:0:
96,112,45094,1,0,0:0:0:0:
344,112,45316,1,8,0:0:0:0:
192,112,45539,1,0,0:0:0:0:
256,112,45761,1,0,0:0:0:0:
472,112,45983,1,0,0:0:0:0:
128,256,46205,1,8,0:0:0:0:
32,256,46427,1,0,0:0:0:0:
360,192,46650,6,0,L|504:192,2,140,0|0|8,0:0|0:0|0:0,0:0:0:0:
128,192,47316,2,0,L|-40:192,2,140
336,192,47983,2,0,L|488:192,1,140,8|0,0:0|0:0,0:0:0:0:
72,112,48427,2,0,L|224:112,2,140,0|0|8,0:0|0:0|0:0,0:0:0:0:
448,112,49094,2,0,L|304:112,2,140
96,256,49761,2,0,L|240:256,1,140,8|0,0:0|0:0,0:0:0:0:
400,256,50205,2,0,B|480:136|480:136|344:112|344:112|480:208|480:208|296:208,1,630
176,208,51316,2,0,L|16:208,1,140,0|8,0:0|0:0,0:0:0:0:
392,208,51761,1,0,0:0:0:0:
112,128,51983,5,0,0:0:0:0:
40,128,52205,1,0,0:0:0:0:
456,120,52427,1,8,0:0:0:0:
368,120,52650,2,0,L|304:328,1,210
32,312,53094,1,0,0:0:0:0:
208,312,53316,2,0,L|400:312,1,140,8|0,0:0|0:0,0:0:0:0:
64,48,53761,2,0,L|0:352,1,280,2|0,0:0|0:0,0:0:0:0:
400,48,54427,2,0,L|432:328,1,280
144,192,55094,1,0,0:0:0:0:
320,192,55316,1,0,0:0:0:0:
32,48,55539,6,0,L|104:336,1,280
464,64,56205,2,0,L|416:344,1,280
48,248,56872,2,0,L|80:104,1,140
408,48,57205,1,0,0:0:0:0:
432,48,57261,1,0,0:0:0:0:
456,48,57316,2,0,L|416:336,1,280,2|0,0:0|0:0,0:0:0:0:
48,72,57983,2,0,L|88:360,1,280
328,192,58650,1,0,0:0:0:0:
144,192,58872,1,0,0:0:0:0:
440,56,59094,2,0,L|480:224,2,140
56,128,59761,5,0,0:0:0:0:
192,40,59983,2,0,B|344:176|344:176|184:192|184:192|344:224|344:224,1,490
512,32,60872,2,0,L|464:312,1,280,2|0,0:0|0:0,0:0:0:0:
0,72,61539,2,0,L|16:352,1,280
408,192,62205,1,0,0:0:0:0:
152,88,62650,2,0,P|96:208|160:264,1,210
216,256,63094,1,0,0:0:0:0:
456,256,63316,2,0,P|496:176|416:72,1,210
360,80,63761,1,0,0:0:0:0:
56,64,63983,6,0,P|8:200|80:280,1,210
288,248,64427,1,8,0:0:0:0:
216,248,64650,1,0,0:0:0:0:
512,192,64872,1,0,0:0:0:0:
216,184,65094,1,8,0:0:0:0:
288,184,65316,1,0,0:0:0:0:
0,192,65539,1,0,0:0:0:0:
296,272,65761,1,8,0:0:0:0:
152,272,65983,1,0,0:0:0:0:
512,192,66205,1,8,0:0:0:0:
256,192,66427,12,0,67539,0:0:0:0:
184,192,67983,6,0,L|48:192,2,70,8|0|0,0:0|0:0|0:0,0:0:0:0:
432,192,68427,1,0,0:0:0:0:
360,96,68650,2,0,L|264:96,1,70,8|0,0:0|0:0,0:0:0:0:
48,88,68872,1,0,0:0:0:0:
336,184,69094,1,0,0:0:0:0:
440,264,69316,2,0,L|360:264,1,70,8|0,0:0|0:0,0:0:0:0:
104,272,69539,1,0,0:0:0:0:
64,112,69761,2,0,L|168:112,1,70,8|0,0:0|0:0,0:0:0:0:
344,112,69983,1,0,0:0:0:0:
56,200,70205,5,0,0:0:0:0:
160,296,70427,2,0,L|240:296,1,70,8|0,0:0|0:0,0:0:0:0:
448,296,70650,1,0,0:0:0:0:
160,184,70872,1,0,0:0:0:0:
104,104,71094,2,0,L|184:104,1,70,8|0,0:0|0:0,0:0:0:0:
464,104,71316,1,0,0:0:0:0:
304,248,71539,1,8,0:0:0:0:
232,248,71650,1,0,0:0:0:0:
160,248,71761,1,0,0:0:0:0:
512,192,71983,5,0,0:0:0:0:
440,192,72094,1,0,0:0:0:0:
368,192,72205,1,0,0:0:0:0:
72,88,72427,1,0,0:0:0:0:
136,88,72539,1,0,0:0:0:0:
200,88,72650,1,0,0:0:0:0:
80,248,72872,6,0,L|0:248,1,70,8|0,0:0|0:0,0:0:0:0:
280,248,73094,2,0,L|360:248,1,70,8|0,0:0|0:0,0:0:0:0:
152,192,73316,2,0,L|80:192,1,70,8|0,0:0|0:0,0:0:0:0:
344,184,73539,2,0,L|424:184,1,70,8|0,0:0|0:0,0:0:0:0:
208,104,73761,2,0,L|136:104,1,70,8|0,0:0|0:0,0:0:0:0:
480,56,73983,2,0,P|504:192|480:336,1,280,8|0,0:0|0:0,0:0:0:0:
8,192,74650,1,0,0:0:0:0:
200,192,74872,1,0,0:0:0:0:
432,152,75094,2,0,L|352:152,1,70,8|0,0:0|0:0,0:0:0:0:
112,152,75316,1,0,0:0:0:0:
432,248,75539,5,0,0:0:0:0:
408,80,75761,2,0,L|304:80,1,70,8|0,0:0|0:0,0:0:0:0:
104,80,75983,1,0,0:0:0:0:
408,192,76205,1,0,0:0:0:0:
248,192,76427,2,0,L|344:192,2,70,8|0|0,0:0|0:0|0:0,0:0:0:0:
72,280,76872,2,0,L|160:280,1,70,8|0,0:0|0:0,0:0:0:0:
400,280,77094,1,0,0:0:0:0:
120,192,77316,1,0,0:0:0:0:
48,112,77539,6,0,L|168:112,1,70,8|0,0:0|0:0,0:0:0:0:
400,104,77761,1,0,0:0:0:0:
376,184,77983,1,0,0:0:0:0:
64,184,78205,2,0,L|176:184,1,70,8|0,0:0|0:0,0:0:0:0:
368,184,78427,1,0,0:0:0:0:
152,80,78650,2,0,L|56:80,1,70,8|0,0:0|0:0,0:0:0:0:
384,80,78872,2,0,L|496:80,1,70
128,184,79094,2,0,L|40:184,1,70,2|0,0:0|0:0,0:0:0:0:
376,48,79316,6,0,P|448:208|376:320,1,280
176,192,79983,1,0,0:0:0:0:
376,192,80205,1,0,0:0:0:0:
176,96,80427,2,0,L|280:96,1,70,8|0,0:0|0:0,0:0:0:0:
88,240,80650,2,0,L|176:240,1,70
376,248,80872,2,0,L|456:248,1,70,2|0,0:0|0:0,0:0:0:0:
152,176,81094,2,0,L|424:104,1,280
176,72,81761,6,0,L|256:72,2,70,8|0|0,0:0|0:0|0:0,0:0:0:0:
88,192,82205,2,0,L|216:192,1,70,8|0,0:0|0:0,0:0:0:0:
400,192,82427,1,0,0:0:0:0:
400,192,82650,1,0,0:0:0:0:
112,136,82872,2,0,L|208:136,1,70,8|0,0:0|0:0,0:0:0:0:
400,136,83094,1,0,0:0:0:0:
176,272,83316,1,0,0:0:0:0:
312,192,83539,2,0,L|240:192,2,70,8|0|0,0:0|0:0|0:0,0:0:0:0:
392,96,83983,6,0,L|272:96,1,70,8|0,0:0|0:0,0:0:0:0:
152,96,84205,1,0,0:0:0:0:
288,176,84427,1,0,0:0:0:0:
128,232,84650,2,0,L|256:232,1,70,8|0,0:0|0:0,0:0:0:0:
392,232,84872,1,0,0:0:0:0:
200,184,85094,1,0,0:0:0:0:
400,104,85316,2,0,L|320:104,1,70,8|0,0:0|0:0,0:0:0:0:
104,104,85539,1,0,0:0:0:0:
280,232,85761,5,8,0:0:0:0:
352,232,85872,1,0,0:0:0:0:
424,232,85983,1,0,0:0:0:0:
112,192,86205,1,0,0:0:0:0:
184,192,86316,1,0,0:0:0:0:
256,192,86427,1,0,0:0:0:0:
512,120,86650,1,0,0:0:0:0:
440,120,86761,1,0,0:0:0:0:
368,120,86872,1,0,0:0:0:0:
80,192,87094,6,0,L|0:192,1,70,8|0,0:0|0:0,0:0:0:0:
208,192,87316,2,0,L|288:192,1,70,8|0,0:0|0:0,0:0:0:0:
384,192,87539,2,0,L|456:192,1,70,8|0,0:0|0:0,0:0:0:0:
152,272,87761,2,0,L|80:272,1,70,8|0,0:0|0:0,0:0:0:0:
336,272,87983,2,0,L|416:272,1,70,8|0,0:0|0:0,0:0:0:0:
96,48,88205,2,0,P|48:160|112:352,1,280,8|0,0:0|0:0,0:0:0:0:
400,184,88872,1,0,0:0:0:0:
176,184,89094,1,0,0:0:0:0:
504,56,89316,6,0,L|472:336,1,280,4|0,0:0|0:0,0:0:0:0:
24,72,89983,2,0,L|48:376,1,280
312,192,90650,1,0,0:0:0:0:
136,192,90872,1,0,0:0:0:0:
448,192,91094,2,0,L|536:192,2,70,8|0|0,0:0|0:0|0:0,0:0:0:0:
256,192,91539,1,0,0:0:0:0:
72,192,91761,2,0,L|-24:192,2,70,8|0|0,0:0|0:0|0:0,0:0:0:0:
360,192,92205,5,0,0:0:0:0:
80,128,92427,2,0,L|8:128,2,70,8|0|0,0:0|0:0|0:0,0:0:0:0:
416,128,92872,1,8,0:0:0:0:
112,192,93094,1,8,0:0:0:0:
432,248,93316,1,8,0:0:0:0:
104,40,93539,2,0,B|192:192|192:192|360:128|360:128|448:216,1,420,8|0,0:0|0:0,0:0:0:0:
16,192,94650,1,8,0:0:0:0:
352,192,94872,1,8,0:0:0:0:
48,192,95094,1,8,0:0:0:0:
440,8,95316,6,0,P|504:200|400:376,1,420,8|0,0:0|0:0,0:0:0:0:
112,192,96427,2,0,L|240:192,1,70,8|0,0:0|0:0,0:0:0:0:
320,192,96650,1,0,0:0:0:0:
80,272,96872,2,0,L|160:272,1,70
328,272,97094,1,8,0:0:0:0:
80,104,97317,2,0,L|200:104,1,70
312,104,97539,1,0,0:0:0:0:
272,136,97761,2,0,P|240:200|328:264,1,140,8|0,0:0|0:0,0:0:0:0:
472,272,98205,6,0,L|352:272,1,70,8|0,0:0|0:0,0:0:0:0:
216,272,98427,1,0,0:0:0:0:
440,192,98650,2,0,L|360:192,1,70
168,192,98872,1,8,0:0:0:0:
456,112,99094,2,0,L|384:112,1,70
136,120,99316,2,0,L|48:120,1,70
344,224,99539,2,0,L|440:224,1,70,8|0,0:0|0:0,0:0:0:0:
128,248,99761,2,0,L|40:248,1,70
312,80,99983,6,0,P|352:184|320:328,1,210
96,80,100427,2,0,P|56:184|88:272,1,210
424,80,100872,2,0,L|392:184,1,70
352,64,101094,2,0,L|296:328,1,210
40,72,101539,2,0,L|80:296,1,210
408,96,101983,2,0,L|336:304,1,210
64,88,102427,2,0,L|96:304,1,210
448,32,102872,2,0,L|352:392,1,350
64,128,103539,2,0,L|136:328,1,210
384,120,103983,6,0,L|472:344,1,210
80,80,104427,2,0,L|184:80,1,70
40,176,104650,2,0,L|224:320,1,210
496,192,105094,2,0,L|288:296,1,210
64,48,105539,2,0,L|208:224,1,210
480,80,105983,2,0,L|296:264,1,210
24,40,106427,2,0,L|200:344,1,350
480,56,107094,2,0,L|400:304,1,210
112,56,107539,6,0,L|32:296,1,210
456,88,107983,2,0,L|384:88,1,70
312,56,108205,2,0,L|216:280,1,210
8,40,108650,2,0,L|88:304,1,210
480,64,109094,2,0,L|376:264,1,210
56,48,109539,2,0,L|104:280,1,210
448,16,109983,2,0,P|496:168|424:336,1,350
56,192,110650,1,0,0:0:0:0:
200,192,110872,5,0,0:0:0:0:
352,192,111094,1,8,0:0:0:0:
0,112,111316,1,0,0:0:0:0:
152,112,111539,1,0,0:0:0:0:
312,112,111761,1,8,0:0:0:0:
16,232,111983,2,0,L|192:232,2,140,0|0|8,0:0|0:0|0:0,0:0:0:0:
456,184,112650,2,0,L|272:184,2,140
88,96,113316,5,0,0:0:0:0:
320,96,113539,1,0,0:0:0:0:
264,96,113650,1,0,0:0:0:0:
88,96,113761,1,8,0:0:0:0:
272,192,113983,1,0,0:0:0:0:
48,48,114205,2,0,B|200:160|200:160|56:256,1,350
320,32,114872,2,0,B|416:160|208:256|208:256|376:292|376:292|312:320,1,490
352,304,115761,1,0,0:0:0:0:
