osu file format v14

[General]
AudioFilename: audio.mp3
AudioLeadIn: 0
PreviewTime: 183024
Countdown: 0
SampleSet: Soft
StackLeniency: 0.7
Mode: 0
LetterboxInBreaks: 0
WidescreenStoryboard: 1

[Editor]
Bookmarks: 6024,30024,54024,75024,99024,123024,135024,147024,159024,183024,207024
DistanceSpacing: 0.8
BeatDivisor: 1
GridSize: 8
TimelineZoom: 1

[Metadata]
Title:Lost In Thoughts All Alone
TitleUnicode:Lost In Thoughts All Alone
Artist:Rena Strober
ArtistUnicode:Rena Strober
Creator:Xgor
Version:Normal
Source:Fire Emblem Fates
Tags:You Are The Ocean Gray Waves Azura Aqua Renka if one's thoughts ひとり思う hitori omou 3ds Super Smash Bros for Wii U Birthright Conquest Revelation
BeatmapID:1045413
BeatmapSetID:490475

[Difficulty]
HPDrainRate:4
CircleSize:3
OverallDifficulty:4
ApproachRate:4
SliderMultiplier:1.4
SliderTickRate:1

[Events]
//Background and Video events
0,0,"az.jpg",0,0
//Break Periods
2,123252,133232
//Storyboard Layer 0 (Background)
//Storyboard Layer 1 (Fail)
//Storyboard Layer 2 (Pass)
//Storyboard Layer 3 (Foreground)
//Storyboard Sound Samples

[TimingPoints]
52,500,3,2,1,40,1,0
10552,-100,3,2,1,80,0,0
11052,-100,3,2,1,60,0,0
11552,-100,3,2,1,40,0,0
12052,-100,3,2,1,20,0,0
13052,-100,3,2,1,40,0,0
22552,-100,3,2,1,80,0,0
23052,-100,3,2,1,60,0,0
23552,-100,3,2,1,40,0,0
24052,-100,3,2,1,20,0,0
30052,-86.9565217391304,3,2,1,60,0,0
81552,-100,3,2,1,60,0,0
87052,-86.9565217391304,3,2,1,60,0,0
134552,-100,3,2,1,60,0,0
147052,-86.9565217391304,3,2,1,60,0,0
159052,-76.9230769230769,3,2,1,60,0,1
182552,-100,3,2,1,60,0,0
183052,-76.9230769230769,3,2,1,60,0,1
207052,-100,3,2,1,60,0,0

[Colours]
Combo1 : 191,191,191
Combo2 : 60,148,255
Combo3 : 234,181,21

[HitObjects]
0,80,6052,6,0,P|120:48|240:144,1,280,4|0,0:1|0:0,0:0:0:0:
272,240,7552,1,0,2:0:0:0:
472,296,8552,1,0,0:0:0:0:
448,184,9052,1,0,3:0:0:0:
152,40,10552,5,2,2:0:0:0:
112,144,11052,1,2,0:2:0:0:
72,248,11552,1,2,0:2:0:0:
32,352,12052,1,2,0:2:0:0:
256,376,13052,22,0,L|304:240,1,140
160,72,14552,2,0,L|96:224,1,140,2|0,0:0|0:0,0:0:0:0:
328,160,16052,2,0,L|376:24,1,140,0|2,3:0|0:0,0:0:0:0:
424,360,18052,6,0,P|256:336|216:232,1,280,4|0,0:1|0:0,0:0:0:0:
232,136,19552,1,0,0:0:0:0:
16,136,20552,1,0,0:0:0:0:
48,32,21052,1,0,3:0:0:0:
376,32,22552,21,2,0:0:0:0:
416,136,23052,1,2,0:0:0:0:
456,240,23552,1,2,0:0:0:0:
496,344,24052,1,2,0:0:0:0:
304,208,25052,6,0,L|264:72,1,140
40,72,26552,1,0,0:0:0:0:
8,176,27052,2,0,B|152:328|248:160|392:312,1,420,4|0,0:0|3:0,0:0:0:0:
488,128,29552,21,0,0:0:0:0:
368,72,30052,2,0,P|192:40|48:124,1,322.000006141663,4|0,1:1|0:0,0:0:0:0:
80,232,31552,2,0,P|168:136|408:304,1,483.000009212494,0|0,1:3|1:0,0:0:0:0:
176,232,34052,21,2,3:2:0:0:
144,104,34552,2,0,P|304:72|464:160,1,322.000006141663,4|0,1:1|0:0,0:0:0:0:
432,264,36052,2,0,P|344:168|104:336,1,483.000009212494,0|0,1:2|1:0,0:0:0:0:
344,280,38552,5,2,0:0:0:0:
464,336,39052,2,0,P|472:240|344:144,2,241.500004606247,4|0|0,1:0|0:0|1:0,0:0:0:0:
336,352,41052,1,2,0:2:0:0:
208,368,41552,1,0,3:3:0:0:
80,384,42052,22,0,L|32:224,1,161.000003070831,0|0,1:2|0:0,0:0:0:0:
248,384,43552,2,0,L|200:224,1,161.000003070831,2|0,1:2|0:0,0:0:0:0:
408,384,45052,2,0,L|360:224,1,161.000003070831,2|0,1:2|0:0,0:0:0:0:
112,216,46552,2,0,P|112:96|160:64,1,161.000003070831,0|2,1:0|0:0,0:0:0:0:
384,24,48052,22,0,P|464:264|288:360,1,483.000009212494,0|0,1:0|1:0,0:0:0:0:
127,24,51052,2,0,P|33:226|212:360,1,483.000009212494,2|0,1:2|1:0,0:0:0:0:
453,64,54052,22,0,B|384:72|312:256|440:192|392:312|320:320,1,322.000006141663,4|0,1:1|0:0,0:0:0:0:
192,320,55552,2,0,B|120:312|72:192|200:256|128:72|56:64,1,322.000006141663,2|0,1:2|0:0,0:0:0:0:
0,184,57052,1,0,1:0:0:0:
344,360,58552,5,0,1:0:0:0:
232,296,59052,1,2,0:0:0:0:
280,176,59552,1,0,0:0:0:0:
168,112,60052,1,4,1:0:0:0:
16,320,61052,6,0,P|128:344|200:336,1,161.000003070831,0|2,0:0|1:2,0:0:0:0:
240,96,62552,1,0,0:0:0:0:
296,208,63052,1,0,1:3:0:0:
496,64,64052,2,0,P|384:40|312:48,1,161.000003070831,2|0,0:0|1:0,0:0:0:0:
208,48,66052,6,0,P|64:104|72:256,1,322.000006141663,4|2,1:1|0:0,0:0:0:0:
176,320,67552,2,0,P|320:264|312:112,1,322.000006141663,0|0,1:2|0:0,0:0:0:0:
208,192,69052,1,0,1:3:0:0:
168,24,70552,5,0,1:2:0:0:
280,88,71052,1,0,0:0:0:0:
232,208,71552,1,2,0:0:0:0:
344,272,72052,1,0,1:3:0:0:
88,264,73052,5,2,0:0:0:0:
88,264,73552,1,0,1:0:0:0:
32,16,74552,1,2,0:0:0:0:
152,64,75052,22,0,B|424:136|176:320|488:360,1,483.000009212494,4|0,1:0|1:0,0:0:0:0:
472,104,77552,1,0,0:0:0:0:
352,64,78052,2,0,B|200:24|216:168|48:112,1,322.000006141663,2|0,1:2|0:0,0:0:0:0:
112,224,79552,2,0,B|240:240|248:160|344:168,2,241.500004606247,0|0|0,1:0|1:0|1:0,0:0:0:0:
16,152,81552,6,0,P|256:28|496:152,1,560,2|2,0:0|0:0,0:0:0:0:
392,192,84052,1,0,1:0:0:0:
496,232,84552,2,0,P|256:356|16:232,1,560,2|2,0:0|0:0,0:0:0:0:
16,120,87052,21,4,1:0:0:0:
336,32,88552,1,0,1:0:0:0:
256,112,89052,1,2,0:0:0:0:
336,192,89552,1,0,0:0:0:0:
256,272,90052,2,0,P|112:304|32:168,1,322.000006141663,0|0,1:0|0:0,0:0:0:0:
160,184,91552,1,0,1:0:0:0:
392,312,92552,5,2,0:0:0:0:
416,184,93052,1,0,1:0:0:0:
440,56,93552,2,0,P|304:104|320:272,1,322.000006141663,2|0,0:0|1:0,0:0:0:0:
56,240,95552,21,0,0:0:0:0:
144,344,96052,2,0,B|224:304|208:72|152:264|104:16|256:16|256:16|408:16|360:264|304:72|288:304|366:343,1,805.000015354157,2|2,0:0|0:2,0:0:0:0:
496,376,99052,21,4,1:0:0:0:
496,136,100052,1,0,0:0:0:0:
392,208,100552,2,0,P|240:216|136:88,1,322.000006141663,0|0,1:0|0:0,0:0:0:0:
256,56,102052,22,0,P|240:208|56:336,1,322.000006141663,2|0,0:0|0:0,0:0:0:0:
0,352,103552,1,0,1:0:0:0:
8,96,104552,1,2,0:0:0:0:
128,64,105052,1,0,1:0:0:0:
248,32,105552,6,0,P|368:136|304:272,2,322.000006141663,2|0|0,0:0|1:0|0:0,0:0:0:0:
248,168,108052,1,0,1:0:0:0:
240,296,108552,22,0,P|120:192|184:56,2,322.000006141663,2|0|0,0:0|1:0|3:0,0:0:0:0:
368,272,111052,1,4,1:0:0:0:
72,32,112552,5,0,1:0:0:0:
152,136,113052,1,0,0:0:0:0:
40,200,113552,1,2,0:0:0:0:
120,304,114052,2,0,P|264:304|392:184,1,322.000006141663,4|0,1:0|0:0,0:0:0:0:
432,64,115552,1,0,1:0:0:0:
176,56,116552,21,2,0:0:0:0:
104,160,117052,1,0,1:0:0:0:
56,280,117552,2,0,P|200:328|344:184,1,322.000006141663,2|0,0:0|1:0,0:0:0:0:
112,104,119552,1,2,0:0:0:0:
240,40,120052,2,0,B|421:-9|462:316|249:71|284:422|497:362,2,483.000009212494,0|2|4,1:0|1:2|1:0,0:0:0:0:
128,152,134552,5,0,0:0:0:0:
15,187,135052,2,0,P|88:264|184:256,1,210,2|0,0:0|0:0,0:0:0:0:
184,88,136552,2,0,P|389:93|348:247,1,420,2|0,0:0|0:0,0:0:0:0:
128,232,139052,5,0,0:0:0:0:
15,266,139552,2,0,P|88:344|184:336,1,210,2|0,0:0|0:0,0:0:0:0:
256,184,141052,2,0,P|461:189|420:343,1,420,2|0,0:0|0:0,0:0:0:0:
200,368,143552,5,0,0:0:0:0:
96,312,144052,2,0,P|185:249|296:304,1,210
352,128,145552,1,2,0:0:0:0:
248,88,146052,1,0,0:0:0:0:
144,48,146552,1,2,0:0:0:0:
40,8,147052,6,0,P|0:128|16:192,1,161.000003070831,4|2,1:0|0:2,0:0:0:0:
144,376,148552,2,0,P|184:256|168:192,1,161.000003070831,0|0,1:2|3:0,0:0:0:0:
320,8,150052,2,0,P|319:87|355:159,1,161.000003070831,0|2,1:0|0:0,0:0:0:0:
504,368,151552,1,0,1:0:0:0:
504,240,152052,2,0,P|488:120|432:64,1,161.000003070831,2|0,0:0|0:0,0:0:0:0:
352,32,153052,6,0,P|176:48|88:168,1,322.000006141663,0|2,1:0|0:0,0:0:0:0:
152,272,154552,2,0,P|328:256|416:136,1,322.000006141663,0|2,1:0|0:0,0:0:0:0:
288,104,156052,6,0,P|112:120|24:240,1,322.000006141663,0|2,1:0|0:0,0:0:0:0:
88,344,157552,2,0,P|264:328|352:208,1,322.000006141663,0|0,1:0|0:0,0:0:0:0:
400,120,159052,6,0,P|255:26|112:120,1,363.999983337403,4|2,1:0|0:0,0:0:0:0:
64,256,160552,1,0,1:0:0:0:
352,256,161552,1,2,0:0:0:0:
353,115,162052,2,0,B|224:128|208:256|208:256|200:344|112:352,1,363.999983337403,0|0,1:0|0:0,0:0:0:0:
8,264,163552,5,0,1:2:0:0:
136,192,164052,1,2,0:2:0:0:
264,120,164552,1,0,0:0:0:0:
392,48,165052,6,0,P|464:112|480:384,1,363.999983337403,0|0,1:0|0:0,0:0:0:0:
344,360,166552,2,0,P|376:256|200:112,1,363.999983337403,0|0,1:0|0:0,0:0:0:0:
224,264,168052,2,0,P|152:352|8:208,1,363.999983337403,0|0,1:0|0:0,0:0:0:0:
112,120,169552,2,0,P|257:26|400:120,1,363.999983337403,2|0,1:2|0:0,0:0:0:0:
400,264,171052,6,0,P|255:358|112:264,1,363.999983337403,4|2,1:0|0:0,0:0:0:0:
64,128,172552,1,0,1:0:0:0:
352,128,173552,1,2,0:0:0:0:
354,269,174052,2,0,B|224:256|208:128|208:128|200:40|112:32,1,363.999983337403,0|2,1:0|0:0,0:0:0:0:
8,120,175552,5,0,1:2:0:0:
136,192,176052,1,2,0:2:0:0:
264,264,176552,1,0,0:0:0:0:
392,336,177052,6,0,P|464:272|480:0,1,363.999983337403,0|2,1:0|0:0,0:0:0:0:
344,16,178552,1,0,1:0:0:0:
56,16,179552,1,2,0:0:0:0:
40,160,180052,2,0,P|259:295|470:148,1,545.999975006105,0|0,1:0|3:0,0:0:0:0:
16,40,183052,6,0,B|112:80|288:16|384:56,1,363.999983337403,4|2,1:0|0:0,0:0:0:0:
464,168,184552,2,0,B|368:208|192:144|80:184,1,363.999983337403,0|2,1:0|0:0,0:0:0:0:
16,296,186052,2,0,B|112:336|288:272|400:312,1,363.999983337403,0|0,1:0|0:0,0:0:0:0:
296,200,187552,5,0,1:0:0:0:
192,80,188052,1,2,0:0:0:0:
344,56,188552,1,0,0:0:0:0:
504,32,189052,6,0,B|423:97|408:280|336:352,1,363.999983337403,4|2,1:0|0:0,0:0:0:0:
192,368,190552,2,0,B|204:265|345:142|360:16,1,363.999983337403,0|2,1:0|0:0,0:0:0:0:
208,32,192052,2,0,B|127:97|104:296|0:360,1,363.999983337403,0|2,1:0|0:0,0:0:0:0:
160,288,193552,2,0,P|224:200|288:168,1,181.999991668702,0|0,1:0|0:0,0:0:0:0:
424,224,194552,1,0,3:0:0:0:
464,368,195052,6,0,B|368:328|192:392|88:352,1,363.999983337403,4|2,1:0|0:0,0:0:0:0:
17,240,196552,2,0,B|113:200|289:264|385:224,1,363.999983337403,0|2,1:0|0:0,0:0:0:0:
496,136,198052,2,0,B|400:96|224:160|128:128,1,363.999983337403,0|2,1:0|0:0,0:0:0:0:
256,216,199552,5,0,1:0:0:0:
360,336,200052,1,2,0:0:0:0:
208,360,200552,1,0,0:0:0:0:
64,376,201052,6,0,B|145:311|174:126|248:56,1,363.999983337403,0|2,1:0|0:0,0:0:0:0:
384,32,202552,2,0,B|303:97|274:282|200:352,1,363.999983337403,0|2,1:0|0:0,0:0:0:0:
256,192,204052,12,4,207052,1:0:0:0:
