osu file format v14

[General]
AudioFilename: audio.mp3
AudioLeadIn: 0
PreviewTime: 71304
Countdown: 0
SampleSet: Soft
StackLeniency: 0.4
Mode: 0
LetterboxInBreaks: 0
WidescreenStoryboard: 0

[Editor]
Bookmarks: 122541,132488
DistanceSpacing: 0.9
BeatDivisor: 4
GridSize: 4
TimelineZoom: 1

[Metadata]
Title:Tougetsu, Rinzen ni Kisu.
TitleUnicode:冬月、凜然に帰す。
Artist:Ren feat. Hatsune Miku
ArtistUnicode:廉 feat. 初音ミク
Creator:Log Off Now
Version:Touch Your Dreams
Source:
Tags:japanese pop jpop j-pop vocaloid tomobop 友達募集P tomodachi boshuup suimin
BeatmapID:2923009
BeatmapSetID:1418780

[Difficulty]
HPDrainRate:5.5
CircleSize:3.8
OverallDifficulty:9
ApproachRate:9.3
SliderMultiplier:1.4
SliderTickRate:1

[Events]
//Background and Video events
0,0,"ren-miku.jpg",0,0
//Break Periods
2,92301,101284
//Storyboard Layer 0 (Background)
//Storyboard Layer 1 (Fail)
//Storyboard Layer 2 (Pass)
//Storyboard Layer 3 (Foreground)
//Storyboard Layer 4 (Overlay)
//Storyboard Sound Samples

[TimingPoints]
1260,315.789473684211,4,2,1,55,1,0
8838,-500,4,2,1,55,0,0
8917,-500,4,2,1,25,0,0
10102,-500,4,2,1,5,0,0
10733,-166.666666666667,4,2,1,15,0,0
11049,-166.666666666667,4,2,1,30,0,0
11207,-166.666666666667,4,2,1,50,0,0
11365,-83.3333333333333,4,2,2,70,0,0
11681,-83.3333333333333,4,2,1,70,0,0
31575,-100,4,2,1,70,0,0
31733,-100,4,2,1,60,0,0
40417,-250,4,2,1,60,0,0
41681,-100,4,2,1,60,0,0
51786,-100,4,2,3,55,0,0
61891,-90.9090909090909,4,2,1,55,0,0
70102,-83.3333333333333,4,2,1,55,0,0
71365,-133.333333333333,4,2,1,35,0,0
71602,-133.333333333333,4,2,1,5,0,0
71681,-74.074074074074,4,2,1,55,0,0
71917,-74.074074074074,4,2,1,5,0,0
71996,-74.074074074074,4,2,2,80,0,1
72154,-74.074074074074,4,2,1,80,0,1
92102,-74.074074074074,4,2,1,80,0,0
101838,-105.263157894737,4,2,1,40,0,0
102233,-105.263157894737,4,2,1,5,0,0
102312,-105.263157894737,4,2,1,50,0,0
121891,-105.263157894737,4,2,1,55,0,0
122049,-105.263157894737,4,2,1,5,0,0
122128,-105.263157894737,4,2,1,55,0,0
122286,-105.263157894737,4,2,1,5,0,0
122365,-133.333333333334,4,2,1,45,0,0
132470,-100,4,2,1,65,0,0
137365,-86.9565217391304,4,2,1,65,0,0
142102,-100,4,2,1,65,0,0
142338,-100,4,2,1,5,0,0
142417,-71.4285714285714,4,2,1,65,0,0
142654,-71.4285714285714,4,2,1,5,0,0
142733,-71.4285714285714,4,2,2,85,0,1
142891,-71.4285714285714,4,2,1,85,0,1
162944,-100,4,2,1,55,0,0
170523,-250,4,2,1,55,0,0
170602,-250,4,2,1,25,0,0
171786,-250,4,2,1,5,0,0

[Colours]
Combo1 : 248,222,163
Combo2 : 5,211,228
Combo3 : 46,147,194
Combo4 : 247,176,244

[HitObjects]
31,260,1260,6,0,P|90:271|183:300,1,140,2|0,1:2|1:0,0:0:0:0:
251,246,1733,1,2,0:0:0:0:
304,361,1891,2,0,P|370:340|439:327,1,140,2|0,1:2|1:0,0:0:0:0:
499,251,2365,1,2,0:0:0:0:
398,171,2523,6,0,P|412:232|416:264,1,70,2|0,1:2|0:0,0:0:0:0:
500,75,2838,2,0,P|486:136|482:168,1,70,2|0,1:2|0:0,0:0:0:0:
340,87,3154,2,0,P|374:80|408:71,1,70,2|0,1:2|0:0,0:0:0:0:
311,184,3470,2,0,P|277:175|242:168,1,70,2|0,1:2|0:0,0:0:0:0:
229,24,3786,6,0,P|248:65|237:111,1,70,2|0,1:2|0:0,0:0:0:0:
107,109,4102,2,0,P|142:84|190:75,1,70,2|0,1:2|0:0,0:0:0:0:
187,227,4417,2,0,P|178:175|166:139,1,70,2|0,1:2|0:0,0:0:0:0:
38,41,4733,2,0,P|32:71|26:114,1,70,2|0,1:2|0:0,0:0:0:0:
138,304,5049,6,0,P|190:268|285:279,1,140,2|0,1:2|1:0,0:0:0:0:
344,211,5523,1,0,0:0:0:0:
245,118,5681,2,0,P|261:182|265:204,1,70,2|0,1:2|0:0,0:0:0:0:
327,369,5996,2,0,P|334:335|344:302,1,70,2|0,1:2|0:0,0:0:0:0:
483,232,6312,6,0,P|435:242|359:177,1,140,2|0,1:2|1:0,0:0:0:0:
397,76,6786,1,0,0:0:0:0:
444,151,6944,2,0,P|481:143|530:135,2,70,2|2|0,1:2|0:3|1:0,0:0:0:0:
381,320,7417,1,2,0:3:0:0:
236,237,7575,6,0,P|199:229|150:221,1,70,2|2,1:2|0:3,0:0:0:0:
14,105,7891,2,0,P|48:99|82:92,1,70,2|2,1:2|0:3,0:0:0:0:
244,55,8207,1,2,1:2:0:0:
88,181,8365,1,2,0:3:0:0:
137,11,8523,1,2,1:2:0:0:
266,151,8681,1,2,0:3:0:0:
105,296,8838,6,0,P|162:308|215:325,1,112,2|0,0:0|0:0,0:0:0:0:
228,348,10733,6,0,P|270:339|323:331,1,83.9999974365235,0|2,0:0|0:0,0:0:0:0:
360,264,11207,1,0,1:0:0:0:
229,16,11365,6,0,P|257:61|172:164,1,167.999994873047,12|8,1:2|0:0,0:0:0:0:
73,39,11838,1,2,0:0:0:0:
161,81,11996,1,0,1:0:0:0:
99,157,12154,1,2,1:2:0:0:
229,16,12312,2,0,P|280:27|326:39,1,83.9999974365235,8|0,0:0|0:0,0:0:0:0:
351,201,12628,6,0,P|339:151|356:103,1,83.9999974365235,2|0,1:2|1:0,0:0:0:0:
445,20,12944,1,10,0:0:0:0:
511,172,13102,2,0,P|473:162|426:152,1,83.9999974365235,2|0,0:0|1:0,0:0:0:0:
335,39,13417,1,2,1:2:0:0:
265,112,13575,2,0,P|223:120|183:131,1,83.9999974365235,8|0,0:0|0:0,0:0:0:0:
57,30,13891,6,0,P|70:69|99:199,1,167.999994873047,2|10,1:2|0:0,0:0:0:0:
36,336,14365,1,2,0:0:0:0:
4,220,14523,1,0,1:0:0:0:
114,285,14681,1,2,1:2:0:0:
190,111,14838,1,8,0:0:0:0:
199,337,14996,6,0,P|238:324|296:313,1,83.9999974365235,2|0,0:2|1:2,0:0:0:0:
401,194,15312,1,2,1:2:0:0:
354,377,15470,1,10,0:0:0:0:
308,226,15628,1,2,0:0:0:0:
421,316,15786,1,2,1:2:0:0:
487,158,15944,1,2,1:2:0:0:
322,339,16102,2,0,P|267:325|228:319,1,83.9999974365235,10|0,0:0|0:0,0:0:0:0:
160,163,16417,6,0,P|185:207|185:257,1,83.9999974365235,2|0,1:2|0:0,0:0:0:0:
119,374,16733,1,10,0:0:0:0:
16,250,16891,2,0,P|56:239|97:231,1,83.9999974365235,2|0,0:0|1:0,0:0:0:0:
204,334,17207,1,2,1:2:0:0:
269,177,17365,2,0,P|310:184|352:193,1,83.9999974365235,8|0,0:0|0:0,0:0:0:0:
416,348,17681,6,0,P|422:307|432:254,1,83.9999974365235,2|0,1:2|1:0,0:0:0:0:
360,73,17996,1,10,0:0:0:0:
509,121,18154,2,0,P|468:128|424:137,1,83.9999974365235,2|0,0:0|1:0,0:0:0:0:
340,217,18470,1,2,1:2:0:0:
252,150,18628,2,0,P|264:100|271:48,1,83.9999974365235,8|0,0:0|0:0,0:0:0:0:
36,164,18944,6,0,P|81:104|191:115,1,167.999994873047,2|10,1:2|0:0,0:0:0:0:
146,263,19417,2,0,P|139:221|129:180,1,83.9999974365235,2|0,0:0|1:0,0:0:0:0:
33,80,19733,1,2,1:2:0:0:
57,256,19891,1,10,0:0:0:0:
200,116,20049,1,2,0:0:0:0:
181,362,20207,6,0,P|112:349|78:344,2,83.9999974365235,2|2|10,1:2|1:2|2:0,0:0:0:0:
336,237,20681,1,2,0:0:0:0:
290,371,20838,1,2,1:2:0:0:
211,272,20996,1,2,1:2:0:0:
454,215,21154,2,0,P|440:267|429:320,1,83.9999974365235,12|0,0:0|0:0,0:0:0:0:
222,24,21470,6,0,P|235:72|259:195,1,167.999994873047,6|10,1:2|0:0,0:0:0:0:
410,73,21944,1,2,0:0:0:0:
335,122,22102,1,0,1:0:0:0:
353,2,22260,1,2,1:2:0:0:
497,150,22418,2,0,P|450:157|400:168,1,83.9999974365235,8|0,0:0|0:0,0:0:0:0:
338,280,22734,6,0,P|288:268|238:260,1,83.9999974365235,2|0,1:2|1:0,0:0:0:0:
192,176,23050,1,10,0:0:0:0:
265,69,23208,2,0,P|227:79|180:89,1,83.9999974365235,2|0,0:0|1:0,0:0:0:0:
100,172,23523,1,2,1:2:0:0:
25,20,23681,2,0,P|67:28|107:39,1,83.9999974365235,8|0,0:0|0:0,0:0:0:0:
212,182,23997,6,0,P|202:242|185:360,1,167.999994873047,2|8,1:2|0:0,0:0:0:0:
97,151,24471,1,2,0:0:0:0:
245,264,24629,1,0,1:0:0:0:
83,336,24787,1,2,1:2:0:0:
197,163,24944,1,8,0:0:0:0:
280,354,25102,6,0,P|319:341|377:330,1,83.9999974365235,2|0,0:2|1:2,0:0:0:0:
447,177,25418,1,2,1:2:0:0:
300,250,25576,1,10,0:0:0:0:
463,296,25734,1,2,0:0:0:0:
276,243,25891,1,2,1:2:0:0:
471,165,26050,1,2,1:2:0:0:
427,378,26208,2,0,P|372:364|333:358,1,83.9999974365235,10|0,0:0|0:0,0:0:0:0:
138,384,26523,6,0,P|163:340|156:289,1,83.9999974365235,2|0,1:2|0:0,0:0:0:0:
116,178,26839,1,10,0:0:0:0:
0,343,26997,2,0,P|40:332|81:324,1,83.9999974365235,2|0,0:0|1:0,0:0:0:0:
187,218,27313,1,2,1:2:0:0:
241,367,27471,2,0,P|282:374|324:383,1,83.9999974365235,8|0,0:0|0:0,0:0:0:0:
488,106,27787,6,0,P|473:147|462:199,1,83.9999974365235,2|0,1:2|1:0,0:0:0:0:
499,355,28102,1,10,0:0:0:0:
382,248,28260,2,0,P|345:234|293:224,1,83.9999974365235,2|0,0:0|1:0,0:0:0:0:
186,295,28576,1,2,1:2:0:0:
289,384,28734,2,0,P|277:334|270:282,1,83.9999974365235,8|0,0:0|0:0,0:0:0:0:
360,115,29050,6,0,P|315:175|205:164,1,167.999994873047,2|10,1:2|0:0,0:0:0:0:
130,48,29523,2,0,P|143:89|152:146,1,83.9999974365235,2|0,0:0|1:0,0:0:0:0:
72,279,29839,1,2,1:2:0:0:
57,119,29997,1,10,0:0:0:0:
156,233,30155,1,2,0:0:0:0:
274,93,30313,6,0,P|281:43|288:6,2,83.9999974365235,2|2|10,1:2|1:2|2:0,0:0:0:0:
327,269,30787,1,2,0:0:0:0:
411,98,30944,1,2,1:2:0:0:
240,194,31102,1,2,1:2:0:0:
426,268,31260,1,8,0:0:0:0:
299,91,31417,1,2,1:2:0:0:
259,332,31575,6,0,P|222:339|182:350,1,70,6|0,1:2|0:0,0:0:0:0:
67,263,31891,2,0,P|104:270|138:289,1,70,2|0,1:2|0:0,0:0:0:0:
261,201,32207,2,0,P|219:232|202:263,1,70,2|0,1:2|0:0,0:0:0:0:
120,128,32523,2,0,P|140:175|146:214,1,70,2|0,1:2|0:0,0:0:0:0:
214,108,32838,2,0,P|295:120|373:134,1,140,2|0,1:2|1:0,0:0:0:0:
418,241,33312,1,0,0:0:0:0:
494,153,33470,6,0,P|451:136|427:112,1,70,2|0,1:2|0:0,0:0:0:0:
366,175,33786,2,0,P|351:131|354:97,1,70,2|0,1:2|0:0,0:0:0:0:
271,84,34102,2,0,P|295:44|323:25,1,70,2|0,1:2|0:0,0:0:0:0:
172,1,34417,6,0,P|186:44|183:78,1,70,2|0,1:2|0:0,0:0:0:0:
271,84,34733,2,0,P|246:123|218:142,1,70,2|0,1:2|0:0,0:0:0:0:
271,210,35049,2,0,P|226:223|193:214,1,70,2|0,1:2|0:0,0:0:0:0:
133,175,35365,6,0,B|116:210|116:210|129:266,2,70,2|0|2,1:2|0:0|1:2,0:0:0:0:
74,110,35838,2,0,L|-4:124,1,70,2|0,0:0|1:0,0:0:0:0:
99,30,36154,1,0,0:0:0:0:
155,95,36312,2,0,L|192:103,2,35,0|0|2,1:0|0:0|0:0,0:0:0:0:
259,44,36628,6,0,P|292:45|337:22,1,70,2|0,1:2|0:0,0:0:0:0:
432,102,36944,2,0,P|412:63|408:23,1,70,2|0,1:2|0:0,0:0:0:0:
292,185,37260,2,0,P|311:141|317:111,1,70,2|0,1:2|0:0,0:0:0:0:
446,190,37575,2,0,P|400:198|353:221,1,70,2|0,1:2|0:0,0:0:0:0:
224,261,37891,2,0,P|271:269|381:298,1,140,2|0,1:2|1:0,0:0:0:0:
110,121,38523,6,0,P|121:153|126:188,1,70,2|0,1:2|0:0,0:0:0:0:
31,283,38838,2,0,P|73:272|115:264,1,70,2|0,1:2|0:0,0:0:0:0:
166,373,39154,2,0,P|124:362|82:354,1,70,2|0,1:2|0:0,0:0:0:0:
198,226,39470,6,0,P|182:273|175:306,1,70,2|2,1:2|0:3,0:0:0:0:
248,353,39786,1,0,1:0:0:0:
348,224,39944,1,2,0:3:0:0:
272,266,40102,1,0,1:0:0:0:
406,384,40260,5,0,1:0:0:0:
406,384,40338,1,0,1:0:0:0:
406,384,40417,2,0,P|412:325|431:234,1,140,8|0,0:0|0:0,0:0:0:0:
341,101,41365,1,8,0:0:0:0:
417,155,41523,1,2,0:0:0:0:
337,263,41681,6,0,P|330:224|322:182,1,70,6|0,1:2|0:0,0:0:0:0:
248,69,41996,2,0,P|241:108|233:150,1,70,10|0,0:2|0:0,0:0:0:0:
165,211,42312,1,2,1:2:0:0:
78,109,42470,2,0,P|119:117|160:128,1,70,0|2,1:0|0:0,0:0:0:0:
253,229,42786,2,0,P|302:216|340:210,1,70,8|2,0:0|0:0,0:0:0:0:
373,131,43102,1,0,1:0:0:0:
498,294,43260,2,0,P|446:284|376:277,1,105,8|0,0:0|0:0,0:0:0:0:
366,304,43575,6,0,P|381:349|369:389,1,70,2|0,1:2|1:0,0:0:0:0:
231,335,43891,2,0,P|284:347|317:357,1,70,10|0,0:0|0:0,0:0:0:0:
361,210,44207,5,2,1:2:0:0:
291,255,44365,1,0,1:0:0:0:
206,144,44523,2,0,P|215:189|222:230,1,70,10|0,0:0|0:0,0:0:0:0:
161,272,44838,1,2,1:2:0:0:
93,222,44996,2,0,P|36:234|13:241,1,70,0|2,1:0|0:0,0:0:0:0:
73,380,45312,2,0,P|79:345|86:311,1,70,8|2,0:0|0:0,0:0:0:0:
174,255,45628,1,0,1:0:0:0:
275,361,45786,2,0,P|327:351|397:344,1,105,8|0,0:0|0:0,0:0:0:0:
413,340,46102,2,0,P|398:295|410:255,1,70,0|0,1:2|1:0,0:0:0:0:
512,208,46417,1,8,0:0:0:0:
484,292,46575,1,2,0:0:0:0:
426,186,46733,6,0,P|382:194|344:201,1,70,2|0,1:2|1:0,0:0:0:0:
256,103,47049,2,0,P|303:110|341:117,1,70,10|0,0:2|0:0,0:0:0:0:
233,200,47365,1,2,1:2:0:0:
160,140,47523,2,0,P|172:78|174:57,1,70,0|2,1:0|0:0,0:0:0:0:
27,226,47838,2,0,P|76:213|114:207,1,70,8|2,0:0|0:0,0:0:0:0:
175,265,48154,1,0,1:0:0:0:
107,368,48312,2,0,P|101:333|94:299,1,70,10|0,0:0|0:0,0:0:0:0:
244,216,48628,2,0,P|259:261|247:301,1,70,2|0,1:2|1:0,0:0:0:0:
193,351,48944,2,0,P|246:363|279:373,1,70,10|0,0:0|0:0,0:0:0:0:
404,290,49260,6,0,P|351:302|318:312,1,70,2|0,1:2|1:0,0:0:0:0:
498,371,49575,2,0,P|483:325|498:278,1,70,8|0,0:0|0:0,0:0:0:0:
507,162,49890,1,0,1:2:0:0:
446,221,50049,1,0,1:0:0:0:
378,48,50207,1,8,0:0:0:0:
423,139,50365,2,0,L|335:128,1,70,0|0,1:0|0:0,0:0:0:0:
288,17,50681,5,0,1:0:0:0:
230,187,50838,1,8,0:0:0:0:
161,130,50996,2,0,L|118:139,2,35,8|8|0,0:3|0:3|1:0,0:0:0:0:
81,272,51312,1,4,0:3:0:0:
81,272,51391,1,4,0:3:0:0:
81,272,51470,2,0,P|68:221|59:193,1,70,8|0,0:0|1:0,0:0:0:0:
0,64,51786,6,0,P|74:67|125:1,1,140,6|0,1:2|1:0,0:0:0:0:
174,111,52260,1,2,0:0:0:0:
246,44,52417,2,0,B|324:30|290:94|401:62,1,140,2|0,1:2|1:0,0:0:0:0:
441,144,52891,1,10,0:0:0:0:
464,38,53049,1,2,1:2:0:0:
360,149,53207,1,8,0:0:0:0:
453,229,53365,2,0,P|402:237|362:248,1,70,2|0,1:2|0:0,0:0:0:0:
257,313,53681,2,0,P|308:321|348:332,1,70,2|0,1:2|0:0,0:0:0:0:
243,227,53996,2,0,P|208:234|174:239,1,70,2|0,1:2|0:0,0:0:0:0:
71,333,54312,6,0,P|93:297|98:258,1,70,2|0,1:2|0:0,0:0:0:0:
16,146,54628,2,0,P|43:179|76:190,1,70,2|0,1:2|0:0,0:0:0:0:
158,82,54944,2,0,P|108:99|75:117,1,70,2|0,1:2|0:0,0:0:0:0:
181,259,55260,1,2,1:2:0:0:
233,128,55417,1,8,0:0:0:0:
266,291,55575,1,2,1:2:0:0:
160,172,55733,1,8,0:0:0:0:
133,361,55891,2,0,P|177:346|201:343,1,70,2|0,1:2|0:0,0:0:0:0:
302,214,56207,6,0,P|346:229|370:232,1,70,2|0,1:2|0:0,0:0:0:0:
426,346,56523,2,0,P|431:311|443:278,1,70,2|0,1:2|0:0,0:0:0:0:
502,164,56838,2,0,P|485:115|475:22,1,140,2|0,1:2|1:0,0:0:0:0:
433,101,57312,1,0,0:0:0:0:
310,19,57470,6,0,P|373:31|393:37,1,70,2|0,1:2|0:0,0:0:0:0:
268,163,57786,1,2,1:2:0:0:
231,74,57944,1,8,0:0:0:0:
210,230,58102,1,2,1:2:0:0:
327,104,58260,1,8,0:0:0:0:
355,246,58417,2,0,P|292:258|272:264,1,70,2|0,1:2|0:0,0:0:0:0:
162,178,58733,2,0,P|195:210|216:240,1,70,2|0,1:2|0:0,0:0:0:0:
197,373,59049,2,0,P|208:334|219:304,1,70,2|0,1:2|0:0,0:0:0:0:
74,265,59365,6,0,P|137:277|157:283,1,70,2|0,1:2|0:0,0:0:0:0:
76,348,59681,2,0,P|13:360|-7:366,1,70,2|0,1:2|0:0,0:0:0:0:
0,277,59996,2,0,P|15:234|20:201,1,70,2|0,1:2|0:0,0:0:0:0:
136,110,60312,1,2,1:2:0:0:
106,192,60470,1,8,0:0:0:0:
62,70,60628,1,2,1:2:0:0:
192,173,60786,1,0,0:0:0:0:
210,52,60944,1,2,1:2:0:0:
271,125,61102,2,0,P|315:136|408:170,1,140,2|2,0:3|0:3,0:0:0:0:
433,151,61496,1,2,0:3:0:0:
433,151,61575,2,0,P|423:106|421:71,1,70,2|0,1:3|0:0,0:0:0:0:
482,21,61891,6,0,B|393:14|436:68|326:55,1,154.000004699707,6|0,1:2|1:0,0:0:0:0:
255,9,62365,1,2,0:0:0:0:
178,65,62523,2,0,P|212:106|200:215,1,154.000004699707,2|0,1:2|1:0,0:0:0:0:
279,257,62996,1,2,0:0:0:0:
210,321,63154,6,0,P|169:286|120:265,1,77.0000023498536,2|0,1:2|0:0,0:0:0:0:
33,280,63470,2,0,P|70:241|85:219,1,77.0000023498536,2|0,1:2|0:0,0:0:0:0:
37,118,63786,2,0,P|85:136|129:144,1,77.0000023498536,2|0,1:2|0:0,0:0:0:0:
160,40,64102,2,0,P|182:83|207:111,1,77.0000023498536,2|0,1:2|0:0,0:0:0:0:
313,179,64417,6,0,P|360:157|400:155,1,77.0000023498536,2|0,1:2|0:0,0:0:0:0:
452,80,64733,2,0,P|492:107|512:137,1,77.0000023498536,2|0,1:2|0:0,0:0:0:0:
442,281,65049,2,0,P|454:226|463:196,1,77.0000023498536,2|0,1:2|0:0,0:0:0:0:
293,74,65365,2,0,P|303:111|310:148,1,77.0000023498536,2|0,1:2|0:0,0:0:0:0:
247,272,65681,2,0,P|198:255|63:248,1,154.000004699707,2|0,1:2|1:0,0:0:0:0:
17,198,66154,1,0,0:0:0:0:
108,83,66312,2,0,P|99:133|93:172,1,77.0000023498536,2|0,1:2|0:0,0:0:0:0:
183,366,66628,2,0,P|176:327|169:290,1,77.0000023498536,2|0,1:2|0:0,0:0:0:0:
258,185,66944,6,0,B|347:178|304:232|414:219,1,154.000004699707,2|0,1:2|1:0,0:0:0:0:
474,155,67417,1,0,0:0:0:0:
370,54,67575,2,0,P|378:104|385:143,1,77.0000023498536,2|0,1:2|0:0,0:0:0:0:
489,239,67891,2,0,P|480:289|474:328,1,77.0000023498536,0|0,1:2|0:0,0:0:0:0:
312,377,68207,6,0,P|305:338|298:301,2,77.0000023498536,2|0|2,1:2|0:0|1:2,0:0:0:0:
387,285,68681,1,2,0:3:0:0:
235,238,68838,1,2,1:2:0:0:
356,199,68996,1,2,0:3:0:0:
221,334,69154,2,0,P|175:324|136:319,1,77.0000023498536,2|2,1:2|0:3,0:0:0:0:
22,191,69470,5,2,1:2:0:0:
62,289,69628,1,2,0:3:0:0:
178,139,69786,1,0,1:3:0:0:
111,208,69944,1,2,0:3:0:0:
216,309,70102,2,0,P|207:251|199:212,1,83.9999974365235,0|2,1:3|0:3,0:0:0:0:
253,85,70417,5,0,1:0:0:0:
90,224,70575,1,0,1:0:0:0:
388,293,70733,1,8,0:0:0:0:
286,380,71365,6,0,P|295:334|308:299,1,78.7500030040742,2|0,0:0|0:0,0:0:0:0:
238,247,71681,6,0,P|231:197|201:91,1,141.750000540733,2|0,0:0|0:0,0:0:0:0:
240,25,71996,6,0,P|291:48|342:45,1,94.5000003604889,12|0,1:2|0:0,0:0:0:0:
497,12,72312,2,0,P|469:64|463:124,1,94.5000003604889,10|0,0:0|0:0,0:0:0:0:
446,256,72628,1,2,1:2:0:0:
293,154,72786,1,0,1:0:0:0:
386,120,72944,2,0,P|376:175|370:217,1,94.5000003604889,10|0,0:0|0:0,0:0:0:0:
343,384,73260,5,2,1:2:0:0:
462,287,73417,1,0,1:0:0:0:
292,252,73575,2,0,B|174:249|221:310|109:301,1,189.000000720978,10|0,0:0|1:0,0:0:0:0:
0,210,74049,1,0,1:0:0:0:
156,118,74207,2,0,P|140:193|138:229,1,94.5000003604889,10|0,0:0|0:0,0:0:0:0:
43,383,74523,6,0,P|37:336|25:290,1,94.5000003604889,2|0,1:2|1:0,0:0:0:0:
205,327,74838,2,0,P|135:305|93:297,1,94.5000003604889,10|0,0:0|0:0,0:0:0:0:
318,194,75154,1,2,1:2:0:0:
213,237,75312,1,0,1:0:0:0:
306,373,75470,2,0,P|300:326|293:280,1,94.5000003604889,10|0,0:0|0:0,0:0:0:0:
202,103,75786,6,0,P|253:123|362:45,1,189.000000720978,2|8,1:2|0:0,0:0:0:0:
474,141,76260,1,0,0:0:0:0:
379,254,76417,2,0,P|385:203|394:156,1,94.5000003604889,2|0,1:2|1:0,0:0:0:0:
472,32,76733,2,0,P|415:62|367:58,1,94.5000003604889,10|0,0:0|0:0,0:0:0:0:
230,20,77049,5,2,1:2:0:0:
290,103,77207,1,0,1:0:0:0:
191,205,77365,2,0,P|200:142|206:106,1,94.5000003604889,8|0,0:0|0:0,0:0:0:0:
10,34,77681,1,2,1:2:0:0:
57,187,77838,1,0,1:0:0:0:
101,11,77996,2,0,P|110:71|116:110,1,94.5000003604889,10|0,0:0|0:0,0:0:0:0:
207,301,78312,5,2,1:2:0:0:
249,164,78470,1,0,1:0:0:0:
298,335,78628,1,10,0:0:0:0:
164,213,78786,1,0,0:0:0:0:
340,151,78944,2,0,P|326:233|323:251,1,94.5000003604889,2|0,1:2|1:0,0:0:0:0:
415,374,79260,2,0,P|401:292|398:274,1,94.5000003604889,10|0,0:0|0:0,0:0:0:0:
505,148,79575,5,2,1:2:0:0:
429,197,79733,1,0,1:0:0:0:
331,89,79891,2,0,P|391:102|428:110,1,94.5000003604889,10|0,0:0|0:0,0:0:0:0:
299,231,80207,2,0,P|252:240|206:251,1,94.5000003604889,2|0,1:2|1:0,0:0:0:0:
222,61,80523,2,0,P|252:121|243:161,1,94.5000003604889,10|0,0:0|0:0,0:0:0:0:
125,222,80838,5,2,1:2:0:0:
160,126,80996,1,0,1:0:0:0:
256,340,81154,1,8,0:0:0:0:
353,146,81312,1,8,0:0:0:0:
353,146,81391,1,8,0:0:0:0:
353,146,81470,2,0,L|247:164,1,94.5000003604889,0|0,1:0|1:0,0:0:0:0:
78,337,81786,1,12,0:0:0:0:
124,214,81944,1,2,0:0:0:0:
283,348,82102,5,6,1:2:0:0:
232,147,82260,1,2,0:0:0:0:
188,341,82417,1,10,0:2:0:0:
316,208,82575,1,2,0:0:0:0:
456,358,82733,5,2,1:2:0:0:
410,153,82891,1,2,0:0:0:0:
351,342,83049,1,10,0:2:0:0:
501,236,83207,1,2,0:0:0:0:
276,151,83365,5,2,1:2:0:0:
410,286,83523,1,2,0:0:0:0:
356,56,83681,1,10,0:2:0:0:
297,249,83838,2,0,P|234:237|191:231,1,94.5000003604889,2|0,0:0|1:0,0:0:0:0:
41,94,84154,1,2,0:0:0:0:
84,229,84312,1,10,0:0:0:0:
194,45,84470,1,2,0:0:0:0:
160,142,84628,5,2,1:2:0:0:
99,2,84786,1,2,0:0:0:0:
68,186,84944,1,10,0:0:0:0:
244,106,85102,1,2,0:0:0:0:
218,294,85260,5,2,1:2:0:0:
166,170,85417,1,2,0:0:0:0:
314,254,85575,1,10,0:0:0:0:
133,346,85733,1,2,0:0:0:0:
222,251,85891,5,2,1:2:0:0:
240,374,86049,1,2,0:0:0:0:
128,250,86207,1,10,0:0:0:0:
50,364,86365,2,0,P|43:306|33:262,1,94.5000003604889,2|0,0:0|1:0,0:0:0:0:
127,166,86681,1,0,0:0:0:0:
236,341,86838,2,0,P|282:331|328:323,1,94.5000003604889,10|0,0:0|0:0,0:0:0:0:
395,53,87154,6,0,P|381:127|376:151,1,94.5000003604889,2|0,1:2|0:0,0:0:0:0:
145,342,87470,2,0,P|131:268|126:244,1,94.5000003604889,10|0,0:2|0:0,0:0:0:0:
313,39,87786,2,0,P|274:72|223:84,1,94.5000003604889,2|0,1:2|0:0,0:0:0:0:
0,132,88102,2,0,P|55:150|88:178,1,94.5000003604889,10|0,0:0|0:0,0:0:0:0:
221,262,88417,6,0,P|272:213|306:199,1,94.5000003604889,2|0,1:2|0:0,0:0:0:0:
151,99,88733,2,0,B|164:160|169:207,1,94.5000003604889,10|0,0:0|0:0,0:0:0:0:
0,322,89049,2,0,B|3:289|16:228,1,94.5000003604889,2|0,1:2|0:0,0:0:0:0:
184,290,89365,2,0,P|121:269|82:262,1,94.5000003604889,10|0,0:0|0:0,0:0:0:0:
230,84,89681,6,0,B|327:82|286:149|418:129,1,189.000000720978,2|8,1:2|0:0,0:0:0:0:
506,63,90154,1,2,0:0:0:0:
475,192,90312,2,0,P|462:242|454:296,1,94.5000003604889,0|2,1:0|0:0,0:0:0:0:
282,380,90628,2,0,P|274:333|262:287,1,94.5000003604889,8|0,0:0|0:0,0:0:0:0:
390,169,90944,2,0,P|333:191|290:202,1,94.5000003604889,2|0,1:2|0:0,0:0:0:0:
46,108,91260,1,12,0:0:0:0:
87,223,91417,1,2,1:2:0:0:
232,75,91575,6,0,L|220:8,2,63.0000002403259,8|8|8,0:0|0:0|0:0,0:0:0:0:
320,226,91891,6,0,L|308:293,2,63.0000002403259,8|8|8,0:0|0:0|0:0,0:0:0:0:
122,95,101838,5,2,0:3:0:0:
191,145,101996,2,0,L|176:255,1,99.7499973363877,2|0,0:3|0:0,0:0:0:0:
172,285,102312,6,0,P|212:247|314:253,1,132.999996448517,4|2,1:2|0:0,0:0:0:0:
350,301,102786,1,0,1:0:0:0:
444,239,102944,2,0,P|438:281|425:381,2,132.999996448517,8|2|2,0:0|0:0|0:0,0:0:0:0:
353,139,103891,1,0,1:2:0:0:
465,10,104207,2,0,P|404:24|335:34,1,132.999996448517,8|2,0:0|0:0,0:0:0:0:
237,117,104838,6,0,P|185:83|99:89,1,132.999996448517,0|2,1:2|0:0,0:0:0:0:
42,135,105312,1,0,1:0:0:0:
0,56,105470,1,8,0:0:0:0:
158,166,105786,1,2,0:0:0:0:
328,40,106102,2,0,P|321:84|308:184,1,132.999996448517,2|0,0:0|1:0,0:0:0:0:
379,324,106733,5,8,0:0:0:0:
462,255,107049,1,2,0:0:0:0:
383,189,107365,2,0,B|296:184|331:234|242:228,1,132.999996448517,0|0,1:2|0:0,0:0:0:0:
195,174,107838,1,0,1:0:0:0:
132,241,107996,2,0,P|81:224|0:213,2,132.999996448517,8|2|2,0:0|0:0|0:0,0:0:0:0:
193,355,108944,1,0,1:2:0:0:
308,288,109260,2,0,P|371:268|437:260,1,132.999996448517,8|2,0:0|0:0,0:0:0:0:
497,129,109891,5,0,1:2:0:0:
311,53,110207,2,0,P|317:80|325:124,1,66.4999982242585,2|0,0:0|1:0,0:0:0:0:
337,202,110523,1,8,0:0:0:0:
391,12,110838,1,2,0:0:0:0:
236,119,111154,2,0,P|176:99|102:88,1,132.999996448517,2|0,0:0|1:0,0:0:0:0:
35,145,111628,5,2,0:3:0:0:
12,39,111786,1,8,0:0:0:0:
38,169,111944,1,2,0:0:0:0:
9,15,112102,1,2,0:3:0:0:
118,252,112417,6,0,P|163:242|270:233,1,132.999996448517,4|0,1:2|0:0,0:0:0:0:
322,293,112891,1,0,3:0:0:0:
322,293,112970,1,0,3:0:0:0:
322,293,113049,1,8,0:0:0:0:
390,229,113207,2,0,B|439:237|439:237|460:259|460:259|519:271,2,132.999996448517,0|0|0,1:0|1:0|1:0,0:0:0:0:
243,130,114154,1,0,1:0:0:0:
343,64,114312,2,0,L|325:161,1,66.4999982242585,8|0,0:0|0:0,0:0:0:0:
287,202,114628,2,0,P|242:189|145:175,1,132.999996448517,2|0,0:0|1:0,0:0:0:0:
76,96,115260,1,0,0:0:0:0:
10,168,115417,5,0,3:0:0:0:
10,168,115496,1,0,3:0:0:0:
10,168,115575,1,8,0:0:0:0:
75,229,115733,2,0,B|67:278|67:278|45:299|45:299|35:357,2,132.999996448517,0|0|0,1:0|1:0|1:0,0:0:0:0:
248,146,116681,1,0,1:0:0:0:
183,252,116838,2,0,L|171:179,1,66.4999982242585,8|0,0:0|0:0,0:0:0:0:
256,39,117154,1,0,1:0:0:0:
181,100,117312,1,8,0:0:0:0:
269,164,117470,6,0,P|314:154|421:145,1,132.999996448517,0|0,1:2|0:0,0:0:0:0:
472,91,117944,1,0,3:0:0:0:
472,91,118023,1,0,3:0:0:0:
472,91,118102,1,8,0:0:0:0:
403,23,118260,2,0,B|354:15|354:15|325:25|325:25|256:11,2,132.999996448517,0|0|0,1:0|1:0|1:0,0:0:0:0:
340,197,119207,1,0,1:0:0:0:
243,139,119365,2,0,L|258:210,1,66.4999982242585,8|0,0:0|0:0,0:0:0:0:
205,267,119681,2,0,P|250:254|319:299,1,132.999996448517,2|0,0:0|1:0,0:0:0:0:
425,201,120313,1,0,0:0:0:0:
324,74,120470,5,0,3:0:0:0:
324,74,120549,1,0,3:0:0:0:
324,74,120628,1,8,0:0:0:0:
259,135,120786,2,0,B|267:184|267:184|289:205|289:205|299:263,2,132.999996448517,0|0|0,1:0|1:0|1:0,0:0:0:0:
108,71,121733,1,0,1:0:0:0:
201,34,121891,6,0,L|183:128,1,66.4999982242585,8|0,0:0|0:0,0:0:0:0:
164,136,122128,2,0,L|180:229,1,66.4999982242585,8|0,0:0|0:0,0:0:0:0:
209,233,122365,1,8,0:0:0:0:
120,324,122523,6,0,P|171:339|224:365,1,105.000004005432,6|0,0:0|0:0,0:0:0:0:
292,303,123154,2,0,P|340:285|414:277,1,105.000004005432,2|0,0:0|0:0,0:0:0:0:
480,312,123786,1,2,0:0:0:0:
510,222,124102,2,0,P|486:186|489:109,1,105.000004005432,2|0,0:0|0:0,0:0:0:0:
414,60,124733,1,2,0:0:0:0:
348,128,125049,5,2,0:0:0:0:
255,108,125365,1,2,0:0:0:0:
202,29,125681,1,0,0:0:0:0:
109,8,125996,1,2,0:0:0:0:
33,64,126312,1,2,0:0:0:0:
44,91,126944,5,2,0:0:0:0:
120,35,127260,1,2,0:0:0:0:
213,56,127575,1,2,0:0:0:0:
216,81,128207,5,2,0:0:0:0:
123,60,128523,1,2,0:0:0:0:
47,116,128838,1,2,0:0:0:0:
78,205,129154,1,2,0:0:0:0:
20,280,129470,1,2,0:0:0:0:
65,347,129786,1,0,0:0:0:0:
147,300,130102,5,2,0:0:0:0:
207,355,130417,1,0,0:0:0:0:
283,328,130733,1,2,0:0:0:0:
327,357,131049,1,2,0:0:0:0:
352,344,131365,1,2,0:0:0:0:
363,353,132470,5,2,0:0:0:0:
431,299,132628,2,0,P|435:259|441:221,1,70,6|2,1:2|0:0,0:0:0:0:
346,130,132944,2,0,P|351:164|354:199,1,70,2|0,1:2|0:0,0:0:0:0:
199,292,133260,5,2,1:2:0:0:
272,211,133417,1,2,0:0:0:0:
298,351,133575,1,2,1:2:0:0:
174,213,133733,1,0,0:0:0:0:
144,371,133891,5,2,1:2:0:0:
224,290,134049,1,2,0:0:0:0:
92,163,134207,1,2,1:2:0:0:
124,343,134365,2,0,P|71:333|37:329,1,70,2|0,0:0|1:0,0:0:0:0:
7,163,134681,1,2,0:0:0:0:
125,246,134838,2,0,P|178:236|212:232,1,70,2|0,1:2|0:0,0:0:0:0:
278,183,135154,5,2,1:2:0:0:
226,317,135312,1,2,0:0:0:0:
193,150,135470,1,2,1:2:0:0:
309,271,135628,1,2,0:0:0:0:
358,127,135786,2,0,P|330:136|270:145,1,70,2|0,1:2|0:0,0:0:0:0:
330,296,136102,2,0,P|357:287|418:278,1,70,2|0,1:2|0:0,0:0:0:0:
492,197,136417,5,2,1:2:0:0:
358,90,136575,1,2,0:0:0:0:
464,99,136733,1,2,1:2:0:0:
397,191,136891,2,0,P|401:225|408:259,1,70,2|0,0:0|1:0,0:0:0:0:
370,344,137207,1,0,0:0:0:0:
248,302,137365,2,0,P|194:312|159:324,1,80.5000015354157,2|0,1:2|0:0,0:0:0:0:
37,215,137681,6,0,P|83:248|108:278,1,80.5000015354157,2|0,1:2|0:0,0:0:0:0:
211,139,137996,2,0,P|183:190|170:233,1,80.5000015354157,2|0,1:2|0:0,0:0:0:0:
59,95,138312,2,0,P|125:83|172:65,1,80.5000015354157,2|0,1:2|0:0,0:0:0:0:
274,215,138628,2,0,P|340:227|387:245,1,80.5000015354157,2|0,1:2|0:0,0:0:0:0:
504,142,138944,6,0,P|482:97|474:54,1,80.5000015354157,2|0,1:2|0:0,0:0:0:0:
321,131,139260,2,0,P|387:119|434:101,1,80.5000015354157,2|0,1:2|0:0,0:0:0:0:
417,273,139575,2,0,P|427:227|437:185,1,80.5000015354157,2|0,1:2|0:0,0:0:0:0:
233,136,139891,2,0,P|242:175|250:214,1,80.5000015354157,2|2,1:2|0:3,0:0:0:0:
186,333,140207,5,2,1:2:0:0:
130,245,140365,1,2,0:3:0:0:
268,300,140523,1,0,1:0:0:0:
97,366,140681,1,2,0:3:0:0:
233,206,140838,2,0,P|288:215|329:224,1,80.5000015354157,0|2,1:0|0:3,0:0:0:0:
424,299,141154,1,0,1:0:0:0:
75,368,141312,1,0,1:0:0:0:
75,368,141391,1,0,1:0:0:0:
75,368,141470,1,8,0:0:0:0:
243,209,142102,6,0,P|217:173|150:168,1,105,2|0,0:0|0:0,0:0:0:0:
248,89,142417,6,0,P|319:70|391:59,1,146.999995513916,2|0,0:0|0:0,0:0:0:0:
449,124,142733,6,0,P|421:176|420:234,1,97.9999970092774,12|0,1:2|0:0,0:0:0:0:
250,384,143049,2,0,P|256:329|267:269,1,97.9999970092774,10|0,0:0|0:0,0:0:0:0:
116,105,143365,1,2,1:2:0:0:
165,285,143523,1,0,1:0:0:0:
300,184,143681,2,0,P|249:174|181:165,1,97.9999970092774,10|0,0:0|0:0,0:0:0:0:
33,69,143996,5,2,1:2:0:0:
247,21,144153,1,0,1:0:0:0:
185,258,144312,2,0,B|64:254|111:315|0:304,1,195.999994018555,10|0,0:0|1:0,0:0:0:0:
100,162,144785,1,0,1:0:0:0:
153,359,144944,2,0,P|208:346|265:342,1,97.9999970092774,10|0,0:0|0:0,0:0:0:0:
448,240,145260,6,0,P|367:225|336:223,1,97.9999970092774,2|0,1:2|1:0,0:0:0:0:
159,94,145575,2,0,P|174:153|183:205,1,97.9999970092774,10|0,0:0|0:0,0:0:0:0:
340,324,145890,1,2,1:2:0:0:
380,121,146048,1,0,1:0:0:0:
255,264,146207,1,10,0:0:0:0:
481,163,146365,1,0,0:0:0:0:
258,5,146522,6,0,B|302:40|302:40|273:186,1,195.999994018555,2|8,1:2|0:0,0:0:0:0:
237,354,146996,1,0,0:0:0:0:
438,249,147154,2,0,P|389:258|331:274,1,97.9999970092774,2|0,1:2|1:0,0:0:0:0:
94,157,147470,2,0,P|143:166|201:182,1,97.9999970092774,10|0,0:2|0:0,0:0:0:0:
374,91,147785,5,2,1:2:0:0:
272,217,147943,1,0,1:0:0:0:
170,4,148102,2,0,P|197:55|185:111,1,97.9999970092774,8|0,0:0|0:0,0:0:0:0:
165,254,148417,1,2,1:2:0:0:
106,65,148574,1,0,1:0:0:0:
243,194,148733,2,0,P|299:183|342:179,1,97.9999970092774,10|0,0:0|0:0,0:0:0:0:
493,89,149048,5,2,1:2:0:0:
431,287,149206,1,0,1:0:0:0:
304,97,149364,1,10,0:0:0:0:
350,284,149522,1,0,0:0:0:0:
503,55,149680,2,0,P|435:67|398:76,1,97.9999970092774,2|0,1:2|1:0,0:0:0:0:
267,316,149996,2,0,P|217:305|167:299,1,97.9999970092774,10|0,0:2|0:0,0:0:0:0:
2,91,150311,5,2,1:2:0:0:
92,345,150469,1,0,1:0:0:0:
137,39,150628,1,10,0:0:0:0:
9,266,150786,1,0,0:0:0:0:
208,122,150944,2,0,P|158:130|110:142,1,97.9999970092774,2|0,1:2|1:0,0:0:0:0:
271,358,151260,2,0,P|240:295|249:254,1,97.9999970092774,10|0,0:0|0:0,0:0:0:0:
381,71,151574,5,2,1:2:0:0:
330,289,151732,1,0,1:0:0:0:
223,17,151891,1,8,0:0:0:0:
497,160,152049,2,0,P|383:175|301:199,1,195.999994018555,4|0,1:2|1:0,0:0:0:0:
147,330,152522,1,8,0:0:0:0:
147,330,152602,1,8,0:0:0:0:
147,330,152681,2,0,L|157:268,1,48.9999985046387,8|4,0:3|0:3,0:0:0:0:
169,53,152838,5,6,1:2:0:0:
275,294,152996,1,2,0:0:0:0:
316,26,153153,1,10,0:2:0:0:
203,216,153311,1,2,0:0:0:0:
82,16,153469,5,2,1:2:0:0:
118,262,153627,1,2,0:0:0:0:
243,120,153785,1,10,0:2:0:0:
208,355,153943,1,2,0:0:0:0:
105,137,154101,5,2,1:2:0:0:
297,300,154259,1,2,0:0:0:0:
342,65,154417,1,10,0:2:0:0:
134,319,154575,2,0,P|73:306|30:299,1,97.9999970092774,2|0,0:0|1:0,0:0:0:0:
281,212,154890,1,2,0:0:0:0:
218,370,155048,1,10,0:0:0:0:
182,179,155206,1,2,0:0:0:0:
371,336,155364,5,2,1:2:0:0:
439,110,155522,1,2,0:0:0:0:
212,266,155680,1,10,0:0:0:0:
501,336,155838,1,2,0:0:0:0:
316,120,155996,5,2,1:2:0:0:
368,368,156153,1,2,0:0:0:0:
467,113,156311,1,10,0:0:0:0:
300,274,156469,1,2,0:0:0:0:
324,31,156627,5,2,1:2:0:0:
404,234,156785,1,2,0:0:0:0:
465,13,156943,1,10,0:0:0:0:
298,244,157102,2,0,P|233:234|165:230,1,97.9999970092774,2|0,0:0|1:0,0:0:0:0:
88,96,157417,1,0,0:0:0:0:
40,326,157575,2,0,P|86:316|128:248,1,97.9999970092774,10|0,0:0|0:0,0:0:0:0:
11,13,157891,5,2,1:2:0:0:
45,231,158049,1,0,0:0:0:0:
194,22,158207,1,10,0:0:0:0:
147,303,158365,1,0,0:0:0:0:
65,80,158523,2,0,P|136:94|171:103,1,97.9999970092774,2|0,1:2|0:0,0:0:0:0:
324,261,158838,2,0,P|275:269|228:281,1,97.9999970092774,10|0,0:2|0:0,0:0:0:0:
476,110,159154,5,2,1:2:0:0:
439,354,159312,1,0,0:0:0:0:
303,68,159470,1,10,0:0:0:0:
348,292,159628,1,0,0:0:0:0:
483,20,159786,2,0,B|449:23|384:44,1,97.9999970092774,2|0,1:2|0:0,0:0:0:0:
284,234,160102,2,0,P|221:214|159:209,1,97.9999970092774,10|0,0:0|0:0,0:0:0:0:
41,8,160417,6,0,P|127:56|123:161,1,195.999994018555,2|8,1:2|0:0,0:0:0:0:
82,356,160890,1,2,0:0:0:0:
11,229,161049,2,0,P|59:237|115:252,1,97.9999970092774,0|2,1:2|0:0,0:0:0:0:
243,363,161365,2,0,P|290:350|338:342,1,97.9999970092774,8|2,0:2|0:0,0:0:0:0:
486,228,161681,6,0,P|459:286|453:322,1,97.9999970092774,2|0,1:2|0:0,0:0:0:0:
328,131,161996,1,8,0:0:0:0:
379,259,162154,1,2,0:0:0:0:
412,38,162312,1,4,1:2:0:0:
265,227,162470,1,8,0:0:0:0:
265,227,162549,1,8,0:0:0:0:
265,227,162628,2,0,L|150:205,1,97.9999970092774,8|8,0:0|0:0,0:0:0:0:
19,129,162944,6,0,P|87:124|135:75,1,140,6|0,1:2|1:0,0:0:0:0:
193,1,163417,1,2,0:0:0:0:
265,70,163575,2,0,P|332:59|411:57,1,140,2|0,1:2|1:0,0:0:0:0:
483,112,164049,1,2,0:0:0:0:
409,218,164207,6,0,P|402:183|393:149,1,70,2|0,1:2|0:0,0:0:0:0:
499,261,164523,2,0,P|485:322|481:354,1,70,2|0,1:2|0:0,0:0:0:0:
334,315,164838,2,0,P|369:306|403:301,1,70,2|0,1:2|0:0,0:0:0:0:
276,374,165154,2,0,P|237:364|194:360,1,70,2|0,1:2|0:0,0:0:0:0:
97,262,165470,6,0,P|121:309|128:337,1,70,2|0,1:2|0:0,0:0:0:0:
242,190,165786,2,0,P|203:225|187:249,1,70,2|0,1:2|0:0,0:0:0:0:
6,143,166102,2,0,P|54:165|87:188,1,70,2|0,1:2|0:0,0:0:0:0:
209,23,166417,2,0,P|218:57|224:101,1,70,2|0,1:2|0:0,0:0:0:0:
152,148,166733,6,0,P|138:70|121:3,1,140,2|0,1:2|1:2,0:0:0:0:
61,109,167207,1,0,0:0:0:0:
248,111,167365,2,0,P|232:175|228:197,1,70,2|0,1:2|0:0,0:0:0:0:
110,251,167680,2,0,P|120:284|127:318,1,70,2|0,1:2|0:0,0:0:0:0:
252,344,167996,6,0,B|325:342|287:393|398:383,1,140,2|0,1:2|1:0,0:0:0:0:
456,315,168470,1,0,0:0:0:0:
357,231,168628,2,0,P|362:272|373:317,2,70,2|2|0,1:2|0:3|1:0,0:0:0:0:
415,157,169101,1,2,0:3:0:0:
276,279,169259,6,0,P|239:271|190:263,1,70,2|2,1:2|0:3,0:0:0:0:
120,126,169575,2,0,P|126:160|132:196,1,70,2|2,1:2|0:3,0:0:0:0:
75,336,169891,1,2,1:2:0:0:
33,184,170049,1,2,0:3:0:0:
192,349,170207,1,2,1:2:0:0:
257,108,170365,1,2,0:3:0:0:
313,189,170523,6,0,B|350:195|381:220|381:220|417:204|453:204|453:204|476:238|523:247,1,224,2|0,0:0|0:0,0:0:0:0:
