osu file format v14

[General]
AudioFilename: audio.mp3
AudioLeadIn: 0
PreviewTime: 71304
Countdown: 0
SampleSet: Soft
StackLeniency: 0.4
Mode: 0
LetterboxInBreaks: 0
WidescreenStoryboard: 1

[Editor]
Bookmarks: 122541,132488
DistanceSpacing: 0.9
BeatDivisor: 4
GridSize: 4
TimelineZoom: 1

[Metadata]
Title:Tougetsu, Rinzen ni Kisu.
TitleUnicode:冬月、凜然に帰す。
Artist:Ren feat. Hatsune Miku
ArtistUnicode:廉 feat. 初音ミク
Creator:Log Off Now
Version:Normal
Source:
Tags:japanese pop jpop j-pop vocaloid tomobop 友達募集P tomodachi boshuup suimin
BeatmapID:2928441
BeatmapSetID:1418780

[Difficulty]
HPDrainRate:4
CircleSize:3
OverallDifficulty:4
ApproachRate:5
SliderMultiplier:1
SliderTickRate:1

[Events]
//Background and Video events
0,0,"ren-miku.jpg",0,0
//Break Periods
2,92225,100638
//Storyboard Layer 0 (Background)
//Storyboard Layer 1 (Fail)
//Storyboard Layer 2 (Pass)
//Storyboard Layer 3 (Foreground)
//Storyboard Layer 4 (Overlay)
//Storyboard Sound Samples

[TimingPoints]
1260,315.789473684211,4,2,1,55,1,0
8838,-100,4,2,1,55,0,0
8917,-100,4,2,1,25,0,0
10102,-100,4,2,1,5,0,0
10733,-100,4,2,1,15,0,0
11049,-100,4,2,1,30,0,0
11207,-90.9090909090909,4,2,1,50,0,0
11365,-90.9090909090909,4,2,2,70,0,0
11681,-90.9090909090909,4,2,1,70,0,0
31575,-100,4,2,1,70,0,0
31733,-100,4,2,1,60,0,0
40417,-100,4,2,1,60,0,0
41681,-100,4,2,1,60,0,0
51786,-100,4,2,3,55,0,0
61891,-100,4,2,1,55,0,0
70102,-100,4,2,1,55,0,0
71365,-100,4,2,1,35,0,0
71602,-100,4,2,1,5,0,0
71681,-100,4,2,1,55,0,0
71917,-100,4,2,1,5,0,0
71996,-90.9090909090909,4,2,2,80,0,1
72154,-90.9090909090909,4,2,1,80,0,1
92102,-100,4,2,1,80,0,0
101838,-100,4,2,1,40,0,0
102233,-100,4,2,1,5,0,0
102312,-100,4,2,1,50,0,0
121891,-100,4,2,1,55,0,0
122049,-100,4,2,1,5,0,0
122128,-100,4,2,1,55,0,0
122286,-100,4,2,1,5,0,0
122365,-100,4,2,1,45,0,0
132470,-100,4,2,1,65,0,0
137365,-100,4,2,1,65,0,0
142102,-100,4,2,1,65,0,0
142338,-100,4,2,1,5,0,0
142417,-100,4,2,1,65,0,0
142654,-100,4,2,1,5,0,0
142733,-90.9090909090909,4,2,2,85,0,1
142891,-90.9090909090909,4,2,1,85,0,1
162944,-100,4,2,1,55,0,0
170523,-100,4,2,1,55,0,0
170602,-100,4,2,1,25,0,0
171786,-100,4,2,1,5,0,0

[Colours]
Combo1 : 248,222,163
Combo2 : 5,211,228
Combo3 : 46,147,194
Combo4 : 247,176,244

[HitObjects]
82,105,1260,6,0,L|201:127,1,100,2|0,1:2|1:0,0:0:0:0:
241,189,1891,2,0,L|360:167,1,100,2|0,1:2|1:0,0:0:0:0:
406,110,2523,1,2,1:2:0:0:
406,110,2838,1,2,1:2:0:0:
479,161,3154,1,2,1:2:0:0:
479,161,3470,1,2,1:2:0:0:
426,234,3786,6,0,L|442:337,2,100,2|2|2,1:2|1:2|1:2,0:0:0:0:
341,203,4733,1,2,1:2:0:0:
280,269,5049,1,2,1:2:0:0:
146,147,5681,5,2,1:2:0:0:
207,81,5997,1,2,1:2:0:0:
138,23,6312,2,0,L|30:41,1,100,2|0,1:2|1:0,0:0:0:0:
22,128,6944,6,0,P|32:159|17:226,1,100,2|0,1:2|1:0,0:0:0:0:
57,310,7575,1,2,1:2:0:0:
57,310,7891,1,2,1:2:0:0:
142,275,8207,1,2,1:2:0:0:
142,275,8523,1,2,1:2:0:0:
214,328,8838,1,2,0:0:0:0:
480,142,11207,5,0,1:0:0:0:
480,142,11365,2,0,P|469:198|460:267,1,110.000003356934,12|8,1:2|0:0,0:0:0:0:
479,296,11838,2,0,P|414:308|361:330,1,110.000003356934,2|2,0:0|1:2,0:0:0:0:
339,360,12312,1,8,0:0:0:0:
274,285,12628,1,2,1:2:0:0:
210,362,12944,1,10,0:0:0:0:
210,362,13102,2,0,P|154:343|93:337,1,110.000003356934,2|2,0:0|1:2,0:0:0:0:
62,364,13575,1,8,0:0:0:0:
0,288,13891,6,0,L|20:178,1,110.000003356934,2|10,1:2|0:0,0:0:0:0:
67,165,14365,2,0,L|47:55,1,110.000003356934,2|2,0:0|1:2,0:0:0:0:
39,7,14838,1,8,0:0:0:0:
136,25,15154,2,0,P|192:14|247:10,1,110.000003356934,0|10,1:2|0:0,0:0:0:0:
284,39,15628,2,0,P|323:56|395:68,1,110.000003356934,2|2,0:0|1:2,0:0:0:0:
433,44,16102,1,10,0:0:0:0:
500,116,16417,5,2,1:2:0:0:
430,186,16733,1,10,0:0:0:0:
430,186,16891,2,0,P|367:166|309:160,1,110.000003356934,2|2,0:0|1:2,0:0:0:0:
279,183,17365,1,8,0:0:0:0:
210,111,17681,1,2,1:2:0:0:
119,150,17996,1,10,0:0:0:0:
119,150,18154,2,0,P|129:206|136:261,1,110.000003356934,2|2,0:0|1:2,0:0:0:0:
101,294,18628,1,8,0:0:0:0:
177,356,18944,6,0,L|290:336,1,110.000003356934,2|10,1:2|0:0,0:0:0:0:
319,300,19417,2,0,L|432:320,1,110.000003356934,2|2,0:0|1:2,0:0:0:0:
465,287,19891,1,10,0:0:0:0:
412,203,20207,2,0,L|347:214,2,55.0000016784668,2|2|10,1:2|1:2|2:0,0:0:0:0:
484,135,20838,1,2,1:2:0:0:
476,93,20996,1,2,1:2:0:0:
467,50,21154,1,12,0:0:0:0:
376,9,21470,6,0,P|344:29|259:50,1,110.000003356934,6|10,1:2|0:0,0:0:0:0:
241,85,21944,2,0,P|194:68|116:57,1,110.000003356934,2|2,0:0|1:2,0:0:0:0:
93,84,22417,1,8,0:0:0:0:
145,168,22733,1,2,1:2:0:0:
70,232,23049,1,10,0:0:0:0:
70,232,23207,2,0,P|87:289|100:346,1,110.000003356934,2|2,0:0|1:2,0:0:0:0:
130,376,23681,1,8,0:0:0:0:
208,316,23996,6,0,L|229:207,1,110.000003356934,2|8,1:2|0:0,0:0:0:0:
189,176,24470,2,0,L|168:67,1,110.000003356934,2|2,0:0|1:2,0:0:0:0:
197,27,24944,1,8,0:0:0:0:
284,72,25260,2,0,P|340:93|400:91,1,110.000003356934,0|10,1:2|0:0,0:0:0:0:
436,78,25733,2,0,P|474:114|492:170,1,110.000003356934,2|2,0:0|1:2,0:0:0:0:
467,211,26207,1,10,0:0:0:0:
508,300,26523,5,2,1:2:0:0:
427,356,26838,1,10,0:0:0:0:
427,356,26996,2,0,P|355:334|302:329,1,110.000003356934,2|2,0:0|1:2,0:0:0:0:
281,360,27470,1,8,0:0:0:0:
215,285,27786,1,2,1:2:0:0:
284,214,28102,1,10,0:0:0:0:
284,214,28260,2,0,P|361:223|413:238,1,110.000003356934,2|2,0:0|1:2,0:0:0:0:
430,199,28733,1,8,0:0:0:0:
395,106,29049,6,0,L|283:88,1,110.000003356934,2|10,1:2|0:0,0:0:0:0:
251,123,29523,2,0,L|139:138,1,110.000003356934,2|2,0:0|1:2,0:0:0:0:
105,103,29996,1,10,0:0:0:0:
49,185,30312,2,0,L|-11:174,2,55.0000016784668,2|2|10,1:2|1:2|2:0,0:0:0:0:
102,269,30944,2,0,L|156:259,1,55.0000016784668,2|2,1:2|1:2,0:0:0:0:
192,224,31260,2,0,L|246:233,1,55.0000016784668,8|2,0:0|1:2,0:0:0:0:
278,271,31575,5,6,1:2:0:0:
356,226,31891,1,2,1:2:0:0:
431,274,32207,1,2,1:2:0:0:
507,226,32523,1,2,1:2:0:0:
481,139,32838,1,2,1:2:0:0:
321,222,33470,6,0,P|330:269|338:334,1,100,2|2,1:2|1:2,0:0:0:0:
256,364,34102,2,0,P|201:345|142:338,1,100,2|2,1:2|1:2,0:0:0:0:
75,371,34733,1,2,1:2:0:0:
15,303,35049,1,2,1:2:0:0:
56,223,35365,1,2,1:2:0:0:
345,347,36470,5,2,0:0:0:0:
345,347,36628,2,0,P|359:293|375:242,1,100,2|2,1:2|1:2,0:0:0:0:
440,192,37260,2,0,P|426:138|410:87,1,100,2|2,1:2|1:2,0:0:0:0:
335,49,37891,1,2,1:2:0:0:
197,165,38523,5,2,1:2:0:0:
115,127,38838,1,2,1:2:0:0:
36,171,39154,1,2,1:2:0:0:
69,254,39470,1,2,1:2:0:0:
16,327,39786,1,0,1:0:0:0:
86,383,40102,2,0,L|157:371,1,50,0|0,1:0|1:0,0:0:0:0:
179,364,40417,1,8,0:0:0:0:
266,108,41365,6,0,L|337:120,1,50,8|2,0:0|0:0,0:0:0:0:
348,147,41681,2,0,L|455:134,1,100,6|10,1:2|0:2,0:0:0:0:
505,203,42312,2,0,P|490:247|509:310,1,100,2|2,1:2|0:0,0:0:0:0:
474,334,42786,1,8,0:0:0:0:
474,334,42944,2,0,P|415:323|366:319,1,100,2|8,0:0|0:0,0:0:0:0:
297,273,43575,1,2,1:2:0:0:
236,339,43891,1,10,0:0:0:0:
155,297,44207,6,0,P|92:306|46:312,2,100,2|10|2,1:2|0:0|1:2,0:0:0:0:
210,226,45154,2,0,L|202:174,1,50,2|8,0:0|0:0,0:0:0:0:
163,153,45470,2,0,L|180:49,1,100,2|8,0:0|0:0,0:0:0:0:
105,2,46102,1,0,1:2:0:0:
31,53,46417,2,0,L|41:109,1,50,8|2,0:0|0:0,0:0:0:0:
49,146,46733,6,0,P|33:202|28:247,1,100,2|10,1:2|0:2,0:0:0:0:
74,321,47365,1,2,1:2:0:0:
153,278,47681,2,0,L|216:288,1,50,2|8,0:0|0:0,0:0:0:0:
232,318,47996,2,0,P|302:309|352:306,1,100,2|10,0:0|0:0,0:0:0:0:
407,356,48628,1,2,1:2:0:0:
484,310,48944,1,10,0:0:0:0:
435,233,49260,6,0,P|424:190|431:130,1,100,2|8,1:2|0:0,0:0:0:0:
462,51,49891,2,0,L|523:60,2,50,0|0|8,1:2|1:0|0:0,0:0:0:0:
425,24,50365,2,0,L|317:37,1,100,0|0,1:0|1:0,0:0:0:0:
297,71,50838,1,8,0:0:0:0:
221,21,51154,1,0,1:0:0:0:
145,70,51470,5,8,0:0:0:0:
155,113,51628,1,0,1:0:0:0:
165,156,51786,2,0,P|176:211|182:268,1,100,6|0,1:2|1:0,0:0:0:0:
138,334,52417,2,0,P|69:318|24:318,1,100,2|0,1:2|1:0,0:0:0:0:
1,235,53049,5,2,1:2:0:0:
1,235,53365,1,2,1:2:0:0:
61,168,53681,1,2,1:2:0:0:
61,168,53996,1,2,1:2:0:0:
138,213,54312,2,0,P|186:202|237:197,1,100,2|2,1:2|1:2,0:0:0:0:
311,247,54944,2,0,P|342:258|415:271,1,100,2|2,1:2|1:2,0:0:0:0:
482,220,55575,1,2,1:2:0:0:
320,139,56207,6,0,P|255:150|220:158,2,100,2|2|2,1:2|1:2|1:2,0:0:0:0:
473,45,57470,6,0,P|413:31|369:15,1,100,2|2,1:2|1:2,0:0:0:0:
287,4,58102,2,0,P|227:18|183:34,1,100,2|2,1:2|1:2,0:0:0:0:
134,100,58733,1,2,1:2:0:0:
171,181,59049,1,2,1:2:0:0:
107,245,59365,6,0,P|113:299|119:356,2,100,2|2|2,1:2|1:2|1:2,0:0:0:0:
33,192,60312,1,2,1:2:0:0:
94,126,60628,2,0,B|208:115|164:182|305:170,1,200,2|0,1:2|0:0,0:0:0:0:
449,99,61891,6,0,P|442:153|436:207,1,100,6|0,1:2|1:0,0:0:0:0:
359,245,62523,2,0,P|366:299|372:353,1,100,2|0,1:2|1:0,0:0:0:0:
287,377,63154,1,2,1:2:0:0:
287,377,63470,1,2,1:2:0:0:
216,320,63786,1,2,1:2:0:0:
216,320,64102,1,2,1:2:0:0:
133,355,64417,6,0,P|69:345|25:341,1,100,2|2,1:2|1:2,0:0:0:0:
6,255,65049,2,0,P|25:225|23:150,1,100,2|2,1:2|1:2,0:0:0:0:
2,75,65681,1,2,1:2:0:0:
169,9,66312,5,2,1:2:0:0:
139,94,66628,1,2,1:2:0:0:
197,162,66944,2,0,L|306:144,1,100,2|0,1:2|1:0,0:0:0:0:
352,75,67575,6,0,L|450:91,1,100,2|0,1:2|1:2,0:0:0:0:
506,162,68207,1,2,1:2:0:0:
506,162,68523,1,2,1:2:0:0:
443,226,68838,1,2,1:2:0:0:
355,206,69154,1,2,1:2:0:0:
282,260,69470,6,0,P|286:318|288:366,2,100,2|0|0,1:2|1:3|1:3,0:0:0:0:
210,205,70417,2,0,L|147:215,1,50,0|0,1:0|1:0,0:0:0:0:
129,246,70733,1,8,0:0:0:0:
38,90,71365,1,2,0:0:0:0:
123,61,71681,1,2,0:0:0:0:
188,122,71996,6,0,L|172:242,1,110.000003356934,12|10,1:2|0:0,0:0:0:0:
235,308,72628,2,0,L|244:380,2,55.0000016784668,2|0|10,1:2|1:0|0:0,0:0:0:0:
306,241,73260,2,0,L|317:168,1,55.0000016784668,2|0,1:2|1:0,0:0:0:0:
325,138,73575,2,0,P|367:167|433:170,1,110.000003356934,10|0,0:0|1:0,0:0:0:0:
490,246,74207,1,10,0:0:0:0:
431,325,74523,6,0,L|317:309,1,110.000003356934,2|10,1:2|0:0,0:0:0:0:
237,360,75154,1,2,1:2:0:0:
168,288,75470,1,10,0:0:0:0:
80,334,75786,2,0,P|67:279|31:169,1,165.000005035401,2|0,1:2|0:0,0:0:0:0:
9,132,76417,1,2,1:2:0:0:
76,59,76733,1,10,0:0:0:0:
152,121,77049,6,0,L|262:106,1,110.000003356934,2|8,1:2|0:0,0:0:0:0:
337,170,77681,1,2,1:2:0:0:
410,103,77996,1,10,0:0:0:0:
354,21,78312,2,0,P|298:14|234:-4,1,110.000003356934,2|10,1:2|0:0,0:0:0:0:
153,34,78944,2,0,P|172:76|183:140,1,110.000003356934,2|10,1:2|0:0,0:0:0:0:
117,212,79575,5,2,1:2:0:0:
187,281,79891,1,10,0:0:0:0:
126,359,80207,2,0,L|13:344,2,110.000003356934,2|10|2,1:2|0:0|1:2,0:0:0:0:
227,380,81154,1,8,0:0:0:0:
227,380,81312,2,0,L|340:365,1,110.000003356934,8|0,0:0|1:0,0:0:0:0:
374,333,81786,1,12,0:0:0:0:
305,261,82102,6,0,L|234:272,2,55.0000016784668,6|2|10,1:2|0:0|0:2,0:0:0:0:
353,174,82733,1,2,1:2:0:0:
391,184,82891,1,2,0:0:0:0:
429,193,83049,1,10,0:2:0:0:
458,98,83365,2,0,L|529:87,2,55.0000016784668,2|2|10,1:2|0:0|0:2,0:0:0:0:
420,66,83838,2,0,L|306:43,1,110.000003356934,2|2,0:0|0:0,0:0:0:0:
275,78,84312,1,10,0:0:0:0:
179,53,84628,6,0,L|189:-6,2,55.0000016784668,2|2|10,1:2|0:0|0:0,0:0:0:0:
107,122,85260,1,2,1:2:0:0:
117,160,85418,1,2,0:0:0:0:
126,198,85576,1,10,0:0:0:0:
192,270,85891,2,0,L|181:329,2,55.0000016784668,2|2|10,1:2|0:0|0:0,0:0:0:0:
236,248,86365,2,0,P|284:274|353:275,1,110.000003356934,2|0,0:0|0:0,0:0:0:0:
376,246,86838,1,10,0:0:0:0:
465,288,87154,6,0,L|484:176,2,110.000003356934,2|10|2,1:2|0:2|1:2,0:0:0:0:
395,359,88102,1,10,0:0:0:0:
317,298,88417,1,2,1:2:0:0:
234,352,88733,1,10,0:0:0:0:
152,295,89049,2,0,P|167:232|171:169,1,110.000003356934,2|10,1:2|0:0,0:0:0:0:
91,127,89681,5,2,1:2:0:0:
146,46,89996,1,8,0:0:0:0:
146,46,90154,2,0,P|210:63|264:70,1,110.000003356934,2|2,0:0|0:0,0:0:0:0:
300,51,90628,1,8,0:0:0:0:
375,115,90944,1,2,1:2:0:0:
309,189,91260,2,0,L|301:253,1,55.0000016784668,12|2,0:0|1:2,0:0:0:0:
299,293,91575,1,8,0:0:0:0:
374,357,91891,1,8,0:0:0:0:
125,268,101838,5,2,0:3:0:0:
125,268,101996,1,2,0:3:0:0:
185,334,102312,6,0,P|231:325|303:316,1,100,4|2,1:2|0:0,0:0:0:0:
323,350,102786,1,0,1:0:0:0:
323,350,102944,1,8,0:0:0:0:
386,285,103260,2,0,P|373:245|361:176,1,100,2|2,0:0|0:0,0:0:0:0:
411,112,103891,1,0,1:2:0:0:
335,62,104207,2,0,P|259:74|233:79,1,100,8|2,0:0|0:0,0:0:0:0:
185,152,104838,6,0,P|135:143|86:135,1,100,0|2,1:2|0:0,0:0:0:0:
57,100,105312,1,0,1:0:0:0:
57,100,105470,1,8,0:0:0:0:
110,27,105786,1,2,0:0:0:0:
195,54,106102,2,0,P|239:61|299:40,1,100,2|0,0:0|1:0,0:0:0:0:
373,8,106733,1,8,0:0:0:0:
440,68,107049,1,2,0:0:0:0:
385,139,107365,1,0,1:2:0:0:
462,249,107838,5,0,1:0:0:0:
462,249,107996,2,0,P|413:265|363:286,1,100,8|2,0:0|0:0,0:0:0:0:
309,352,108628,1,2,0:0:0:0:
234,301,108944,1,0,1:2:0:0:
164,358,109260,2,0,P|110:345|60:338,1,100,8|2,0:0|0:0,0:0:0:0:
16,263,109891,6,0,P|41:223|49:161,1,100,0|2,1:2|0:0,0:0:0:0:
35,128,110365,1,0,1:0:0:0:
35,128,110523,1,8,0:0:0:0:
99,66,110838,1,2,0:0:0:0:
166,125,111154,2,0,P|207:140|277:143,1,100,2|0,0:0|1:0,0:0:0:0:
299,117,111628,1,2,0:3:0:0:
299,117,111786,2,0,L|290:48,2,50,8|2|2,0:0|0:0|0:3,0:0:0:0:
365,177,112417,6,0,L|341:337,1,150,4|0,1:2|3:0,0:0:0:0:
373,358,113049,1,8,0:0:0:0:
373,358,113207,2,0,P|411:342|475:344,1,100,0|0,1:0|1:0,0:0:0:0:
496,256,113838,2,0,P|479:210|475:150,1,100,0|0,1:0|1:0,0:0:0:0:
500,122,114312,1,8,0:0:0:0:
335,48,114944,6,0,P|260:57|186:69,1,150,0|0,1:0|3:0,0:0:0:0:
155,44,115575,1,8,0:0:0:0:
155,44,115733,1,0,1:0:0:0:
96,112,116049,2,0,P|42:95|-11:89,2,100,0|0|0,1:0|1:0|1:0,0:0:0:0:
116,152,116838,1,8,0:0:0:0:
57,220,117154,2,0,L|66:280,1,50,0|8,1:0|0:0,0:0:0:0:
68,314,117470,6,0,B|151:311|118:350|215:347,1,150,0|0,1:2|3:0,0:0:0:0:
243,315,118102,1,8,0:0:0:0:
243,315,118260,2,0,P|293:321|352:334,1,100,0|0,1:0|1:0,0:0:0:0:
421,288,118891,2,0,P|404:242|421:177,1,100,0|0,1:0|1:0,0:0:0:0:
442,158,119365,1,8,0:0:0:0:
264,128,119997,6,0,P|275:202|285:276,1,150,0|0,1:0|3:0,0:0:0:0:
267,319,120628,1,8,0:0:0:0:
267,319,120786,2,0,P|214:302|161:299,1,100,0|0,1:0|1:0,0:0:0:0:
80,289,121417,2,0,P|71:228|57:189,1,100,0|0,1:0|1:0,0:0:0:0:
83,154,121891,2,0,L|169:173,2,75,8|8|8,0:0|0:0|0:0,0:0:0:0:
62,113,122523,5,6,0:0:0:0:
117,42,122838,1,0,0:0:0:0:
200,76,123154,2,0,P|249:89|309:60,1,100,2|0,0:0|0:0,0:0:0:0:
362,14,123786,1,2,0:0:0:0:
431,71,124102,1,2,0:0:0:0:
305,199,124733,5,2,0:0:0:0:
346,278,125049,2,0,P|392:268|448:264,1,100,2|2,0:0|0:0,0:0:0:0:
504,196,125681,1,0,0:0:0:0:
450,123,125996,1,2,0:0:0:0:
492,43,126312,1,2,0:0:0:0:
322,102,126944,6,0,P|311:37|303:2,2,100,2|2|2,0:0|0:0|0:0,0:0:0:0:
290,279,128207,6,0,P|242:262|193:252,1,100,2|2,0:0|0:0,0:0:0:0:
119,303,128839,1,2,0:0:0:0:
43,254,129155,1,2,0:0:0:0:
89,177,129471,2,0,P|105:129|93:77,1,100,2|0,0:0|0:0,0:0:0:0:
158,17,130102,1,2,0:0:0:0:
158,17,130417,1,0,0:0:0:0:
217,84,130733,1,2,0:0:0:0:
217,84,131049,1,2,0:0:0:0:
302,54,131365,1,2,0:0:0:0:
116,249,132470,5,2,0:0:0:0:
116,249,132628,2,0,L|47:236,2,50,6|2|2,1:2|0:0|1:2,0:0:0:0:
170,321,133260,2,0,L|157:390,2,50,2|2|2,1:2|0:0|1:2,0:0:0:0:
240,264,133891,2,0,L|227:194,2,50,2|2|2,1:2|0:0|1:2,0:0:0:0:
276,291,134365,2,0,P|324:274|387:280,1,100,2|2,0:0|0:0,0:0:0:0:
408,302,134838,1,2,1:2:0:0:
458,227,135154,6,0,L|527:214,2,50,2|2|2,1:2|0:0|1:2,0:0:0:0:
399,158,135786,2,0,L|330:145,2,50,2|0|2,1:2|0:0|1:2,0:0:0:0:
461,93,136417,2,0,L|530:80,2,50,2|2|2,1:2|0:0|1:2,0:0:0:0:
428,61,136891,2,0,L|314:38,1,100,2|0,0:0|0:0,0:0:0:0:
293,68,137365,1,2,1:2:0:0:
214,23,137681,5,2,1:2:0:0:
214,23,137996,1,2,1:2:0:0:
140,75,138312,1,2,1:2:0:0:
188,151,138628,1,2,1:2:0:0:
120,211,138944,5,2,1:2:0:0:
120,211,139260,1,2,1:2:0:0:
32,192,139575,1,2,1:2:0:0:
5,277,139891,2,0,L|14:333,1,50,2|2,1:2|0:3,0:0:0:0:
39,362,140207,6,0,P|77:339|141:337,1,100,2|0,1:2|1:0,0:0:0:0:
202,279,140838,1,0,1:0:0:0:
264,344,141154,1,0,1:0:0:0:
302,335,141312,1,0,1:0:0:0:
340,325,141470,1,8,0:0:0:0:
405,157,142102,1,2,0:0:0:0:
332,103,142417,1,2,0:0:0:0:
259,157,142733,6,0,L|274:282,1,110.000003356934,12|10,1:2|0:0,0:0:0:0:
184,312,143365,2,0,L|175:384,2,55.0000016784668,2|0|10,1:2|1:0|0:0,0:0:0:0:
124,232,143996,2,0,L|64:246,1,55.0000016784668,2|0,1:2|1:0,0:0:0:0:
21,256,144312,2,0,P|35:193|15:140,1,110.000003356934,10|0,0:0|1:0,0:0:0:0:
83,73,144944,1,10,0:0:0:0:
164,130,145260,6,0,P|215:138|276:103,1,110.000003356934,2|10,1:2|0:0,0:0:0:0:
335,42,145891,1,2,1:2:0:0:
423,87,146207,1,10,0:0:0:0:
363,166,146523,2,0,B|333:211|333:211|359:328,1,165.000005035401,2|0,1:2|0:0,0:0:0:0:
328,359,147154,1,2,1:2:0:0:
244,306,147470,1,10,0:2:0:0:
166,367,147786,6,0,L|56:352,1,110.000003356934,2|8,1:2|0:0,0:0:0:0:
2,268,148418,1,2,1:2:0:0:
52,182,148733,1,10,0:0:0:0:
125,247,149049,2,0,P|176:261|242:232,1,110.000003356934,2|10,1:2|0:0,0:0:0:0:
296,169,149681,2,0,P|346:155|412:184,1,110.000003356934,2|10,1:2|0:2,0:0:0:0:
483,120,150312,5,2,1:2:0:0:
434,33,150628,1,10,0:0:0:0:
340,64,150944,1,2,1:2:0:0:
255,12,151260,1,10,0:0:0:0:
171,65,151575,6,0,L|180:132,1,55.0000016784668,2|0,1:2|1:0,0:0:0:0:
215,151,151891,1,8,0:0:0:0:
215,151,152049,1,4,1:2:0:0:
141,217,152365,1,0,1:0:0:0:
141,217,152523,2,0,L|150:284,1,55.0000016784668,8|8,0:0|0:3,0:0:0:0:
181,308,152838,6,0,L|172:375,2,55.0000016784668,6|2|10,1:2|0:0|0:2,0:0:0:0:
272,269,153470,1,2,1:2:0:0:
310,279,153628,1,2,0:0:0:0:
348,288,153786,1,10,0:2:0:0:
437,330,154102,2,0,L|448:401,2,55.0000016784668,2|2|10,1:2|0:0|0:2,0:0:0:0:
479,304,154575,2,0,L|461:173,1,110.000003356934,2|2,0:0|0:0,0:0:0:0:
492,154,155049,1,10,0:0:0:0:
413,93,155365,6,0,L|423:34,2,55.0000016784668,2|2|10,1:2|0:0|0:0,0:0:0:0:
337,157,155997,1,2,1:2:0:0:
299,167,156155,1,2,0:0:0:0:
261,176,156313,1,10,0:0:0:0:
171,134,156628,2,0,L|160:75,2,55.0000016784668,2|2|10,1:2|0:0|0:0,0:0:0:0:
141,173,157102,2,0,L|165:306,1,110.000003356934,2|0,0:0|0:0,0:0:0:0:
201,308,157575,1,10,0:0:0:0:
129,376,157891,6,0,P|80:357|9:345,1,110.000003356934,2|10,1:2|0:0,0:0:0:0:
55,251,158523,1,2,1:2:0:0:
16,159,158839,1,10,0:2:0:0:
90,93,159154,2,0,P|144:117|197:111,1,110.000003356934,2|10,1:2|0:0,0:0:0:0:
266,45,159785,1,2,1:2:0:0:
336,114,160101,1,10,0:0:0:0:
431,86,160417,6,0,P|425:134|417:204,1,110.000003356934,2|8,1:2|0:0,0:0:0:0:
382,230,160891,2,0,P|388:278|396:348,1,110.000003356934,2|2,0:0|0:0,0:0:0:0:
363,378,161365,1,8,0:2:0:0:
278,326,161681,1,2,1:2:0:0:
189,370,161996,1,8,0:0:0:0:
112,307,162312,1,4,1:2:0:0:
112,307,162470,2,0,L|47:321,2,55.0000016784668,8|8|8,0:0|0:0|0:0,0:0:0:0:
136,268,162944,6,0,P|125:219|149:155,1,100,6|0,1:2|1:0,0:0:0:0:
208,116,163575,2,0,P|255:137|312:134,1,100,2|0,1:2|1:0,0:0:0:0:
378,85,164207,1,2,1:2:0:0:
378,85,164522,1,2,1:2:0:0:
453,144,164838,1,2,1:2:0:0:
453,144,165154,1,2,1:2:0:0:
401,217,165470,6,0,L|417:320,2,100,2|2|2,1:2|1:2|1:2,0:0:0:0:
321,175,166417,1,2,1:2:0:0:
246,225,166733,1,2,1:2:0:0:
91,133,167365,5,2,1:2:0:0:
26,195,167681,1,2,1:2:0:0:
51,281,167996,2,0,L|162:293,1,100,2|0,1:2|1:0,0:0:0:0:
220,234,168628,6,0,P|203:189|225:136,1,100,2|0,1:2|1:0,0:0:0:0:
296,93,169259,1,2,1:2:0:0:
296,93,169575,1,2,1:2:0:0:
369,153,169891,1,2,1:2:0:0:
369,153,170207,1,2,1:2:0:0:
451,117,170522,1,2,0:0:0:0:
256,192,170681,12,0,171786,0:0:0:0:
